osu file format v14

[General]
AudioFilename: audio.mp3
AudioLeadIn: 0
PreviewTime: -1
Countdown: 1
SampleSet: None
StackLeniency: 0.7
Mode: 3
LetterboxInBreaks: 0
SpecialStyle: 0
WidescreenStoryboard: 0

[Editor]
DistanceSpacing: 1.3
BeatDivisor: 8
GridSize: 4
TimelineZoom: 1

[Metadata]
Title:Routing
TitleUnicode:Routing
Artist:Camellia
ArtistUnicode:かめりあ
Creator:Chronocide
Version:Optimized Dump State Routing Protocol
Source:Beatmania IIDX 23 copula
Tags:soundtrack jazzy electro copula
BeatmapID:1552385
BeatmapSetID:735374

[Difficulty]
HPDrainRate:8
CircleSize:4
OverallDifficulty:8
ApproachRate:5
SliderMultiplier:1.4
SliderTickRate:1

[Events]
//Background and Video events
0,0,"Routing.jpg",0,0
//Break Periods
//Storyboard Layer 0 (Background)
//Storyboard Layer 1 (Fail)
//Storyboard Layer 2 (Pass)
//Storyboard Layer 3 (Foreground)
//Storyboard Sound Samples

[TimingPoints]
1116,416.666666666667,4,1,0,30,1,0

[HitObjects]
448,192,1116,5,0,0:0:0:0:
320,192,1116,1,0,0:0:0:0:
64,192,1532,1,0,0:0:0:0:
320,192,1636,1,0,0:0:0:0:
192,192,1741,1,0,0:0:0:0:
320,192,1845,1,0,0:0:0:0:
448,192,1845,1,0,0:0:0:0:
64,192,2157,1,0,0:0:0:0:
320,192,2157,1,0,0:0:0:0:
192,192,2366,1,0,0:0:0:0:
448,192,2366,1,0,0:0:0:0:
64,192,2366,1,0,0:0:0:0:
320,192,2678,1,0,0:0:0:0:
448,192,2678,1,0,0:0:0:0:
64,192,2678,1,0,0:0:0:0:
192,192,2991,1,0,0:0:0:0:
448,192,3199,1,0,0:0:0:0:
192,192,3303,1,0,0:0:0:0:
320,192,3407,1,0,0:0:0:0:
64,192,3511,1,0,0:0:0:0:
192,192,3511,1,0,0:0:0:0:
448,192,3616,1,0,0:0:0:0:
320,192,3720,1,0,0:0:0:0:
192,192,3720,1,0,0:0:0:0:
64,192,3720,1,0,0:0:0:0:
192,192,4032,1,0,0:0:0:0:
320,192,4032,1,0,0:0:0:0:
448,192,4032,1,0,0:0:0:0:
64,192,4449,1,0,0:0:0:0:
192,192,4449,1,0,0:0:0:0:
448,192,4449,1,0,0:0:0:0:
320,192,4761,1,0,0:0:0:0:
64,192,4866,1,0,0:0:0:0:
448,192,4970,1,0,0:0:0:0:
320,192,5074,1,0,0:0:0:0:
64,192,5074,1,0,0:0:0:0:
192,192,5178,1,0,0:0:0:0:
448,192,5178,1,0,0:0:0:0:
320,192,5386,1,0,0:0:0:0:
448,192,5386,1,0,0:0:0:0:
192,192,5491,1,0,0:0:0:0:
64,192,5491,1,0,0:0:0:0:
448,192,5699,1,0,0:0:0:0:
320,192,5699,1,0,0:0:0:0:
64,192,5699,1,0,0:0:0:0:
64,192,6011,1,0,0:0:0:0:
192,192,6011,1,0,0:0:0:0:
448,192,6011,1,0,0:0:0:0:
320,192,6254,1,0,0:0:0:0:
448,192,6393,1,0,0:0:0:0:
320,192,6463,1,0,0:0:0:0:
192,192,6532,1,0,0:0:0:0:
64,192,6602,1,0,0:0:0:0:
448,192,6671,1,0,0:0:0:0:
192,192,6741,1,0,0:0:0:0:
320,192,6810,1,0,0:0:0:0:
448,192,6879,1,0,0:0:0:0:
192,192,6949,1,0,0:0:0:0:
64,192,6949,1,0,0:0:0:0:
320,192,7053,1,0,0:0:0:0:
192,192,7157,1,0,0:0:0:0:
64,192,7261,1,0,0:0:0:0:
192,192,7366,1,0,0:0:0:0:
448,192,7366,1,0,0:0:0:0:
320,192,7782,1,0,0:0:0:0:
448,192,7782,1,0,0:0:0:0:
64,192,7782,1,0,0:0:0:0:
192,192,8095,1,0,0:0:0:0:
448,192,8199,1,0,0:0:0:0:
64,192,8303,1,0,0:0:0:0:
320,192,8407,1,0,0:0:0:0:
192,192,8511,1,0,0:0:0:0:
448,192,8511,1,0,0:0:0:0:
64,192,8824,1,0,0:0:0:0:
192,192,8824,1,0,0:0:0:0:
64,192,9032,1,0,0:0:0:0:
320,192,9032,1,0,0:0:0:0:
448,192,9032,1,0,0:0:0:0:
192,192,9345,1,0,0:0:0:0:
64,192,9345,1,0,0:0:0:0:
448,192,9345,1,0,0:0:0:0:
448,192,9761,1,0,0:0:0:0:
192,192,9866,1,0,0:0:0:0:
320,192,9970,1,0,0:0:0:0:
64,192,10074,1,0,0:0:0:0:
192,192,10178,1,0,0:0:0:0:
448,192,10178,1,0,0:0:0:0:
320,192,10386,1,0,0:0:0:0:
64,192,10386,1,0,0:0:0:0:
192,192,10386,1,0,0:0:0:0:
192,192,10699,1,0,0:0:0:0:
320,192,10699,1,0,0:0:0:0:
448,192,10699,1,0,0:0:0:0:
64,192,11116,1,0,0:0:0:0:
192,192,11116,1,0,0:0:0:0:
448,192,11116,1,0,0:0:0:0:
320,192,11324,1,0,0:0:0:0:
192,192,11428,1,0,0:0:0:0:
448,192,11532,1,0,0:0:0:0:
64,192,11636,1,0,0:0:0:0:
320,192,11741,1,0,0:0:0:0:
192,192,11845,1,0,0:0:0:0:
448,192,11845,1,0,0:0:0:0:
320,192,11949,1,0,0:0:0:0:
64,192,11949,1,0,0:0:0:0:
192,192,12053,1,0,0:0:0:0:
320,192,12157,1,0,0:0:0:0:
448,192,12261,1,0,0:0:0:0:
320,192,12366,1,0,0:0:0:0:
192,192,12366,1,0,0:0:0:0:
64,192,12366,1,0,0:0:0:0:
448,192,12470,1,0,0:0:0:0:
64,192,12574,1,0,0:0:0:0:
320,192,12678,1,0,0:0:0:0:
192,192,12678,1,0,0:0:0:0:
448,192,12678,1,0,0:0:0:0:
448,192,13199,128,0,13303:0:0:0:0:
448,192,13407,128,0,13511:0:0:0:0:
320,192,13407,128,0,13511:0:0:0:0:
448,192,13616,128,0,13720:0:0:0:0:
192,192,13616,128,0,13720:0:0:0:0:
64,192,13824,128,0,13928:0:0:0:0:
320,192,13824,128,0,13928:0:0:0:0:
64,192,14032,1,0,0:0:0:0:
192,192,14032,1,0,0:0:0:0:
320,192,14032,1,0,0:0:0:0:
448,192,14032,1,0,0:0:0:0:
64,192,14449,1,0,0:0:0:0:
192,192,14449,1,0,0:0:0:0:
448,192,14449,1,0,0:0:0:0:
192,192,14657,1,0,0:0:0:0:
320,192,14657,1,0,0:0:0:0:
64,192,14866,1,0,0:0:0:0:
320,192,14866,1,0,0:0:0:0:
448,192,14866,1,0,0:0:0:0:
192,192,15074,1,0,0:0:0:0:
64,192,15178,1,0,0:0:0:0:
320,192,15178,1,0,0:0:0:0:
448,192,15282,1,0,0:0:0:0:
192,192,15282,1,0,0:0:0:0:
192,192,15386,1,0,0:0:0:0:
320,192,15386,1,0,0:0:0:0:
64,192,15491,128,0,15595:0:0:0:0:
320,192,15491,128,0,15595:0:0:0:0:
448,192,15699,1,0,0:0:0:0:
64,192,15699,1,0,0:0:0:0:
192,192,15699,1,0,0:0:0:0:
320,192,15907,1,0,0:0:0:0:
64,192,16011,1,0,0:0:0:0:
448,192,16011,1,0,0:0:0:0:
320,192,16116,1,0,0:0:0:0:
192,192,16116,1,0,0:0:0:0:
192,192,16220,1,0,0:0:0:0:
448,192,16220,1,0,0:0:0:0:
320,192,16324,128,0,16428:0:0:0:0:
64,192,16324,128,0,16428:0:0:0:0:
320,192,16532,1,0,0:0:0:0:
64,192,16671,1,0,0:0:0:0:
192,192,16741,1,0,0:0:0:0:
320,192,16810,1,0,0:0:0:0:
448,192,16879,1,0,0:0:0:0:
192,192,16949,1,0,0:0:0:0:
64,192,16949,1,0,0:0:0:0:
320,192,17157,1,0,0:0:0:0:
448,192,17261,1,0,0:0:0:0:
192,192,17261,1,0,0:0:0:0:
64,192,17366,1,0,0:0:0:0:
320,192,17366,1,0,0:0:0:0:
448,192,17470,1,0,0:0:0:0:
64,192,17470,1,0,0:0:0:0:
320,192,17574,1,0,0:0:0:0:
192,192,17678,1,0,0:0:0:0:
448,192,17678,1,0,0:0:0:0:
64,192,17782,1,0,0:0:0:0:
320,192,17782,1,0,0:0:0:0:
192,192,17886,1,0,0:0:0:0:
320,192,17991,1,0,0:0:0:0:
448,192,17991,1,0,0:0:0:0:
64,192,18199,1,0,0:0:0:0:
192,192,18199,1,0,0:0:0:0:
448,192,18199,1,0,0:0:0:0:
320,192,18407,1,0,0:0:0:0:
192,192,18511,1,0,0:0:0:0:
320,192,18616,1,0,0:0:0:0:
448,192,18616,1,0,0:0:0:0:
64,192,18616,1,0,0:0:0:0:
320,192,18824,1,0,0:0:0:0:
192,192,18893,1,0,0:0:0:0:
320,192,18963,1,0,0:0:0:0:
192,192,19032,1,0,0:0:0:0:
64,192,19032,1,0,0:0:0:0:
448,192,19032,1,0,0:0:0:0:
448,192,19241,1,0,0:0:0:0:
320,192,19345,1,0,0:0:0:0:
64,192,19345,1,0,0:0:0:0:
192,192,19449,1,0,0:0:0:0:
448,192,19449,1,0,0:0:0:0:
320,192,19553,1,0,0:0:0:0:
64,192,19657,1,0,0:0:0:0:
192,192,19709,1,0,0:0:0:0:
320,192,19761,1,0,0:0:0:0:
448,192,19813,1,0,0:0:0:0:
192,192,19866,1,0,0:0:0:0:
64,192,19866,1,0,0:0:0:0:
448,192,19918,1,0,0:0:0:0:
320,192,19970,1,0,0:0:0:0:
192,192,20022,1,0,0:0:0:0:
64,192,20074,1,0,0:0:0:0:
448,192,20126,1,0,0:0:0:0:
320,192,20178,1,0,0:0:0:0:
192,192,20230,1,0,0:0:0:0:
64,192,20282,1,0,0:0:0:0:
448,192,20282,1,0,0:0:0:0:
192,192,20491,1,0,0:0:0:0:
64,192,20699,1,0,0:0:0:0:
192,192,20699,1,0,0:0:0:0:
320,192,20699,1,0,0:0:0:0:
64,192,20907,1,0,0:0:0:0:
320,192,20907,1,0,0:0:0:0:
192,192,21011,1,0,0:0:0:0:
320,192,21011,1,0,0:0:0:0:
448,192,21011,1,0,0:0:0:0:
320,192,21220,1,0,0:0:0:0:
448,192,21220,1,0,0:0:0:0:
64,192,21272,1,0,0:0:0:0:
192,192,21324,1,0,0:0:0:0:
320,192,21376,1,0,0:0:0:0:
448,192,21428,1,0,0:0:0:0:
64,192,21480,1,0,0:0:0:0:
192,192,21532,1,0,0:0:0:0:
320,192,21532,1,0,0:0:0:0:
320,192,21741,1,0,0:0:0:0:
448,192,21845,1,0,0:0:0:0:
192,192,21845,1,0,0:0:0:0:
320,192,21949,1,0,0:0:0:0:
64,192,21949,1,0,0:0:0:0:
192,192,22053,1,0,0:0:0:0:
448,192,22053,1,0,0:0:0:0:
64,192,22157,128,0,22261:0:0:0:0:
448,192,22157,128,0,22261:0:0:0:0:
64,192,22366,1,0,0:0:0:0:
320,192,22366,1,0,0:0:0:0:
448,192,22366,1,0,0:0:0:0:
448,192,22574,1,0,0:0:0:0:
192,192,22678,1,0,0:0:0:0:
64,192,22678,1,0,0:0:0:0:
320,192,22782,1,0,0:0:0:0:
448,192,22782,1,0,0:0:0:0:
192,192,22886,1,0,0:0:0:0:
320,192,22886,1,0,0:0:0:0:
192,192,22991,128,0,23095:0:0:0:0:
448,192,22991,128,0,23095:0:0:0:0:
64,192,23199,1,0,0:0:0:0:
320,192,23199,1,0,0:0:0:0:
192,192,23338,1,0,0:0:0:0:
320,192,23407,1,0,0:0:0:0:
448,192,23477,1,0,0:0:0:0:
64,192,23546,1,0,0:0:0:0:
192,192,23616,1,0,0:0:0:0:
320,192,23616,1,0,0:0:0:0:
320,192,23824,1,0,0:0:0:0:
192,192,24032,1,0,0:0:0:0:
320,192,24032,1,0,0:0:0:0:
448,192,24032,1,0,0:0:0:0:
192,192,24241,1,0,0:0:0:0:
320,192,24345,1,0,0:0:0:0:
448,192,24345,1,0,0:0:0:0:
64,192,24345,1,0,0:0:0:0:
192,192,24449,1,0,0:0:0:0:
64,192,24449,1,0,0:0:0:0:
448,192,24553,1,0,0:0:0:0:
192,192,24657,1,0,0:0:0:0:
64,192,24709,1,0,0:0:0:0:
320,192,24761,1,0,0:0:0:0:
448,192,24813,1,0,0:0:0:0:
192,192,24866,1,0,0:0:0:0:
64,192,24866,1,0,0:0:0:0:
448,192,25074,1,0,0:0:0:0:
192,192,25178,1,0,0:0:0:0:
64,192,25178,1,0,0:0:0:0:
320,192,25178,1,0,0:0:0:0:
448,192,25282,1,0,0:0:0:0:
192,192,25282,1,0,0:0:0:0:
448,192,25386,1,0,0:0:0:0:
192,192,25386,1,0,0:0:0:0:
64,192,25491,1,0,0:0:0:0:
192,192,25543,1,0,0:0:0:0:
320,192,25595,1,0,0:0:0:0:
448,192,25647,1,0,0:0:0:0:
64,192,25699,1,0,0:0:0:0:
192,192,25699,1,0,0:0:0:0:
64,192,25907,1,0,0:0:0:0:
192,192,25959,1,0,0:0:0:0:
320,192,26011,1,0,0:0:0:0:
448,192,26063,1,0,0:0:0:0:
64,192,26116,1,0,0:0:0:0:
192,192,26168,1,0,0:0:0:0:
320,192,26220,1,0,0:0:0:0:
448,192,26324,1,0,0:0:0:0:
64,192,26324,1,0,0:0:0:0:
192,192,26532,1,0,0:0:0:0:
320,192,26532,1,0,0:0:0:0:
448,192,26636,1,0,0:0:0:0:
64,192,26741,1,0,0:0:0:0:
192,192,26845,1,0,0:0:0:0:
320,192,26897,1,0,0:0:0:0:
448,192,26949,1,0,0:0:0:0:
192,192,27053,1,0,0:0:0:0:
64,192,27157,1,0,0:0:0:0:
192,192,27209,1,0,0:0:0:0:
320,192,27261,1,0,0:0:0:0:
448,192,27313,1,0,0:0:0:0:
192,192,27366,1,0,0:0:0:0:
64,192,27366,1,0,0:0:0:0:
448,192,27418,1,0,0:0:0:0:
320,192,27470,1,0,0:0:0:0:
192,192,27522,1,0,0:0:0:0:
64,192,27574,1,0,0:0:0:0:
448,192,27626,1,0,0:0:0:0:
320,192,27678,1,0,0:0:0:0:
192,192,27730,1,0,0:0:0:0:
448,192,27782,1,0,0:0:0:0:
64,192,27782,1,0,0:0:0:0:
320,192,27886,1,0,0:0:0:0:
192,192,27991,1,0,0:0:0:0:
448,192,27991,1,0,0:0:0:0:
64,192,28199,1,0,0:0:0:0:
320,192,28199,1,0,0:0:0:0:
192,192,28199,1,0,0:0:0:0:
448,192,28303,1,0,0:0:0:0:
320,192,28407,1,0,0:0:0:0:
192,192,28511,1,0,0:0:0:0:
448,192,28511,1,0,0:0:0:0:
320,192,28616,1,0,0:0:0:0:
64,192,28616,1,0,0:0:0:0:
192,192,28720,1,0,0:0:0:0:
320,192,28720,1,0,0:0:0:0:
64,192,28824,128,0,28928:0:0:0:0:
448,192,28824,128,0,28928:0:0:0:0:
64,192,29032,1,0,0:0:0:0:
192,192,29032,1,0,0:0:0:0:
448,192,29032,1,0,0:0:0:0:
320,192,29136,1,0,0:0:0:0:
64,192,29241,1,0,0:0:0:0:
448,192,29345,1,0,0:0:0:0:
320,192,29345,1,0,0:0:0:0:
192,192,29449,1,0,0:0:0:0:
64,192,29449,1,0,0:0:0:0:
320,192,29553,1,0,0:0:0:0:
192,192,29553,1,0,0:0:0:0:
64,192,29657,128,0,29761:0:0:0:0:
448,192,29657,128,0,29761:0:0:0:0:
448,192,29866,1,0,0:0:0:0:
64,192,29866,1,0,0:0:0:0:
192,192,30004,1,0,0:0:0:0:
320,192,30074,1,0,0:0:0:0:
448,192,30143,1,0,0:0:0:0:
64,192,30213,1,0,0:0:0:0:
192,192,30282,1,0,0:0:0:0:
320,192,30282,1,0,0:0:0:0:
448,192,30491,1,0,0:0:0:0:
320,192,30595,1,0,0:0:0:0:
64,192,30595,1,0,0:0:0:0:
192,192,30699,1,0,0:0:0:0:
448,192,30699,1,0,0:0:0:0:
64,192,30803,1,0,0:0:0:0:
448,192,30803,1,0,0:0:0:0:
448,192,31011,1,0,0:0:0:0:
320,192,31011,1,0,0:0:0:0:
64,192,31116,1,0,0:0:0:0:
192,192,31116,1,0,0:0:0:0:
320,192,31220,1,0,0:0:0:0:
64,192,31324,1,0,0:0:0:0:
192,192,31376,1,0,0:0:0:0:
320,192,31428,1,0,0:0:0:0:
448,192,31480,1,0,0:0:0:0:
192,192,31532,1,0,0:0:0:0:
64,192,31532,1,0,0:0:0:0:
320,192,31636,1,0,0:0:0:0:
64,192,31741,1,0,0:0:0:0:
192,192,31845,1,0,0:0:0:0:
448,192,31845,1,0,0:0:0:0:
64,192,31949,1,0,0:0:0:0:
320,192,31949,1,0,0:0:0:0:
192,192,32053,1,0,0:0:0:0:
448,192,32157,1,0,0:0:0:0:
64,192,32227,1,0,0:0:0:0:
320,192,32296,1,0,0:0:0:0:
64,192,32366,1,0,0:0:0:0:
192,192,32418,1,0,0:0:0:0:
320,192,32470,1,0,0:0:0:0:
448,192,32522,1,0,0:0:0:0:
64,192,32574,1,0,0:0:0:0:
448,192,32678,1,0,0:0:0:0:
320,192,32678,1,0,0:0:0:0:
192,192,32782,1,0,0:0:0:0:
64,192,32782,1,0,0:0:0:0:
320,192,32886,1,0,0:0:0:0:
192,192,32991,1,0,0:0:0:0:
64,192,32991,1,0,0:0:0:0:
320,192,33060,1,0,0:0:0:0:
448,192,33129,1,0,0:0:0:0:
64,192,33199,1,0,0:0:0:0:
192,192,33268,1,0,0:0:0:0:
320,192,33268,1,0,0:0:0:0:
448,192,33407,1,0,0:0:0:0:
192,192,33407,1,0,0:0:0:0:
320,192,33511,1,0,0:0:0:0:
64,192,33616,1,0,0:0:0:0:
192,192,33616,1,0,0:0:0:0:
448,192,33720,1,0,0:0:0:0:
320,192,33824,1,0,0:0:0:0:
192,192,33928,1,0,0:0:0:0:
64,192,33928,1,0,0:0:0:0:
448,192,34032,1,0,0:0:0:0:
192,192,34032,1,0,0:0:0:0:
64,192,34136,1,0,0:0:0:0:
192,192,34136,1,0,0:0:0:0:
320,192,34241,1,0,0:0:0:0:
64,192,34345,1,0,0:0:0:0:
192,192,34345,1,0,0:0:0:0:
448,192,34345,1,0,0:0:0:0:
448,192,34727,1,0,0:0:0:0:
320,192,34727,1,0,0:0:0:0:
192,192,34796,1,0,0:0:0:0:
64,192,34796,1,0,0:0:0:0:
320,192,34866,1,0,0:0:0:0:
448,192,34866,1,0,0:0:0:0:
64,192,35004,1,0,0:0:0:0:
448,192,35004,1,0,0:0:0:0:
192,192,35143,1,0,0:0:0:0:
448,192,35143,1,0,0:0:0:0:
192,192,35282,1,0,0:0:0:0:
320,192,35282,1,0,0:0:0:0:
64,192,35421,1,0,0:0:0:0:
320,192,35421,1,0,0:0:0:0:
64,192,35560,1,0,0:0:0:0:
192,192,35560,1,0,0:0:0:0:
320,192,35699,1,0,0:0:0:0:
448,192,35699,1,0,0:0:0:0:
320,192,35977,1,0,0:0:0:0:
192,192,35977,1,0,0:0:0:0:
64,192,35977,1,0,0:0:0:0:
320,192,36185,1,0,0:0:0:0:
64,192,36254,1,0,0:0:0:0:
192,192,36324,1,0,0:0:0:0:
448,192,36324,1,0,0:0:0:0:
320,192,36393,1,0,0:0:0:0:
192,192,36463,1,0,0:0:0:0:
320,192,36532,1,0,0:0:0:0:
448,192,36532,1,0,0:0:0:0:
64,192,36671,1,0,0:0:0:0:
192,192,36741,1,0,0:0:0:0:
320,192,36810,1,0,0:0:0:0:
448,192,36879,1,0,0:0:0:0:
192,192,36949,1,0,0:0:0:0:
64,192,36949,1,0,0:0:0:0:
320,192,37053,1,0,0:0:0:0:
192,192,37157,1,0,0:0:0:0:
64,192,37209,1,0,0:0:0:0:
320,192,37261,1,0,0:0:0:0:
448,192,37313,1,0,0:0:0:0:
192,192,37366,1,0,0:0:0:0:
64,192,37366,1,0,0:0:0:0:
320,192,37470,1,0,0:0:0:0:
64,192,37574,1,0,0:0:0:0:
192,192,37678,1,0,0:0:0:0:
448,192,37678,1,0,0:0:0:0:
320,192,37782,1,0,0:0:0:0:
64,192,37782,1,0,0:0:0:0:
448,192,37886,1,0,0:0:0:0:
64,192,37991,1,0,0:0:0:0:
192,192,38043,1,0,0:0:0:0:
320,192,38095,1,0,0:0:0:0:
448,192,38147,1,0,0:0:0:0:
192,192,38199,1,0,0:0:0:0:
64,192,38199,1,0,0:0:0:0:
320,192,38303,1,0,0:0:0:0:
64,192,38407,1,0,0:0:0:0:
448,192,38511,1,0,0:0:0:0:
320,192,38616,1,0,0:0:0:0:
64,192,38616,1,0,0:0:0:0:
192,192,38616,1,0,0:0:0:0:
192,192,38928,1,0,0:0:0:0:
320,192,38928,1,0,0:0:0:0:
448,192,38928,1,0,0:0:0:0:
64,192,39032,1,0,0:0:0:0:
448,192,39136,1,0,0:0:0:0:
320,192,39241,1,0,0:0:0:0:
64,192,39241,1,0,0:0:0:0:
192,192,39241,1,0,0:0:0:0:
64,192,39657,1,0,0:0:0:0:
320,192,39761,1,0,0:0:0:0:
192,192,39866,1,0,0:0:0:0:
64,192,39866,1,0,0:0:0:0:
448,192,39970,1,0,0:0:0:0:
64,192,40074,1,0,0:0:0:0:
320,192,40178,1,0,0:0:0:0:
192,192,40282,1,0,0:0:0:0:
448,192,40282,1,0,0:0:0:0:
64,192,40386,1,0,0:0:0:0:
320,192,40491,1,0,0:0:0:0:
448,192,40491,1,0,0:0:0:0:
192,192,40595,1,0,0:0:0:0:
64,192,40699,1,0,0:0:0:0:
448,192,40699,1,0,0:0:0:0:
320,192,40907,1,0,0:0:0:0:
192,192,41011,1,0,0:0:0:0:
64,192,41116,1,0,0:0:0:0:
448,192,41116,1,0,0:0:0:0:
192,192,41324,1,0,0:0:0:0:
320,192,41428,1,0,0:0:0:0:
64,192,41532,1,0,0:0:0:0:
448,192,41532,1,0,0:0:0:0:
320,192,41741,1,0,0:0:0:0:
192,192,41845,1,0,0:0:0:0:
64,192,41949,1,0,0:0:0:0:
448,192,41949,1,0,0:0:0:0:
192,192,42157,1,0,0:0:0:0:
320,192,42261,1,0,0:0:0:0:
64,192,42366,1,0,0:0:0:0:
448,192,42366,1,0,0:0:0:0:
64,192,42782,1,0,0:0:0:0:
192,192,42782,1,0,0:0:0:0:
320,192,42782,1,0,0:0:0:0:
448,192,42991,1,0,0:0:0:0:
320,192,43060,1,0,0:0:0:0:
192,192,43129,1,0,0:0:0:0:
64,192,43199,1,0,0:0:0:0:
320,192,43303,1,0,0:0:0:0:
64,192,43511,1,0,0:0:0:0:
192,192,43720,1,0,0:0:0:0:
320,192,43772,1,0,0:0:0:0:
448,192,43824,1,0,0:0:0:0:
64,192,44032,1,0,0:0:0:0:
192,192,44136,1,0,0:0:0:0:
320,192,44241,1,0,0:0:0:0:
64,192,44345,1,0,0:0:0:0:
192,192,44657,1,0,0:0:0:0:
192,192,44761,1,0,0:0:0:0:
448,192,44866,1,0,0:0:0:0:
320,192,44918,1,0,0:0:0:0:
192,192,44970,1,0,0:0:0:0:
64,192,45022,1,0,0:0:0:0:
320,192,45074,1,0,0:0:0:0:
448,192,45143,1,0,0:0:0:0:
192,192,45213,1,0,0:0:0:0:
64,192,45282,1,0,0:0:0:0:
320,192,45282,1,0,0:0:0:0:
448,192,45386,1,0,0:0:0:0:
192,192,45491,1,0,0:0:0:0:
64,192,45491,1,0,0:0:0:0:
448,192,45543,1,0,0:0:0:0:
320,192,45595,1,0,0:0:0:0:
192,192,45647,1,0,0:0:0:0:
64,192,45699,1,0,0:0:0:0:
448,192,45803,1,0,0:0:0:0:
320,192,45803,1,0,0:0:0:0:
64,192,45855,1,0,0:0:0:0:
192,192,45907,1,0,0:0:0:0:
320,192,45959,1,0,0:0:0:0:
448,192,46011,1,0,0:0:0:0:
192,192,46116,1,0,0:0:0:0:
64,192,46116,1,0,0:0:0:0:
320,192,46220,1,0,0:0:0:0:
64,192,46324,1,0,0:0:0:0:
320,192,46393,1,0,0:0:0:0:
192,192,46463,1,0,0:0:0:0:
320,192,46532,1,0,0:0:0:0:
448,192,46532,1,0,0:0:0:0:
192,192,46636,1,0,0:0:0:0:
64,192,46636,1,0,0:0:0:0:
448,192,46741,1,0,0:0:0:0:
320,192,46845,1,0,0:0:0:0:
64,192,46845,1,0,0:0:0:0:
192,192,46949,1,0,0:0:0:0:
448,192,46949,1,0,0:0:0:0:
320,192,47053,1,0,0:0:0:0:
192,192,47105,1,0,0:0:0:0:
64,192,47157,1,0,0:0:0:0:
192,192,47366,1,0,0:0:0:0:
448,192,47366,1,0,0:0:0:0:
320,192,47470,1,0,0:0:0:0:
64,192,47470,1,0,0:0:0:0:
192,192,47574,1,0,0:0:0:0:
448,192,47678,1,0,0:0:0:0:
320,192,47730,1,0,0:0:0:0:
192,192,47782,1,0,0:0:0:0:
64,192,47782,1,0,0:0:0:0:
448,192,47886,1,0,0:0:0:0:
64,192,47991,1,0,0:0:0:0:
192,192,48043,1,0,0:0:0:0:
320,192,48095,1,0,0:0:0:0:
448,192,48147,1,0,0:0:0:0:
192,192,48199,1,0,0:0:0:0:
64,192,48199,1,0,0:0:0:0:
320,192,48303,1,0,0:0:0:0:
64,192,48407,1,0,0:0:0:0:
192,192,48459,1,0,0:0:0:0:
320,192,48511,1,0,0:0:0:0:
192,192,48616,1,0,0:0:0:0:
64,192,48616,1,0,0:0:0:0:
448,192,48720,1,0,0:0:0:0:
192,192,48824,1,0,0:0:0:0:
320,192,48928,1,0,0:0:0:0:
448,192,48980,1,0,0:0:0:0:
192,192,49032,1,0,0:0:0:0:
64,192,49032,1,0,0:0:0:0:
320,192,49136,1,0,0:0:0:0:
64,192,49241,1,0,0:0:0:0:
448,192,49345,1,0,0:0:0:0:
64,192,49449,1,0,0:0:0:0:
320,192,49449,1,0,0:0:0:0:
192,192,49553,1,0,0:0:0:0:
448,192,49657,1,0,0:0:0:0:
320,192,49709,1,0,0:0:0:0:
192,192,49761,1,0,0:0:0:0:
64,192,49813,1,0,0:0:0:0:
320,192,49866,1,0,0:0:0:0:
448,192,49866,1,0,0:0:0:0:
192,192,49970,1,0,0:0:0:0:
64,192,49970,1,0,0:0:0:0:
448,192,50074,1,0,0:0:0:0:
64,192,50178,1,0,0:0:0:0:
192,192,50230,1,0,0:0:0:0:
448,192,50282,1,0,0:0:0:0:
320,192,50282,1,0,0:0:0:0:
448,192,50386,1,0,0:0:0:0:
320,192,50438,1,0,0:0:0:0:
192,192,50491,1,0,0:0:0:0:
64,192,50543,1,0,0:0:0:0:
448,192,50595,1,0,0:0:0:0:
320,192,50647,1,0,0:0:0:0:
192,192,50699,1,0,0:0:0:0:
64,192,50699,1,0,0:0:0:0:
320,192,50803,1,0,0:0:0:0:
448,192,50803,1,0,0:0:0:0:
448,192,50907,1,0,0:0:0:0:
320,192,50959,1,0,0:0:0:0:
192,192,51011,1,0,0:0:0:0:
64,192,51063,1,0,0:0:0:0:
320,192,51116,1,0,0:0:0:0:
448,192,51116,1,0,0:0:0:0:
192,192,51220,1,0,0:0:0:0:
64,192,51324,1,0,0:0:0:0:
192,192,51376,1,0,0:0:0:0:
320,192,51428,1,0,0:0:0:0:
448,192,51480,1,0,0:0:0:0:
192,192,51532,1,0,0:0:0:0:
64,192,51532,1,0,0:0:0:0:
320,192,51584,1,0,0:0:0:0:
192,192,51636,1,0,0:0:0:0:
64,192,51688,1,0,0:0:0:0:
448,192,51741,1,0,0:0:0:0:
192,192,51810,1,0,0:0:0:0:
320,192,51879,1,0,0:0:0:0:
64,192,51949,1,0,0:0:0:0:
192,192,51949,1,0,0:0:0:0:
448,192,52053,1,0,0:0:0:0:
64,192,52157,1,0,0:0:0:0:
192,192,52209,1,0,0:0:0:0:
320,192,52261,1,0,0:0:0:0:
448,192,52313,1,0,0:0:0:0:
64,192,52366,1,0,0:0:0:0:
192,192,52366,1,0,0:0:0:0:
64,192,52470,1,0,0:0:0:0:
320,192,52470,1,0,0:0:0:0:
192,192,52574,1,0,0:0:0:0:
448,192,52574,1,0,0:0:0:0:
320,192,52678,1,0,0:0:0:0:
192,192,52678,1,0,0:0:0:0:
64,192,52782,1,0,0:0:0:0:
448,192,52782,1,0,0:0:0:0:
320,192,52834,1,0,0:0:0:0:
192,192,52886,1,0,0:0:0:0:
64,192,52938,1,0,0:0:0:0:
448,192,52991,1,0,0:0:0:0:
320,192,52991,1,0,0:0:0:0:
192,192,53095,1,0,0:0:0:0:
448,192,53095,1,0,0:0:0:0:
448,192,53199,1,0,0:0:0:0:
192,192,53199,1,0,0:0:0:0:
320,192,53251,1,0,0:0:0:0:
192,192,53303,1,0,0:0:0:0:
64,192,53355,1,0,0:0:0:0:
448,192,53407,1,0,0:0:0:0:
64,192,53511,1,0,0:0:0:0:
192,192,53563,1,0,0:0:0:0:
448,192,53616,1,0,0:0:0:0:
320,192,53616,1,0,0:0:0:0:
64,192,53720,1,0,0:0:0:0:
192,192,53824,1,0,0:0:0:0:
448,192,53824,1,0,0:0:0:0:
320,192,53928,1,0,0:0:0:0:
64,192,53928,1,0,0:0:0:0:
192,192,54032,1,0,0:0:0:0:
320,192,54084,1,0,0:0:0:0:
448,192,54136,1,0,0:0:0:0:
64,192,54241,1,0,0:0:0:0:
320,192,54345,1,0,0:0:0:0:
448,192,54345,1,0,0:0:0:0:
448,192,54449,1,0,0:0:0:0:
320,192,54501,1,0,0:0:0:0:
192,192,54553,1,0,0:0:0:0:
64,192,54605,1,0,0:0:0:0:
448,192,54657,1,0,0:0:0:0:
64,192,54761,1,0,0:0:0:0:
192,192,54813,1,0,0:0:0:0:
320,192,54866,1,0,0:0:0:0:
448,192,54866,1,0,0:0:0:0:
64,192,55074,1,0,0:0:0:0:
448,192,55074,1,0,0:0:0:0:
320,192,55126,1,0,0:0:0:0:
192,192,55178,1,0,0:0:0:0:
64,192,55230,1,0,0:0:0:0:
448,192,55282,1,0,0:0:0:0:
64,192,55386,1,0,0:0:0:0:
192,192,55438,1,0,0:0:0:0:
320,192,55491,1,0,0:0:0:0:
448,192,55543,1,0,0:0:0:0:
64,192,55595,1,0,0:0:0:0:
448,192,55699,1,0,0:0:0:0:
320,192,55751,1,0,0:0:0:0:
192,192,55803,1,0,0:0:0:0:
64,192,55907,1,0,0:0:0:0:
448,192,56011,1,0,0:0:0:0:
320,192,56116,1,0,0:0:0:0:
64,192,56116,1,0,0:0:0:0:
192,192,56116,1,0,0:0:0:0:
448,192,56220,1,0,0:0:0:0:
192,192,56532,1,0,0:0:0:0:
320,192,56532,1,0,0:0:0:0:
448,192,56532,1,0,0:0:0:0:
64,192,56845,1,0,0:0:0:0:
192,192,56845,1,0,0:0:0:0:
448,192,56845,1,0,0:0:0:0:
448,192,57157,1,0,0:0:0:0:
320,192,57157,1,0,0:0:0:0:
64,192,57157,1,0,0:0:0:0:
64,192,57470,1,0,0:0:0:0:
192,192,57470,1,0,0:0:0:0:
320,192,57470,1,0,0:0:0:0:
192,192,57678,1,0,0:0:0:0:
320,192,57678,1,0,0:0:0:0:
448,192,57678,1,0,0:0:0:0:
64,192,57991,1,0,0:0:0:0:
320,192,57991,1,0,0:0:0:0:
192,192,58199,1,0,0:0:0:0:
320,192,58303,1,0,0:0:0:0:
448,192,58355,1,0,0:0:0:0:
64,192,58407,1,0,0:0:0:0:
320,192,58511,1,0,0:0:0:0:
192,192,58616,1,0,0:0:0:0:
64,192,58616,1,0,0:0:0:0:
448,192,58720,1,0,0:0:0:0:
64,192,58824,1,0,0:0:0:0:
192,192,58824,1,0,0:0:0:0:
320,192,58928,1,0,0:0:0:0:
448,192,58928,1,0,0:0:0:0:
64,192,59032,1,0,0:0:0:0:
448,192,59032,1,0,0:0:0:0:
192,192,59136,1,0,0:0:0:0:
320,192,59241,1,0,0:0:0:0:
448,192,59241,1,0,0:0:0:0:
64,192,59449,1,0,0:0:0:0:
192,192,59449,1,0,0:0:0:0:
448,192,59449,1,0,0:0:0:0:
448,192,59866,1,0,0:0:0:0:
320,192,59866,1,0,0:0:0:0:
64,192,59866,1,0,0:0:0:0:
64,192,60178,1,0,0:0:0:0:
192,192,60178,1,0,0:0:0:0:
320,192,60178,1,0,0:0:0:0:
192,192,60491,1,0,0:0:0:0:
320,192,60491,1,0,0:0:0:0:
448,192,60491,1,0,0:0:0:0:
64,192,60803,1,0,0:0:0:0:
192,192,60803,1,0,0:0:0:0:
448,192,60803,1,0,0:0:0:0:
448,192,61011,1,0,0:0:0:0:
320,192,61011,1,0,0:0:0:0:
64,192,61011,1,0,0:0:0:0:
64,192,61324,1,0,0:0:0:0:
320,192,61324,1,0,0:0:0:0:
192,192,61324,1,0,0:0:0:0:
320,192,61532,1,0,0:0:0:0:
64,192,61532,1,0,0:0:0:0:
448,192,61636,1,0,0:0:0:0:
320,192,61688,1,0,0:0:0:0:
64,192,61741,1,0,0:0:0:0:
192,192,61793,1,0,0:0:0:0:
320,192,61845,1,0,0:0:0:0:
448,192,61897,1,0,0:0:0:0:
64,192,61949,1,0,0:0:0:0:
192,192,62001,1,0,0:0:0:0:
320,192,62053,1,0,0:0:0:0:
64,192,62157,1,0,0:0:0:0:
448,192,62157,1,0,0:0:0:0:
192,192,62261,1,0,0:0:0:0:
448,192,62366,1,0,0:0:0:0:
192,192,62470,1,0,0:0:0:0:
64,192,62470,1,0,0:0:0:0:
448,192,62574,1,0,0:0:0:0:
320,192,62626,1,0,0:0:0:0:
192,192,62678,1,0,0:0:0:0:
64,192,62730,1,0,0:0:0:0:
320,192,62782,1,0,0:0:0:0:
448,192,62782,1,0,0:0:0:0:
192,192,62886,1,0,0:0:0:0:
320,192,62991,1,0,0:0:0:0:
64,192,63095,1,0,0:0:0:0:
448,192,63199,1,0,0:0:0:0:
320,192,63199,1,0,0:0:0:0:
192,192,63199,1,0,0:0:0:0:
192,192,63511,1,0,0:0:0:0:
64,192,63511,1,0,0:0:0:0:
320,192,63511,1,0,0:0:0:0:
320,192,63824,1,0,0:0:0:0:
448,192,63824,1,0,0:0:0:0:
64,192,63824,1,0,0:0:0:0:
64,192,64136,1,0,0:0:0:0:
192,192,64136,1,0,0:0:0:0:
448,192,64136,1,0,0:0:0:0:
320,192,64345,1,0,0:0:0:0:
448,192,64345,1,0,0:0:0:0:
192,192,64345,1,0,0:0:0:0:
64,192,64553,1,0,0:0:0:0:
192,192,64605,1,0,0:0:0:0:
320,192,64657,1,0,0:0:0:0:
448,192,64761,1,0,0:0:0:0:
64,192,64866,1,0,0:0:0:0:
320,192,64970,1,0,0:0:0:0:
192,192,65074,1,0,0:0:0:0:
448,192,65178,1,0,0:0:0:0:
320,192,65230,1,0,0:0:0:0:
192,192,65282,1,0,0:0:0:0:
64,192,65386,1,0,0:0:0:0:
448,192,65491,1,0,0:0:0:0:
320,192,65491,1,0,0:0:0:0:
192,192,65595,1,0,0:0:0:0:
64,192,65595,1,0,0:0:0:0:
64,192,65699,1,0,0:0:0:0:
448,192,65699,1,0,0:0:0:0:
320,192,65803,1,0,0:0:0:0:
192,192,65907,1,0,0:0:0:0:
64,192,65907,1,0,0:0:0:0:
448,192,65959,1,0,0:0:0:0:
320,192,66011,1,0,0:0:0:0:
192,192,66063,1,0,0:0:0:0:
320,192,66116,1,0,0:0:0:0:
448,192,66116,1,0,0:0:0:0:
64,192,66168,1,0,0:0:0:0:
192,192,66220,1,0,0:0:0:0:
320,192,66272,1,0,0:0:0:0:
448,192,66324,1,0,0:0:0:0:
64,192,66532,1,0,0:0:0:0:
320,192,66532,1,0,0:0:0:0:
192,192,66532,1,0,0:0:0:0:
448,192,66584,1,0,0:0:0:0:
320,192,66636,1,0,0:0:0:0:
192,192,66688,1,0,0:0:0:0:
64,192,66741,1,0,0:0:0:0:
192,192,66845,1,0,0:0:0:0:
320,192,66845,1,0,0:0:0:0:
448,192,66845,1,0,0:0:0:0:
64,192,66897,1,0,0:0:0:0:
192,192,66949,1,0,0:0:0:0:
320,192,67001,1,0,0:0:0:0:
448,192,67053,1,0,0:0:0:0:
320,192,67157,1,0,0:0:0:0:
192,192,67157,1,0,0:0:0:0:
64,192,67157,1,0,0:0:0:0:
448,192,67209,1,0,0:0:0:0:
320,192,67261,1,0,0:0:0:0:
192,192,67313,1,0,0:0:0:0:
64,192,67366,1,0,0:0:0:0:
448,192,67470,1,0,0:0:0:0:
320,192,67470,1,0,0:0:0:0:
192,192,67470,1,0,0:0:0:0:
64,192,67522,1,0,0:0:0:0:
192,192,67574,1,0,0:0:0:0:
320,192,67626,1,0,0:0:0:0:
192,192,67678,1,0,0:0:0:0:
64,192,67678,1,0,0:0:0:0:
448,192,67730,1,0,0:0:0:0:
320,192,67782,1,0,0:0:0:0:
192,192,67834,1,0,0:0:0:0:
64,192,67886,1,0,0:0:0:0:
448,192,67938,1,0,0:0:0:0:
320,192,67991,1,0,0:0:0:0:
192,192,67991,1,0,0:0:0:0:
64,192,68043,1,0,0:0:0:0:
192,192,68095,1,0,0:0:0:0:
320,192,68147,1,0,0:0:0:0:
448,192,68199,1,0,0:0:0:0:
64,192,68251,1,0,0:0:0:0:
192,192,68303,1,0,0:0:0:0:
320,192,68355,1,0,0:0:0:0:
448,192,68407,1,0,0:0:0:0:
64,192,68459,1,0,0:0:0:0:
192,192,68511,1,0,0:0:0:0:
320,192,68563,1,0,0:0:0:0:
448,192,68616,1,0,0:0:0:0:
64,192,68668,1,0,0:0:0:0:
192,192,68720,1,0,0:0:0:0:
320,192,68772,1,0,0:0:0:0:
64,192,68824,1,0,0:0:0:0:
448,192,68824,1,0,0:0:0:0:
192,192,68876,1,0,0:0:0:0:
320,192,68928,1,0,0:0:0:0:
448,192,68980,1,0,0:0:0:0:
64,192,69032,1,0,0:0:0:0:
192,192,69084,1,0,0:0:0:0:
320,192,69136,1,0,0:0:0:0:
448,192,69136,1,0,0:0:0:0:
192,192,69188,1,0,0:0:0:0:
64,192,69241,1,0,0:0:0:0:
448,192,69293,1,0,0:0:0:0:
320,192,69345,1,0,0:0:0:0:
192,192,69397,1,0,0:0:0:0:
64,192,69449,1,0,0:0:0:0:
448,192,69449,1,0,0:0:0:0:
448,192,69761,1,0,0:0:0:0:
448,192,70074,1,0,0:0:0:0:
448,192,70386,1,0,0:0:0:0:
448,192,70699,1,0,0:0:0:0:
64,192,70838,1,0,0:0:0:0:
64,192,70977,1,0,0:0:0:0:
320,192,71116,1,0,0:0:0:0:
448,192,71116,1,0,0:0:0:0:
192,192,71254,1,0,0:0:0:0:
64,192,71254,1,0,0:0:0:0:
192,192,71393,1,0,0:0:0:0:
448,192,71393,1,0,0:0:0:0:
320,192,71532,1,0,0:0:0:0:
448,192,71532,1,0,0:0:0:0:
64,192,71636,1,0,0:0:0:0:
192,192,71741,1,0,0:0:0:0:
448,192,71793,1,0,0:0:0:0:
320,192,71845,1,0,0:0:0:0:
192,192,71897,1,0,0:0:0:0:
64,192,71949,1,0,0:0:0:0:
448,192,72001,1,0,0:0:0:0:
320,192,72053,1,0,0:0:0:0:
64,192,72157,1,0,0:0:0:0:
192,192,72157,1,0,0:0:0:0:
320,192,72261,1,0,0:0:0:0:
448,192,72261,1,0,0:0:0:0:
64,192,72366,1,0,0:0:0:0:
192,192,72418,1,0,0:0:0:0:
320,192,72470,1,0,0:0:0:0:
448,192,72522,1,0,0:0:0:0:
64,192,72574,1,0,0:0:0:0:
192,192,72626,1,0,0:0:0:0:
320,192,72678,1,0,0:0:0:0:
448,192,72730,1,0,0:0:0:0:
192,192,72782,1,0,0:0:0:0:
64,192,72782,1,0,0:0:0:0:
64,192,72991,1,0,0:0:0:0:
320,192,72991,1,0,0:0:0:0:
192,192,73199,1,0,0:0:0:0:
320,192,73199,1,0,0:0:0:0:
448,192,73199,1,0,0:0:0:0:
64,192,73407,1,0,0:0:0:0:
320,192,73407,1,0,0:0:0:0:
448,192,73511,1,0,0:0:0:0:
192,192,73616,1,0,0:0:0:0:
64,192,73616,1,0,0:0:0:0:
320,192,73720,1,0,0:0:0:0:
448,192,73720,1,0,0:0:0:0:
64,192,73824,1,0,0:0:0:0:
320,192,73824,1,0,0:0:0:0:
192,192,73928,1,0,0:0:0:0:
448,192,73928,1,0,0:0:0:0:
320,192,74032,1,0,0:0:0:0:
192,192,74032,1,0,0:0:0:0:
448,192,74032,1,0,0:0:0:0:
192,192,74136,1,0,0:0:0:0:
64,192,74136,1,0,0:0:0:0:
448,192,74241,1,0,0:0:0:0:
320,192,74241,1,0,0:0:0:0:
192,192,74345,1,0,0:0:0:0:
448,192,74345,1,0,0:0:0:0:
320,192,74449,1,0,0:0:0:0:
64,192,74449,1,0,0:0:0:0:
448,192,74449,1,0,0:0:0:0:
64,192,74657,1,0,0:0:0:0:
192,192,74709,1,0,0:0:0:0:
320,192,74761,1,0,0:0:0:0:
448,192,74813,1,0,0:0:0:0:
192,192,74866,1,0,0:0:0:0:
64,192,74866,1,0,0:0:0:0:
64,192,75074,1,0,0:0:0:0:
448,192,75074,1,0,0:0:0:0:
320,192,75178,1,0,0:0:0:0:
192,192,75178,1,0,0:0:0:0:
192,192,75282,1,0,0:0:0:0:
448,192,75282,1,0,0:0:0:0:
64,192,75386,1,0,0:0:0:0:
192,192,75438,1,0,0:0:0:0:
320,192,75491,1,0,0:0:0:0:
192,192,75595,1,0,0:0:0:0:
64,192,75595,1,0,0:0:0:0:
448,192,75699,1,0,0:0:0:0:
64,192,75699,1,0,0:0:0:0:
192,192,75699,1,0,0:0:0:0:
320,192,75803,1,0,0:0:0:0:
64,192,75803,1,0,0:0:0:0:
192,192,75907,1,0,0:0:0:0:
448,192,75907,1,0,0:0:0:0:
320,192,76011,1,0,0:0:0:0:
448,192,76011,1,0,0:0:0:0:
64,192,76116,1,0,0:0:0:0:
320,192,76116,1,0,0:0:0:0:
192,192,76220,1,0,0:0:0:0:
320,192,76272,1,0,0:0:0:0:
448,192,76324,1,0,0:0:0:0:
64,192,76376,1,0,0:0:0:0:
192,192,76428,1,0,0:0:0:0:
320,192,76480,1,0,0:0:0:0:
448,192,76532,1,0,0:0:0:0:
64,192,76532,1,0,0:0:0:0:
192,192,76636,1,0,0:0:0:0:
448,192,76741,1,0,0:0:0:0:
320,192,76741,1,0,0:0:0:0:
192,192,76845,1,0,0:0:0:0:
64,192,76845,1,0,0:0:0:0:
64,192,76949,1,0,0:0:0:0:
320,192,76949,1,0,0:0:0:0:
448,192,76949,1,0,0:0:0:0:
192,192,77053,1,0,0:0:0:0:
64,192,77053,1,0,0:0:0:0:
320,192,77157,1,0,0:0:0:0:
448,192,77261,1,0,0:0:0:0:
64,192,77261,1,0,0:0:0:0:
192,192,77366,1,0,0:0:0:0:
320,192,77366,1,0,0:0:0:0:
192,192,77470,1,0,0:0:0:0:
448,192,77470,1,0,0:0:0:0:
320,192,77574,1,0,0:0:0:0:
192,192,77678,1,0,0:0:0:0:
64,192,77678,1,0,0:0:0:0:
320,192,77886,1,0,0:0:0:0:
192,192,77886,1,0,0:0:0:0:
64,192,77991,1,0,0:0:0:0:
448,192,77991,1,0,0:0:0:0:
320,192,77991,1,0,0:0:0:0:
64,192,78199,1,0,0:0:0:0:
192,192,78199,1,0,0:0:0:0:
448,192,78199,1,0,0:0:0:0:
320,192,78407,1,0,0:0:0:0:
192,192,78459,1,0,0:0:0:0:
448,192,78511,1,0,0:0:0:0:
320,192,78616,1,0,0:0:0:0:
192,192,78616,1,0,0:0:0:0:
64,192,78616,1,0,0:0:0:0:
448,192,78824,1,0,0:0:0:0:
192,192,78824,1,0,0:0:0:0:
320,192,78928,1,0,0:0:0:0:
64,192,78928,1,0,0:0:0:0:
192,192,79032,1,0,0:0:0:0:
64,192,79032,1,0,0:0:0:0:
448,192,79032,1,0,0:0:0:0:
320,192,79241,1,0,0:0:0:0:
192,192,79241,1,0,0:0:0:0:
320,192,79449,1,0,0:0:0:0:
448,192,79449,1,0,0:0:0:0:
448,192,79657,1,0,0:0:0:0:
192,192,79657,1,0,0:0:0:0:
320,192,79866,1,0,0:0:0:0:
192,192,79866,1,0,0:0:0:0:
64,192,79866,1,0,0:0:0:0:
448,192,80074,1,0,0:0:0:0:
192,192,80074,1,0,0:0:0:0:
64,192,80178,1,0,0:0:0:0:
320,192,80282,1,0,0:0:0:0:
448,192,80282,1,0,0:0:0:0:
192,192,80386,1,0,0:0:0:0:
64,192,80386,1,0,0:0:0:0:
448,192,80491,1,0,0:0:0:0:
192,192,80491,1,0,0:0:0:0:
320,192,80595,1,0,0:0:0:0:
64,192,80595,1,0,0:0:0:0:
192,192,80699,1,0,0:0:0:0:
320,192,80699,1,0,0:0:0:0:
64,192,80699,1,0,0:0:0:0:
320,192,80803,1,0,0:0:0:0:
448,192,80803,1,0,0:0:0:0:
64,192,80907,1,0,0:0:0:0:
192,192,80907,1,0,0:0:0:0:
320,192,81011,1,0,0:0:0:0:
64,192,81011,1,0,0:0:0:0:
192,192,81116,1,0,0:0:0:0:
448,192,81116,1,0,0:0:0:0:
64,192,81116,1,0,0:0:0:0:
448,192,81324,1,0,0:0:0:0:
320,192,81376,1,0,0:0:0:0:
192,192,81428,1,0,0:0:0:0:
64,192,81480,1,0,0:0:0:0:
320,192,81532,1,0,0:0:0:0:
448,192,81532,1,0,0:0:0:0:
448,192,81741,1,0,0:0:0:0:
64,192,81741,1,0,0:0:0:0:
192,192,81845,1,0,0:0:0:0:
320,192,81845,1,0,0:0:0:0:
320,192,81949,1,0,0:0:0:0:
64,192,81949,1,0,0:0:0:0:
448,192,82053,1,0,0:0:0:0:
320,192,82105,1,0,0:0:0:0:
192,192,82157,1,0,0:0:0:0:
320,192,82261,1,0,0:0:0:0:
448,192,82261,1,0,0:0:0:0:
64,192,82366,1,0,0:0:0:0:
448,192,82366,1,0,0:0:0:0:
320,192,82366,1,0,0:0:0:0:
192,192,82470,1,0,0:0:0:0:
448,192,82470,1,0,0:0:0:0:
320,192,82574,1,0,0:0:0:0:
64,192,82574,1,0,0:0:0:0:
192,192,82678,1,0,0:0:0:0:
64,192,82678,1,0,0:0:0:0:
448,192,82782,1,0,0:0:0:0:
192,192,82782,1,0,0:0:0:0:
320,192,82886,1,0,0:0:0:0:
192,192,82938,1,0,0:0:0:0:
64,192,82991,1,0,0:0:0:0:
448,192,83043,1,0,0:0:0:0:
320,192,83095,1,0,0:0:0:0:
192,192,83147,1,0,0:0:0:0:
64,192,83199,1,0,0:0:0:0:
448,192,83199,1,0,0:0:0:0:
320,192,83251,1,0,0:0:0:0:
192,192,83303,1,0,0:0:0:0:
64,192,83355,1,0,0:0:0:0:
320,192,83407,1,0,0:0:0:0:
64,192,83477,1,0,0:0:0:0:
192,192,83477,1,0,0:0:0:0:
320,192,83546,1,0,0:0:0:0:
448,192,83546,1,0,0:0:0:0:
192,192,83616,1,0,0:0:0:0:
64,192,83616,1,0,0:0:0:0:
448,192,83720,1,0,0:0:0:0:
64,192,83720,1,0,0:0:0:0:
192,192,83824,1,0,0:0:0:0:
320,192,83928,1,0,0:0:0:0:
448,192,83928,1,0,0:0:0:0:
64,192,84032,1,0,0:0:0:0:
192,192,84136,1,0,0:0:0:0:
448,192,84136,1,0,0:0:0:0:
320,192,84241,1,0,0:0:0:0:
448,192,84293,1,0,0:0:0:0:
192,192,84345,1,0,0:0:0:0:
64,192,84345,1,0,0:0:0:0:
320,192,84397,1,0,0:0:0:0:
448,192,84449,1,0,0:0:0:0:
64,192,84501,1,0,0:0:0:0:
192,192,84553,1,0,0:0:0:0:
448,192,84657,1,0,0:0:0:0:
320,192,84657,1,0,0:0:0:0:
64,192,84866,1,0,0:0:0:0:
448,192,84970,1,0,0:0:0:0:
192,192,85074,1,0,0:0:0:0:
64,192,85074,1,0,0:0:0:0:
320,192,85126,1,0,0:0:0:0:
448,192,85178,1,0,0:0:0:0:
64,192,85230,1,0,0:0:0:0:
192,192,85282,1,0,0:0:0:0:
448,192,85334,1,0,0:0:0:0:
320,192,85386,1,0,0:0:0:0:
192,192,85438,1,0,0:0:0:0:
64,192,85491,1,0,0:0:0:0:
448,192,85543,1,0,0:0:0:0:
320,192,85595,1,0,0:0:0:0:
192,192,85647,1,0,0:0:0:0:
64,192,85699,1,0,0:0:0:0:
192,192,85751,1,0,0:0:0:0:
320,192,85803,1,0,0:0:0:0:
448,192,85855,1,0,0:0:0:0:
64,192,85907,1,0,0:0:0:0:
192,192,85959,1,0,0:0:0:0:
448,192,86011,1,0,0:0:0:0:
320,192,86063,1,0,0:0:0:0:
192,192,86116,1,0,0:0:0:0:
64,192,86116,1,0,0:0:0:0:
192,192,86324,1,0,0:0:0:0:
448,192,86324,1,0,0:0:0:0:
64,192,86532,1,0,0:0:0:0:
320,192,86532,1,0,0:0:0:0:
448,192,86532,1,0,0:0:0:0:
192,192,86636,1,0,0:0:0:0:
320,192,86741,1,0,0:0:0:0:
448,192,86741,1,0,0:0:0:0:
64,192,86845,1,0,0:0:0:0:
320,192,86845,1,0,0:0:0:0:
192,192,86949,1,0,0:0:0:0:
448,192,86949,1,0,0:0:0:0:
64,192,86949,1,0,0:0:0:0:
320,192,87053,1,0,0:0:0:0:
64,192,87157,1,0,0:0:0:0:
192,192,87209,1,0,0:0:0:0:
320,192,87261,1,0,0:0:0:0:
192,192,87366,1,0,0:0:0:0:
64,192,87366,1,0,0:0:0:0:
448,192,87366,1,0,0:0:0:0:
320,192,87574,1,0,0:0:0:0:
64,192,87678,1,0,0:0:0:0:
448,192,87678,1,0,0:0:0:0:
192,192,87782,1,0,0:0:0:0:
320,192,87782,1,0,0:0:0:0:
448,192,87782,1,0,0:0:0:0:
64,192,87886,1,0,0:0:0:0:
192,192,87938,1,0,0:0:0:0:
448,192,87991,1,0,0:0:0:0:
320,192,88043,1,0,0:0:0:0:
64,192,88095,1,0,0:0:0:0:
192,192,88147,1,0,0:0:0:0:
320,192,88199,1,0,0:0:0:0:
448,192,88199,1,0,0:0:0:0:
64,192,88407,1,0,0:0:0:0:
448,192,88511,1,0,0:0:0:0:
192,192,88511,1,0,0:0:0:0:
320,192,88616,1,0,0:0:0:0:
64,192,88616,1,0,0:0:0:0:
448,192,88616,1,0,0:0:0:0:
192,192,88720,1,0,0:0:0:0:
448,192,88824,1,0,0:0:0:0:
320,192,88876,1,0,0:0:0:0:
192,192,88928,1,0,0:0:0:0:
320,192,89032,1,0,0:0:0:0:
448,192,89032,1,0,0:0:0:0:
64,192,89032,1,0,0:0:0:0:
192,192,89241,1,0,0:0:0:0:
448,192,89241,1,0,0:0:0:0:
64,192,89449,1,0,0:0:0:0:
192,192,89449,1,0,0:0:0:0:
320,192,89449,1,0,0:0:0:0:
448,192,89501,1,0,0:0:0:0:
320,192,89553,1,0,0:0:0:0:
64,192,89605,1,0,0:0:0:0:
192,192,89657,1,0,0:0:0:0:
320,192,89709,1,0,0:0:0:0:
448,192,89761,1,0,0:0:0:0:
64,192,89813,1,0,0:0:0:0:
192,192,89866,1,0,0:0:0:0:
320,192,89866,1,0,0:0:0:0:
448,192,89918,1,0,0:0:0:0:
320,192,89970,1,0,0:0:0:0:
192,192,90022,1,0,0:0:0:0:
64,192,90074,1,0,0:0:0:0:
448,192,90126,1,0,0:0:0:0:
320,192,90178,1,0,0:0:0:0:
192,192,90230,1,0,0:0:0:0:
64,192,90282,1,0,0:0:0:0:
448,192,90282,1,0,0:0:0:0:
64,192,90491,1,0,0:0:0:0:
320,192,90491,1,0,0:0:0:0:
192,192,90699,1,0,0:0:0:0:
448,192,90699,1,0,0:0:0:0:
64,192,90803,1,0,0:0:0:0:
320,192,90907,1,0,0:0:0:0:
64,192,91011,1,0,0:0:0:0:
448,192,91011,1,0,0:0:0:0:
320,192,91220,1,0,0:0:0:0:
64,192,91220,1,0,0:0:0:0:
192,192,91324,1,0,0:0:0:0:
448,192,91324,1,0,0:0:0:0:
320,192,91428,1,0,0:0:0:0:
192,192,91480,1,0,0:0:0:0:
64,192,91532,1,0,0:0:0:0:
448,192,91532,1,0,0:0:0:0:
320,192,91602,1,0,0:0:0:0:
192,192,91671,1,0,0:0:0:0:
448,192,91741,1,0,0:0:0:0:
192,192,91949,1,0,0:0:0:0:
64,192,91949,1,0,0:0:0:0:
320,192,92053,1,0,0:0:0:0:
192,192,92157,1,0,0:0:0:0:
320,192,92261,1,0,0:0:0:0:
64,192,92366,1,0,0:0:0:0:
448,192,92366,1,0,0:0:0:0:
192,192,92418,1,0,0:0:0:0:
320,192,92470,1,0,0:0:0:0:
448,192,92522,1,0,0:0:0:0:
64,192,92574,1,0,0:0:0:0:
192,192,92626,1,0,0:0:0:0:
320,192,92678,1,0,0:0:0:0:
448,192,92730,1,0,0:0:0:0:
192,192,92782,1,0,0:0:0:0:
64,192,92782,1,0,0:0:0:0:
192,192,92991,1,0,0:0:0:0:
448,192,92991,1,0,0:0:0:0:
64,192,93199,1,0,0:0:0:0:
192,192,93199,1,0,0:0:0:0:
320,192,93199,1,0,0:0:0:0:
448,192,93303,1,0,0:0:0:0:
320,192,93407,1,0,0:0:0:0:
64,192,93511,1,0,0:0:0:0:
192,192,93616,1,0,0:0:0:0:
320,192,93616,1,0,0:0:0:0:
448,192,93616,1,0,0:0:0:0:
64,192,93720,1,0,0:0:0:0:
448,192,93824,1,0,0:0:0:0:
320,192,93876,1,0,0:0:0:0:
192,192,93928,1,0,0:0:0:0:
64,192,94032,1,0,0:0:0:0:
448,192,94032,1,0,0:0:0:0:
320,192,94032,1,0,0:0:0:0:
192,192,94136,1,0,0:0:0:0:
448,192,94241,1,0,0:0:0:0:
192,192,94345,1,0,0:0:0:0:
64,192,94345,1,0,0:0:0:0:
320,192,94449,1,0,0:0:0:0:
192,192,94553,1,0,0:0:0:0:
64,192,94605,1,0,0:0:0:0:
320,192,94657,1,0,0:0:0:0:
448,192,94709,1,0,0:0:0:0:
192,192,94761,1,0,0:0:0:0:
64,192,94813,1,0,0:0:0:0:
320,192,94866,1,0,0:0:0:0:
448,192,94866,1,0,0:0:0:0:
192,192,94970,1,0,0:0:0:0:
448,192,95074,1,0,0:0:0:0:
64,192,95178,1,0,0:0:0:0:
192,192,95282,1,0,0:0:0:0:
448,192,95282,1,0,0:0:0:0:
320,192,95386,1,0,0:0:0:0:
64,192,95491,1,0,0:0:0:0:
448,192,95595,1,0,0:0:0:0:
320,192,95699,1,0,0:0:0:0:
64,192,95699,1,0,0:0:0:0:
192,192,95907,1,0,0:0:0:0:
448,192,95907,1,0,0:0:0:0:
320,192,96116,1,0,0:0:0:0:
448,192,96116,1,0,0:0:0:0:
64,192,96168,1,0,0:0:0:0:
192,192,96220,1,0,0:0:0:0:
320,192,96272,1,0,0:0:0:0:
448,192,96324,1,0,0:0:0:0:
64,192,96376,1,0,0:0:0:0:
192,192,96428,1,0,0:0:0:0:
320,192,96480,1,0,0:0:0:0:
448,192,96532,1,0,0:0:0:0:
320,192,96558,1,0,0:0:0:0:
64,192,96636,1,0,0:0:0:0:
192,192,96662,1,0,0:0:0:0:
448,192,96741,1,0,0:0:0:0:
320,192,96767,1,0,0:0:0:0:
64,192,96845,1,0,0:0:0:0:
192,192,96871,1,0,0:0:0:0:
448,192,96949,1,0,0:0:0:0:
320,192,96949,1,0,0:0:0:0:
64,192,96949,1,0,0:0:0:0:
64,192,97261,1,0,0:0:0:0:
192,192,97261,1,0,0:0:0:0:
448,192,97261,1,0,0:0:0:0:
448,192,97574,1,0,0:0:0:0:
320,192,97574,1,0,0:0:0:0:
192,192,97574,1,0,0:0:0:0:
64,192,97886,1,0,0:0:0:0:
192,192,97886,1,0,0:0:0:0:
320,192,97886,1,0,0:0:0:0:
448,192,98199,1,0,0:0:0:0:
320,192,98199,1,0,0:0:0:0:
64,192,98199,1,0,0:0:0:0:
192,192,98251,1,0,0:0:0:0:
448,192,98303,1,0,0:0:0:0:
320,192,98407,1,0,0:0:0:0:
192,192,98459,1,0,0:0:0:0:
448,192,98511,1,0,0:0:0:0:
64,192,98511,1,0,0:0:0:0:
320,192,98563,1,0,0:0:0:0:
192,192,98616,1,0,0:0:0:0:
64,192,98720,1,0,0:0:0:0:
192,192,98772,1,0,0:0:0:0:
320,192,98824,1,0,0:0:0:0:
448,192,98824,1,0,0:0:0:0:
448,192,98928,1,0,0:0:0:0:
192,192,98928,1,0,0:0:0:0:
64,192,99032,1,0,0:0:0:0:
192,192,99084,1,0,0:0:0:0:
320,192,99136,1,0,0:0:0:0:
448,192,99136,1,0,0:0:0:0:
64,192,99345,1,0,0:0:0:0:
192,192,99345,1,0,0:0:0:0:
448,192,99345,1,0,0:0:0:0:
320,192,99553,1,0,0:0:0:0:
192,192,99657,1,0,0:0:0:0:
320,192,99709,1,0,0:0:0:0:
192,192,99761,1,0,0:0:0:0:
320,192,99813,1,0,0:0:0:0:
192,192,99900,1,0,0:0:0:0:
320,192,100004,1,0,0:0:0:0:
192,192,100109,1,0,0:0:0:0:
320,192,100247,1,0,0:0:0:0:
192,192,100491,1,0,0:0:0:0:
448,192,100699,1,0,0:0:0:0:
448,192,101116,5,0,0:0:0:0:
320,192,101116,1,0,0:0:0:0:
64,192,101532,1,0,0:0:0:0:
320,192,101636,1,0,0:0:0:0:
192,192,101741,1,0,0:0:0:0:
320,192,101845,1,0,0:0:0:0:
448,192,101845,1,0,0:0:0:0:
64,192,102157,1,0,0:0:0:0:
320,192,102157,1,0,0:0:0:0:
192,192,102366,1,0,0:0:0:0:
448,192,102366,1,0,0:0:0:0:
64,192,102366,1,0,0:0:0:0:
320,192,102678,1,0,0:0:0:0:
448,192,102678,1,0,0:0:0:0:
64,192,102678,1,0,0:0:0:0:
192,192,102991,1,0,0:0:0:0:
448,192,103199,1,0,0:0:0:0:
192,192,103303,1,0,0:0:0:0:
320,192,103407,1,0,0:0:0:0:
64,192,103511,1,0,0:0:0:0:
192,192,103511,1,0,0:0:0:0:
448,192,103616,1,0,0:0:0:0:
320,192,103720,1,0,0:0:0:0:
192,192,103720,1,0,0:0:0:0:
64,192,103720,1,0,0:0:0:0:
192,192,104032,1,0,0:0:0:0:
320,192,104032,1,0,0:0:0:0:
448,192,104032,1,0,0:0:0:0:
64,192,104449,1,0,0:0:0:0:
192,192,104449,1,0,0:0:0:0:
448,192,104449,1,0,0:0:0:0:
320,192,104761,1,0,0:0:0:0:
64,192,104866,1,0,0:0:0:0:
448,192,104970,1,0,0:0:0:0:
320,192,105074,1,0,0:0:0:0:
64,192,105074,1,0,0:0:0:0:
192,192,105178,1,0,0:0:0:0:
448,192,105178,1,0,0:0:0:0:
320,192,105386,1,0,0:0:0:0:
448,192,105386,1,0,0:0:0:0:
192,192,105491,1,0,0:0:0:0:
64,192,105491,1,0,0:0:0:0:
448,192,105699,1,0,0:0:0:0:
320,192,105699,1,0,0:0:0:0:
64,192,105699,1,0,0:0:0:0:
64,192,106011,1,0,0:0:0:0:
192,192,106011,1,0,0:0:0:0:
448,192,106011,1,0,0:0:0:0:
320,192,106254,1,0,0:0:0:0:
448,192,106393,1,0,0:0:0:0:
320,192,106463,1,0,0:0:0:0:
192,192,106532,1,0,0:0:0:0:
64,192,106602,1,0,0:0:0:0:
448,192,106671,1,0,0:0:0:0:
192,192,106741,1,0,0:0:0:0:
320,192,106810,1,0,0:0:0:0:
448,192,106879,1,0,0:0:0:0:
192,192,106949,1,0,0:0:0:0:
64,192,106949,1,0,0:0:0:0:
320,192,107053,1,0,0:0:0:0:
192,192,107157,1,0,0:0:0:0:
64,192,107261,1,0,0:0:0:0:
192,192,107366,1,0,0:0:0:0:
448,192,107366,1,0,0:0:0:0:
320,192,107782,1,0,0:0:0:0:
448,192,107782,1,0,0:0:0:0:
64,192,107782,1,0,0:0:0:0:
192,192,108095,1,0,0:0:0:0:
320,192,108199,1,0,0:0:0:0:
192,192,108407,1,0,0:0:0:0:
320,192,108616,1,0,0:0:0:0:
64,192,108824,1,0,0:0:0:0:
192,192,109032,1,0,0:0:0:0:
320,192,109032,1,0,0:0:0:0:
448,192,109032,1,0,0:0:0:0:
64,192,109345,1,0,0:0:0:0:
320,192,109345,1,0,0:0:0:0:
192,192,109345,1,0,0:0:0:0:
448,192,109449,1,0,0:0:0:0:
64,192,109553,1,0,0:0:0:0:
64,192,109657,1,0,0:0:0:0:
192,192,109761,1,0,0:0:0:0:
448,192,109866,1,0,0:0:0:0:
320,192,109918,1,0,0:0:0:0:
192,192,109970,1,0,0:0:0:0:
64,192,110074,1,0,0:0:0:0:
320,192,110074,1,0,0:0:0:0:
192,192,110178,1,0,0:0:0:0:
448,192,110178,1,0,0:0:0:0:
320,192,110282,1,0,0:0:0:0:
192,192,110386,1,0,0:0:0:0:
64,192,110386,1,0,0:0:0:0:
448,192,110386,1,0,0:0:0:0:
448,192,110699,1,0,0:0:0:0:
320,192,110699,1,0,0:0:0:0:
64,192,110699,1,0,0:0:0:0:
64,192,111116,1,0,0:0:0:0:
192,192,111116,1,0,0:0:0:0:
320,192,111116,1,0,0:0:0:0:
448,192,111324,1,0,0:0:0:0:
320,192,111376,1,0,0:0:0:0:
192,192,111428,1,0,0:0:0:0:
64,192,111480,1,0,0:0:0:0:
448,192,111532,1,0,0:0:0:0:
192,192,111636,1,0,0:0:0:0:
320,192,111741,1,0,0:0:0:0:
64,192,111741,1,0,0:0:0:0:
192,192,111845,1,0,0:0:0:0:
320,192,111949,1,0,0:0:0:0:
448,192,111949,1,0,0:0:0:0:
64,192,112053,1,0,0:0:0:0:
320,192,112053,1,0,0:0:0:0:
192,192,112157,1,0,0:0:0:0:
320,192,112157,1,0,0:0:0:0:
448,192,112261,1,0,0:0:0:0:
320,192,112366,1,0,0:0:0:0:
192,192,112366,1,0,0:0:0:0:
64,192,112366,1,0,0:0:0:0:
448,192,112470,1,0,0:0:0:0:
64,192,112574,1,0,0:0:0:0:
192,192,112678,1,0,0:0:0:0:
320,192,112678,1,0,0:0:0:0:
448,192,112678,1,0,0:0:0:0:
