osu file format v14

[General]
AudioFilename: audio.mp3
AudioLeadIn: 0
PreviewTime: 67248
Countdown: 0
SampleSet: Soft
StackLeniency: 0.2
Mode: 0
LetterboxInBreaks: 0
WidescreenStoryboard: 1

[Editor]
Bookmarks: 1420,23362,48048,56277,67248,111134
DistanceSpacing: 0.3
BeatDivisor: 4
GridSize: 16
TimelineZoom: 2.5

[Metadata]
Title:Ring
TitleUnicode:Ring
Artist:Camellia
ArtistUnicode:かめりあ
Creator:_Yiiiii
Version:Extreme 1
Source:
Tags:
BeatmapID:1353553
BeatmapSetID:638051

[Difficulty]
HPDrainRate:6
CircleSize:4
OverallDifficulty:8.5
ApproachRate:9.5
SliderMultiplier:2.5
SliderTickRate:1

[Events]
//Background and Video events
0,0,"bg.jpg",0,0
//Break Periods
2,48248,55733
//Storyboard Layer 0 (Background)
//Storyboard Layer 1 (Fail)
//Storyboard Layer 2 (Pass)
//Storyboard Layer 3 (Foreground)
//Storyboard Sound Samples

[TimingPoints]
1420,342.857142857143,4,2,0,5,1,0
21648,-142.857142857143,4,2,1,50,0,0
23362,-200,4,2,1,70,0,0
48048,-100,4,2,1,5,0,0
56277,-100,4,3,1,50,0,0
61762,-100,4,2,1,70,0,0
66905,-66.6666666666667,4,2,1,70,0,0
67248,-200,4,2,1,100,0,0
67934,-66.6666666666667,4,2,1,100,0,0
68277,-100,4,2,1,100,0,0
68791,-50,4,2,1,100,0,0
69991,-166.666666666667,4,2,1,100,0,0
70677,-66.6666666666667,4,2,1,100,0,0
71705,-200,4,2,1,100,0,0
72391,-33.3333333333333,4,2,1,100,0,0
72734,-200,4,2,1,100,0,0
73420,-66.6666666666667,4,2,1,100,0,0
74277,-50,4,2,1,100,0,0
75477,-200,4,2,1,100,0,0
76848,-50,4,2,1,100,0,0
77191,-200,4,2,1,100,0,0
78905,-66.6666666666667,4,2,1,100,0,0
79762,-50,4,2,1,100,0,0
80959,-166.666666666667,4,2,1,100,0,0
81991,-66.6666666666667,4,2,1,100,0,0
82677,-200,4,2,1,100,0,0
83362,-33.3333333333333,4,2,1,100,0,0
83705,-200,4,2,1,100,0,0
84391,-66.6666666666667,4,2,1,100,0,0
85248,-50,4,2,1,100,0,0
86448,-200,4,2,1,100,0,0
87820,-50,4,2,1,100,0,0
88162,-200,4,2,1,100,0,0
89877,-66.6666666666667,4,2,1,100,0,0
90562,-200,4,2,1,100,0,0
91248,-50,4,2,1,100,0,0
91591,-150,4,2,1,100,0,0
91934,-166.666666666667,4,2,1,100,0,0
92620,-66.6666666666667,4,2,1,100,0,0
94677,-200,4,2,1,100,0,0
95362,-66.6666666666667,4,2,1,100,0,0
95705,-100,4,2,1,100,0,0
96220,-66.6666666666667,4,2,1,100,0,0
96905,-50,4,2,1,100,0,0
97420,-200,4,2,1,100,0,0
99305,-66.6666666666667,4,2,1,100,0,0
100162,-200,4,2,1,100,0,0
100848,-66.6666666666667,4,2,1,100,0,0
101534,-200,4,2,1,100,0,0
102220,-50,4,2,1,100,0,0
102562,-150,4,2,1,100,0,0
102905,-166.666666666667,4,2,1,100,0,0
103591,-66.6666666666667,4,2,1,100,0,0
105648,-200,4,2,1,100,0,0
106334,-66.6666666666667,4,2,1,100,0,0
106677,-100,4,2,1,100,0,0
107020,-66.6666666666667,4,2,1,100,0,0
107877,-50,4,2,1,100,0,0
108391,-166.666666666667,4,2,1,100,0,0
110448,-66.6666666666667,4,2,1,100,0,0

[HitObjects]
420,133,21648,6,0,L|493:160,4,43.749998664856,2|0|2|2|2,0:0|0:0|0:0|0:0|0:0,0:0:0:0:
268,79,22162,1,2,0:0:0:0:
265,91,22248,1,0,0:0:0:0:
219,130,22334,5,2,0:0:0:0:
223,142,22420,1,2,0:0:0:0:
273,168,22505,5,2,0:0:0:0:
269,200,22590,1,0,0:0:0:0:
266,233,22676,1,2,0:0:0:0:
262,265,22762,1,2,0:0:0:0:
259,298,22848,1,2,0:0:0:0:
308,358,22934,5,2,0:0:0:0:
275,317,23019,1,0,0:0:0:0:
228,294,23105,1,2,0:0:0:0:
176,293,23191,1,2,0:0:0:0:
128,313,23276,1,2,0:0:0:0:
94,353,23362,6,0,P|101:312|90:251,1,93.75,4|0,3:0|0:0,1:0:0:0:
89,252,23705,1,8,3:0:0:0:
148,174,23877,2,0,P|82:170|44:99,1,125,0|4,3:0|3:0,1:0:0:0:
127,43,24391,2,0,L|119:105,1,62.5,8|2,3:0|0:0,1:0:0:0:
148,174,24648,1,2,0:0:0:0:
155,179,24734,5,4,3:0:0:0:
250,125,24905,2,0,P|302:120|335:126,1,62.5,0|8,0:0|3:0,1:0:0:0:
319,127,25162,2,0,L|318:167,1,31.25,2|0,0:0|0:0,0:0:0:0:
403,227,25334,1,2,0:0:0:0:
407,235,25420,2,0,L|406:203,1,31.25,2|0,0:0|0:0,0:0:0:0:
230,339,25591,1,4,3:0:0:0:
230,339,25762,2,0,L|167:342,1,62.5,8|0,3:0|0:0,1:0:0:0:
255,204,26105,6,0,L|147:197,1,93.75,4|0,3:0|0:0,1:0:0:0:
152,198,26448,1,8,3:0:0:0:
59,276,26620,2,0,B|66:189|66:189|63:181|63:181|70:147,1,125,0|4,3:0|3:0,1:0:0:0:
216,104,27134,2,0,P|174:118|147:114,1,62.5,8|0,3:0|0:0,1:0:0:0:
282,23,27477,5,4,3:0:0:0:
282,23,27648,2,0,L|373:31,1,62.5,0|8,0:0|3:0,1:0:0:0:
397,164,27991,1,2,0:0:0:0:
393,172,28077,2,0,P|390:225|397:255,1,62.5,4|0,3:0|0:0,1:0:0:0:
426,153,28334,2,0,L|338:148,1,62.5,4|8,3:0|3:0,1:0:0:0:
176,278,28677,1,2,0:0:0:0:
166,278,28762,1,0,0:0:0:0:
154,279,28848,6,0,L|263:289,1,93.75,4|0,3:0|0:0,1:0:0:0:
256,290,29191,1,8,3:0:0:0:
392,353,29362,2,0,P|363:299|391:234,1,125,0|4,3:0|3:0,1:0:0:0:
499,281,29877,2,0,B|468:297|468:297|435:292,1,62.5,8|2,3:0|0:0,1:0:0:0:
382,242,30134,1,2,0:0:0:0:
378,233,30220,5,4,3:0:0:0:
456,116,30391,2,0,P|465:71|450:35,1,62.5,0|8,0:0|3:0,1:0:0:0:
452,53,30648,2,0,L|421:59,1,31.25,2|0,0:0|0:0,0:0:0:0:
297,138,30820,1,2,0:0:0:0:
287,138,30905,2,0,L|327:130,1,31.25,2|0,0:0|0:0,0:0:0:0:
123,60,31077,1,4,3:0:0:0:
123,60,31248,2,0,L|130:140,1,62.5,8|0,3:0|0:0,1:0:0:0:
67,260,31591,6,0,P|131:242|175:263,1,93.75,4|0,3:0|0:0,1:0:0:0:
162,255,31934,1,8,3:0:0:0:
224,343,32105,2,0,L|269:342,1,31.25,2|0,0:0|0:0,0:0:0:0:
292,348,32277,2,0,L|285:263,1,62.5,0|4,0:0|3:0,1:0:0:0:
394,199,32620,2,0,L|401:114,1,62.5,8|0,3:0|0:0,1:0:0:0:
200,194,32962,5,4,3:0:0:0:
200,194,33134,2,0,P|244:204|280:195,1,62.5,0|8,0:0|3:0,1:0:0:0:
268,196,33391,2,0,L|271:152,1,31.25,2|0,0:0|0:0,0:0:0:0:
150,61,33562,2,0,L|145:139,1,62.5,4|0,3:0|0:0,1:0:0:0:
73,143,33820,2,0,L|76:205,1,62.5,4|8,3:0|3:0,1:0:0:0:
269,312,34162,1,2,0:0:0:0:
277,316,34248,1,2,0:0:0:0:
285,320,34334,6,0,L|181:310,1,93.75,4|0,3:0|0:0,1:0:0:0:
182,309,34677,1,8,3:0:0:0:
150,197,34848,2,0,P|203:196|243:132,1,125,0|4,3:0|3:0,1:0:0:0:
172,71,35362,2,0,B|163:102|163:102|174:133,1,62.5,8|2,3:0|0:0,1:0:0:0:
242,141,35620,1,2,0:0:0:0:
250,137,35705,5,4,3:0:0:0:
345,23,35877,2,0,P|389:20|429:29,1,62.5,0|8,0:0|3:0,1:0:0:0:
414,27,36134,2,0,L|410:69,1,31.25,2|0,0:0|0:0,0:0:0:0:
354,168,36305,1,2,0:0:0:0:
349,176,36391,2,0,L|341:129,1,31.25,2|0,0:0|0:0,0:0:0:0:
483,265,36562,1,4,3:0:0:0:
483,265,36734,2,0,L|408:269,1,62.5,8|0,3:0|0:0,1:0:0:0:
297,343,37077,6,0,P|268:307|203:296,1,93.75,4|0,3:0|0:0,1:0:0:0:
214,296,37420,1,8,3:0:0:0:
277,218,37591,2,0,L|270:136,1,62.5,0|2,3:0|0:0,1:0:0:0:
270,146,37848,1,2,0:0:0:0:
268,136,37934,1,4,3:0:0:0:
183,130,38105,2,0,B|183:148|183:148|187:163,1,31.25,8|2,3:0|0:0,0:0:0:0:
350,150,38277,2,0,B|350:132|350:132|346:119,1,31.25,2|2,0:0|0:0,0:0:0:0:
228,38,38448,6,0,B|211:34|211:34|193:41|193:41|119:41,1,93.75,4|0,3:0|0:0,1:0:0:0:
126,43,38791,2,0,P|111:86|113:120,1,62.5,8|0,3:0|0:0,1:0:0:0:
166,197,39048,2,0,P|155:167|135:144,1,62.5,4|0,3:0|0:0,1:0:0:0:
193,226,39305,2,0,L|193:144,1,62.5,4|8,3:0|3:0,1:0:0:0:
192,155,39562,1,2,0:0:0:0:
191,146,39648,1,2,0:0:0:0:
113,307,39820,6,0,L|234:302,1,93.75,4|0,3:0|0:0,1:0:0:0:
215,302,40162,1,8,3:0:0:0:
339,360,40334,2,0,P|322:297|348:219,1,125,0|4,3:0|3:0,1:0:0:0:
288,134,40848,2,0,L|300:52,1,62.5,8|0,3:0|0:0,1:0:0:0:
479,168,41191,5,4,3:0:0:0:
479,168,41362,2,0,P|433:176|401:165,1,62.5,2|8,0:0|3:0,1:0:0:0:
408,170,41620,2,0,L|415:127,1,31.25,2|0,0:0|0:0,0:0:0:0:
468,27,41791,1,2,0:0:0:0:
472,35,41877,2,0,L|466:71,1,31.25,2|0,0:0|0:0,0:0:0:0:
204,162,42048,1,4,3:0:0:0:
204,162,42220,2,0,L|128:152,1,62.5,8|0,3:0|0:0,1:0:0:0:
267,280,42562,6,0,L|166:293,1,93.75,4|0,3:0|0:0,1:0:0:0:
164,294,42905,1,8,3:0:0:0:
17,342,43077,2,0,P|42:285|15:201,1,125,0|4,3:0|3:0,1:0:0:0:
87,89,43591,2,0,L|95:21,1,62.5,8|0,3:0|0:0,1:0:0:0:
325,165,43934,6,0,P|285:172|259:168,1,62.5,4|0,3:0|0:0,1:0:0:0:
169,71,44277,1,8,3:0:0:0:
367,29,44448,1,2,0:0:0:0:
373,35,44534,2,0,L|371:100,1,62.5,4|0,3:0|0:0,1:0:0:0:
457,155,44791,2,0,P|418:165|385:197,1,62.5,4|8,3:0|3:0,1:0:0:0:
394,185,45048,1,0,0:0:0:0:
390,193,45134,1,2,0:0:0:0:
387,202,45220,1,2,0:0:0:0:
385,211,45305,5,6,0:2:0:0:
256,192,45391,12,0,48048,0:0:0:0:
101,87,56277,5,0,0:0:0:0:
102,99,56620,1,0,0:0:0:0:
103,111,56962,1,0,0:0:0:0:
104,123,57305,2,0,B|150:112|150:112|234:128,1,125,0|2,0:0|2:0,0:0:0:0:
415,223,57648,5,0,0:0:0:0:
413,235,57991,1,0,0:0:0:0:
411,247,58334,1,0,0:0:0:0:
409,259,58677,1,0,0:0:0:0:
340,51,59020,5,0,0:0:0:0:
342,63,59362,1,0,0:0:0:0:
344,75,59705,1,0,0:0:0:0:
346,87,60048,2,0,B|292:77|292:77|190:118,1,125,0|2,0:0|2:0,0:0:0:0:
83,227,60391,5,0,0:0:0:0:
84,239,60734,1,0,0:0:0:0:
85,251,61077,1,0,0:0:0:0:
87,263,61420,1,0,0:0:0:0:
259,344,61762,6,0,P|292:334|322:312,1,62.5,0|0,3:0|0:0,0:0:0:0:
381,197,61934,2,0,P|384:162|374:126,1,62.5,0|0,3:0|0:0,0:0:0:0:
285,19,62105,2,0,P|251:10|214:13,1,62.5,0|0,3:0|0:0,0:0:0:0:
97,64,62277,1,0,3:0:0:0:
97,64,62448,6,0,P|128:66|156:78,1,62.5,0|0,3:0|0:0,0:0:0:0:
271,176,62620,2,0,P|286:202|294:232,1,62.5,0|0,3:0|0:0,0:0:0:0:
89,273,62791,2,0,P|96:242|112:216,1,62.5,0|0,3:0|0:0,0:0:0:0:
250,93,62962,1,0,3:0:0:0:
250,99,63048,1,0,0:0:0:0:
250,105,63134,6,0,L|341:100,1,62.5,0|0,3:0|0:0,0:0:0:0:
442,200,63305,2,0,L|351:195,1,62.5,0|0,3:0|0:0,0:0:0:0:
259,344,63477,2,0,L|168:339,1,62.5,0|0,3:0|0:0,0:0:0:0:
44,169,63648,1,0,3:0:0:0:
44,169,63820,6,0,L|52:257,1,62.5,0|0,3:0|0:0,0:0:0:0:
228,182,63991,2,0,L|220:270,1,62.5,0|0,3:0|0:0,0:0:0:0:
86,41,64162,2,0,L|94:129,1,62.5,0|0,3:0|0:0,0:0:0:0:
259,344,64334,1,0,3:0:0:0:
258,337,64420,1,0,0:0:0:0:
257,330,64505,6,0,B|290:328|290:328|323:312,1,62.5,0|0,3:0|0:0,0:0:0:0:
222,244,64677,2,0,B|249:225|249:225|270:195,1,62.5,0|0,3:0|0:0,0:0:0:0:
148,187,64848,2,0,B|162:157|162:157|165:120,1,62.5,0|0,3:0|0:0,0:0:0:0:
55,174,65020,2,0,B|53:141|53:141|37:107,1,62.5,0|0,3:0|0:0,0:0:0:0:
0,333,65191,6,0,B|33:335|33:335|66:351,1,62.5,0|0,3:0|0:0,0:0:0:0:
257,330,65363,2,0,B|290:328|290:328|323:312,1,62.5,0|0,3:0|0:0,0:0:0:0:
266,201,65534,2,0,B|296:189|296:189|323:164,1,62.5,0|0,3:0|0:0,0:0:0:0:
6,253,65705,2,0,B|38:245|38:245|74:250,1,62.5,0|0,3:0|0:0,0:0:0:0:
467,17,65877,5,0,3:0:0:0:
466,22,65962,1,0,3:0:0:0:
466,28,66048,1,0,3:0:0:0:
466,34,66134,1,0,3:0:0:0:
466,40,66219,1,0,3:0:0:0:
466,46,66305,1,0,3:0:0:0:
466,52,66391,1,0,3:0:0:0:
465,58,66477,1,0,3:0:0:0:
465,63,66562,1,0,3:0:0:0:
465,69,66648,1,0,3:0:0:0:
465,75,66734,1,0,3:0:0:0:
465,81,66819,1,0,3:0:0:0:
465,87,66905,6,0,P|361:59|279:224,1,281.250010728836,4|0,3:1|0:0,0:0:0:0:
431,294,67248,6,0,B|427:261|427:261|431:244|431:244|425:199,1,93.75,4|0,3:0|0:0,1:0:0:0:
355,294,67591,2,0,B|359:324,1,31.25
507,224,67762,2,0,B|502:193,1,31.25
221,362,67934,6,0,P|90:318|164:144,1,281.250010728836,8|0,3:0|0:0,0:0:0:0:
225,159,68277,2,0,L|163:156,1,62.5,0|0,0:0|0:0,0:0:0:0:
29,110,68448,2,0,L|92:114,1,62.5,0|0,0:0|0:0,0:0:0:0:
427,25,68620,5,4,3:0:0:0:
229,67,68791,2,0,B|314:74|314:74|438:62|438:62|473:83,2,250,0|0|0,0:0|0:0|0:0,0:0:0:0:
411,293,69305,1,8,3:0:0:0:
473,335,69477,2,0,B|388:342|388:342|264:330|264:330|212:361,2,250,4|0|0,3:0|0:0|0:0,0:0:0:0:
329,119,69991,6,0,B|292:126|292:126|237:109|237:109|257:143|243:178|243:178|254:236,1,224.999993133545,4|0,3:0|0:0,1:0:0:0:
261,243,70591,1,0,0:0:0:0:
267,244,70677,5,8,3:0:0:0:
256,182,70762,1,0,0:0:0:0:
244,121,70848,1,0,0:0:0:0:
233,60,70934,1,0,0:0:0:0:
314,102,71020,2,0,B|224:103|224:103|152:71|152:71|149:117|117:139|117:139|160:126,1,281.250010728836,0|0,0:0|0:0,1:0:0:0:
61,70,71362,5,4,3:0:0:0:
61,70,71534,1,0,0:0:0:0:
101,256,71705,2,0,L|98:215,1,31.25,0|0,0:0|0:0,0:0:0:0:
21,329,71877,1,4,3:0:0:0:
112,367,71962,1,4,3:0:0:0:
107,343,72048,2,0,L|129:327,3,15.625,8|0|0|0,3:0|0:0|0:0|0:0,0:0:0:0:
189,351,72220,2,0,L|225:351,1,31.25,0|0,3:0|0:0,0:0:0:0:
386,124,72391,6,0,B|346:101|398:60|447:110|420:134|420:134|391:181|409:201|375:238|375:238|336:291|358:329|422:344|426:283|395:289,1,375.000014305115,0|0,0:0|0:0,1:0:0:0:
170,94,72734,6,0,B|153:91|153:91|136:97|136:97|106:84|59:89,1,93.75,4|0,3:0|0:0,1:0:0:0:
242,110,73077,2,0,B|246:96|246:96|242:79,1,31.25,0|0,0:0|0:0,0:0:0:0:
10,71,73248,2,0,B|6:87|6:87|10:101,1,31.25,0|0,0:0|0:0,0:0:0:0:
344,303,73420,6,0,B|319:207|426:182|426:182|323:163|358:29,1,281.250010728836,8|0,3:0|0:0,0:0:0:0:
512,110,73762,2,0,B|469:121|469:121|424:103,1,93.7500035762788,0|0,0:0|0:0,0:0:0:0:
420,269,73934,2,0,B|465:251|465:251|508:262,1,93.7500035762788,0|0,0:0|0:0,0:0:0:0:
227,315,74105,5,4,3:0:0:0:
178,124,74277,2,0,B|165:227|165:227|189:272|189:272|167:311|167:311|168:362,2,250,0|0|0,0:0|0:0|0:0,0:0:0:0:
409,345,74791,1,8,3:0:0:0:
465,295,74962,2,0,B|478:192|478:192|454:147|454:147|476:107|476:107|475:57,1,250,4|0,3:0|0:0,0:0:0:0:
409,345,75305,1,0,0:0:0:0:
178,124,75477,6,0,L|121:128,1,46.875,4|0,3:0|0:0,1:0:0:0:
126,128,75648,2,0,L|62:132,1,62.5,0|0,0:0|0:0,1:0:0:0:
232,121,75991,2,0,L|175:125,1,46.875,0|0,0:0|0:0,1:0:0:0:
178,124,76162,5,8,3:0:0:0:
384,236,76334,1,0,3:0:0:0:
313,260,76420,1,0,3:0:0:0:
332,293,76505,1,0,3:0:0:0:
374,273,76591,1,0,3:0:0:0:
360,320,76677,1,0,3:0:0:0:
349,330,76762,1,0,3:0:0:0:
348,339,76848,6,0,B|387:305|387:305|126:281|126:281|173:320,1,375,4|0,3:0|0:0,1:0:0:0:
266,184,77191,6,0,L|213:177,1,31.25,0|0,0:0|0:0,0:0:0:0:
52,141,77362,1,4,3:0:0:0:
121,56,77448,1,4,3:0:0:0:
107,38,77534,2,0,L|112:90,1,31.25,8|0,3:0|0:0,0:0:0:0:
101,373,77705,1,4,3:0:0:0:
426,222,77877,2,0,L|476:244,3,31.25
438,142,78220,6,0,B|408:136|380:152|380:152|366:147|366:147|321:145,1,93.75,4|0,3:0|0:0,1:0:0:0:
470,77,78562,2,0,P|455:70|432:68,1,31.25,0|0,0:0|0:0,0:0:0:0:
395,227,78734,2,0,L|437:220,1,31.25,0|0,0:0|0:0,0:0:0:0:
209,29,78905,6,0,P|114:93|190:278,1,281.250010728836,8|0,3:0|0:0,0:0:0:0:
283,285,79248,2,0,L|169:300,1,93.7500035762788,0|0,0:0|0:0,0:0:0:0:
22,332,79420,2,0,L|114:319,1,93.7500035762788,0|0,0:0|0:0,0:0:0:0:
392,132,79591,5,4,3:0:0:0:
419,330,79762,2,0,B|424:295|434:264|434:264|431:183|431:183|376:192|376:192|334:179,2,250,0|0|0,0:0|0:0|0:0,0:0:0:0:
177,95,80277,1,8,3:0:0:0:
137,31,80448,2,0,B|132:66|122:97|122:97|125:178|125:178|180:169|180:169|222:182,2,250,4|0|0,3:0|0:0|0:0,0:0:0:0:
153,307,80962,6,0,B|175:298|191:307|191:307|203:310|221:287|221:287|241:337|241:337|346:323,1,224.999993133545,4|0,3:0|0:0,1:0:0:0:
341,315,81562,1,0,0:0:0:0:
348,306,81648,5,8,3:0:0:0:
286,314,81733,1,0,0:0:0:0:
224,322,81819,1,0,0:0:0:0:
162,330,81905,1,0,0:0:0:0:
92,375,81991,2,0,B|154:360|176:292|145:234|145:234|177:191|177:191|146:202|111:168,1,281.250010728836,0|0,0:0|0:0,1:0:0:0:
246,96,82334,5,4,3:0:0:0:
246,96,82505,1,0,0:0:0:0:
370,260,82677,2,0,L|329:251,1,31.25,0|0,0:0|0:0,0:0:0:0:
390,374,82848,1,4,3:0:0:0:
489,303,82934,1,4,3:0:0:0:
466,278,83020,2,0,L|458:301,3,15.625,8|0|0|0,3:0|0:0|0:0|0:0,0:0:0:0:
498,210,83191,2,0,L|443:195,1,31.25,0|0,3:0|0:0,0:0:0:0:
106,252,83362,6,0,B|92:272|92:298|92:298|34:159|148:211|75:34|75:34|72:63|59:84,1,375.000014305115,0|0,0:0|0:0,1:0:0:0:
226,322,83705,6,0,B|271:319|271:319|279:322|279:322|336:318,1,93.75,4|0,3:0|0:0,1:0:0:0:
160,369,84048,2,0,L|154:328,1,31.25,0|0,0:0|0:0,0:0:0:0:
365,229,84220,2,0,L|369:259,1,31.25,0|0,0:0|0:0,0:0:0:0:
61,82,84391,6,0,B|24:17|24:17|289:57,1,281.250010728836,8|0,3:0|0:0,0:0:0:0:
357,129,84734,2,0,L|252:114,1,93.7500035762788,0|0,0:0|0:0,0:0:0:0:
101,188,84905,2,0,L|206:173,1,93.7500035762788,0|0,0:0|0:0,0:0:0:0:
468,85,85077,5,4,3:0:0:0:
427,256,85248,2,0,B|442:172|442:172|411:135|411:135|429:20,2,250
172,322,85762,1,8,3:0:0:0:
114,273,85934,2,0,B|129:189|129:189|98:151|98:151|115:36,1,250,4|0,3:0|0:0,0:0:0:0:
172,322,86277,1,0,0:0:0:0:
249,151,86448,6,0,P|277:143|304:148,1,46.875,4|0,3:0|0:0,1:0:0:0:
298,146,86620,2,0,P|328:150|358:141,1,62.5,0|0,0:0|0:0,1:0:0:0:
187,152,86962,2,0,P|209:159|232:158,1,46.875,0|0,0:0|0:0,1:0:0:0:
249,151,87134,5,8,3:0:0:0:
434,317,87305,1,0,3:0:0:0:
474,244,87391,1,0,3:0:0:0:
401,231,87477,1,0,3:0:0:0:
383,286,87562,1,0,3:0:0:0:
432,300,87648,1,0,3:0:0:0:
432,271,87734,1,0,3:0:0:0:
419,278,87820,6,0,B|452:322|452:322|48:276,1,375,4|0,3:0|0:0,1:0:0:0:
229,379,88162,6,0,L|281:387,1,31.25,0|0,0:0|0:0,0:0:0:0:
457,173,88334,1,4,3:0:0:0:
477,51,88420,1,4,3:0:0:0:
451,35,88505,2,0,L|464:81,1,31.25,8|0,3:0|0:0,0:0:0:0:
500,384,88677,1,4,3:0:0:0:
191,175,88848,2,0,L|150:178,3,31.25,0|0|0|0,0:0|0:0|0:0|0:0,0:0:0:0:
81,118,89191,6,0,B|76:160|76:160|83:175|83:175|75:224,1,93.75,4|0,3:0|0:0,1:0:0:0:
93,286,89534,1,0,0:0:0:0:
196,267,89620,1,0,0:0:0:0:
101,305,89705,1,0,0:0:0:0:
207,326,89791,1,0,0:0:0:0:
23,286,89877,6,0,P|164:269|271:361,1,281.250010728836,8|0,3:0|0:0,0:0:0:0:
7,325,90220,2,0,L|22:219,1,93.7500035762788,0|0,0:0|0:0,0:0:0:0:
3,348,90391,1,0,0:0:0:0:
320,229,90562,6,0,L|255:217,3,62.5,4|0|0|0,3:0|0:0|0:0|0:0,0:0:0:0:
481,48,91248,6,0,P|345:89|338:125,1,125,8|0,3:0|0:0,0:0:0:0:
103,124,91420,2,0,P|239:165|246:201,1,125,4|0,3:0|0:0,0:0:0:0:
70,235,91591,6,0,P|67:174|102:124,1,125,0|0,0:0|0:0,0:0:0:0:
16,269,91934,2,0,B|79:281|79:281|132:259|132:259|198:289|198:289|288:285,1,262.499991989136,4|0,3:0|0:0,1:0:0:0:
32,193,92620,6,0,B|109:259|124:385|124:385|81:24,1,562.500021457673,0|0,3:0|0:0,1:0:0:0:
24,370,93305,5,4,3:0:0:0:
275,243,93477,1,0,0:0:0:0:
231,246,93562,1,0,0:0:0:0:
191,267,93648,1,0,0:0:0:0:
221,220,93734,1,0,0:0:0:0:
227,180,93820,5,4,3:0:0:0:
260,264,93905,1,4,3:0:0:0:
267,182,93991,2,0,P|224:194|153:182,1,93.7500035762788,8|0,3:0|0:0,0:0:0:0:
46,67,94162,1,0,3:0:0:0:
46,67,94248,1,0,0:0:0:0:
46,67,94334,5,0,0:0:0:0:
48,102,94419,1,0,0:0:0:0:
29,148,94505,1,0,0:0:0:0:
32,183,94591,1,0,0:0:0:0:
35,218,94677,6,0,B|57:213|57:213|67:219|67:219|97:209|134:215,1,93.75,4|0,3:0|0:0,1:0:0:0:
247,150,95020,1,0,0:0:0:0:
272,280,95105,1,0,0:0:0:0:
224,195,95191,1,0,0:0:0:0:
331,226,95277,1,0,0:0:0:0:
193,230,95362,6,0,P|272:127|186:22,1,281.250010728836,8|0,3:0|0:0,0:0:0:0:
193,230,95705,6,0,P|127:232|190:250,1,187.5
48,304,96048,5,4,3:0:0:0:
48,304,96220,2,0,L|160:316,1,93.7500035762788,0|0,0:0|0:0,0:0:0:0:
415,214,96391,6,0,P|513:218|418:244,1,281.250010728836
402,105,96734,1,8,3:0:0:0:
462,60,96905,2,0,B|396:57|396:57|334:81|334:81|303:57|303:57|272:72|272:72|149:80,2,250,4|0|0,3:0|0:0|0:0,0:0:0:0:
155,121,97420,6,0,B|188:167|247:157|247:157|224:194|224:194|213:255,1,187.5,4|0,3:0|0:0,1:0:0:0:
74,35,98105,1,8,3:0:0:0:
38,280,98277,1,0,0:0:0:0:
105,244,98362,1,0,0:0:0:0:
185,286,98448,1,0,0:0:0:0:
261,256,98534,1,0,0:0:0:0:
324,304,98620,1,0,0:0:0:0:
394,277,98705,1,0,0:0:0:0:
476,312,98791,2,0,P|424:262|431:194,1,125,4|0,3:0|0:0,1:0:0:0:
476,25,99305,5,4,3:0:0:0:
457,135,99391,1,4,3:0:0:0:
498,44,99477,2,0,B|464:52|464:52|326:40,1,93.7500035762788,8|0,3:0|0:0,0:0:0:0:
107,49,99648,2,0,P|160:52|205:99,1,93.7500035762788,0|0,3:0|0:0,0:0:0:0:
5,233,99820,2,0,B|39:201|39:201|20:381,1,187.500007152558,0|0,0:0|0:0,0:0:0:0:
403,310,100162,6,0,B|377:322|377:322|336:322|336:322|294:304,1,93.75,4|0,3:0|0:0,1:0:0:0:
245,210,100505,1,0,0:0:0:0:
369,197,100591,1,0,0:0:0:0:
309,278,100677,1,0,0:0:0:0:
298,147,100762,1,0,0:0:0:0:
347,289,100848,6,0,P|238:227|77:361,1,281.250010728836,8|0,3:0|0:0,0:0:0:0:
369,314,101191,2,0,L|381:207,1,93.7500035762788,0|0,0:0|0:0,0:0:0:0:
367,349,101362,1,0,0:0:0:0:
147,109,101534,6,0,L|231:116,3,62.5,4|0|0|0,3:0|0:0|0:0|0:0,1:0:0:0:
0,230,102220,6,0,B|65:219|65:219|139:260,1,125,8|0,3:0|0:0,0:0:0:0:
303,365,102391,2,0,B|237:375|237:375|163:334,1,125,4|0,3:0|0:0,0:0:0:0:
404,304,102562,6,0,B|359:353|359:353|301:363,1,125
509,221,102905,2,0,B|471:239|414:217|414:217|484:247|500:301|469:354,1,262.499991989136,4|0,3:0|0:0,1:0:0:0:
482,144,103591,6,0,B|394:349|394:349|438:-1,1,562.500021457673,8|0,3:0|0:0,1:0:0:0:
228,293,104277,5,4,3:0:0:0:
325,94,104448,1,0,0:0:0:0:
263,80,104534,1,0,0:0:0:0:
221,84,104620,1,0,0:0:0:0:
270,37,104705,1,0,0:0:0:0:
282,161,104791,5,4,3:0:0:0:
267,62,104877,1,4,3:0:0:0:
312,139,104962,2,0,B|261:131|261:131|207:141,1,93.7500035762788,8|0,3:0|0:0,0:0:0:0:
68,331,105134,1,0,3:0:0:0:
68,331,105220,1,0,0:0:0:0:
68,331,105305,5,0,0:0:0:0:
114,334,105391,1,0,0:0:0:0:
160,337,105477,1,0,0:0:0:0:
210,307,105562,1,0,0:0:0:0:
256,311,105648,6,0,B|260:281|260:281|272:263|259:241|259:241|269:213,1,93.75,4|0,3:0|0:0,1:0:0:0:
278,139,105991,1,0,0:0:0:0:
391,101,106077,1,0,0:0:0:0:
293,146,106162,1,0,0:0:0:0:
337,25,106248,1,0,0:0:0:0:
285,148,106334,6,0,P|88:123|48:234,1,281.250010728836,8|0,3:0|0:0,0:0:0:0:
285,148,106677,6,0,P|352:148|286:152,1,187.5
450,20,107020,5,4,3:0:0:0:
450,20,107191,2,0,L|442:133,1,93.7500035762788,0|0,0:0|0:0,0:0:0:0:
339,319,107362,6,0,P|439:319|340:325,1,281.250010728836
247,220,107705,1,8,3:0:0:0:
183,179,107877,2,0,B|328:198|328:198|382:170|382:170|500:234,2,250,4|0|0,3:0|0:0|0:0,0:0:0:0:
455,116,108391,6,0,B|494:132|505:172|505:172|493:119|493:119|504:89|504:89|491:21,1,224.999993133545,4|0,3:0|0:0,1:0:0:0:
479,296,109077,5,8,3:0:0:0:
189,299,109248,1,0,0:0:0:0:
163,228,109334,1,0,0:0:0:0:
275,182,109420,1,0,0:0:0:0:
251,251,109505,1,0,0:0:0:0:
179,152,109591,1,0,0:0:0:0:
214,75,109677,1,0,0:0:0:0:
160,2,109762,2,0,B|197:22|197:22|259:9|259:9|322:36,1,149.999995422363,4|0,3:0|0:0,1:0:0:0:
336,229,110277,5,4,3:0:0:0:
325,137,110362,1,4,3:0:0:0:
361,216,110448,2,0,P|306:207|255:215,1,93.7500035762788,8|0,3:0|0:0,0:0:0:0:
116,344,110620,1,0,3:0:0:0:
89,255,110705,1,0,0:0:0:0:
182,264,110791,1,0,0:0:0:0:
175,318,110877,1,0,0:0:0:0:
130,302,110962,1,0,0:0:0:0:
140,281,111048,1,0,0:0:0:0:
135,359,111134,5,4,3:2:0:0:
