osu file format v14

[General]
AudioFilename: audio.mp3
AudioLeadIn: 0
PreviewTime: 269111
Countdown: 0
SampleSet: Soft
StackLeniency: 0.7
Mode: 3
LetterboxInBreaks: 0
SpecialStyle: 0
WidescreenStoryboard: 1

[Editor]
Bookmarks: 60630,88454,423676
DistanceSpacing: 0.8
BeatDivisor: 4
GridSize: 8
TimelineZoom: 2.899999

[Metadata]
Title:Rain of Amethyst
TitleUnicode:Rain of Amethyst
Artist:Camellia
ArtistUnicode:かめりあ
Creator:Antalf
Version:Normal
Source:
Tags:Crystallized Kaito-kun
BeatmapID:1387803
BeatmapSetID:654372

[Difficulty]
HPDrainRate:8
CircleSize:4
OverallDifficulty:8
ApproachRate:5
SliderMultiplier:1.4
SliderTickRate:1

[Events]
//Background and Video events
0,0,"qo0c.png",0,0
//Break Periods
//Storyboard Layer 0 (Background)
//Storyboard Layer 1 (Fail)
//Storyboard Layer 2 (Pass)
//Storyboard Layer 3 (Foreground)
//Storyboard Sound Samples

[TimingPoints]
18894,434.782608695652,4,2,0,100,1,0
269310,-100,4,2,0,100,0,1
297134,-100,4,2,0,100,0,0

[HitObjects]
64,192,98893,128,0,100633:0:0:0:0:
320,192,100633,1,0,0:0:0:0:
192,192,100633,1,0,0:0:0:0:
448,192,101502,1,0,0:0:0:0:
320,192,101611,1,0,0:0:0:0:
192,192,101720,128,0,101828:0:0:0:0:
64,192,101937,1,0,0:0:0:0:
192,192,102046,1,0,0:0:0:0:
320,192,102154,128,0,102263:0:0:0:0:
192,192,102372,1,0,0:0:0:0:
448,192,102372,1,0,0:0:0:0:
64,192,102589,1,0,0:0:0:0:
320,192,102807,1,0,0:0:0:0:
448,192,102807,1,0,0:0:0:0:
192,192,103024,1,0,0:0:0:0:
64,192,103241,1,0,0:0:0:0:
320,192,103241,1,0,0:0:0:0:
448,192,103459,1,0,0:0:0:0:
320,192,103676,1,0,0:0:0:0:
192,192,103676,1,0,0:0:0:0:
64,192,103893,1,0,0:0:0:0:
320,192,104111,1,0,0:0:0:0:
448,192,104111,1,0,0:0:0:0:
192,192,104328,1,0,0:0:0:0:
448,192,104546,1,0,0:0:0:0:
64,192,104546,1,0,0:0:0:0:
192,192,104763,1,0,0:0:0:0:
320,192,104980,1,0,0:0:0:0:
448,192,104980,1,0,0:0:0:0:
64,192,105198,1,0,0:0:0:0:
192,192,105415,1,0,0:0:0:0:
320,192,105415,1,0,0:0:0:0:
448,192,105633,1,0,0:0:0:0:
64,192,105850,1,0,0:0:0:0:
320,192,105850,1,0,0:0:0:0:
192,192,106067,1,0,0:0:0:0:
448,192,106285,1,0,0:0:0:0:
192,192,106502,1,0,0:0:0:0:
320,192,106502,1,0,0:0:0:0:
64,192,106720,1,0,0:0:0:0:
448,192,106937,1,0,0:0:0:0:
64,192,107154,1,0,0:0:0:0:
320,192,107154,1,0,0:0:0:0:
192,192,107372,1,0,0:0:0:0:
448,192,107589,1,0,0:0:0:0:
64,192,107807,1,0,0:0:0:0:
192,192,107807,1,0,0:0:0:0:
448,192,108024,1,0,0:0:0:0:
192,192,108241,1,0,0:0:0:0:
320,192,108241,1,0,0:0:0:0:
64,192,108459,1,0,0:0:0:0:
192,192,108676,1,0,0:0:0:0:
448,192,108676,1,0,0:0:0:0:
320,192,108893,1,0,0:0:0:0:
64,192,109111,1,0,0:0:0:0:
448,192,109111,1,0,0:0:0:0:
192,192,109328,1,0,0:0:0:0:
320,192,109546,1,0,0:0:0:0:
448,192,109546,1,0,0:0:0:0:
64,192,109763,1,0,0:0:0:0:
192,192,109980,1,0,0:0:0:0:
320,192,109980,1,0,0:0:0:0:
448,192,110198,1,0,0:0:0:0:
