osu file format v14

[General]
AudioFilename: audio.mp3
AudioLeadIn: 0
PreviewTime: 269111
Countdown: 0
SampleSet: Soft
StackLeniency: 0.7
Mode: 3
LetterboxInBreaks: 0
SpecialStyle: 0
WidescreenStoryboard: 0

[Editor]
Bookmarks: 60630,88454
DistanceSpacing: 0.8
BeatDivisor: 4
GridSize: 8
TimelineZoom: 2.899999

[Metadata]
Title:Rain of Amethyst
TitleUnicode:Rain of Amethyst
Artist:Camellia
ArtistUnicode:かめりあ
Creator:Antalf
Version:Hard
Source:
Tags:Crystallized Kaito-kun
BeatmapID:1387805
BeatmapSetID:654372

[Difficulty]
HPDrainRate:8
CircleSize:4
OverallDifficulty:8
ApproachRate:5
SliderMultiplier:1.4
SliderTickRate:1

[Events]
//Background and Video events
0,0,"qo0c.png",0,0
//Break Periods
//Storyboard Layer 0 (Background)
//Storyboard Layer 1 (Fail)
//Storyboard Layer 2 (Pass)
//Storyboard Layer 3 (Foreground)
//Storyboard Sound Samples

[TimingPoints]
18894,434.782608695652,4,2,0,100,1,0
269310,-100,4,2,0,100,0,1
297134,-100,4,2,0,100,0,0

[HitObjects]
64,192,18894,5,0,0:0:0:0:
192,192,19111,1,0,0:0:0:0:
320,192,19328,1,0,0:0:0:0:
448,192,19546,1,0,0:0:0:0:
192,192,19763,1,0,0:0:0:0:
448,192,20633,1,0,0:0:0:0:
192,192,21502,1,0,0:0:0:0:
64,192,22372,1,0,0:0:0:0:
448,192,22589,1,0,0:0:0:0:
320,192,22807,1,0,0:0:0:0:
192,192,23024,1,0,0:0:0:0:
448,192,23241,1,0,0:0:0:0:
64,192,24111,1,0,0:0:0:0:
320,192,24980,1,0,0:0:0:0:
192,192,25850,1,0,0:0:0:0:
448,192,26067,1,0,0:0:0:0:
64,192,26285,1,0,0:0:0:0:
192,192,26502,1,0,0:0:0:0:
320,192,26720,1,0,0:0:0:0:
448,192,28459,1,0,0:0:0:0:
64,192,28894,1,0,0:0:0:0:
320,192,29328,1,0,0:0:0:0:
192,192,29546,1,0,0:0:0:0:
448,192,29763,1,0,0:0:0:0:
64,192,29980,1,0,0:0:0:0:
320,192,30198,1,0,0:0:0:0:
192,192,30415,1,0,0:0:0:0:
64,192,30633,1,0,0:0:0:0:
448,192,30850,1,0,0:0:0:0:
320,192,31067,1,0,0:0:0:0:
192,192,31285,1,0,0:0:0:0:
448,192,31502,1,0,0:0:0:0:
64,192,31720,1,0,0:0:0:0:
192,192,31937,128,0,32807:0:0:0:0:
320,192,32154,1,0,0:0:0:0:
448,192,32372,1,0,0:0:0:0:
64,192,32589,1,0,0:0:0:0:
320,192,32807,128,0,33024:0:0:0:0:
64,192,33024,1,0,0:0:0:0:
192,192,33241,1,0,0:0:0:0:
448,192,33459,1,0,0:0:0:0:
320,192,33676,128,0,34546:0:0:0:0:
64,192,34546,128,0,35415:0:0:0:0:
192,192,35415,128,0,36285:0:0:0:0:
320,192,36285,128,0,36937:0:0:0:0:
448,192,36285,1,0,0:0:0:0:
64,192,36502,1,0,0:0:0:0:
192,192,36720,1,0,0:0:0:0:
448,192,36937,1,0,0:0:0:0:
64,192,37154,128,0,38024:0:0:0:0:
320,192,38024,128,0,38894:0:0:0:0:
448,192,38894,128,0,39763:0:0:0:0:
192,192,39546,1,0,0:0:0:0:
64,192,39763,128,0,40633:0:0:0:0:
320,192,40633,128,0,41067:0:0:0:0:
192,192,41502,1,0,0:0:0:0:
448,192,41937,128,0,42372:0:0:0:0:
64,192,42372,128,0,42807:0:0:0:0:
320,192,42807,128,0,43241:0:0:0:0:
448,192,43241,128,0,43676:0:0:0:0:
192,192,43459,1,0,0:0:0:0:
64,192,43676,1,0,0:0:0:0:
320,192,43894,1,0,0:0:0:0:
192,192,44111,1,0,0:0:0:0:
448,192,44111,128,0,44980:0:0:0:0:
64,192,44328,1,0,0:0:0:0:
320,192,44546,1,0,0:0:0:0:
192,192,44763,1,0,0:0:0:0:
64,192,44980,128,0,45850:0:0:0:0:
320,192,45198,1,0,0:0:0:0:
192,192,45415,1,0,0:0:0:0:
448,192,45633,1,0,0:0:0:0:
320,192,45850,128,0,46720:0:0:0:0:
192,192,46067,1,0,0:0:0:0:
448,192,46285,1,0,0:0:0:0:
64,192,46502,1,0,0:0:0:0:
192,192,46720,1,0,0:0:0:0:
448,192,46720,1,0,0:0:0:0:
64,192,46937,1,0,0:0:0:0:
448,192,47154,1,0,0:0:0:0:
192,192,47372,1,0,0:0:0:0:
320,192,47589,1,0,0:0:0:0:
64,192,47807,1,0,0:0:0:0:
448,192,48024,1,0,0:0:0:0:
192,192,48241,1,0,0:0:0:0:
320,192,48459,1,0,0:0:0:0:
64,192,48676,1,0,0:0:0:0:
448,192,48894,1,0,0:0:0:0:
192,192,49111,1,0,0:0:0:0:
320,192,49328,1,0,0:0:0:0:
64,192,49546,1,0,0:0:0:0:
448,192,49763,1,0,0:0:0:0:
192,192,49980,1,0,0:0:0:0:
320,192,50198,1,0,0:0:0:0:
448,192,50198,1,0,0:0:0:0:
64,192,50415,1,0,0:0:0:0:
448,192,50633,1,0,0:0:0:0:
192,192,50850,1,0,0:0:0:0:
320,192,51067,1,0,0:0:0:0:
64,192,51285,1,0,0:0:0:0:
448,192,51502,1,0,0:0:0:0:
192,192,51720,1,0,0:0:0:0:
320,192,51937,1,0,0:0:0:0:
64,192,52154,1,0,0:0:0:0:
448,192,52372,1,0,0:0:0:0:
192,192,52589,1,0,0:0:0:0:
320,192,52807,1,0,0:0:0:0:
64,192,53024,1,0,0:0:0:0:
448,192,53241,1,0,0:0:0:0:
192,192,53459,1,0,0:0:0:0:
320,192,53676,1,0,0:0:0:0:
448,192,53676,1,0,0:0:0:0:
64,192,53894,1,0,0:0:0:0:
448,192,54111,1,0,0:0:0:0:
192,192,54328,1,0,0:0:0:0:
320,192,54546,1,0,0:0:0:0:
64,192,54763,1,0,0:0:0:0:
448,192,54980,1,0,0:0:0:0:
192,192,55198,1,0,0:0:0:0:
320,192,55415,1,0,0:0:0:0:
64,192,55633,1,0,0:0:0:0:
448,192,55850,1,0,0:0:0:0:
192,192,56067,1,0,0:0:0:0:
320,192,56285,128,0,56502:0:0:0:0:
320,192,56720,128,0,56937:0:0:0:0:
320,192,57154,128,0,57372:0:0:0:0:
192,192,57154,1,0,0:0:0:0:
320,192,57589,128,0,57807:0:0:0:0:
320,192,58024,128,0,58241:0:0:0:0:
64,192,58459,1,0,0:0:0:0:
192,192,58459,1,0,0:0:0:0:
448,192,58785,1,0,0:0:0:0:
320,192,58894,1,0,0:0:0:0:
192,192,58894,1,0,0:0:0:0:
64,192,59111,1,0,0:0:0:0:
192,192,59328,1,0,0:0:0:0:
448,192,59328,1,0,0:0:0:0:
320,192,59546,5,0,0:0:0:0:
192,192,59654,1,0,0:0:0:0:
448,192,59763,1,0,0:0:0:0:
64,192,59763,1,0,0:0:0:0:
192,192,59980,1,0,0:0:0:0:
320,192,60089,1,0,0:0:0:0:
64,192,60198,1,0,0:0:0:0:
192,192,60198,1,0,0:0:0:0:
448,192,60270,1,0,0:0:0:0:
320,192,60343,1,0,0:0:0:0:
192,192,60415,1,0,0:0:0:0:
64,192,60488,1,0,0:0:0:0:
320,192,60560,1,0,0:0:0:0:
64,192,60633,5,0,0:0:0:0:
448,192,60633,128,0,61720:0:0:0:0:
192,192,60633,1,0,0:0:0:0:
320,192,60850,1,0,0:0:0:0:
320,192,61067,1,0,0:0:0:0:
64,192,61285,1,0,0:0:0:0:
192,192,61502,1,0,0:0:0:0:
64,192,61720,128,0,62046:0:0:0:0:
192,192,61937,1,0,0:0:0:0:
320,192,62046,128,0,62372:0:0:0:0:
448,192,62154,1,0,0:0:0:0:
192,192,62372,128,0,63024:0:0:0:0:
320,192,62589,1,0,0:0:0:0:
448,192,62807,1,0,0:0:0:0:
448,192,63024,128,0,63459:0:0:0:0:
64,192,63241,1,0,0:0:0:0:
64,192,63459,128,0,63676:0:0:0:0:
192,192,63676,128,0,64111:0:0:0:0:
448,192,63894,1,0,0:0:0:0:
320,192,64002,1,0,0:0:0:0:
448,192,64111,128,0,65415:0:0:0:0:
64,192,64111,1,0,0:0:0:0:
320,192,64328,1,0,0:0:0:0:
64,192,64546,1,0,0:0:0:0:
320,192,64763,1,0,0:0:0:0:
192,192,64980,1,0,0:0:0:0:
192,192,65198,1,0,0:0:0:0:
64,192,65415,1,0,0:0:0:0:
192,192,65633,128,0,65741:0:0:0:0:
320,192,65741,128,0,65850:0:0:0:0:
64,192,65850,128,0,66176:0:0:0:0:
448,192,66067,1,0,0:0:0:0:
320,192,66176,128,0,66502:0:0:0:0:
192,192,66285,1,0,0:0:0:0:
448,192,66502,128,0,66720:0:0:0:0:
320,192,66720,128,0,67046:0:0:0:0:
448,192,66937,1,0,0:0:0:0:
64,192,67046,128,0,67372:0:0:0:0:
192,192,67154,1,0,0:0:0:0:
448,192,67372,128,0,67589:0:0:0:0:
192,192,67589,128,0,68676:0:0:0:0:
64,192,67589,1,0,0:0:0:0:
320,192,67807,1,0,0:0:0:0:
64,192,68024,1,0,0:0:0:0:
448,192,68241,1,0,0:0:0:0:
64,192,68459,1,0,0:0:0:0:
64,192,68676,128,0,69002:0:0:0:0:
192,192,68894,1,0,0:0:0:0:
320,192,69002,128,0,69328:0:0:0:0:
448,192,69111,1,0,0:0:0:0:
64,192,69328,128,0,69980:0:0:0:0:
192,192,69546,1,0,0:0:0:0:
320,192,69763,1,0,0:0:0:0:
448,192,69980,128,0,70415:0:0:0:0:
320,192,70198,1,0,0:0:0:0:
192,192,70415,128,0,71067:0:0:0:0:
320,192,70633,1,0,0:0:0:0:
448,192,70850,1,0,0:0:0:0:
64,192,71067,128,0,71937:0:0:0:0:
192,192,71285,1,0,0:0:0:0:
320,192,71502,1,0,0:0:0:0:
448,192,71720,1,0,0:0:0:0:
192,192,71937,1,0,0:0:0:0:
320,192,72154,128,0,72372:0:0:0:0:
192,192,72372,128,0,72589:0:0:0:0:
448,192,72589,128,0,73676:0:0:0:0:
320,192,72807,1,0,0:0:0:0:
192,192,73024,1,0,0:0:0:0:
320,192,73241,1,0,0:0:0:0:
64,192,73459,1,0,0:0:0:0:
192,192,73676,1,0,0:0:0:0:
320,192,73894,1,0,0:0:0:0:
64,192,74111,128,0,74183:0:0:0:0:
192,192,74183,128,0,74256:0:0:0:0:
448,192,74256,128,0,74328:0:0:0:0:
320,192,74328,128,0,74401:0:0:0:0:
192,192,74401,128,0,74473:0:0:0:0:
448,192,74473,128,0,74546:0:0:0:0:
64,192,74546,128,0,75633:0:0:0:0:
192,192,74763,1,0,0:0:0:0:
448,192,74980,1,0,0:0:0:0:
320,192,75198,1,0,0:0:0:0:
192,192,75415,1,0,0:0:0:0:
320,192,75633,128,0,75959:0:0:0:0:
64,192,75850,1,0,0:0:0:0:
192,192,75959,128,0,76285:0:0:0:0:
448,192,76067,1,0,0:0:0:0:
64,192,76285,128,0,76937:0:0:0:0:
320,192,76502,1,0,0:0:0:0:
448,192,76720,1,0,0:0:0:0:
320,192,76937,128,0,77589:0:0:0:0:
448,192,77154,1,0,0:0:0:0:
192,192,77372,1,0,0:0:0:0:
192,192,77589,128,0,78024:0:0:0:0:
320,192,77807,1,0,0:0:0:0:
448,192,78024,128,0,79328:0:0:0:0:
320,192,78241,1,0,0:0:0:0:
192,192,78459,1,0,0:0:0:0:
320,192,78676,1,0,0:0:0:0:
64,192,78894,1,0,0:0:0:0:
64,192,79111,1,0,0:0:0:0:
192,192,79328,1,0,0:0:0:0:
64,192,79546,128,0,79654:0:0:0:0:
320,192,79654,128,0,79763:0:0:0:0:
192,192,79763,128,0,80089:0:0:0:0:
320,192,79980,1,0,0:0:0:0:
448,192,80089,128,0,80415:0:0:0:0:
192,192,80198,1,0,0:0:0:0:
64,192,80415,128,0,80633:0:0:0:0:
320,192,80633,128,0,80959:0:0:0:0:
448,192,80850,1,0,0:0:0:0:
192,192,80959,128,0,81285:0:0:0:0:
64,192,81067,1,0,0:0:0:0:
448,192,81285,128,0,81502:0:0:0:0:
64,192,81502,128,0,82372:0:0:0:0:
320,192,81720,1,0,0:0:0:0:
192,192,81937,1,0,0:0:0:0:
448,192,82154,1,0,0:0:0:0:
320,192,82372,1,0,0:0:0:0:
320,192,82589,128,0,82915:0:0:0:0:
448,192,82807,1,0,0:0:0:0:
192,192,82915,128,0,83241:0:0:0:0:
64,192,83024,1,0,0:0:0:0:
448,192,83241,128,0,84111:0:0:0:0:
320,192,83459,1,0,0:0:0:0:
64,192,83676,1,0,0:0:0:0:
320,192,83894,1,0,0:0:0:0:
192,192,84111,1,0,0:0:0:0:
64,192,84328,128,0,84654:0:0:0:0:
448,192,84546,1,0,0:0:0:0:
192,192,84654,128,0,85089:0:0:0:0:
320,192,84763,1,0,0:0:0:0:
64,192,84980,1,0,0:0:0:0:
448,192,85089,128,0,85633:0:0:0:0:
320,192,85198,1,0,0:0:0:0:
192,192,85415,1,0,0:0:0:0:
64,192,85633,128,0,86285:0:0:0:0:
320,192,85633,1,0,0:0:0:0:
192,192,85850,1,0,0:0:0:0:
448,192,86067,1,0,0:0:0:0:
320,192,86285,128,0,88459:0:0:0:0:
64,192,86502,1,0,0:0:0:0:
448,192,86720,1,0,0:0:0:0:
192,192,86937,1,0,0:0:0:0:
64,192,87154,1,0,0:0:0:0:
192,192,87372,1,0,0:0:0:0:
448,192,87589,1,0,0:0:0:0:
192,192,87807,1,0,0:0:0:0:
64,192,88024,1,0,0:0:0:0:
192,192,88241,1,0,0:0:0:0:
448,192,88459,1,0,0:0:0:0:
64,192,88459,1,0,0:0:0:0:
320,192,88567,1,0,0:0:0:0:
192,192,88676,1,0,0:0:0:0:
64,192,88785,1,0,0:0:0:0:
320,192,88894,1,0,0:0:0:0:
448,192,88894,1,0,0:0:0:0:
64,192,89002,1,0,0:0:0:0:
448,192,89111,1,0,0:0:0:0:
320,192,89220,1,0,0:0:0:0:
192,192,89328,1,0,0:0:0:0:
64,192,89328,1,0,0:0:0:0:
448,192,89437,1,0,0:0:0:0:
64,192,89546,1,0,0:0:0:0:
192,192,89654,1,0,0:0:0:0:
320,192,89763,1,0,0:0:0:0:
448,192,89763,1,0,0:0:0:0:
64,192,89872,1,0,0:0:0:0:
448,192,89980,1,0,0:0:0:0:
320,192,90089,1,0,0:0:0:0:
192,192,90198,1,0,0:0:0:0:
64,192,90198,1,0,0:0:0:0:
448,192,90307,1,0,0:0:0:0:
64,192,90415,1,0,0:0:0:0:
192,192,90524,1,0,0:0:0:0:
320,192,90633,1,0,0:0:0:0:
448,192,90633,1,0,0:0:0:0:
64,192,90741,1,0,0:0:0:0:
192,192,90850,1,0,0:0:0:0:
448,192,90959,1,0,0:0:0:0:
320,192,91067,1,0,0:0:0:0:
192,192,91067,1,0,0:0:0:0:
64,192,91176,1,0,0:0:0:0:
448,192,91285,1,0,0:0:0:0:
192,192,91394,1,0,0:0:0:0:
320,192,91502,1,0,0:0:0:0:
64,192,91502,1,0,0:0:0:0:
448,192,91611,1,0,0:0:0:0:
192,192,91720,1,0,0:0:0:0:
320,192,91828,1,0,0:0:0:0:
64,192,91937,1,0,0:0:0:0:
448,192,91937,1,0,0:0:0:0:
192,192,92046,1,0,0:0:0:0:
320,192,92154,1,0,0:0:0:0:
64,192,92263,1,0,0:0:0:0:
192,192,92372,1,0,0:0:0:0:
320,192,92372,1,0,0:0:0:0:
448,192,92480,1,0,0:0:0:0:
320,192,92589,1,0,0:0:0:0:
192,192,92698,1,0,0:0:0:0:
448,192,92807,1,0,0:0:0:0:
64,192,92807,1,0,0:0:0:0:
320,192,92915,1,0,0:0:0:0:
192,192,93024,1,0,0:0:0:0:
448,192,93133,1,0,0:0:0:0:
320,192,93241,1,0,0:0:0:0:
64,192,93241,1,0,0:0:0:0:
192,192,93350,1,0,0:0:0:0:
64,192,93459,1,0,0:0:0:0:
320,192,93567,1,0,0:0:0:0:
192,192,93676,1,0,0:0:0:0:
448,192,93676,1,0,0:0:0:0:
64,192,93785,1,0,0:0:0:0:
320,192,93894,1,0,0:0:0:0:
192,192,94002,1,0,0:0:0:0:
64,192,94111,1,0,0:0:0:0:
320,192,94111,1,0,0:0:0:0:
448,192,94220,1,0,0:0:0:0:
192,192,94328,1,0,0:0:0:0:
320,192,94437,1,0,0:0:0:0:
64,192,94546,1,0,0:0:0:0:
448,192,94546,1,0,0:0:0:0:
192,192,94654,1,0,0:0:0:0:
320,192,94763,1,0,0:0:0:0:
448,192,94872,1,0,0:0:0:0:
64,192,94980,1,0,0:0:0:0:
192,192,94980,1,0,0:0:0:0:
320,192,95089,1,0,0:0:0:0:
448,192,95198,1,0,0:0:0:0:
192,192,95307,1,0,0:0:0:0:
64,192,95415,1,0,0:0:0:0:
320,192,95415,1,0,0:0:0:0:
448,192,95524,1,0,0:0:0:0:
320,192,95633,1,0,0:0:0:0:
192,192,95741,1,0,0:0:0:0:
64,192,95850,1,0,0:0:0:0:
448,192,95850,1,0,0:0:0:0:
320,192,95959,1,0,0:0:0:0:
192,192,96067,1,0,0:0:0:0:
64,192,96176,1,0,0:0:0:0:
320,192,96285,1,0,0:0:0:0:
448,192,96285,1,0,0:0:0:0:
192,192,96394,1,0,0:0:0:0:
64,192,96502,1,0,0:0:0:0:
448,192,96611,1,0,0:0:0:0:
320,192,96720,1,0,0:0:0:0:
192,192,96720,1,0,0:0:0:0:
64,192,96828,1,0,0:0:0:0:
448,192,96937,1,0,0:0:0:0:
320,192,97046,1,0,0:0:0:0:
192,192,97154,1,0,0:0:0:0:
64,192,97154,1,0,0:0:0:0:
320,192,97263,1,0,0:0:0:0:
64,192,97372,1,0,0:0:0:0:
448,192,97480,1,0,0:0:0:0:
320,192,97589,1,0,0:0:0:0:
192,192,97589,1,0,0:0:0:0:
64,192,97698,1,0,0:0:0:0:
192,192,97807,1,0,0:0:0:0:
320,192,97915,1,0,0:0:0:0:
448,192,98024,1,0,0:0:0:0:
64,192,98024,1,0,0:0:0:0:
192,192,98133,1,0,0:0:0:0:
320,192,98241,1,0,0:0:0:0:
448,192,98350,1,0,0:0:0:0:
64,192,98459,1,0,0:0:0:0:
192,192,98459,1,0,0:0:0:0:
320,192,98567,1,0,0:0:0:0:
448,192,98676,1,0,0:0:0:0:
64,192,98785,1,0,0:0:0:0:
448,192,98893,1,0,0:0:0:0:
320,192,98893,1,0,0:0:0:0:
192,192,99002,1,0,0:0:0:0:
64,192,99111,1,0,0:0:0:0:
448,192,99220,1,0,0:0:0:0:
192,192,99328,1,0,0:0:0:0:
320,192,99328,1,0,0:0:0:0:
64,192,99437,1,0,0:0:0:0:
448,192,99546,1,0,0:0:0:0:
320,192,99654,1,0,0:0:0:0:
192,192,99763,1,0,0:0:0:0:
64,192,99763,1,0,0:0:0:0:
448,192,99872,1,0,0:0:0:0:
64,192,99980,1,0,0:0:0:0:
192,192,100089,1,0,0:0:0:0:
320,192,100198,1,0,0:0:0:0:
448,192,100198,1,0,0:0:0:0:
64,192,100307,1,0,0:0:0:0:
448,192,100415,1,0,0:0:0:0:
320,192,100524,1,0,0:0:0:0:
64,192,100633,1,0,0:0:0:0:
192,192,100633,1,0,0:0:0:0:
320,192,100850,1,0,0:0:0:0:
320,192,101067,1,0,0:0:0:0:
320,192,101285,1,0,0:0:0:0:
64,192,101502,1,0,0:0:0:0:
192,192,101502,1,0,0:0:0:0:
448,192,101611,1,0,0:0:0:0:
320,192,101720,1,0,0:0:0:0:
64,192,101828,1,0,0:0:0:0:
192,192,101828,1,0,0:0:0:0:
448,192,101937,1,0,0:0:0:0:
320,192,101937,1,0,0:0:0:0:
64,192,102046,1,0,0:0:0:0:
192,192,102154,1,0,0:0:0:0:
448,192,102263,1,0,0:0:0:0:
320,192,102372,1,0,0:0:0:0:
64,192,102372,1,0,0:0:0:0:
192,192,102589,1,0,0:0:0:0:
320,192,102807,1,0,0:0:0:0:
448,192,102807,1,0,0:0:0:0:
64,192,103024,1,0,0:0:0:0:
320,192,103241,1,0,0:0:0:0:
192,192,103241,1,0,0:0:0:0:
448,192,103459,1,0,0:0:0:0:
320,192,103676,1,0,0:0:0:0:
64,192,103676,1,0,0:0:0:0:
192,192,103894,1,0,0:0:0:0:
448,192,104111,1,0,0:0:0:0:
320,192,104111,1,0,0:0:0:0:
64,192,104328,1,0,0:0:0:0:
448,192,104546,1,0,0:0:0:0:
192,192,104546,1,0,0:0:0:0:
320,192,104763,1,0,0:0:0:0:
192,192,104980,1,0,0:0:0:0:
64,192,104980,1,0,0:0:0:0:
448,192,105198,1,0,0:0:0:0:
320,192,105415,1,0,0:0:0:0:
192,192,105415,1,0,0:0:0:0:
64,192,105633,1,0,0:0:0:0:
448,192,105850,1,0,0:0:0:0:
192,192,105850,1,0,0:0:0:0:
320,192,106067,1,0,0:0:0:0:
448,192,106285,1,0,0:0:0:0:
64,192,106285,1,0,0:0:0:0:
192,192,106502,1,0,0:0:0:0:
320,192,106720,1,0,0:0:0:0:
448,192,106720,1,0,0:0:0:0:
64,192,106937,1,0,0:0:0:0:
448,192,107154,1,0,0:0:0:0:
192,192,107154,1,0,0:0:0:0:
320,192,107372,1,0,0:0:0:0:
192,192,107589,1,0,0:0:0:0:
64,192,107589,1,0,0:0:0:0:
448,192,107807,1,0,0:0:0:0:
320,192,108024,1,0,0:0:0:0:
192,192,108024,1,0,0:0:0:0:
64,192,108241,1,0,0:0:0:0:
192,192,108459,1,0,0:0:0:0:
448,192,108459,1,0,0:0:0:0:
320,192,108676,1,0,0:0:0:0:
448,192,108894,1,0,0:0:0:0:
64,192,108894,1,0,0:0:0:0:
192,192,109111,1,0,0:0:0:0:
320,192,109328,1,0,0:0:0:0:
448,192,109328,1,0,0:0:0:0:
64,192,109546,1,0,0:0:0:0:
192,192,109763,1,0,0:0:0:0:
448,192,109763,1,0,0:0:0:0:
320,192,109980,1,0,0:0:0:0:
448,192,110198,1,0,0:0:0:0:
64,192,110198,1,0,0:0:0:0:
320,192,110415,1,0,0:0:0:0:
192,192,110633,1,0,0:0:0:0:
64,192,110633,1,0,0:0:0:0:
448,192,110850,1,0,0:0:0:0:
320,192,111067,1,0,0:0:0:0:
192,192,111067,1,0,0:0:0:0:
64,192,111285,1,0,0:0:0:0:
448,192,111502,1,0,0:0:0:0:
192,192,111502,1,0,0:0:0:0:
320,192,111720,1,0,0:0:0:0:
192,192,111937,1,0,0:0:0:0:
64,192,111937,1,0,0:0:0:0:
448,192,112154,1,0,0:0:0:0:
64,192,112372,1,0,0:0:0:0:
320,192,112372,1,0,0:0:0:0:
192,192,112589,1,0,0:0:0:0:
448,192,112807,1,0,0:0:0:0:
320,192,112807,1,0,0:0:0:0:
64,192,113024,1,0,0:0:0:0:
192,192,113241,1,0,0:0:0:0:
320,192,113241,1,0,0:0:0:0:
448,192,113459,1,0,0:0:0:0:
64,192,113676,1,0,0:0:0:0:
192,192,113676,1,0,0:0:0:0:
320,192,113894,1,0,0:0:0:0:
64,192,114111,1,0,0:0:0:0:
448,192,114111,1,0,0:0:0:0:
192,192,114328,1,0,0:0:0:0:
448,192,114546,1,0,0:0:0:0:
320,192,114546,1,0,0:0:0:0:
64,192,114654,1,0,0:0:0:0:
192,192,114709,1,0,0:0:0:0:
320,192,114763,1,0,0:0:0:0:
64,192,114872,1,0,0:0:0:0:
448,192,114980,1,0,0:0:0:0:
192,192,114980,1,0,0:0:0:0:
320,192,115198,1,0,0:0:0:0:
64,192,115307,1,0,0:0:0:0:
192,192,115415,1,0,0:0:0:0:
448,192,115415,1,0,0:0:0:0:
320,192,115524,1,0,0:0:0:0:
448,192,115633,1,0,0:0:0:0:
64,192,115741,1,0,0:0:0:0:
192,192,115741,1,0,0:0:0:0:
448,192,115850,1,0,0:0:0:0:
320,192,115850,1,0,0:0:0:0:
64,192,115959,1,0,0:0:0:0:
192,192,115959,1,0,0:0:0:0:
320,192,116067,1,0,0:0:0:0:
448,192,116067,1,0,0:0:0:0:
64,192,116176,1,0,0:0:0:0:
192,192,116176,1,0,0:0:0:0:
320,192,116285,1,0,0:0:0:0:
448,192,116285,1,0,0:0:0:0:
64,192,116502,1,0,0:0:0:0:
192,192,116720,1,0,0:0:0:0:
448,192,116720,1,0,0:0:0:0:
320,192,116937,1,0,0:0:0:0:
64,192,117154,1,0,0:0:0:0:
192,192,117154,1,0,0:0:0:0:
448,192,117372,1,0,0:0:0:0:
320,192,117589,1,0,0:0:0:0:
192,192,117589,1,0,0:0:0:0:
64,192,117807,1,0,0:0:0:0:
448,192,118024,1,0,0:0:0:0:
320,192,118024,1,0,0:0:0:0:
192,192,118241,1,0,0:0:0:0:
64,192,118459,1,0,0:0:0:0:
448,192,118459,1,0,0:0:0:0:
320,192,118676,1,0,0:0:0:0:
192,192,118894,1,0,0:0:0:0:
64,192,118894,1,0,0:0:0:0:
448,192,119111,1,0,0:0:0:0:
192,192,119328,1,0,0:0:0:0:
320,192,119328,1,0,0:0:0:0:
64,192,119546,1,0,0:0:0:0:
192,192,119763,1,0,0:0:0:0:
448,192,119763,1,0,0:0:0:0:
320,192,119980,1,0,0:0:0:0:
64,192,120198,1,0,0:0:0:0:
448,192,120198,1,0,0:0:0:0:
192,192,120415,1,0,0:0:0:0:
320,192,120633,1,0,0:0:0:0:
448,192,120633,1,0,0:0:0:0:
64,192,120850,1,0,0:0:0:0:
192,192,121067,1,0,0:0:0:0:
320,192,121067,1,0,0:0:0:0:
448,192,121285,1,0,0:0:0:0:
64,192,121502,1,0,0:0:0:0:
320,192,121502,1,0,0:0:0:0:
192,192,121720,1,0,0:0:0:0:
448,192,121937,1,0,0:0:0:0:
64,192,121937,1,0,0:0:0:0:
320,192,122154,1,0,0:0:0:0:
64,192,122372,1,0,0:0:0:0:
192,192,122372,1,0,0:0:0:0:
448,192,122589,1,0,0:0:0:0:
64,192,122807,1,0,0:0:0:0:
320,192,122807,1,0,0:0:0:0:
192,192,123024,1,0,0:0:0:0:
448,192,123241,1,0,0:0:0:0:
320,192,123241,1,0,0:0:0:0:
64,192,123459,1,0,0:0:0:0:
192,192,123676,1,0,0:0:0:0:
320,192,123676,1,0,0:0:0:0:
448,192,123894,1,0,0:0:0:0:
64,192,124111,1,0,0:0:0:0:
320,192,124111,1,0,0:0:0:0:
192,192,124328,1,0,0:0:0:0:
448,192,124546,1,0,0:0:0:0:
64,192,124546,1,0,0:0:0:0:
192,192,124763,1,0,0:0:0:0:
64,192,124980,1,0,0:0:0:0:
320,192,124980,1,0,0:0:0:0:
192,192,125089,1,0,0:0:0:0:
448,192,125198,1,0,0:0:0:0:
320,192,125307,1,0,0:0:0:0:
192,192,125415,1,0,0:0:0:0:
64,192,125415,1,0,0:0:0:0:
448,192,125633,5,0,0:0:0:0:
320,192,125850,1,0,0:0:0:0:
192,192,125850,1,0,0:0:0:0:
64,192,126067,1,0,0:0:0:0:
448,192,126285,1,0,0:0:0:0:
192,192,126285,1,0,0:0:0:0:
320,192,126502,1,0,0:0:0:0:
192,192,126720,5,0,0:0:0:0:
64,192,126720,1,0,0:0:0:0:
320,192,126937,1,0,0:0:0:0:
192,192,127154,1,0,0:0:0:0:
448,192,127154,1,0,0:0:0:0:
320,192,127372,1,0,0:0:0:0:
192,192,127589,1,0,0:0:0:0:
64,192,127589,1,0,0:0:0:0:
448,192,127698,1,0,0:0:0:0:
320,192,127807,1,0,0:0:0:0:
192,192,127915,1,0,0:0:0:0:
64,192,128024,1,0,0:0:0:0:
448,192,128024,1,0,0:0:0:0:
320,192,128133,1,0,0:0:0:0:
192,192,128241,1,0,0:0:0:0:
320,192,128350,1,0,0:0:0:0:
64,192,128459,1,0,0:0:0:0:
448,192,128459,128,0,129328:0:0:0:0:
192,192,128567,1,0,0:0:0:0:
320,192,128676,1,0,0:0:0:0:
64,192,128785,1,0,0:0:0:0:
192,192,128893,1,0,0:0:0:0:
320,192,129002,1,0,0:0:0:0:
64,192,129111,1,0,0:0:0:0:
192,192,129220,1,0,0:0:0:0:
64,192,129328,1,0,0:0:0:0:
320,192,129328,1,0,0:0:0:0:
192,192,129437,1,0,0:0:0:0:
448,192,129546,1,0,0:0:0:0:
64,192,129654,1,0,0:0:0:0:
192,192,129654,1,0,0:0:0:0:
320,192,129763,1,0,0:0:0:0:
448,192,129763,1,0,0:0:0:0:
64,192,129872,1,0,0:0:0:0:
192,192,129980,1,0,0:0:0:0:
320,192,130089,1,0,0:0:0:0:
64,192,130198,1,0,0:0:0:0:
192,192,130198,1,0,0:0:0:0:
448,192,130198,1,0,0:0:0:0:
320,192,130415,1,0,0:0:0:0:
192,192,130524,1,0,0:0:0:0:
64,192,130633,1,0,0:0:0:0:
448,192,130633,1,0,0:0:0:0:
192,192,130850,1,0,0:0:0:0:
320,192,131067,1,0,0:0:0:0:
448,192,131067,1,0,0:0:0:0:
64,192,131285,1,0,0:0:0:0:
448,192,131394,1,0,0:0:0:0:
320,192,131502,1,0,0:0:0:0:
192,192,131502,1,0,0:0:0:0:
64,192,131720,1,0,0:0:0:0:
192,192,131937,1,0,0:0:0:0:
448,192,131937,1,0,0:0:0:0:
320,192,132154,1,0,0:0:0:0:
64,192,132372,1,0,0:0:0:0:
192,192,132372,1,0,0:0:0:0:
448,192,132589,1,0,0:0:0:0:
192,192,132807,1,0,0:0:0:0:
320,192,132807,1,0,0:0:0:0:
64,192,133024,1,0,0:0:0:0:
192,192,133133,1,0,0:0:0:0:
320,192,133241,1,0,0:0:0:0:
448,192,133241,1,0,0:0:0:0:
64,192,133459,1,0,0:0:0:0:
448,192,133676,1,0,0:0:0:0:
192,192,133676,1,0,0:0:0:0:
320,192,133894,1,0,0:0:0:0:
192,192,134111,1,0,0:0:0:0:
64,192,134111,1,0,0:0:0:0:
448,192,134328,1,0,0:0:0:0:
320,192,134546,1,0,0:0:0:0:
192,192,134546,1,0,0:0:0:0:
64,192,134763,1,0,0:0:0:0:
192,192,134872,1,0,0:0:0:0:
448,192,134980,1,0,0:0:0:0:
320,192,134980,1,0,0:0:0:0:
64,192,135198,1,0,0:0:0:0:
192,192,135415,1,0,0:0:0:0:
320,192,135415,1,0,0:0:0:0:
448,192,135633,1,0,0:0:0:0:
64,192,135850,1,0,0:0:0:0:
320,192,135850,1,0,0:0:0:0:
192,192,136067,1,0,0:0:0:0:
64,192,136176,1,0,0:0:0:0:
320,192,136285,1,0,0:0:0:0:
448,192,136285,1,0,0:0:0:0:
64,192,136502,1,0,0:0:0:0:
448,192,136611,1,0,0:0:0:0:
320,192,136720,1,0,0:0:0:0:
192,192,136720,1,0,0:0:0:0:
64,192,136937,1,0,0:0:0:0:
448,192,137154,1,0,0:0:0:0:
192,192,137154,1,0,0:0:0:0:
320,192,137372,1,0,0:0:0:0:
192,192,137589,1,0,0:0:0:0:
64,192,137589,1,0,0:0:0:0:
448,192,137807,1,0,0:0:0:0:
64,192,138024,1,0,0:0:0:0:
320,192,138024,1,0,0:0:0:0:
192,192,138241,1,0,0:0:0:0:
64,192,138350,1,0,0:0:0:0:
320,192,138459,1,0,0:0:0:0:
448,192,138459,1,0,0:0:0:0:
192,192,138676,1,0,0:0:0:0:
64,192,138893,1,0,0:0:0:0:
320,192,138893,1,0,0:0:0:0:
448,192,139111,1,0,0:0:0:0:
64,192,139220,1,0,0:0:0:0:
192,192,139328,1,0,0:0:0:0:
320,192,139328,1,0,0:0:0:0:
64,192,139546,1,0,0:0:0:0:
192,192,139763,1,0,0:0:0:0:
448,192,139763,1,0,0:0:0:0:
64,192,139980,1,0,0:0:0:0:
192,192,140089,1,0,0:0:0:0:
448,192,140198,1,0,0:0:0:0:
320,192,140198,1,0,0:0:0:0:
