osu file format v14

[General]
AudioFilename: racemization.mp3
AudioLeadIn: 0
PreviewTime: 90034
Countdown: 0
SampleSet: Normal
StackLeniency: 0.2
Mode: 1
LetterboxInBreaks: 0
EpilepsyWarning: 1
WidescreenStoryboard: 0

[Editor]
Bookmarks: 5792,24802,43812,53317,62822,81832,91337,110346,129356,166188,186386,195891,214901,224406,243416,262426
DistanceSpacing: 1.2
BeatDivisor: 4
GridSize: 4
TimelineZoom: 2.599999

[Metadata]
Title:Racemization
TitleUnicode:Racemization
Artist:Camellia
ArtistUnicode:かめりあ
Creator:lop
Version:This is just a dream....
Source:
Tags:cameltek planet shaper PLANET//SHAPER drumstep
BeatmapID:952006
BeatmapSetID:442704

[Difficulty]
HPDrainRate:4
CircleSize:3
OverallDifficulty:6
ApproachRate:10
SliderMultiplier:1.4
SliderTickRate:1

[Events]
//Background and Video events
0,0,"55976003_p0.jpg",0,0
//Break Periods
//Storyboard Layer 0 (Background)
//Storyboard Layer 1 (Fail)
//Storyboard Layer 2 (Pass)
//Storyboard Layer 3 (Foreground)
//Storyboard Sound Samples

[TimingPoints]
1040,297.029702970297,4,1,0,70,1,0
79455,-100,4,1,0,50,0,0
81832,-100,4,1,0,60,0,0
91337,-100,4,1,0,80,0,1
109752,-100,4,1,0,70,0,0
129653,-133.333333333333,4,2,0,40,0,0
157871,-117.647058823529,4,2,0,60,0,0
162624,-105.263157894737,4,1,0,60,0,0
163812,-100,4,1,0,60,0,0
167376,-100,4,1,0,70,0,0
196485,-125,4,2,0,50,0,0
205396,-100,4,1,0,70,0,0
224406,-100,4,1,0,80,0,1
242228,-100,4,1,0,70,0,0

[Colours]
Combo1 : 128,0,0
Combo2 : 0,251,251
Combo3 : 255,128,0
Combo4 : 255,128,255
Combo5 : 192,192,192
Combo6 : 79,79,79
Combo7 : 0,128,128
Combo8 : 253,0,0

[HitObjects]
256,192,42475,12,0,43515,0:0:0:0:
177,208,43812,5,4,0:0:0:0:
170,216,44257,1,4,0:0:0:0:
177,208,45000,1,4,0:0:0:0:
170,216,45445,1,4,0:0:0:0:
157,182,45742,1,8,0:0:0:0:
177,208,46188,1,4,0:0:0:0:
170,216,46634,1,4,0:0:0:0:
177,208,47376,1,4,0:0:0:0:
256,192,47673,12,0,48416,0:0:0:0:
177,208,48564,5,4,0:0:0:0:
170,216,49010,1,4,0:0:0:0:
177,208,49752,1,4,0:0:0:0:
170,216,50198,1,4,0:0:0:0:
173,184,50495,1,8,0:0:0:0:
177,208,50940,1,4,0:0:0:0:
170,216,51386,1,4,0:0:0:0:
177,208,52129,1,4,0:0:0:0:
43,205,52426,2,0,P|64:289|272:224,1,350
176,131,53317,1,0,0:0:0:0:
176,131,53465,1,0,0:0:0:0:
176,131,53614,1,8,0:0:0:0:
176,131,53762,1,0,0:0:0:0:
171,135,53911,1,0,0:0:0:0:
171,135,54059,1,8,0:0:0:0:
171,135,54208,1,0,0:0:0:0:
171,135,54356,1,8,0:0:0:0:
167,136,54505,1,0,0:0:0:0:
167,136,54653,1,0,0:0:0:0:
167,136,54802,1,8,0:0:0:0:
171,135,54950,1,0,0:0:0:0:
171,135,55099,1,0,0:0:0:0:
171,135,55247,1,8,0:0:0:0:
171,135,55396,1,0,0:0:0:0:
167,136,55544,1,8,0:0:0:0:
167,136,55693,1,0,0:0:0:0:
152,144,55841,1,8,0:0:0:0:
171,135,55990,1,0,0:0:0:0:
171,135,56139,1,8,0:0:0:0:
155,143,56287,1,0,0:0:0:0:
155,142,56436,1,8,0:0:0:0:
149,146,56584,1,8,0:0:0:0:
149,146,56733,1,8,0:0:0:0:
152,144,56881,1,0,0:0:0:0:
152,143,57030,1,8,0:0:0:0:
152,143,57178,1,0,0:0:0:0:
155,143,57327,1,8,0:0:0:0:
155,142,57475,1,0,0:0:0:0:
149,145,57624,1,8,0:0:0:0:
149,146,57772,1,8,0:0:0:0:
152,144,57921,1,8,0:0:0:0:
152,143,58069,1,0,0:0:0:0:
152,143,58218,1,0,0:0:0:0:
148,144,58292,1,0,0:0:0:0:
143,109,58366,1,0,0:0:0:0:
143,109,58515,1,8,0:0:0:0:
143,113,58663,1,0,0:0:0:0:
143,113,58812,1,0,0:0:0:0:
143,113,58886,1,0,0:0:0:0:
147,116,58960,1,0,0:0:0:0:
147,116,59109,1,8,0:0:0:0:
147,117,59257,1,0,0:0:0:0:
147,117,59406,1,0,0:0:0:0:
147,117,59554,1,8,0:0:0:0:
147,117,59703,1,0,0:0:0:0:
189,171,59851,5,8,0:0:0:0:
189,171,59926,5,8,0:0:0:0:
189,171,60000,1,0,0:0:0:0:
189,171,60074,1,0,0:0:0:0:
189,171,60148,1,8,0:0:0:0:
189,171,60223,1,0,0:0:0:0:
189,171,60297,1,8,0:0:0:0:
189,171,60346,1,8,0:0:0:0:
116,175,60396,1,8,0:0:0:0:
142,208,60445,5,0,0:0:0:0:
142,208,60742,1,0,0:0:0:0:
182,175,60817,1,8,0:0:0:0:
166,178,60891,1,0,0:0:0:0:
166,178,60965,1,0,0:0:0:0:
166,178,61040,1,8,0:0:0:0:
166,178,61114,1,8,0:0:0:0:
166,178,61188,1,0,0:0:0:0:
169,182,61262,1,8,0:0:0:0:
166,178,61337,1,0,0:0:0:0:
166,178,61485,1,8,0:0:0:0:
166,178,61559,1,8,0:0:0:0:
158,187,61634,1,0,0:0:0:0:
155,150,62079,1,8,0:0:0:0:
155,150,62129,1,8,0:0:0:0:
155,150,62178,1,8,0:0:0:0:
155,150,62228,1,0,0:0:0:0:
155,150,62376,1,0,0:0:0:0:
155,150,62525,1,8,0:0:0:0:
155,150,62574,1,8,0:0:0:0:
155,150,62624,1,8,0:0:0:0:
155,150,62673,1,8,0:0:0:0:
220,152,62822,5,4,0:0:0:0:
220,152,63416,1,8,0:0:0:0:
220,152,63564,1,0,0:0:0:0:
220,152,63639,1,0,0:0:0:0:
220,152,63713,1,0,0:0:0:0:
220,152,63861,1,8,0:0:0:0:
220,152,64010,1,0,0:0:0:0:
220,152,64084,1,0,0:0:0:0:
220,152,64158,1,8,0:0:0:0:
220,152,64233,1,0,0:0:0:0:
220,152,64307,1,8,0:0:0:0:
196,164,64455,1,0,0:0:0:0:
204,200,64530,1,0,0:0:0:0:
196,164,64604,1,8,0:0:0:0:
200,172,64752,1,0,0:0:0:0:
200,172,64901,1,0,0:0:0:0:
200,172,64975,1,8,0:0:0:0:
200,172,65049,1,0,0:0:0:0:
204,152,65198,1,4,0:0:0:0:
204,152,65495,1,0,0:0:0:0:
200,148,65544,1,8,0:0:0:0:
200,144,65594,1,8,0:0:0:0:
200,144,65643,1,0,0:0:0:0:
192,160,65792,1,8,0:0:0:0:
196,160,65940,1,0,0:0:0:0:
196,144,66089,1,0,0:0:0:0:
188,184,66163,1,0,0:0:0:0:
188,184,66238,1,8,0:0:0:0:
200,156,66535,1,0,0:0:0:0:
192,152,66683,1,8,0:0:0:0:
200,152,66980,1,8,0:0:0:0:
200,152,67129,1,0,0:0:0:0:
200,156,67203,1,0,0:0:0:0:
192,120,67277,1,8,0:0:0:0:
192,124,67327,1,8,0:0:0:0:
196,124,67376,1,0,0:0:0:0:
200,124,67426,1,8,0:0:0:0:
220,152,67574,1,4,0:0:0:0:
220,152,68168,1,8,0:0:0:0:
220,152,68317,1,0,0:0:0:0:
220,152,68391,1,0,0:0:0:0:
220,152,68465,1,0,0:0:0:0:
220,152,68614,1,8,0:0:0:0:
220,152,68762,1,0,0:0:0:0:
220,152,68837,1,0,0:0:0:0:
220,152,68911,1,8,0:0:0:0:
220,152,68985,1,0,0:0:0:0:
220,152,69059,1,8,0:0:0:0:
196,164,69208,1,0,0:0:0:0:
204,200,69282,1,0,0:0:0:0:
196,164,69356,1,8,0:0:0:0:
200,172,69505,1,0,0:0:0:0:
200,172,69653,1,0,0:0:0:0:
200,172,69728,1,8,0:0:0:0:
200,172,69802,1,0,0:0:0:0:
204,152,69950,1,4,0:0:0:0:
192,176,70247,1,0,0:0:0:0:
192,176,70322,1,8,0:0:0:0:
192,176,70396,1,0,0:0:0:0:
192,176,70470,1,0,0:0:0:0:
192,160,70544,1,8,0:0:0:0:
196,144,70841,1,0,0:0:0:0:
188,184,70990,1,8,0:0:0:0:
200,156,71287,1,0,0:0:0:0:
192,152,71436,1,8,0:0:0:0:
200,152,71733,1,8,0:0:0:0:
200,152,71881,1,0,0:0:0:0:
200,156,71955,1,0,0:0:0:0:
168,156,72030,1,8,0:0:0:0:
168,156,72178,1,8,0:0:0:0:
220,152,72327,1,4,0:0:0:0:
192,132,72624,1,8,0:0:0:0:
196,132,72673,1,8,0:0:0:0:
200,132,72723,1,8,0:0:0:0:
200,132,72772,1,0,0:0:0:0:
228,92,72846,1,0,0:0:0:0:
220,152,72921,1,8,0:0:0:0:
220,152,73069,1,0,0:0:0:0:
220,152,73143,1,0,0:0:0:0:
220,152,73218,1,0,0:0:0:0:
220,152,73366,1,8,0:0:0:0:
220,152,73515,1,0,0:0:0:0:
220,152,73589,1,0,0:0:0:0:
220,152,73663,1,8,0:0:0:0:
220,152,73738,1,0,0:0:0:0:
220,152,73812,1,8,0:0:0:0:
196,164,73960,1,0,0:0:0:0:
204,200,74035,1,0,0:0:0:0:
196,164,74109,1,8,0:0:0:0:
200,172,74257,1,0,0:0:0:0:
200,172,74406,1,0,0:0:0:0:
200,172,74480,1,8,0:0:0:0:
200,172,74554,1,0,0:0:0:0:
204,152,74703,1,4,0:0:0:0:
204,152,75000,1,8,0:0:0:0:
200,148,75049,1,8,0:0:0:0:
200,144,75099,1,8,0:0:0:0:
200,144,75148,1,0,0:0:0:0:
192,160,75297,1,8,0:0:0:0:
196,160,75445,1,0,0:0:0:0:
196,144,75594,1,0,0:0:0:0:
188,184,75668,1,0,0:0:0:0:
188,184,75742,1,8,0:0:0:0:
200,156,76040,1,0,0:0:0:0:
192,152,76188,1,8,0:0:0:0:
200,152,76485,1,8,0:0:0:0:
200,152,76634,1,0,0:0:0:0:
200,156,76708,1,0,0:0:0:0:
192,120,76782,1,8,0:0:0:0:
192,124,76832,1,0,0:0:0:0:
196,124,76881,1,0,0:0:0:0:
200,124,76931,1,8,0:0:0:0:
220,152,77079,1,4,0:0:0:0:
220,152,77673,1,8,0:0:0:0:
220,152,77822,1,0,0:0:0:0:
220,152,77896,1,0,0:0:0:0:
220,152,77970,1,0,0:0:0:0:
220,152,78119,1,8,0:0:0:0:
220,152,78267,1,0,0:0:0:0:
220,152,78341,1,0,0:0:0:0:
220,152,78416,1,8,0:0:0:0:
220,152,78490,1,0,0:0:0:0:
220,152,78564,1,8,0:0:0:0:
196,164,78713,1,0,0:0:0:0:
204,200,78787,1,0,0:0:0:0:
196,164,78861,1,8,0:0:0:0:
200,172,79010,1,0,0:0:0:0:
200,172,79158,1,0,0:0:0:0:
200,172,79233,1,8,0:0:0:0:
200,172,79307,1,0,0:0:0:0:
204,152,79455,1,4,0:0:0:0:
200,172,79604,1,0,0:0:0:0:
184,168,79752,1,8,0:0:0:0:
184,168,79901,1,0,0:0:0:0:
188,168,80198,1,8,0:0:0:0:
188,168,80346,1,8,0:0:0:0:
184,168,80643,1,8,0:0:0:0:
184,168,80792,1,0,0:0:0:0:
184,168,80940,1,8,0:0:0:0:
188,168,81089,1,8,0:0:0:0:
192,184,81386,1,0,0:0:0:0:
188,184,81535,1,8,0:0:0:0:
188,184,81609,1,8,0:0:0:0:
188,184,81683,1,0,0:0:0:0:
156,184,81832,1,0,0:0:0:0:
136,184,81980,1,8,0:0:0:0:
136,184,82054,1,8,0:0:0:0:
168,180,82129,1,0,0:0:0:0:
168,180,82277,1,8,0:0:0:0:
152,196,82426,1,0,0:0:0:0:
152,196,82500,1,8,0:0:0:0:
168,180,82574,1,8,0:0:0:0:
140,184,82648,1,8,0:0:0:0:
168,180,82723,1,0,0:0:0:0:
168,180,82871,1,8,0:0:0:0:
152,196,83020,1,0,0:0:0:0:
152,196,83168,1,8,0:0:0:0:
152,196,83242,1,8,0:0:0:0:
168,180,83317,1,0,0:0:0:0:
168,180,83465,1,8,0:0:0:0:
168,172,83614,1,0,0:0:0:0:
152,196,83688,1,8,0:0:0:0:
168,180,83762,1,8,0:0:0:0:
152,196,83837,1,8,0:0:0:0:
168,180,83911,1,0,0:0:0:0:
168,180,84059,1,8,0:0:0:0:
160,200,84208,1,0,0:0:0:0:
160,200,84282,1,8,0:0:0:0:
160,200,84356,1,8,0:0:0:0:
160,200,84505,1,0,0:0:0:0:
164,200,84579,1,8,0:0:0:0:
164,200,84653,1,8,0:0:0:0:
164,200,84802,1,0,0:0:0:0:
164,200,84950,1,8,0:0:0:0:
144,200,85025,1,8,0:0:0:0:
160,200,85099,1,0,0:0:0:0:
160,200,85247,1,8,0:0:0:0:
184,160,85396,1,0,0:0:0:0:
180,164,85470,1,8,0:0:0:0:
188,160,85544,1,8,0:0:0:0:
164,200,85693,1,0,0:0:0:0:
164,200,85767,1,8,0:0:0:0:
164,200,85841,1,8,0:0:0:0:
144,200,85990,1,0,0:0:0:0:
144,200,86139,1,8,0:0:0:0:
144,200,86213,1,8,0:0:0:0:
144,204,86287,1,0,0:0:0:0:
144,204,86436,1,8,0:0:0:0:
144,204,86584,1,0,0:0:0:0:
144,204,86658,1,8,0:0:0:0:
144,204,86733,1,8,0:0:0:0:
144,204,86881,1,0,0:0:0:0:
144,204,86955,1,8,0:0:0:0:
144,200,87030,1,8,0:0:0:0:
144,200,87178,1,0,0:0:0:0:
144,200,87252,1,0,0:0:0:0:
144,204,87327,1,8,0:0:0:0:
144,204,87401,1,8,0:0:0:0:
144,204,87475,1,0,0:0:0:0:
144,204,87624,1,8,0:0:0:0:
144,204,87772,1,0,0:0:0:0:
144,204,87846,1,8,0:0:0:0:
144,204,87921,1,8,0:0:0:0:
144,208,88069,1,0,0:0:0:0:
144,208,88218,1,8,0:0:0:0:
144,204,88366,1,0,0:0:0:0:
144,204,88440,1,8,0:0:0:0:
144,204,88515,1,8,0:0:0:0:
144,204,88663,1,0,0:0:0:0:
144,204,88812,1,8,0:0:0:0:
144,204,88886,1,8,0:0:0:0:
144,204,88960,1,0,0:0:0:0:
144,208,89035,1,8,0:0:0:0:
144,208,89109,1,8,0:0:0:0:
144,208,89183,1,0,0:0:0:0:
144,208,89257,1,8,0:0:0:0:
148,208,89332,1,8,0:0:0:0:
148,208,89406,1,0,0:0:0:0:
148,208,89480,1,0,0:0:0:0:
148,208,89554,1,8,0:0:0:0:
96,176,89629,1,0,0:0:0:0:
96,176,89703,1,0,0:0:0:0:
148,208,89777,1,8,0:0:0:0:
152,208,89851,1,0,0:0:0:0:
152,208,89926,1,0,0:0:0:0:
152,208,90000,1,8,0:0:0:0:
152,208,90074,1,8,0:0:0:0:
152,208,90148,1,0,0:0:0:0:
220,152,91337,1,4,0:0:0:0:
212,152,91485,1,0,0:0:0:0:
212,152,91559,1,0,0:0:0:0:
216,156,91634,1,8,0:0:0:0:
220,152,91782,1,0,0:0:0:0:
220,152,91931,1,8,0:0:0:0:
220,152,92079,1,0,0:0:0:0:
220,152,92153,1,0,0:0:0:0:
220,152,92228,1,0,0:0:0:0:
220,152,92376,1,8,0:0:0:0:
220,152,92525,1,0,0:0:0:0:
220,152,92599,1,0,0:0:0:0:
220,152,92673,1,8,0:0:0:0:
220,152,92747,1,0,0:0:0:0:
220,152,92822,1,8,0:0:0:0:
196,164,92970,1,0,0:0:0:0:
204,200,93044,1,0,0:0:0:0:
196,164,93119,1,8,0:0:0:0:
216,160,93193,1,8,0:0:0:0:
200,172,93267,1,0,0:0:0:0:
200,172,93416,1,8,0:0:0:0:
200,172,93490,1,0,0:0:0:0:
200,172,93564,1,0,0:0:0:0:
204,152,93713,1,4,0:0:0:0:
204,152,94010,1,8,0:0:0:0:
200,148,94059,1,8,0:0:0:0:
200,144,94109,1,8,0:0:0:0:
200,144,94158,1,0,0:0:0:0:
192,160,94307,1,8,0:0:0:0:
196,160,94455,1,0,0:0:0:0:
196,144,94604,1,8,0:0:0:0:
188,184,94678,1,8,0:0:0:0:
188,184,94752,1,0,0:0:0:0:
200,156,95049,1,8,0:0:0:0:
168,148,95099,1,0,0:0:0:0:
180,152,95148,1,0,0:0:0:0:
192,152,95198,1,8,0:0:0:0:
204,120,95346,1,0,0:0:0:0:
204,120,95421,1,0,0:0:0:0:
200,152,95495,1,8,0:0:0:0:
160,108,95544,1,8,0:0:0:0:
160,108,95594,1,8,0:0:0:0:
200,152,95643,1,0,0:0:0:0:
192,120,95792,1,8,0:0:0:0:
192,148,95940,1,0,0:0:0:0:
204,136,95990,1,0,0:0:0:0:
204,136,96040,1,0,0:0:0:0:
220,152,96089,1,0,0:0:0:0:
240,136,96386,1,8,0:0:0:0:
200,108,96535,1,0,0:0:0:0:
200,108,96609,1,0,0:0:0:0:
220,152,96683,1,8,0:0:0:0:
220,152,96832,1,0,0:0:0:0:
220,152,96906,1,0,0:0:0:0:
220,152,96980,1,0,0:0:0:0:
220,152,97129,1,8,0:0:0:0:
220,152,97277,1,0,0:0:0:0:
220,152,97351,1,0,0:0:0:0:
220,152,97426,1,8,0:0:0:0:
220,152,97500,1,0,0:0:0:0:
220,152,97574,1,8,0:0:0:0:
196,164,97723,1,0,0:0:0:0:
204,200,97797,1,0,0:0:0:0:
196,164,97871,1,8,0:0:0:0:
192,132,97945,1,8,0:0:0:0:
200,172,98020,1,0,0:0:0:0:
200,172,98168,1,0,0:0:0:0:
200,172,98242,1,8,0:0:0:0:
200,172,98317,1,0,0:0:0:0:
204,152,98465,1,4,0:0:0:0:
192,176,98762,1,0,0:0:0:0:
192,176,98837,1,8,0:0:0:0:
192,176,98911,1,0,0:0:0:0:
192,176,98985,1,0,0:0:0:0:
192,160,99059,1,8,0:0:0:0:
164,136,99109,1,8,0:0:0:0:
164,136,99158,1,8,0:0:0:0:
164,136,99208,1,8,0:0:0:0:
196,144,99356,1,0,0:0:0:0:
188,184,99505,1,12,0:0:0:0:
200,156,99802,1,0,0:0:0:0:
192,152,99950,1,8,0:0:0:0:
216,152,100099,1,0,0:0:0:0:
216,152,100173,1,0,0:0:0:0:
200,152,100247,1,8,0:0:0:0:
200,152,100396,1,0,0:0:0:0:
168,156,100544,1,8,0:0:0:0:
168,156,100693,1,8,0:0:0:0:
196,124,100742,1,8,0:0:0:0:
196,124,100792,1,8,0:0:0:0:
220,152,100841,1,0,0:0:0:0:
168,128,101139,1,8,0:0:0:0:
200,132,101287,1,0,0:0:0:0:
228,92,101361,1,0,0:0:0:0:
220,152,101436,1,8,0:0:0:0:
220,152,101584,1,0,0:0:0:0:
220,152,101658,1,0,0:0:0:0:
220,152,101733,1,0,0:0:0:0:
220,152,101881,1,8,0:0:0:0:
220,152,102030,1,0,0:0:0:0:
220,152,102104,1,0,0:0:0:0:
220,152,102178,1,8,0:0:0:0:
220,152,102252,1,0,0:0:0:0:
220,152,102327,1,8,0:0:0:0:
196,164,102475,1,0,0:0:0:0:
204,200,102549,1,0,0:0:0:0:
196,164,102624,1,8,0:0:0:0:
168,128,102698,1,8,0:0:0:0:
200,172,102772,1,0,0:0:0:0:
200,172,102921,1,8,0:0:0:0:
200,172,102995,1,0,0:0:0:0:
200,172,103069,1,0,0:0:0:0:
204,152,103218,1,4,0:0:0:0:
204,152,103515,1,8,0:0:0:0:
200,148,103564,1,0,0:0:0:0:
200,144,103614,1,0,0:0:0:0:
200,144,103663,1,8,0:0:0:0:
192,160,103812,1,0,0:0:0:0:
196,160,103960,1,0,0:0:0:0:
196,144,104109,1,8,0:0:0:0:
188,184,104183,1,8,0:0:0:0:
188,184,104257,1,0,0:0:0:0:
200,156,104554,1,0,0:0:0:0:
184,156,104604,1,0,0:0:0:0:
184,156,104653,1,0,0:0:0:0:
192,152,104703,1,8,0:0:0:0:
200,152,105000,1,8,0:0:0:0:
200,152,105049,1,8,0:0:0:0:
200,156,105099,1,8,0:0:0:0:
192,120,105148,1,0,0:0:0:0:
192,124,105223,1,0,0:0:0:0:
196,124,105297,1,8,0:0:0:0:
200,124,105445,1,8,0:0:0:0:
216,152,105495,1,8,0:0:0:0:
216,152,105544,1,8,0:0:0:0:
220,152,105594,1,0,0:0:0:0:
220,152,106188,1,8,0:0:0:0:
220,152,106337,1,0,0:0:0:0:
220,152,106411,1,0,0:0:0:0:
220,152,106485,1,0,0:0:0:0:
220,152,106634,1,0,0:0:0:0:
220,152,106782,1,8,0:0:0:0:
220,152,106931,1,0,0:0:0:0:
220,152,107005,1,0,0:0:0:0:
220,152,107079,1,0,0:0:0:0:
196,164,107228,1,0,0:0:0:0:
196,164,107376,1,8,0:0:0:0:
200,172,107525,1,0,0:0:0:0:
200,172,107673,1,0,0:0:0:0:
200,172,107747,1,0,0:0:0:0:
200,172,107822,1,0,0:0:0:0:
172,176,107970,1,8,0:0:0:0:
172,176,108119,1,0,0:0:0:0:
172,176,108267,1,8,0:0:0:0:
172,176,108416,1,0,0:0:0:0:
176,180,108564,1,8,0:0:0:0:
176,180,108713,1,0,0:0:0:0:
180,180,108787,1,8,0:0:0:0:
180,180,108936,1,8,0:0:0:0:
180,180,109010,1,0,0:0:0:0:
188,180,109307,1,0,0:0:0:0:
188,180,109455,1,0,0:0:0:0:
188,180,109530,1,0,0:0:0:0:
192,152,109604,1,8,0:0:0:0:
192,152,109653,1,8,0:0:0:0:
192,152,109703,1,8,0:0:0:0:
188,180,109752,1,0,0:0:0:0:
180,160,110346,1,0,0:0:0:0:
184,160,110495,1,0,0:0:0:0:
180,160,110569,1,0,0:0:0:0:
188,168,110643,1,8,0:0:0:0:
188,168,110792,1,0,0:0:0:0:
188,168,110940,1,0,0:0:0:0:
188,168,111015,1,0,0:0:0:0:
168,176,111089,1,8,0:0:0:0:
168,176,111163,1,0,0:0:0:0:
188,168,111238,1,8,0:0:0:0:
188,168,111386,1,0,0:0:0:0:
172,176,111535,1,0,0:0:0:0:
172,176,111683,1,8,0:0:0:0:
172,176,111757,1,8,0:0:0:0:
172,176,111832,1,0,0:0:0:0:
172,176,111980,1,8,0:0:0:0:
168,188,112054,1,8,0:0:0:0:
168,176,112129,1,0,0:0:0:0:
168,176,112203,1,8,0:0:0:0:
172,176,112277,1,0,0:0:0:0:
172,176,112426,1,8,0:0:0:0:
172,176,112574,1,0,0:0:0:0:
172,176,112648,1,0,0:0:0:0:
172,176,112723,1,0,0:0:0:0:
168,180,113020,1,8,0:0:0:0:
168,176,113069,1,8,0:0:0:0:
168,176,113119,1,8,0:0:0:0:
168,176,113168,1,0,0:0:0:0:
172,176,113317,1,0,0:0:0:0:
148,164,113465,1,8,0:0:0:0:
156,160,113540,1,8,0:0:0:0:
152,160,113614,1,8,0:0:0:0:
156,160,113762,1,0,0:0:0:0:
168,156,113812,1,0,0:0:0:0:
168,156,113861,1,0,0:0:0:0:
160,176,113911,1,8,0:0:0:0:
176,188,114059,1,0,0:0:0:0:
168,176,114208,1,8,0:0:0:0:
168,136,114356,1,0,0:0:0:0:
152,180,114431,1,0,0:0:0:0:
152,180,114505,1,8,0:0:0:0:
152,180,114653,1,0,0:0:0:0:
160,176,114802,1,8,0:0:0:0:
160,176,114876,1,8,0:0:0:0:
160,176,114950,1,0,0:0:0:0:
160,176,115025,1,8,0:0:0:0:
180,160,115099,1,0,0:0:0:0:
184,160,115247,1,0,0:0:0:0:
180,160,115322,1,0,0:0:0:0:
188,168,115396,1,8,0:0:0:0:
188,168,115544,1,0,0:0:0:0:
188,168,115693,1,0,0:0:0:0:
188,168,115767,1,0,0:0:0:0:
168,176,115841,1,8,0:0:0:0:
168,176,115916,1,0,0:0:0:0:
188,168,115990,1,8,0:0:0:0:
188,168,116139,1,0,0:0:0:0:
172,176,116287,1,0,0:0:0:0:
172,176,116436,1,8,0:0:0:0:
172,176,116510,1,8,0:0:0:0:
172,176,116584,1,0,0:0:0:0:
172,176,116733,1,8,0:0:0:0:
168,188,116807,1,8,0:0:0:0:
168,176,116881,1,0,0:0:0:0:
168,176,116955,1,8,0:0:0:0:
172,176,117030,1,0,0:0:0:0:
172,176,117178,1,8,0:0:0:0:
172,176,117327,1,0,0:0:0:0:
153,174,117401,1,8,0:0:0:0:
172,176,117475,1,0,0:0:0:0:
168,180,117772,1,8,0:0:0:0:
168,176,117822,1,8,0:0:0:0:
168,176,117871,1,8,0:0:0:0:
168,176,117921,1,0,0:0:0:0:
172,176,118069,1,0,0:0:0:0:
148,164,118218,1,8,0:0:0:0:
156,160,118292,1,8,0:0:0:0:
152,160,118366,1,8,0:0:0:0:
156,160,118515,1,0,0:0:0:0:
168,156,118564,1,0,0:0:0:0:
168,156,118614,1,0,0:0:0:0:
160,176,118663,1,8,0:0:0:0:
176,188,118812,1,0,0:0:0:0:
168,176,118960,1,8,0:0:0:0:
168,136,119109,1,0,0:0:0:0:
152,180,119183,1,0,0:0:0:0:
152,180,119257,1,8,0:0:0:0:
152,180,119406,1,0,0:0:0:0:
160,176,119554,1,8,0:0:0:0:
160,176,119629,1,8,0:0:0:0:
160,176,119703,1,0,0:0:0:0:
160,176,119777,1,8,0:0:0:0:
180,160,119851,1,0,0:0:0:0:
184,160,120000,1,0,0:0:0:0:
180,160,120074,1,0,0:0:0:0:
188,168,120148,1,8,0:0:0:0:
188,168,120297,1,0,0:0:0:0:
188,168,120445,1,0,0:0:0:0:
188,168,120520,1,0,0:0:0:0:
168,176,120594,1,8,0:0:0:0:
168,176,120668,1,0,0:0:0:0:
188,168,120742,1,8,0:0:0:0:
188,168,120891,1,0,0:0:0:0:
172,176,121040,1,0,0:0:0:0:
172,176,121188,1,8,0:0:0:0:
172,176,121262,1,8,0:0:0:0:
172,176,121337,1,0,0:0:0:0:
172,176,121485,1,8,0:0:0:0:
168,188,121559,1,8,0:0:0:0:
168,176,121634,1,0,0:0:0:0:
168,176,121708,1,8,0:0:0:0:
172,176,121782,1,0,0:0:0:0:
172,176,121931,1,8,0:0:0:0:
172,176,122079,1,0,0:0:0:0:
172,176,122153,1,0,0:0:0:0:
172,176,122228,1,0,0:0:0:0:
168,180,122525,1,8,0:0:0:0:
168,176,122574,1,8,0:0:0:0:
168,176,122624,1,8,0:0:0:0:
168,176,122673,1,0,0:0:0:0:
172,176,122822,1,0,0:0:0:0:
148,164,122970,1,8,0:0:0:0:
156,160,123044,1,8,0:0:0:0:
152,160,123119,1,8,0:0:0:0:
156,160,123267,1,0,0:0:0:0:
168,156,123317,1,0,0:0:0:0:
168,156,123366,1,0,0:0:0:0:
160,176,123416,1,8,0:0:0:0:
176,188,123564,1,0,0:0:0:0:
168,176,123713,1,8,0:0:0:0:
168,136,123861,1,0,0:0:0:0:
152,180,123936,1,0,0:0:0:0:
152,180,124010,1,8,0:0:0:0:
152,180,124158,1,0,0:0:0:0:
160,176,124307,1,8,0:0:0:0:
160,176,124381,1,8,0:0:0:0:
160,176,124455,1,0,0:0:0:0:
160,176,124530,1,8,0:0:0:0:
180,160,124604,1,0,0:0:0:0:
184,160,124653,1,0,0:0:0:0:
180,160,124703,1,0,0:0:0:0:
162,142,124752,1,0,0:0:0:0:
188,168,124901,1,8,0:0:0:0:
188,168,125049,1,0,0:0:0:0:
188,168,125198,1,0,0:0:0:0:
188,168,125272,1,0,0:0:0:0:
168,176,125346,1,8,0:0:0:0:
168,176,125421,1,0,0:0:0:0:
188,168,125495,1,8,0:0:0:0:
188,168,125643,1,0,0:0:0:0:
172,176,125792,1,0,0:0:0:0:
172,176,125940,1,8,0:0:0:0:
172,176,126015,1,8,0:0:0:0:
172,176,126089,1,0,0:0:0:0:
172,176,126238,1,8,0:0:0:0:
168,188,126312,1,8,0:0:0:0:
168,176,126386,1,0,0:0:0:0:
168,176,126460,1,8,0:0:0:0:
172,176,126535,1,0,0:0:0:0:
172,176,126683,1,8,0:0:0:0:
172,176,126832,1,0,0:0:0:0:
180,122,126906,1,8,0:0:0:0:
172,176,126980,1,0,0:0:0:0:
180,122,127129,1,0,0:0:0:0:
180,122,127277,1,8,0:0:0:0:
180,122,127426,1,0,0:0:0:0:
180,122,127574,1,0,0:0:0:0:
180,122,127723,1,0,0:0:0:0:
180,122,127871,1,8,0:0:0:0:
183,116,128020,1,8,0:0:0:0:
186,115,128168,1,0,0:0:0:0:
186,115,128242,1,0,0:0:0:0:
185,118,128317,1,8,0:0:0:0:
185,118,128391,1,0,0:0:0:0:
186,116,128465,1,8,0:0:0:0:
186,116,128540,1,0,0:0:0:0:
186,116,128614,1,0,0:0:0:0:
186,116,128688,1,8,0:0:0:0:
188,113,128762,1,0,0:0:0:0:
188,111,128837,1,0,0:0:0:0:
188,111,128911,1,8,0:0:0:0:
188,111,128960,1,8,0:0:0:0:
161,133,129010,1,8,0:0:0:0:
191,110,129059,1,0,0:0:0:0:
217,92,129134,1,0,0:0:0:0:
217,92,129208,1,8,0:0:0:0:
195,127,129356,1,0,0:0:0:0:
201,177,130247,1,0,0:0:0:0:
191,176,130544,1,8,0:0:0:0:
188,196,130990,1,0,0:0:0:0:
212,191,131733,1,0,0:0:0:0:
250,194,132178,1,8,0:0:0:0:
245,188,132921,1,0,0:0:0:0:
245,188,133366,1,8,0:0:0:0:
248,181,134109,1,8,0:0:0:0:
248,181,134183,1,8,0:0:0:0:
248,181,134703,1,0,0:0:0:0:
193,182,135297,1,8,0:0:0:0:
193,182,135742,1,0,0:0:0:0:
183,208,136485,1,8,0:0:0:0:
186,183,136931,1,8,0:0:0:0:
199,135,137673,1,8,0:0:0:0:
199,135,138119,1,0,0:0:0:0:
156,99,138861,1,8,0:0:0:0:
156,99,138936,1,8,0:0:0:0:
131,98,139455,1,8,0:0:0:0:
151,111,140049,1,0,0:0:0:0:
150,113,140495,1,8,0:0:0:0:
150,113,141238,1,8,0:0:0:0:
150,113,141683,1,8,0:0:0:0:
150,113,142426,1,0,0:0:0:0:
150,113,142871,1,0,0:0:0:0:
150,113,143614,1,8,0:0:0:0:
150,113,143688,1,8,0:0:0:0:
150,113,144208,1,8,0:0:0:0:
146,120,144802,1,8,0:0:0:0:
144,127,145247,1,0,0:0:0:0:
181,100,145693,1,0,0:0:0:0:
181,100,146287,1,8,0:0:0:0:
181,100,146881,1,0,0:0:0:0:
181,100,147475,1,0,0:0:0:0:
177,57,148366,1,0,0:0:0:0:
133,84,148960,1,8,0:0:0:0:
157,102,149554,1,0,0:0:0:0:
157,102,150000,1,8,0:0:0:0:
135,72,150742,1,8,0:0:0:0:
129,76,151188,1,0,0:0:0:0:
110,102,151931,1,0,0:0:0:0:
110,102,152376,1,8,0:0:0:0:
110,102,153119,1,8,0:0:0:0:
110,102,153193,1,8,0:0:0:0:
116,96,153713,1,0,0:0:0:0:
116,96,154307,1,8,0:0:0:0:
114,102,154752,1,0,0:0:0:0:
114,102,155495,1,8,0:0:0:0:
114,102,155940,1,8,0:0:0:0:
114,102,156683,1,0,0:0:0:0:
114,102,157129,1,0,0:0:0:0:
114,102,157871,1,0,0:0:0:0:
114,102,158465,1,0,0:0:0:0:
114,102,159059,1,0,0:0:0:0:
114,102,159653,1,0,0:0:0:0:
118,86,160247,1,0,0:0:0:0:
124,91,160841,1,0,0:0:0:0:
126,113,161436,1,0,0:0:0:0:
126,113,162030,1,0,0:0:0:0:
128,113,162624,1,0,0:0:0:0:
128,113,162921,1,0,0:0:0:0:
128,113,163218,1,0,0:0:0:0:
128,113,163515,1,0,0:0:0:0:
128,113,163812,1,0,0:0:0:0:
128,113,163960,1,0,0:0:0:0:
128,113,164109,1,0,0:0:0:0:
146,98,164257,1,0,0:0:0:0:
147,98,164406,1,0,0:0:0:0:
147,97,164554,1,0,0:0:0:0:
147,96,164703,1,0,0:0:0:0:
148,96,164851,1,0,0:0:0:0:
142,86,165000,1,0,0:0:0:0:
142,86,165074,1,0,0:0:0:0:
142,86,165148,1,0,0:0:0:0:
142,86,165223,1,0,0:0:0:0:
144,85,165297,1,0,0:0:0:0:
144,85,165371,1,0,0:0:0:0:
144,84,165445,1,0,0:0:0:0:
144,85,165520,1,0,0:0:0:0:
145,83,165594,1,0,0:0:0:0:
145,83,165668,1,0,0:0:0:0:
145,83,165742,1,0,0:0:0:0:
145,83,165817,1,0,0:0:0:0:
145,83,165891,1,0,0:0:0:0:
142,86,165965,1,0,0:0:0:0:
142,86,166040,1,0,0:0:0:0:
142,86,166114,1,0,0:0:0:0:
142,86,166188,1,0,0:0:0:0:
180,146,167376,1,4,0:0:0:0:
180,146,167970,1,8,0:0:0:0:
181,158,168119,1,8,0:0:0:0:
193,178,168193,1,8,0:0:0:0:
188,144,168267,1,0,0:0:0:0:
187,172,168861,1,0,0:0:0:0:
197,168,169158,1,8,0:0:0:0:
197,168,169307,1,0,0:0:0:0:
197,168,169455,1,0,0:0:0:0:
197,168,169604,1,8,0:0:0:0:
208,161,169901,1,8,0:0:0:0:
208,161,170049,1,0,0:0:0:0:
208,161,170124,1,0,0:0:0:0:
208,161,170198,1,8,0:0:0:0:
210,161,170346,1,8,0:0:0:0:
186,135,170396,1,8,0:0:0:0:
190,136,170445,1,8,0:0:0:0:
193,131,170495,1,0,0:0:0:0:
197,128,170643,1,0,0:0:0:0:
199,127,171089,1,0,0:0:0:0:
199,125,171535,1,8,0:0:0:0:
186,141,171609,1,0,0:0:0:0:
197,128,171683,1,8,0:0:0:0:
186,141,171757,1,0,0:0:0:0:
199,127,171832,1,8,0:0:0:0:
199,127,171906,1,8,0:0:0:0:
199,127,171980,1,0,0:0:0:0:
172,131,172129,1,4,0:0:0:0:
197,128,172723,1,8,0:0:0:0:
144,112,172871,1,8,0:0:0:0:
199,127,172945,1,8,0:0:0:0:
199,127,173020,1,0,0:0:0:0:
182,146,173614,1,0,0:0:0:0:
182,146,173911,1,8,0:0:0:0:
176,138,174059,1,0,0:0:0:0:
177,138,174208,1,0,0:0:0:0:
177,138,174356,1,8,0:0:0:0:
180,139,174505,1,0,0:0:0:0:
182,146,174802,1,0,0:0:0:0:
180,144,175099,1,8,0:0:0:0:
180,144,175396,1,0,0:0:0:0:
182,146,175841,1,0,0:0:0:0:
180,144,176287,1,8,0:0:0:0:
180,144,176361,1,8,0:0:0:0:
180,144,176436,1,0,0:0:0:0:
182,146,176510,1,0,0:0:0:0:
182,146,176584,1,0,0:0:0:0:
182,146,176658,1,0,0:0:0:0:
182,146,176733,1,8,0:0:0:0:
180,146,176881,1,4,0:0:0:0:
180,146,177475,1,8,0:0:0:0:
181,158,177624,1,8,0:0:0:0:
193,178,177698,1,8,0:0:0:0:
188,144,177772,1,0,0:0:0:0:
187,172,178366,1,0,0:0:0:0:
197,168,178663,1,8,0:0:0:0:
197,168,178812,1,0,0:0:0:0:
197,168,178960,1,0,0:0:0:0:
197,168,179109,1,8,0:0:0:0:
208,161,179406,1,8,0:0:0:0:
208,161,179554,1,0,0:0:0:0:
208,161,179629,1,0,0:0:0:0:
208,161,179703,1,8,0:0:0:0:
210,161,179851,1,0,0:0:0:0:
186,135,179901,1,8,0:0:0:0:
190,136,179950,1,8,0:0:0:0:
193,131,180000,1,0,0:0:0:0:
197,128,180148,1,0,0:0:0:0:
199,127,180594,1,0,0:0:0:0:
199,125,181040,1,8,0:0:0:0:
186,141,181114,1,0,0:0:0:0:
197,128,181188,1,8,0:0:0:0:
186,141,181262,1,0,0:0:0:0:
199,127,181337,1,8,0:0:0:0:
199,127,181411,1,8,0:0:0:0:
199,127,181485,1,0,0:0:0:0:
172,131,181634,1,4,0:0:0:0:
197,128,182228,1,8,0:0:0:0:
144,112,182376,1,8,0:0:0:0:
199,127,182450,1,8,0:0:0:0:
199,127,182525,1,0,0:0:0:0:
182,146,183119,1,0,0:0:0:0:
152,150,183416,1,8,0:0:0:0:
152,151,183564,1,0,0:0:0:0:
155,150,183713,1,8,0:0:0:0:
167,108,183762,1,8,0:0:0:0:
167,108,183812,1,8,0:0:0:0:
167,108,183861,1,0,0:0:0:0:
182,92,184158,1,0,0:0:0:0:
184,92,184307,1,8,0:0:0:0:
186,91,184455,1,8,0:0:0:0:
186,91,184604,1,8,0:0:0:0:
186,92,184752,1,8,0:0:0:0:
186,92,184901,1,0,0:0:0:0:
186,91,185495,1,0,0:0:0:0:
186,91,185643,1,0,0:0:0:0:
186,92,185792,1,0,0:0:0:0:
186,92,185940,1,0,0:0:0:0:
186,91,186089,1,0,0:0:0:0:
186,91,186238,1,0,0:0:0:0:
186,91,186386,1,0,0:0:0:0:
195,89,186460,1,0,0:0:0:0:
195,89,186535,1,8,0:0:0:0:
159,115,186609,1,0,0:0:0:0:
159,115,186683,1,8,0:0:0:0:
159,115,186757,1,8,0:0:0:0:
156,105,186832,1,0,0:0:0:0:
185,99,187277,1,4,0:0:0:0:
185,99,187723,1,4,0:0:0:0:
185,99,188168,1,4,0:0:0:0:
189,94,188762,1,0,0:0:0:0:
162,128,188837,1,0,0:0:0:0:
189,94,188911,1,8,0:0:0:0:
189,94,188985,1,8,0:0:0:0:
189,94,189059,1,0,0:0:0:0:
162,128,189134,1,8,0:0:0:0:
162,128,189208,1,8,0:0:0:0:
185,99,189653,1,6,0:0:0:0:
185,99,190099,1,6,0:0:0:0:
193,92,190396,1,6,0:0:0:0:
185,99,190544,1,4,0:0:0:0:
185,99,190767,1,4,0:0:0:0:
185,99,190990,1,4,0:0:0:0:
184,114,191139,1,0,0:0:0:0:
176,105,191213,1,8,0:0:0:0:
180,109,191287,1,0,0:0:0:0:
180,109,191361,1,0,0:0:0:0:
180,109,191436,1,8,0:0:0:0:
180,109,191510,1,8,0:0:0:0:
181,107,191584,1,0,0:0:0:0:
191,116,192030,1,4,0:0:0:0:
191,116,192475,1,4,0:0:0:0:
191,116,192921,1,4,0:0:0:0:
177,105,193515,1,0,0:0:0:0:
177,105,193589,1,0,0:0:0:0:
173,109,193663,1,8,0:0:0:0:
177,105,193738,1,8,0:0:0:0:
177,105,193812,1,8,0:0:0:0:
177,105,193886,1,8,0:0:0:0:
181,100,193960,1,0,0:0:0:0:
191,116,194406,1,4,0:0:0:0:
191,116,194851,1,4,0:0:0:0:
191,116,195148,1,4,0:0:0:0:
180,117,195297,1,6,0:0:0:0:
187,107,195594,1,6,0:0:0:0:
187,108,195891,1,4,0:0:0:0:
175,91,196931,1,8,0:0:0:0:
181,73,197822,1,8,0:0:0:0:
156,65,198713,1,8,0:0:0:0:
124,103,199307,1,8,0:0:0:0:
138,120,200049,1,8,0:0:0:0:
157,113,200495,1,8,0:0:0:0:
138,120,200569,1,8,0:0:0:0:
138,113,200643,1,8,0:0:0:0:
102,130,201089,1,8,0:0:0:0:
92,126,201683,1,8,0:0:0:0:
92,126,202574,1,8,0:0:0:0:
158,114,203465,1,8,0:0:0:0:
158,114,204059,1,8,0:0:0:0:
158,115,205396,1,4,0:0:0:0:
129,116,205841,1,4,0:0:0:0:
128,122,206584,1,4,0:0:0:0:
146,122,207030,1,4,0:0:0:0:
134,131,207327,1,8,0:0:0:0:
158,115,207772,1,4,0:0:0:0:
129,116,208218,1,4,0:0:0:0:
128,122,208960,1,4,0:0:0:0:
256,192,209257,12,0,210000,0:0:0:0:
158,115,210148,5,4,0:0:0:0:
129,116,210594,1,4,0:0:0:0:
128,122,211337,1,4,0:0:0:0:
146,122,211782,1,4,0:0:0:0:
134,131,212079,1,8,0:0:0:0:
158,115,212525,1,4,0:0:0:0:
129,116,212970,1,4,0:0:0:0:
128,122,213713,1,4,0:0:0:0:
39,171,214010,2,0,P|94:279|266:178,1,350
176,131,214901,1,0,0:0:0:0:
176,131,215049,1,0,0:0:0:0:
176,131,215198,1,8,0:0:0:0:
176,131,215346,1,0,0:0:0:0:
171,135,215495,1,0,0:0:0:0:
171,135,215643,1,0,0:0:0:0:
171,135,215792,1,8,0:0:0:0:
171,135,215940,1,8,0:0:0:0:
167,136,216089,1,0,0:0:0:0:
167,136,216238,1,0,0:0:0:0:
167,136,216386,1,8,0:0:0:0:
171,135,216535,1,0,0:0:0:0:
171,135,216683,1,0,0:0:0:0:
171,135,216832,1,0,0:0:0:0:
171,135,216980,1,8,0:0:0:0:
167,136,217129,1,8,0:0:0:0:
167,136,217277,1,0,0:0:0:0:
152,144,217426,1,0,0:0:0:0:
171,135,217574,1,8,0:0:0:0:
171,135,217723,1,0,0:0:0:0:
155,143,217871,1,0,0:0:0:0:
155,142,218020,1,0,0:0:0:0:
149,146,218168,1,8,0:0:0:0:
149,146,218317,1,8,0:0:0:0:
152,144,218465,1,0,0:0:0:0:
152,143,218614,1,8,0:0:0:0:
152,143,218762,1,0,0:0:0:0:
155,143,218911,1,8,0:0:0:0:
155,142,219059,1,0,0:0:0:0:
149,145,219208,1,8,0:0:0:0:
149,146,219356,1,8,0:0:0:0:
152,144,219505,1,8,0:0:0:0:
152,143,219653,1,0,0:0:0:0:
152,143,219802,1,8,0:0:0:0:
148,144,219876,1,8,0:0:0:0:
143,109,219950,1,0,0:0:0:0:
143,109,220099,1,8,0:0:0:0:
143,113,220247,1,0,0:0:0:0:
143,113,220396,1,8,0:0:0:0:
143,113,220470,1,8,0:0:0:0:
147,116,220544,1,0,0:0:0:0:
147,116,220693,1,8,0:0:0:0:
91,95,220841,1,0,0:0:0:0:
91,95,220990,1,8,0:0:0:0:
91,95,221064,1,8,0:0:0:0:
91,95,221139,1,0,0:0:0:0:
91,95,221287,1,8,0:0:0:0:
91,95,221436,1,0,0:0:0:0:
87,101,221584,1,8,0:0:0:0:
87,101,221658,1,8,0:0:0:0:
87,101,221733,1,0,0:0:0:0:
91,95,221881,1,8,0:0:0:0:
87,104,222030,1,8,0:0:0:0:
87,104,222104,1,8,0:0:0:0:
87,104,222178,1,0,0:0:0:0:
87,104,222327,1,8,0:0:0:0:
87,104,222401,1,8,0:0:0:0:
87,104,222475,1,0,0:0:0:0:
87,104,222624,1,8,0:0:0:0:
87,104,222698,1,8,0:0:0:0:
87,104,222772,1,0,0:0:0:0:
87,104,222921,1,8,0:0:0:0:
87,104,222995,1,8,0:0:0:0:
87,104,223069,1,0,0:0:0:0:
81,109,223218,1,4,0:0:0:0:
76,79,223663,1,0,0:0:0:0:
76,79,223713,1,0,0:0:0:0:
82,76,223762,1,0,0:0:0:0:
88,74,223812,1,8,0:0:0:0:
107,72,223960,1,0,0:0:0:0:
120,50,224109,1,8,0:0:0:0:
120,50,224158,1,8,0:0:0:0:
120,50,224208,1,8,0:0:0:0:
120,50,224257,1,0,0:0:0:0:
120,50,224406,1,4,0:0:0:0:
138,39,224629,1,8,0:0:0:0:
134,43,224703,1,0,0:0:0:0:
148,43,224851,1,8,0:0:0:0:
148,43,225000,1,0,0:0:0:0:
148,43,225074,1,0,0:0:0:0:
155,41,225223,1,0,0:0:0:0:
155,41,225297,1,8,0:0:0:0:
160,52,225371,1,8,0:0:0:0:
157,48,225445,1,0,0:0:0:0:
157,48,225594,1,0,0:0:0:0:
157,48,225817,1,8,0:0:0:0:
157,48,225891,1,0,0:0:0:0:
114,69,226040,1,8,0:0:0:0:
108,83,226188,1,0,0:0:0:0:
118,74,226337,1,0,0:0:0:0:
118,74,226411,1,0,0:0:0:0:
120,83,226485,1,8,0:0:0:0:
120,83,226559,1,0,0:0:0:0:
120,83,226634,1,8,0:0:0:0:
121,87,226708,1,8,0:0:0:0:
91,103,226782,1,0,0:0:0:0:
145,78,227005,1,0,0:0:0:0:
146,78,227079,1,8,0:0:0:0:
146,78,227228,1,0,0:0:0:0:
149,96,227376,1,0,0:0:0:0:
125,98,227525,1,8,0:0:0:0:
131,105,227599,1,8,0:0:0:0:
140,104,227747,1,8,0:0:0:0:
140,104,227822,1,0,0:0:0:0:
140,104,227896,1,0,0:0:0:0:
138,107,227970,1,8,0:0:0:0:
118,123,228193,1,0,0:0:0:0:
118,124,228267,1,8,0:0:0:0:
118,124,228416,1,0,0:0:0:0:
125,127,228564,1,0,0:0:0:0:
129,127,228639,1,8,0:0:0:0:
129,125,228713,1,0,0:0:0:0:
132,132,228787,1,0,0:0:0:0:
130,125,228861,1,8,0:0:0:0:
115,100,228936,1,8,0:0:0:0:
130,129,229010,1,0,0:0:0:0:
122,105,229158,1,8,0:0:0:0:
122,112,229381,1,0,0:0:0:0:
122,111,229455,1,8,0:0:0:0:
122,105,229604,1,0,0:0:0:0:
121,105,229752,1,8,0:0:0:0:
123,98,229827,1,0,0:0:0:0:
124,99,229975,1,0,0:0:0:0:
124,99,230049,1,8,0:0:0:0:
122,105,230124,1,8,0:0:0:0:
122,105,230198,1,0,0:0:0:0:
122,112,230346,1,0,0:0:0:0:
122,105,230569,1,8,0:0:0:0:
122,105,230643,1,0,0:0:0:0:
121,105,230792,1,8,0:0:0:0:
120,107,230940,1,0,0:0:0:0:
120,107,231015,1,8,0:0:0:0:
122,105,231163,1,8,0:0:0:0:
122,105,231238,1,0,0:0:0:0:
122,112,231312,1,0,0:0:0:0:
122,112,231386,1,8,0:0:0:0:
122,105,231535,1,8,0:0:0:0:
121,105,231757,1,0,0:0:0:0:
121,105,231832,1,8,0:0:0:0:
120,107,231980,1,0,0:0:0:0:
120,112,232129,1,0,0:0:0:0:
122,112,232351,1,8,0:0:0:0:
120,121,232426,1,0,0:0:0:0:
120,121,232574,1,8,0:0:0:0:
128,122,232723,1,8,0:0:0:0:
128,125,232797,1,8,0:0:0:0:
128,125,232945,1,0,0:0:0:0:
128,125,233020,1,8,0:0:0:0:
127,124,233168,1,0,0:0:0:0:
127,125,233317,1,8,0:0:0:0:
127,125,233391,1,8,0:0:0:0:
134,120,233465,1,0,0:0:0:0:
135,120,233540,1,8,0:0:0:0:
135,120,233614,1,8,0:0:0:0:
135,120,233688,1,0,0:0:0:0:
135,120,233762,1,0,0:0:0:0:
135,120,233837,1,8,0:0:0:0:
120,50,233911,1,0,0:0:0:0:
138,39,234134,1,8,0:0:0:0:
134,43,234208,1,0,0:0:0:0:
148,43,234356,1,8,0:0:0:0:
148,43,234505,1,0,0:0:0:0:
148,43,234579,1,0,0:0:0:0:
155,41,234728,1,0,0:0:0:0:
155,41,234802,1,8,0:0:0:0:
160,52,234876,1,8,0:0:0:0:
157,48,234950,1,0,0:0:0:0:
157,48,235099,1,0,0:0:0:0:
157,48,235322,1,8,0:0:0:0:
157,48,235396,1,0,0:0:0:0:
114,69,235544,1,8,0:0:0:0:
108,83,235693,1,0,0:0:0:0:
118,74,235841,1,0,0:0:0:0:
118,74,235916,1,0,0:0:0:0:
120,83,235990,1,8,0:0:0:0:
120,83,236064,1,0,0:0:0:0:
120,83,236139,1,8,0:0:0:0:
121,87,236213,1,8,0:0:0:0:
91,103,236287,1,0,0:0:0:0:
145,78,236510,1,0,0:0:0:0:
146,78,236584,1,8,0:0:0:0:
146,78,236733,1,0,0:0:0:0:
149,96,236881,1,0,0:0:0:0:
125,98,237030,1,8,0:0:0:0:
131,105,237104,1,8,0:0:0:0:
140,104,237252,1,8,0:0:0:0:
140,104,237327,1,0,0:0:0:0:
140,104,237401,1,0,0:0:0:0:
138,107,237475,1,8,0:0:0:0:
118,123,237698,1,0,0:0:0:0:
118,124,237772,1,8,0:0:0:0:
118,124,237921,1,0,0:0:0:0:
125,127,238069,1,0,0:0:0:0:
129,127,238143,1,8,0:0:0:0:
129,125,238218,1,0,0:0:0:0:
132,132,238292,1,0,0:0:0:0:
130,125,238366,1,8,0:0:0:0:
115,100,238440,1,8,0:0:0:0:
130,129,238515,1,0,0:0:0:0:
122,105,238663,1,8,0:0:0:0:
149,111,238812,1,8,0:0:0:0:
122,112,238886,1,0,0:0:0:0:
122,111,238960,1,8,0:0:0:0:
122,105,239109,1,0,0:0:0:0:
121,105,239257,1,8,0:0:0:0:
123,98,239332,1,0,0:0:0:0:
124,99,239480,1,0,0:0:0:0:
124,99,239554,1,8,0:0:0:0:
122,105,239629,1,8,0:0:0:0:
122,105,239703,1,0,0:0:0:0:
122,112,239851,1,0,0:0:0:0:
153,113,240000,1,0,0:0:0:0:
122,105,240074,1,8,0:0:0:0:
122,105,240148,1,0,0:0:0:0:
121,105,240297,1,8,0:0:0:0:
120,107,240445,1,0,0:0:0:0:
120,107,240520,1,8,0:0:0:0:
122,105,240668,1,8,0:0:0:0:
122,105,240742,1,0,0:0:0:0:
122,112,240817,1,0,0:0:0:0:
122,112,240891,1,8,0:0:0:0:
85,111,241040,1,8,0:0:0:0:
89,107,241114,1,8,0:0:0:0:
92,105,241188,1,0,0:0:0:0:
92,105,241262,1,0,0:0:0:0:
92,105,241337,1,8,0:0:0:0:
92,105,241411,1,0,0:0:0:0:
94,102,241485,1,8,0:0:0:0:
94,105,241559,1,8,0:0:0:0:
104,93,241634,1,0,0:0:0:0:
114,87,241708,1,8,0:0:0:0:
121,83,241782,1,0,0:0:0:0:
122,83,241856,1,0,0:0:0:0:
121,83,241931,1,8,0:0:0:0:
123,81,242005,1,8,0:0:0:0:
122,76,242079,1,0,0:0:0:0:
125,74,242153,1,8,0:0:0:0:
125,74,242228,1,0,0:0:0:0:
92,78,242822,1,0,0:0:0:0:
94,78,242896,1,0,0:0:0:0:
96,86,242970,1,0,0:0:0:0:
99,83,243044,1,0,0:0:0:0:
120,65,243119,1,8,0:0:0:0:
124,64,243193,1,8,0:0:0:0:
125,63,243267,1,8,0:0:0:0:
120,65,243341,1,8,0:0:0:0:
120,65,243416,1,0,0:0:0:0:
120,65,244010,1,0,0:0:0:0:
127,63,244158,1,8,0:0:0:0:
124,64,244233,1,8,0:0:0:0:
131,59,244307,1,8,0:0:0:0:
129,60,244455,1,0,0:0:0:0:
127,61,244604,1,0,0:0:0:0:
128,61,244752,1,8,0:0:0:0:
129,62,244901,1,0,0:0:0:0:
129,63,245049,1,8,0:0:0:0:
127,63,245124,1,8,0:0:0:0:
133,44,245198,1,0,0:0:0:0:
133,44,245346,1,8,0:0:0:0:
135,43,245495,1,0,0:0:0:0:
106,62,245569,1,0,0:0:0:0:
135,43,245643,1,8,0:0:0:0:
133,44,245792,1,4,0:0:0:0:
133,45,246089,1,8,0:0:0:0:
114,58,246238,1,0,0:0:0:0:
130,53,246312,1,0,0:0:0:0:
118,57,246386,1,8,0:0:0:0:
116,62,246535,1,0,0:0:0:0:
116,62,246683,1,8,0:0:0:0:
116,63,246757,1,8,0:0:0:0:
116,62,246832,1,0,0:0:0:0:
133,45,246980,1,8,0:0:0:0:
118,57,247129,1,0,0:0:0:0:
123,59,247178,1,0,0:0:0:0:
127,74,247228,1,0,0:0:0:0:
125,76,247277,1,8,0:0:0:0:
121,68,247426,1,8,0:0:0:0:
160,53,247500,1,8,0:0:0:0:
155,54,247574,1,0,0:0:0:0:
169,67,247723,1,8,0:0:0:0:
175,65,247772,1,8,0:0:0:0:
173,66,247822,1,0,0:0:0:0:
175,66,247871,1,8,0:0:0:0:
176,65,248020,1,0,0:0:0:0:
180,58,248168,1,4,0:0:0:0:
181,56,248465,1,0,0:0:0:0:
120,65,248762,1,0,0:0:0:0:
127,63,248911,1,8,0:0:0:0:
124,64,248985,1,8,0:0:0:0:
131,59,249059,1,8,0:0:0:0:
129,60,249208,1,0,0:0:0:0:
127,61,249356,1,0,0:0:0:0:
128,61,249505,1,8,0:0:0:0:
129,62,249653,1,0,0:0:0:0:
129,63,249802,1,8,0:0:0:0:
127,63,249876,1,8,0:0:0:0:
133,44,249950,1,0,0:0:0:0:
133,44,250099,1,8,0:0:0:0:
135,43,250247,1,0,0:0:0:0:
130,97,250322,1,0,0:0:0:0:
135,43,250396,1,8,0:0:0:0:
133,44,250544,1,4,0:0:0:0:
133,45,250841,1,8,0:0:0:0:
114,58,250990,1,0,0:0:0:0:
130,53,251064,1,0,0:0:0:0:
118,57,251139,1,8,0:0:0:0:
116,62,251287,1,0,0:0:0:0:
116,62,251436,1,8,0:0:0:0:
116,63,251510,1,8,0:0:0:0:
116,62,251584,1,0,0:0:0:0:
133,45,251733,1,0,0:0:0:0:
118,57,251881,1,8,0:0:0:0:
123,59,251931,1,8,0:0:0:0:
127,74,251980,1,8,0:0:0:0:
125,76,252030,1,0,0:0:0:0:
121,68,252178,1,0,0:0:0:0:
160,53,252252,1,8,0:0:0:0:
155,54,252327,1,0,0:0:0:0:
158,69,252475,1,8,0:0:0:0:
182,86,252549,1,0,0:0:0:0:
147,56,252624,1,8,0:0:0:0:
182,86,252698,1,8,0:0:0:0:
176,65,252772,1,0,0:0:0:0:
181,80,252846,1,8,0:0:0:0:
179,85,252921,1,0,0:0:0:0:
169,51,253218,1,8,0:0:0:0:
169,51,253366,1,0,0:0:0:0:
120,65,253515,1,0,0:0:0:0:
127,63,253663,1,8,0:0:0:0:
124,64,253738,1,8,0:0:0:0:
131,59,253812,1,8,0:0:0:0:
129,60,253960,1,0,0:0:0:0:
127,61,254109,1,0,0:0:0:0:
128,61,254257,1,8,0:0:0:0:
129,62,254406,1,0,0:0:0:0:
129,63,254554,1,8,0:0:0:0:
127,63,254629,1,8,0:0:0:0:
133,44,254703,1,0,0:0:0:0:
133,44,254851,1,8,0:0:0:0:
135,43,255000,1,0,0:0:0:0:
145,73,255074,1,0,0:0:0:0:
135,43,255148,1,8,0:0:0:0:
133,44,255297,1,4,0:0:0:0:
133,45,255594,1,8,0:0:0:0:
114,58,255742,1,0,0:0:0:0:
130,53,255817,1,0,0:0:0:0:
118,57,255891,1,8,0:0:0:0:
116,62,256040,1,0,0:0:0:0:
116,62,256188,1,8,0:0:0:0:
116,63,256262,1,8,0:0:0:0:
116,62,256337,1,0,0:0:0:0:
133,45,256485,1,8,0:0:0:0:
118,57,256634,1,0,0:0:0:0:
123,59,256683,1,0,0:0:0:0:
127,74,256733,1,8,0:0:0:0:
125,76,256782,1,0,0:0:0:0:
121,68,256931,1,8,0:0:0:0:
160,53,256980,1,8,0:0:0:0:
117,81,257030,1,8,0:0:0:0:
155,54,257079,1,0,0:0:0:0:
169,67,257228,1,0,0:0:0:0:
173,66,257302,1,0,0:0:0:0:
175,66,257376,1,8,0:0:0:0:
176,65,257525,1,0,0:0:0:0:
180,58,257673,1,4,0:0:0:0:
186,79,257970,1,8,0:0:0:0:
188,80,258119,1,0,0:0:0:0:
193,76,258267,1,8,0:0:0:0:
127,63,258416,1,8,0:0:0:0:
124,64,258490,1,8,0:0:0:0:
131,59,258564,1,8,0:0:0:0:
129,60,258713,1,0,0:0:0:0:
127,61,258861,1,0,0:0:0:0:
128,61,259010,1,8,0:0:0:0:
129,62,259158,1,0,0:0:0:0:
129,63,259307,1,8,0:0:0:0:
127,63,259381,1,8,0:0:0:0:
133,44,259455,1,0,0:0:0:0:
133,44,259604,1,8,0:0:0:0:
135,43,259752,1,0,0:0:0:0:
195,80,259827,1,0,0:0:0:0:
135,43,259901,1,8,0:0:0:0:
133,44,260049,1,4,0:0:0:0:
157,81,260198,1,8,0:0:0:0:
157,81,260346,1,0,0:0:0:0:
163,75,260421,1,8,0:0:0:0:
163,76,260495,1,8,0:0:0:0:
168,75,260643,1,0,0:0:0:0:
164,75,260792,1,8,0:0:0:0:
157,81,260940,1,0,0:0:0:0:
158,72,261015,1,8,0:0:0:0:
160,71,261089,1,8,0:0:0:0:
160,74,261238,1,8,0:0:0:0:
157,81,261312,1,8,0:0:0:0:
157,81,261386,1,0,0:0:0:0:
163,75,261460,1,8,0:0:0:0:
163,76,261535,1,8,0:0:0:0:
168,75,261609,1,0,0:0:0:0:
168,75,261683,1,8,0:0:0:0:
164,75,261757,1,0,0:0:0:0:
164,75,261832,1,8,0:0:0:0:
157,81,262426,1,4,0:0:0:0:
