osu file format v14

[General]
AudioFilename: audio.mp3
AudioLeadIn: 0
PreviewTime: 90082
Countdown: 0
SampleSet: Soft
StackLeniency: 0.2
Mode: 2
LetterboxInBreaks: 0
WidescreenStoryboard: 1

[Editor]
Bookmarks: 5726,24736,43746,62755,69587,79389,81765,91270,110280,129290,148300,167310,186320,195825,205330,224340,243350,262359,275280,281369,307508
DistanceSpacing: 0.9
BeatDivisor: 8
GridSize: 32
TimelineZoom: 2.2

[Metadata]
Title:Racemization
TitleUnicode:Racemization
Artist:Camellia
ArtistUnicode:かめりあ
Creator:Secre
Version:Terminus
Source:
Tags:chickenbible perseus featured artist fa mg mpg mappers' guild electronic edm instrumental dubstep drumstep dnb drum and bass planet shaper かめるかめりあ kamelcamellia cametek ctcd-011
BeatmapID:4495767
BeatmapSetID:2136432

[Difficulty]
HPDrainRate:5
CircleSize:4.2
OverallDifficulty:9.9
ApproachRate:9.9
SliderMultiplier:1.86
SliderTickRate:2

[Events]
//Background and Video events
0,0,"the world if niji treated their talents like holo.jpg",0,0
//Break Periods
2,196322,203053
//Storyboard Layer 0 (Background)
//Storyboard Layer 1 (Fail)
//Storyboard Layer 2 (Pass)
//Storyboard Layer 3 (Foreground)
//Storyboard Layer 4 (Overlay)
//Storyboard Sound Samples

[TimingPoints]
3350,297.029702970297,4,2,1,30,1,0
5874,-100,4,2,1,30,0,0
25033,-100,4,2,1,30,0,0
27632,-100,4,2,1,30,0,0
28820,-100,4,2,1,30,0,0
29117,-100,4,2,1,30,0,0
29488,-100,4,2,1,30,0,0
31864,-100,4,2,1,30,0,0
34241,-100,4,2,1,30,0,0
34835,-100,4,2,1,30,0,0
39142,-100,4,2,1,30,0,0
41518,-100,4,2,1,30,0,0
43746,-40,4,2,1,70,0,0
44191,-100,4,2,1,70,0,0
44934,-40,4,2,1,70,0,0
45379,-100,4,2,1,70,0,0
45676,-100,4,2,1,70,0,0
46122,-40,4,2,1,70,0,0
46567,-100,4,2,1,70,0,0
47310,-100,4,2,1,70,0,0
48498,-40,4,2,1,70,0,0
48944,-100,4,2,1,70,0,0
49686,-40,4,2,1,70,0,0
50132,-100,4,2,1,70,0,0
50429,-100,4,2,1,70,0,0
50874,-40,4,2,1,70,0,0
51320,-100,4,2,1,70,0,0
52062,-40,4,2,1,70,0,0
52434,-100,4,2,1,70,0,0
53250,-100,4,2,1,70,0,0
61567,-33.3333333333333,4,2,1,70,0,0
62013,-100,4,2,1,70,0,0
62161,-100,4,2,1,70,0,0
62458,-100,4,2,1,70,0,0
62755,-100,4,2,1,100,0,0
63647,-100,4,2,1,100,0,0
66468,-100,4,2,1,100,0,0
66914,-100,4,2,1,100,0,0
67508,-100,4,2,1,100,0,0
68399,-100,4,2,1,100,0,0
70181,-100,4,2,1,100,0,0
70478,-100,4,2,1,100,0,0
70924,-66.6666666666667,4,2,1,100,0,0
71221,-100,4,2,1,100,0,0
71369,-100,4,2,1,100,0,0
71666,-100,4,2,1,50,0,0
72260,-100,4,2,1,100,0,0
73151,-100,4,2,1,100,0,0
74637,-100,4,2,1,100,0,0
74934,-100,4,2,1,100,0,0
75973,-100,4,2,1,100,0,0
76419,-100,4,2,1,100,0,0
77013,-100,4,2,1,100,0,0
77904,-100,4,2,1,100,0,0
79389,-100,4,2,1,70,0,0
88894,-100,4,2,1,100,0,0
89043,-100,4,2,1,100,0,0
90156,-100,4,2,12,38,0,0
90231,-100,4,2,13,41,0,0
90305,-100,4,2,14,44,0,0
90379,-100,4,2,15,47,0,0
90453,-100,4,2,16,50,0,0
90528,-100,4,2,17,53,0,0
90602,-100,4,2,18,56,0,0
90676,-100,4,2,19,59,0,0
90750,-100,4,2,20,63,0,0
90825,-100,4,2,21,67,0,0
90899,-100,4,2,22,72,0,0
90973,-100,4,2,23,77,0,0
91048,-100,4,2,24,83,0,0
91122,-100,4,2,25,88,0,0
91196,-100,4,2,26,95,0,0
91270,-33.3333333333333,4,2,1,100,0,1
91419,-100,4,2,1,100,0,1
91567,-100,4,2,1,100,0,1
94686,-100,4,2,1,100,0,1
95132,-100,4,2,1,100,0,1
95354,-100,4,2,1,100,0,1
95726,-100,4,2,1,100,0,1
96023,-100,4,2,1,100,0,1
96320,-100,4,2,1,100,0,1
98102,-100,4,2,1,100,0,1
98399,-33.3333333333333,4,2,1,100,0,1
98621,-100,4,2,1,100,0,1
98696,-100,4,2,1,100,0,1
98993,-33.3333333333333,4,2,1,100,0,1
99215,-100,4,2,1,100,0,1
99290,-100,4,2,1,100,0,1
99439,-33.3333333333333,4,2,1,100,0,1
99884,-100,4,2,1,100,0,1
100107,-100,4,2,1,100,0,1
100330,-100,4,2,1,100,0,1
100478,-100,4,2,1,100,0,1
100775,-33.3333333333333,4,2,1,100,0,1
100998,-100,4,2,1,100,0,1
103151,-100,4,2,1,100,0,1
104191,-100,4,2,1,100,0,1
104859,-100,4,2,1,100,0,1
105231,-100,4,2,1,100,0,1
105453,-100,4,2,1,100,0,1
105528,-100,4,2,1,100,0,0
106122,-100,4,2,1,100,0,0
106716,-100,4,2,1,100,0,0
107310,-100,4,2,1,100,0,0
109092,-100,4,2,1,40,0,0
110280,-33.3333333333333,4,2,1,100,0,1
110577,-100,4,2,1,100,0,1
111171,-100,4,2,1,100,0,1
112656,-100,4,2,1,100,0,1
114736,-100,4,2,1,100,0,1
115033,-33.3333333333333,4,2,1,100,0,1
115330,-100,4,2,1,100,0,1
115924,-100,4,2,1,100,0,1
118300,-100,4,2,1,100,0,1
119488,-100,4,2,1,100,0,1
119785,-100,4,2,1,100,0,1
120082,-33.3333333333333,4,2,1,100,0,1
120305,-100,4,2,1,100,0,1
120676,-100,4,2,1,100,0,1
122607,-100,4,2,1,100,0,1
124241,-100,4,2,1,100,0,1
124538,-33.3333333333333,4,2,1,100,0,1
124835,-100,4,2,1,100,0,1
125429,-100,4,2,1,100,0,1
129290,-100,4,2,1,100,0,0
129884,-100,4,2,1,30,0,0
134043,-100,4,2,2,40,0,0
134637,-100,4,2,2,40,0,0
138795,-100,4,2,2,40,0,0
139389,-100,4,2,2,40,0,0
143548,-100,4,2,2,40,0,0
144142,-100,4,2,2,40,0,0
147112,-100,4,2,2,40,0,0
148300,-100,4,2,1,40,0,0
167310,-100,4,2,1,100,0,0
167904,-100,4,2,1,100,0,0
168795,-100,4,2,1,100,0,0
170280,-100,4,2,1,100,0,0
171023,-100,4,2,1,100,0,0
171468,-100,4,2,1,100,0,0
172656,-100,4,2,1,100,0,0
173548,-100,4,2,1,100,0,0
174439,-100,4,2,1,100,0,0
174736,-100,4,2,1,100,0,0
175033,-100,4,2,1,100,0,0
175775,-100,4,2,1,100,0,0
176221,-100,4,2,1,100,0,0
177409,-100,4,2,1,100,0,0
178300,-100,4,2,1,100,0,0
179785,-100,4,2,1,100,0,0
180528,-100,4,2,1,100,0,0
180973,-100,4,2,1,100,0,0
182161,-100,4,2,1,100,0,0
183052,-100,4,2,1,100,0,0
185280,-100,4,2,1,30,0,0
185429,-100,4,2,1,40,0,0
185577,-100,4,2,1,45,0,0
185726,-100,4,2,1,55,0,0
185874,-100,4,2,1,65,0,0
186023,-100,4,2,1,85,0,0
186171,-100,4,2,1,100,0,0
186765,-71.4285714285714,4,2,1,100,0,0
187211,-71.4285714285714,4,2,1,100,0,0
187656,-71.4285714285714,4,2,1,100,0,0
188102,-71.4285714285714,4,2,1,100,0,0
188696,-100,4,2,1,100,0,0
189142,-71.4285714285714,4,2,1,100,0,0
189587,-71.4285714285714,4,2,1,100,0,0
190033,-71.4285714285714,4,2,1,100,0,0
190330,-71.4285714285714,4,2,1,100,0,0
190478,-100,4,2,1,100,0,0
190701,-100,4,2,1,100,0,0
190924,-100,4,2,1,100,0,0
191072,-100,4,2,1,100,0,0
191518,-100,4,2,1,100,0,0
191963,-100,4,2,1,100,0,0
192409,-100,4,2,1,100,0,0
192854,-71.4285714285714,4,2,1,100,0,0
193449,-100,4,2,1,100,0,0
193894,-71.4285714285714,4,2,1,100,0,0
194340,-71.4285714285714,4,2,1,100,0,0
194785,-71.4285714285714,4,2,1,100,0,0
195082,-71.4285714285714,4,2,1,100,0,0
195528,-71.4285714285714,4,2,1,100,0,0
195825,-100,4,2,1,100,0,0
195899,-100,4,2,1,15,0,0
205330,-40,4,2,1,70,0,0
205775,-100,4,2,1,70,0,0
206518,-40,4,2,1,70,0,0
206963,-100,4,2,1,70,0,0
207260,-100,4,2,1,70,0,0
207706,-40,4,2,1,70,0,0
208151,-100,4,2,1,70,0,0
208894,-100,4,2,1,70,0,0
210082,-40,4,2,1,70,0,0
210528,-100,4,2,1,70,0,0
211270,-40,4,2,1,70,0,0
211716,-100,4,2,1,70,0,0
212013,-100,4,2,1,70,0,0
212458,-40,4,2,1,70,0,0
212904,-100,4,2,1,70,0,0
213647,-40,4,2,1,70,0,0
214018,-100,4,2,1,70,0,0
214835,-100,4,2,1,70,0,0
223151,-100,4,2,1,70,0,0
223746,-100,4,2,1,70,0,0
224043,-100,4,2,1,70,0,0
224340,-72.992700729927,4,2,1,100,0,1
224562,-72.992700729927,4,2,1,100,0,1
225008,-72.992700729927,4,2,1,100,0,1
225231,-72.992700729927,4,2,1,100,0,1
225750,-72.992700729927,4,2,1,100,0,1
226196,-72.992700729927,4,2,1,100,0,1
226939,-72.992700729927,4,2,1,100,0,1
227384,-72.992700729927,4,2,1,100,0,1
227607,-72.992700729927,4,2,1,100,0,1
228350,-72.992700729927,4,2,1,100,0,1
228572,-72.992700729927,4,2,1,100,0,1
228795,-72.992700729927,4,2,1,100,0,1
229315,-72.992700729927,4,2,1,100,0,1
229760,-72.992700729927,4,2,1,100,0,1
229983,-72.992700729927,4,2,1,100,0,1
230503,-72.992700729927,4,2,1,100,0,1
230949,-72.992700729927,4,2,1,100,0,1
231691,-72.992700729927,4,2,1,100,0,1
234067,-72.992700729927,4,2,1,100,0,1
234513,-72.992700729927,4,2,1,100,0,1
234736,-72.992700729927,4,2,1,100,0,1
235255,-72.992700729927,4,2,1,100,0,1
235701,-72.992700729927,4,2,1,100,0,1
236444,-72.992700729927,4,2,1,100,0,1
236889,-72.992700729927,4,2,1,100,0,1
237112,-72.992700729927,4,2,1,100,0,1
237632,-72.992700729927,4,2,1,100,0,1
238077,-72.992700729927,4,2,1,100,0,1
242161,-100,4,2,1,70,0,0
243350,-100,4,2,1,100,0,0
243944,-79.6178343949044,4,2,1,100,0,0
244241,-79.6178343949044,4,2,1,100,0,0
245726,-79.6178343949044,4,2,1,100,0,0
248993,-79.6178343949044,4,2,1,100,0,0
250181,-79.6178343949044,4,2,1,100,0,0
250478,-79.6178343949044,4,2,1,100,0,0
251666,-79.6178343949044,4,2,1,100,0,0
251963,-79.6178343949044,4,2,1,100,0,0
252557,-79.6178343949044,4,2,1,100,0,0
252854,-79.6178343949044,4,2,1,100,0,0
253746,-79.6178343949044,4,2,1,100,0,0
255231,-79.6178343949044,4,2,1,100,0,0
258498,-79.6178343949044,4,2,1,100,0,0
261171,-79.6178343949044,4,2,1,100,0,0
262359,-79.6178343949044,4,2,1,100,0,0
262434,-79.6178343949044,4,2,1,30,0,0

[Colours]
Combo1 : 235,245,160
Combo2 : 150,157,245
Combo3 : 125,220,227

[HitObjects]
207,225,24736,6,0,L|201:100,1,93,2|0,2:0|2:0,2:0:0:0:
334,103,25033,2,0,L|341:-10,1,93,2|0,2:0|0:0,2:0:0:0:
206,39,25330,2,0,P|142:40|103:165,1,186
236,181,25775,6,0,L|36:140,1,186
187,117,26221,2,0,P|236:118|271:242,1,186
146,253,26666,2,0,L|260:247,2,93
281,172,27112,6,0,L|92:147,1,186,0|0,2:0|0:0,0:0:0:0:
234,78,27557,1,0,0:0:0:0:
105,155,27706,1,0,0:0:0:0:
234,78,27854,2,0,L|237:196,1,93
150,200,28151,1,0,0:0:0:0:
287,125,28300,6,0,L|181:115,2,93,0|0|0,2:0|0:0|0:0,0:0:0:0:
426,162,28746,2,0,L|352:157,1,46.5,0|2,0:0|2:0,0:0:0:0:
206,234,28894,2,0,L|201:127,1,93
344,86,29191,2,0,L|449:74,1,93,0|2,0:0|2:0,0:0:0:0:
388,24,29414,1,2,2:0:0:0:
202,128,29488,6,0,L|86:111,2,93,2|0|0,2:0|0:0|0:0,2:0:0:0:
339,150,29934,2,0,L|340:49,1,93
201,130,30231,2,0,L|299:127,2,93
70,105,30676,6,0,L|177:102,2,93
207,152,31122,1,0,0:0:0:0:
70,105,31270,2,0,L|70:205,1,93
211,227,31567,1,0,0:0:0:0:
164,223,31641,1,0,0:0:0:0:
118,220,31715,1,0,0:0:0:0:
372,132,31864,5,0,2:0:0:0:
251,90,32013,2,0,L|248:-19,1,93
131,31,32310,1,0,0:0:0:0:
359,186,32458,2,0,L|267:176,2,93
359,186,32904,2,0,L|276:182,1,46.5,0|2,0:0|2:0,0:0:0:0:
153,114,33052,6,0,L|32:105,2,93
289,122,33498,1,0,0:0:0:0:
153,114,33647,2,0,L|151:225,1,93
200,242,33869,1,0,0:0:0:0:
360,182,33944,2,0,L|467:182,1,93
309,109,34241,6,0,L|426:108,1,93,0|0,2:0|2:0,2:0:0:0:
134,92,34538,2,0,L|245:88,2,93,2|0|2,2:0|0:0|2:0,0:0:0:0:
270,126,34983,2,0,L|271:233,1,93
182,250,35280,1,2,2:0:0:0:
424,168,35429,6,0,L|426:56,1,93
286,53,35726,2,0,L|394:46,1,93,2|0,2:0|0:0,0:0:0:0:
239,152,36023,2,0,L|136:145,1,93,0|2,0:0|2:0,0:0:0:0:
378,98,36320,6,0,P|445:98|472:221,1,186,0|0,0:0|2:0,0:0:0:0:
346,206,36765,2,0,P|292:207|266:324,1,186,2|0,2:0|0:0,2:0:0:0:
387,284,37211,2,0,L|287:274,2,93,2|0|0,2:0|0:0|0:0,0:0:0:0:
158,180,37656,6,0,L|356:172,1,186,2|0,2:0|0:0,0:0:0:0:
93,111,38102,2,0,L|186:107,2,93,2|0|0,2:0|0:0|0:0,0:0:0:0:
334,64,38548,1,2,2:0:0:0:
204,46,38696,1,0,0:0:0:0:
163,63,38770,1,0,0:0:0:0:
161,107,38844,1,0,0:0:0:0:
200,127,38918,1,0,0:0:0:0:
402,156,38993,6,0,L|405:277,1,93,0|2,2:0|2:0,0:0:0:0:
154,262,39290,2,0,L|368:244,1,186,0|2,0:0|2:0,0:0:0:0:
213,152,39736,1,0,0:0:0:0:
339,246,39884,1,0,0:0:0:0:
86,177,40033,6,0,P|156:187|182:316,1,186,2|0,2:0|0:0,0:0:0:0:
61,283,40478,2,0,L|179:277,2,93,2|0|0,2:0|0:0|0:0,0:0:0:0:
310,156,40924,1,2,2:0:0:0:
177,108,41072,1,0,0:0:0:0:
439,96,41221,6,0,L|440:205,1,93,0|0,0:0|2:0,0:0:0:0:
213,239,41518,2,0,L|323:235,2,93,2|0|0,2:0|0:0|0:0,2:0:0:0:
461,147,41963,2,0,L|265:108,1,186,2|0,2:0|0:0,0:0:0:0:
403,58,42409,1,2,2:0:0:0:
179,177,42557,6,0,L|288:168,2,93
422,105,43003,1,0,0:0:0:0:
176,177,43151,2,0,L|171:78,1,93
227,52,43374,1,0,0:0:0:0:
391,60,43449,2,0,L|445:53,1,46.5,0|0,2:0|0:0,0:0:0:0:
482,46,43597,2,0,L|483:114,1,46.5
134,250,43746,6,0,B|366:252|366:252|228:39,1,465,0|0,1:0|0:0,2:0:0:0:
458,242,44191,2,0,L|462:122,2,93,0|0|0,1:0|0:0|0:0,0:0:0:0:
225,220,44637,1,0,2:0:0:0:
458,242,44785,2,0,L|374:242,1,46.5,0|0,2:0|0:0,0:0:0:0:
134,250,44934,6,0,B|366:252|366:252|228:39,1,465,0|0,1:0|0:0,2:0:0:0:
480,242,45379,2,0,L|480:124,1,93,0|0,1:0|0:0,0:0:0:0:
249,151,45676,1,0,1:0:0:0:
32,242,45825,2,0,L|32:124,1,93
378,250,46122,6,0,B|146:252|146:252|284:39,1,465,0|0,1:0|0:0,2:0:0:0:
54,242,46567,2,0,L|50:122,2,93,0|0|0,1:0|0:0|0:0,0:0:0:0:
287,220,47013,1,0,2:0:0:0:
54,242,47161,2,0,L|138:242,1,46.5,0|0,2:0|0:0,0:0:0:0:
327,234,47310,5,0,1:0:0:0:
209,141,47458,2,0,L|273:143,1,46.5
439,85,47607,2,0,L|409:85,1,31
277,52,47706,2,0,L|241:52,1,31
277,52,47805,2,0,L|330:52,1,31
158,127,47904,2,0,L|127:127,1,31
235,52,48003,2,0,L|266:52,1,31
235,52,48102,2,0,L|204:52,1,31
323,108,48201,1,0,0:0:0:0:
358,108,48250,1,0,0:0:0:0:
390,122,48300,1,0,0:0:0:0:
413,149,48349,1,0,2:0:0:0:
423,183,48399,1,0,0:0:0:0:
419,218,48448,1,0,0:0:0:0:
134,250,48498,6,0,B|366:252|366:252|228:39,1,465,0|0,1:0|0:0,2:0:0:0:
458,242,48944,2,0,L|462:122,2,93,0|0|0,1:0|0:0|0:0,0:0:0:0:
225,220,49389,2,0,L|289:220,1,46.5,0|0,2:0|0:0,2:0:0:0:
131,134,49538,2,0,L|132:63,1,46.5,0|0,2:0|0:0,0:0:0:0:
378,250,49686,6,0,B|146:252|146:252|284:39,1,465,0|0,1:0|0:0,2:0:0:0:
32,242,50132,2,0,L|32:124,1,93,0|0,1:0|0:0,0:0:0:0:
297,132,50429,2,0,L|234:131,1,46.5,0|0,1:0|0:0,2:0:0:0:
79,121,50577,1,0,0:0:0:0:
188,67,50726,2,0,L|122:66,1,46.5,0|0,0:0|2:0,0:0:0:0:
378,250,50874,6,0,B|146:252|146:252|284:39,1,465,0|0,1:0|0:0,2:0:0:0:
32,242,51320,2,0,L|136:243,2,93,0|0|0,1:0|0:0|0:0,0:0:0:0:
280,146,51765,2,0,L|216:144,1,46.5,0|0,2:0|0:0,2:0:0:0:
424,86,51914,2,0,L|424:148,1,46.5,0|0,2:0|0:0,0:0:0:0:
134,250,52062,6,0,B|366:252|366:252|228:39,1,465,0|0,1:0|0:0,2:0:0:0:
417,43,52434,2,0,L|495:38,2,46.5
205,96,52656,2,0,L|271:98,1,46.5
205,96,52805,2,0,L|124:96,1,46.5
379,147,52953,2,0,P|437:154|451:235,1,139.5,0|0,0:0|2:0,0:0:0:0:
236,237,53250,6,0,L|233:139,1,93,4|0,3:1|2:0,2:0:0:0:
472,107,53548,2,0,L|357:91,1,93,0|0,3:0|2:0,2:0:0:0:
142,74,53845,1,0,3:0:0:0:
272,52,53993,2,0,L|215:49,1,46.5,0|0,2:0|0:0,0:0:0:0:
36,148,54142,2,0,L|32:29,1,93,0|0,3:0|2:0,2:0:0:0:
306,87,54439,5,0,3:0:0:0:
171,42,54587,2,0,L|245:46,1,46.5,0|0,2:0|0:0,0:0:0:0:
395,55,54736,2,0,L|501:57,1,93,0|0,3:0|2:0,2:0:0:0:
193,152,55033,1,0,3:0:0:0:
324,151,55181,1,0,2:0:0:0:
77,97,55330,2,0,L|163:97,1,46.5,0|0,3:0|0:0,2:0:0:0:
278,84,55478,2,0,L|209:83,1,46.5,0|0,2:0|0:0,0:0:0:0:
386,40,55627,6,0,L|484:40,1,93,0|0,3:0|2:0,2:0:0:0:
207,162,55924,1,0,3:0:0:0:
336,103,56072,2,0,L|272:102,1,46.5,0|0,2:0|0:0,0:0:0:0:
452,240,56221,2,0,L|451:111,1,93,0|0,3:0|2:0,2:0:0:0:
401,132,56444,1,0,0:0:0:0:
226,103,56518,2,0,L|292:104,1,46.5,0|0,3:0|0:0,2:0:0:0:
100,139,56666,2,0,L|37:139,1,46.5,0|0,2:0|0:0,0:0:0:0:
238,165,56815,6,0,L|241:222,1,46.5,0|0,3:0|0:0,2:0:0:0:
83,258,56963,2,0,L|141:258,1,46.5,0|0,2:0|0:0,0:0:0:0:
294,176,57112,2,0,L|229:170,1,46.5,0|0,3:0|0:0,2:0:0:0:
442,108,57260,2,0,L|370:96,1,46.5,0|0,2:0|0:0,0:0:0:0:
224,74,57409,5,0,3:0:0:0:
282,74,57483,1,0,0:0:0:0:
224,74,57557,1,0,2:0:0:0:
282,74,57631,1,0,0:0:0:0:
119,21,57706,1,0,0:0:0:0:
94,13,57743,1,0,0:0:0:0:
68,16,57780,1,0,0:0:0:0:
46,29,57817,1,0,0:0:0:0:
31,50,57854,1,0,0:0:0:0:
25,75,57891,1,0,0:0:0:0:
29,100,57928,1,0,0:0:0:0:
214,179,58003,6,0,L|224:250,1,46.5,0|0,3:0|0:0,0:0:0:0:
406,251,58151,2,0,L|415:322,1,46.5,0|0,3:0|0:0,0:0:0:0:
208,253,58300,2,0,L|283:253,1,46.5,0|0,3:0|0:0,0:0:0:0:
71,169,58449,2,0,L|136:167,1,46.5,0|0,3:0|0:0,0:0:0:0:
304,253,58597,6,0,L|229:253,1,46.5,0|0,3:0|0:0,0:0:0:0:
441,169,58746,2,0,L|376:167,1,46.5,0|0,3:0|0:0,0:0:0:0:
215,112,58894,1,0,3:0:0:0:
284,108,58968,1,0,0:0:0:0:
215,112,59043,1,0,3:0:0:0:
284,108,59117,1,0,0:0:0:0:
118,96,59191,6,0,L|60:93,1,46.5,0|0,3:0|0:0,0:0:0:0:
246,150,59340,2,0,L|253:218,1,46.5,0|0,3:0|0:0,0:0:0:0:
426,253,59488,2,0,L|490:251,1,46.5,0|0,3:0|0:0,0:0:0:0:
259,166,59637,2,0,L|251:87,1,46.5,0|0,3:0|0:0,0:0:0:0:
119,95,59785,5,0,3:0:0:0:
254,119,59859,1,0,3:0:0:0:
119,95,59934,2,0,L|190:98,1,46.5,0|0,3:0|3:0,0:0:0:0:
342,101,60082,2,0,L|274:100,1,46.5,0|0,3:0|3:0,0:0:0:0:
438,63,60231,1,0,3:0:0:0:
295,100,60305,1,0,3:0:0:0:
438,63,60379,6,0,L|439:235,1,139.5,0|0,1:0|0:0,0:0:0:0:
248,225,60676,2,0,L|309:220,1,46.5
225,164,60825,2,0,L|282:157,1,46.5
131,113,60973,6,0,L|122:55,1,46.5
196,45,61122,2,0,L|123:33,1,46.5
355,71,61270,2,0,L|423:56,1,46.5,0|0,2:0|0:0,0:0:0:0:
331,15,61419,2,0,L|415:9,1,46.5
141,267,61567,6,0,B|420:271|420:271|422:-34,1,558.000021286012,0|0,3:0|2:0,2:0:0:0:
190,86,62013,1,0,2:0:0:0:
328,93,62087,1,0,2:0:0:0:
263,89,62161,1,0,2:0:0:0:
328,93,62236,1,0,0:0:0:0:
190,86,62310,2,0,L|123:86,1,46.5,0|0,2:0|0:0,0:0:0:0:
328,93,62458,2,0,L|329:261,1,139.5,0|0,2:0|2:0,2:0:0:0:
95,156,62755,6,0,L|161:156,1,46.5,4|0,1:3|0:0,2:0:0:0:
301,138,62904,2,0,L|360:139,1,46.5
180,234,63052,2,0,L|243:234,1,46.5
386,85,63201,2,0,L|451:85,1,46.5,0|0,0:0|2:0,0:0:0:0:
173,120,63349,6,0,L|174:61,1,46.5,10|0,2:1|0:0,0:0:0:0:
310,53,63498,2,0,L|255:51,1,46.5,2|2,2:0|2:0,0:0:0:0:
406,58,63647,2,0,L|453:57,1,46.5,2|0,2:0|2:0,2:0:0:0:
312,122,63795,2,0,L|307:192,1,46.5,2|0,2:0|2:0,2:0:0:0:
115,197,63944,6,0,L|171:193,1,46.5,0|0,1:0|0:0,2:0:0:0:
353,189,64092,2,0,L|364:113,1,46.5,2|0,2:0|0:0,0:0:0:0:
214,117,64241,2,0,L|211:47,1,46.5,2|0,2:0|0:0,0:0:0:0:
363,52,64389,1,0,1:0:0:0:
212,70,64463,1,0,1:0:0:0:
363,52,64538,6,0,L|365:126,1,46.5,10|0,2:1|0:0,0:0:0:0:
218,190,64686,2,0,L|213:243,1,46.5,2|0,2:0|2:0,2:0:0:0:
355,272,64835,2,0,L|296:266,1,46.5,2|2,2:0|2:0,0:0:0:0:
458,215,64983,2,0,L|395:203,1,46.5,2|0,2:0|0:0,0:0:0:0:
218,124,65132,5,0,1:0:0:0:
290,104,65206,1,0,0:0:0:0:
218,124,65280,1,0,0:0:0:0:
290,104,65354,1,0,0:0:0:0:
115,135,65429,1,0,0:0:0:0:
92,129,65466,1,0,0:0:0:0:
69,124,65503,1,0,2:0:0:0:
208,90,65577,2,0,L|216:35,1,46.5,2|0,2:0|0:0,0:0:0:0:
383,73,65726,6,0,L|370:157,1,46.5,8|0,2:1|0:0,0:0:0:0:
230,158,65874,2,0,L|221:227,1,46.5,2|0,2:0|0:0,0:0:0:0:
78,233,66023,2,0,L|67:303,1,46.5,2|0,2:0|0:0,0:0:0:0:
289,139,66171,6,0,L|232:134,1,46.5,0|0,1:0|0:0,2:1:0:0:
92,117,66320,2,0,L|91:57,1,46.5,0|0,0:0|2:1,0:0:0:0:
268,153,66468,2,0,L|184:148,1,46.5,0|0,1:0|2:0,2:0:0:0:
397,172,66617,2,0,L|401:100,1,46.5,0|0,1:0|0:0,2:0:0:0:
245,60,66765,2,0,L|188:51,1,46.5,0|0,0:0|2:0,0:0:0:0:
341,112,66914,6,0,L|271:111,2,46.5,8|0|0,2:1|0:0|0:0,2:0:0:0:
192,117,67137,1,0,0:0:0:0:
341,112,67211,1,0,0:0:0:0:
396,92,67285,1,0,0:0:0:0:
192,117,67359,1,0,0:0:0:0:
137,97,67433,1,0,2:0:0:0:
391,54,67508,5,0,1:0:0:0:
394,77,67545,1,0,0:0:0:0:
397,100,67582,1,0,0:0:0:0:
316,117,67656,1,0,0:0:0:0:
314,140,67693,1,0,0:0:0:0:
312,163,67730,1,0,0:0:0:0:
145,187,67805,1,0,0:0:0:0:
118,183,67842,1,0,0:0:0:0:
92,188,67879,1,0,0:0:0:0:
70,202,67916,1,0,0:0:0:0:
53,223,67953,1,0,0:0:0:0:
45,248,67990,1,0,0:0:0:0:
47,275,68027,1,0,0:0:0:0:
217,303,68102,6,0,L|218:232,1,46.5,10|0,2:1|0:0,0:0:0:0:
365,212,68250,1,2,2:0:0:0:
218,256,68325,1,2,2:0:0:0:
365,212,68399,2,0,L|371:130,1,46.5,2|0,2:0|2:0,2:0:0:0:
217,132,68548,2,0,L|212:58,1,46.5,2|0,2:0|2:0,2:0:0:0:
48,71,68696,6,0,L|115:63,1,46.5,0|0,1:0|0:0,2:0:0:0:
256,59,68845,2,0,L|198:52,1,46.5,2|0,2:0|0:0,0:0:0:0:
358,102,68993,2,0,L|359:185,1,46.5,2|0,2:0|0:0,0:0:0:0:
217,132,69142,1,0,1:0:0:0:
359,148,69216,1,0,1:0:0:0:
155,214,69290,6,0,L|103:211,1,46.5,10|0,2:1|0:0,2:0:0:0:
263,146,69439,2,0,L|187:141,1,46.5,2|0,2:0|0:0,0:0:0:0:
364,214,69587,2,0,L|416:211,1,46.5,10|0,2:1|0:0,2:0:0:0:
256,146,69736,2,0,L|332:141,1,46.5,0|0,0:0|2:0,0:0:0:0:
110,96,69884,6,0,L|109:253,1,139.5,4|0,1:0|2:0,2:0:0:0:
288,234,70181,1,0,2:0:0:0:
221,207,70255,1,0,0:0:0:0:
288,234,70330,1,0,0:0:0:0:
221,207,70404,1,0,2:0:0:0:
458,138,70478,6,0,L|347:135,2,93,12|0|0,2:1|0:0|2:0,2:0:0:0:
405,87,70850,1,0,0:0:0:0:
178,158,70924,6,0,L|412:158,1,209.250007982254,4|0,1:0|2:0,2:0:0:0:
207,96,71221,2,0,L|206:31,1,46.5,0|0,1:0|2:0,2:0:0:0:
26,57,71369,2,0,P|60:55|116:134,1,139.5,0|0,1:0|2:0,2:0:0:0:
259,171,71666,5,8,2:1:0:0:
352,134,71703,1,0,0:0:0:0:
253,171,71815,1,8,2:1:0:0:
160,134,71852,1,0,0:0:0:0:
259,171,71963,1,8,2:1:0:0:
352,134,72000,1,0,0:0:0:0:
253,171,72112,1,8,2:1:0:0:
160,134,72149,1,0,0:0:0:0:
409,107,72260,6,0,P|412:183|199:235,1,325.5,0|0,1:0|2:0,2:0:0:0:
363,184,72854,6,0,L|367:119,1,46.5,14|0,2:1|0:0,0:0:0:0:
220,99,73003,1,2,2:0:0:0:
366,137,73077,1,2,2:0:0:0:
220,99,73151,2,0,L|216:37,1,46.5,2|0,2:0|2:0,2:0:0:0:
67,123,73300,2,0,L|62:63,1,46.5,2|0,2:0|2:0,2:0:0:0:
220,99,73449,6,0,L|159:98,1,46.5,0|0,1:0|0:0,2:0:0:0:
314,148,73597,2,0,L|370:143,1,46.5,2|0,2:0|0:0,0:0:0:0:
182,93,73746,2,0,L|177:35,1,46.5,2|0,2:0|0:0,0:0:0:0:
320,30,73894,1,0,1:0:0:0:
179,46,73968,1,0,1:0:0:0:
320,30,74043,6,0,L|261:28,1,46.5,10|0,2:1|0:0,0:0:0:0:
404,134,74191,2,0,L|406:76,1,46.5,2|0,2:0|2:0,2:0:0:0:
225,79,74340,2,0,L|283:79,1,46.5,2|2,2:0|2:0,0:0:0:0:
131,47,74488,2,0,L|67:46,1,46.5,2|0,2:0|0:0,0:0:0:0:
237,150,74637,5,0,1:0:0:0:
239,173,74674,1,0,0:0:0:0:
240,196,74711,1,0,0:0:0:0:
98,251,74785,1,0,0:0:0:0:
75,249,74822,1,0,0:0:0:0:
52,247,74859,1,0,0:0:0:0:
237,150,74934,1,0,0:0:0:0:
239,173,74971,1,0,0:0:0:0:
240,196,75008,1,0,2:0:0:0:
414,151,75082,2,0,L|473:144,1,46.5,2|0,2:0|0:0,0:0:0:0:
316,116,75231,6,0,L|309:58,1,46.5,8|0,2:1|0:0,0:0:0:0:
170,72,75379,2,0,L|164:16,1,46.5,2|0,2:0|0:0,0:0:0:0:
23,103,75528,2,0,L|14:50,1,46.5,2|0,2:0|0:0,0:0:0:0:
164,250,75676,2,0,L|100:246,1,46.5,0|0,1:0|0:0,2:0:0:0:
260,152,75825,6,0,L|259:94,1,46.5,0|0,0:0|2:0,0:0:0:0:
406,116,75973,2,0,L|340:116,1,46.5,0|0,1:0|2:0,2:0:0:0:
215,164,76122,2,0,L|218:107,1,46.5,0|0,1:0|0:0,2:0:0:0:
377,203,76270,2,0,L|442:203,1,46.5,0|0,0:0|2:0,0:0:0:0:
237,108,76419,6,0,L|351:108,1,93,8|0,2:1|0:0,2:0:0:0:
179,137,76642,1,0,0:0:0:0:
330,108,76716,2,0,L|216:108,1,93
388,137,76939,1,0,2:0:0:0:
173,125,77013,5,0,1:0:0:0:
169,101,77050,1,0,0:0:0:0:
166,78,77087,1,0,0:0:0:0:
339,125,77161,1,0,0:0:0:0:
342,101,77198,1,0,0:0:0:0:
345,78,77235,1,0,0:0:0:0:
104,142,77310,1,0,0:0:0:0:
81,146,77347,1,0,0:0:0:0:
64,161,77384,1,0,0:0:0:0:
57,183,77421,1,0,0:0:0:0:
62,205,77458,1,0,0:0:0:0:
78,222,77495,1,0,0:0:0:0:
100,228,77532,1,0,2:0:0:0:
245,198,77607,6,0,L|248:132,1,46.5,10|0,2:1|0:0,0:0:0:0:
95,94,77755,1,2,2:0:0:0:
248,151,77830,1,2,2:0:0:0:
95,94,77904,2,0,L|87:27,1,46.5,2|0,2:0|2:0,2:0:0:0:
254,62,78052,2,0,L|262:-2,1,46.5,2|0,2:0|2:0,2:0:0:0:
438,84,78201,6,0,L|373:82,1,46.5,0|0,1:0|0:0,2:0:0:0:
235,67,78350,2,0,L|298:63,1,46.5,2|0,2:0|0:0,0:0:0:0:
140,83,78498,2,0,L|140:145,1,46.5,2|0,2:0|0:0,0:0:0:0:
287,160,78647,1,0,1:0:0:0:
140,129,78721,1,0,1:0:0:0:
287,160,78795,6,0,L|233:160,1,46.5,10|0,0:1|0:0,0:0:0:0:
386,90,78944,2,0,L|440:86,1,46.5,2|0,0:0|2:0,2:0:0:0:
285,83,79092,2,0,L|283:131,1,46.5,2|2,2:0|2:0,0:0:0:0:
358,145,79241,2,0,L|364:204,1,46.5,2|0,2:0|0:0,0:0:0:0:
172,144,79389,6,0,L|364:146,1,186,6|2,3:2|2:0,2:0:0:0:
223,224,79835,2,0,L|328:223,1,93,2|0,2:0|2:0,2:0:0:0:
177,142,80132,2,0,L|272:138,2,93,2|0|2,2:0|2:0|2:0,2:0:0:0:
340,144,80577,6,0,L|148:146,1,186,2|2,2:0|2:0,2:0:0:0:
289,224,81023,2,0,L|184:223,1,93,2|0,2:0|2:0,2:0:0:0:
335,142,81320,1,2,2:0:0:0:
82,123,81468,2,0,L|78:13,1,93,0|0,2:0|2:0,2:0:0:0:
132,15,81691,1,0,2:0:0:0:
317,65,81765,5,4,3:2:0:0:
196,73,81914,1,0,2:0:0:0:
194,119,81988,1,0,0:0:0:0:
191,165,82062,1,0,3:0:0:0:
60,234,82211,2,0,L|117:232,1,46.5,0|0,2:0|0:0,0:0:0:0:
302,166,82359,5,0,3:0:0:0:
307,119,82433,1,0,0:0:0:0:
312,73,82507,1,0,2:0:0:0:
441,92,82656,1,0,3:0:0:0:
312,73,82805,2,0,L|371:72,1,46.5,0|0,2:0|0:0,0:0:0:0:
159,85,82953,6,0,L|97:86,2,46.5,0|0|0,3:0|0:0|2:0,2:0:0:0:
289,86,83250,1,0,3:0:0:0:
159,86,83399,2,0,L|212:87,1,46.5,0|0,2:0|0:0,0:0:0:0:
400,157,83548,6,0,L|452:156,2,46.5,0|0|0,3:0|0:0|2:0,2:0:0:0:
267,151,83845,1,0,3:0:0:0:
400,157,83993,1,0,2:0:0:0:
125,152,84142,5,0,3:0:0:0:
123,105,84216,1,0,0:0:0:0:
121,59,84290,1,0,2:0:0:0:
255,76,84439,2,0,L|197:80,1,46.5,0|0,3:0|0:0,2:0:0:0:
354,150,84587,2,0,L|420:147,1,46.5,0|0,2:0|0:0,0:0:0:0:
218,128,84736,6,0,L|181:81,2,46.5,0|0|0,3:0|0:0|2:0,2:0:0:0:
354,150,85033,1,0,3:0:0:0:
218,128,85181,1,0,2:0:0:0:
452,80,85330,6,0,L|386:78,2,46.5,0|0|0,3:0|0:0|2:0,2:0:0:0:
316,75,85627,1,0,3:0:0:0:
452,80,85775,1,0,2:0:0:0:
143,208,85924,6,0,L|209:206,2,46.5,0|0|0,3:0|0:0|2:0,2:0:0:0:
279,203,86221,1,0,3:0:0:0:
143,208,86369,1,0,2:0:0:0:
480,130,86518,6,0,L|416:128,1,46.5,0|0,3:0|0:0,0:0:0:0:
283,105,86666,2,0,L|340:103,1,46.5,0|0,3:0|0:0,0:0:0:0:
185,155,86815,2,0,L|181:218,1,46.5,0|0,3:0|0:0,0:0:0:0:
36,248,86963,2,0,L|31:308,1,46.5,0|0,3:0|0:0,0:0:0:0:
206,272,87112,6,0,L|146:271,1,46.5,0|0,3:0|0:0,0:0:0:0:
321,207,87260,2,0,L|370:204,1,46.5,0|0,3:0|0:0,0:0:0:0:
221,150,87409,2,0,L|213:83,1,46.5,0|0,3:0|0:0,0:0:0:0:
66,80,87557,2,0,L|57:19,1,46.5,0|0,3:0|0:0,0:0:0:0:
201,79,87706,6,0,L|148:80,1,46.5,0|0,3:0|0:0,0:0:0:0:
295,154,87854,2,0,L|239:155,1,46.5,0|0,3:0|0:0,0:0:0:0:
388,80,88003,2,0,L|394:19,1,46.5,0|0,3:0|0:0,0:0:0:0:
233,32,88151,2,0,L|295:30,1,46.5,0|0,3:0|0:0,0:0:0:0:
126,88,88300,5,0,3:0:0:0:
61,88,88374,1,0,0:0:0:0:
126,88,88449,1,0,3:0:0:0:
61,88,88523,1,0,0:0:0:0:
236,127,88597,2,0,L|236:194,1,46.5,0|0,3:0|0:0,0:0:0:0:
65,255,88746,2,0,L|117:254,1,46.5,0|0,3:0|0:0,0:0:0:0:
281,187,88894,6,0,L|224:188,1,46.5,0|0,3:0|3:0,0:0:0:0:
380,132,89043,1,8,2:1:0:0:
235,187,89117,2,0,L|235:123,1,46.5,0|0,3:0|3:0,0:0:0:0:
380,132,89265,1,8,2:1:0:0:
235,141,89340,2,0,L|292:140,1,46.5,0|0,3:0|3:0,0:0:0:0:
136,147,89488,5,8,2:1:0:0:
282,140,89562,2,0,L|223:141,1,46.5,0|0,3:0|3:0,0:0:0:0:
380,132,89711,1,8,2:1:0:0:
235,140,89785,2,0,L|235:81,1,46.5,0|0,3:0|3:0,0:0:0:0:
93,78,89934,1,8,2:1:0:0:
180,61,90082,6,0,L|77:40,1,93,6|2,1:2|2:0,0:0:0:0:
443,290,90379,2,0,L|443:226,1,46.5,2|2,2:0|2:0,0:0:0:0:
369,293,90528,2,0,L|369:228,1,46.5,2|2,2:0|2:0,0:0:0:0:
296,292,90676,6,0,L|296:237,1,46.5,2|2,2:0|2:0,0:0:0:0:
443,290,90825,2,0,L|443:232,1,46.5,2|2,2:0|2:0,0:0:0:0:
296,292,90973,2,0,L|296:239,1,46.5,2|2,2:0|2:0,0:0:0:0:
147,282,91122,2,0,L|147:232,1,46.5,2|2,2:0|2:0,0:0:0:0:
469,201,91270,6,0,L|176:200,1,279,4|0,1:3|0:0,2:0:0:0:
244,137,91493,1,0,2:0:0:0:
104,141,91567,2,0,L|104:79,1,46.5,8|0,2:1|2:0,2:0:0:0:
244,137,91716,2,0,L|244:74,1,46.5,0|0,1:0|0:0,0:0:0:0:
389,70,91864,5,2,2:0:0:0:
328,71,91938,1,0,2:0:0:0:
389,70,92013,1,2,2:0:0:0:
328,71,92087,1,2,2:0:0:0:
487,143,92161,1,10,2:1:0:0:
250,172,92310,2,0,L|310:174,1,46.5,0|0,1:0|0:0,0:0:0:0:
123,70,92458,5,2,2:0:0:0:
184,71,92532,1,0,2:0:0:0:
123,70,92607,1,2,2:0:0:0:
184,71,92681,1,0,2:0:0:0:
29,75,92755,1,10,2:1:0:0:
262,172,92904,2,0,L|202:174,1,46.5,2|2,1:0|2:0,0:0:0:0:
389,70,93052,5,2,2:0:0:0:
328,71,93126,1,2,2:0:0:0:
389,70,93201,1,2,2:0:0:0:
328,71,93275,1,0,0:0:0:0:
479,88,93350,2,0,L|478:194,1,93,10|2,2:1|2:0,0:0:0:0:
195,215,93647,6,0,L|263:212,2,46.5,0|0|0,1:0|0:0|0:0,2:0:0:0:
56,222,93869,1,0,2:0:0:0:
195,215,93944,2,0,L|127:212,2,46.5,8|0|0,2:1|0:0|1:0,0:0:0:0:
337,224,94166,1,0,0:0:0:0:
195,215,94241,6,0,L|189:152,1,46.5,2|0,2:0|0:0,0:0:0:0:
41,121,94389,2,0,L|32:57,1,46.5,2|0,2:0|0:0,0:0:0:0:
191,66,94538,2,0,L|198:2,1,46.5,10|0,2:1|0:0,0:0:0:0:
401,59,94686,2,0,L|345:47,1,46.5,0|0,1:0|0:0,2:0:0:0:
408,110,94835,6,0,L|467:108,1,46.5,0|0,0:0|2:0,0:0:0:0:
286,108,94983,2,0,L|283:57,1,46.5,0|0,2:0|0:0,0:0:0:0:
111,59,95132,2,0,L|167:47,1,46.5,8|0,2:1|0:0,2:0:0:0:
104,110,95280,2,0,L|45:108,1,46.5,0|0,2:0|1:0,0:0:0:0:
204,121,95429,6,0,L|207:70,1,46.5,0|0,0:0|2:0,0:0:0:0:
276,53,95577,2,0,L|281:-4,1,46.5,0|0,1:0|0:0,0:0:0:0:
95,176,95726,2,0,L|90:81,1,93,8|0,2:1|0:0,2:0:0:0:
140,88,95949,1,0,2:0:0:0:
319,113,96023,6,0,L|262:109,1,46.5,0|0,1:0|0:0,2:0:0:0:
408,88,96171,2,0,L|414:25,1,46.5,0|0,0:0|2:0,0:0:0:0:
239,203,96320,2,0,L|341:201,1,93,8|0,2:1|1:0,2:0:0:0:
123,70,96617,5,2,2:0:0:0:
184,71,96691,1,0,2:0:0:0:
123,70,96766,1,2,2:0:0:0:
184,71,96840,1,2,2:0:0:0:
25,143,96914,1,10,2:1:0:0:
262,172,97063,2,0,L|202:174,1,46.5,0|0,1:0|0:0,0:0:0:0:
389,70,97211,5,2,2:0:0:0:
328,71,97285,1,0,2:0:0:0:
389,70,97360,1,2,2:0:0:0:
328,71,97434,1,0,2:0:0:0:
487,143,97508,1,10,2:1:0:0:
250,172,97657,2,0,L|310:174,1,46.5,2|2,1:0|2:0,0:0:0:0:
123,70,97805,5,2,2:0:0:0:
184,71,97879,1,2,2:0:0:0:
123,70,97954,1,2,2:0:0:0:
184,71,98028,1,0,0:0:0:0:
25,143,98102,2,0,L|23:33,1,93,10|0,2:1|0:0,2:0:0:0:
443,143,98399,6,0,L|7:142,1,418.500015964509,4|0,1:0|2:0,2:0:0:0:
212,185,98696,2,0,L|212:126,3,46.5,8|0|0|0,2:1|0:0|0:0|0:0,0:0:0:0:
491,185,98993,6,0,L|210:185,2,279.000010643006,4|0|8,1:0|0:0|2:1,2:1:0:0:
150,117,99439,6,0,B|429:117|429:117|429:403,1,558.000021286012,4|0,1:0|2:1,2:1:0:0:
173,214,99884,2,0,L|240:216,2,46.5,8|0|0,2:1|0:0|2:0,2:0:0:0:
332,124,100107,6,0,L|222:122,1,93,0|0,1:0|2:0,2:0:0:0:
399,54,100330,2,0,L|461:55,1,46.5,0|0,1:0|0:0,0:0:0:0:
261,72,100478,2,0,L|260:136,1,46.5,8|0,2:1|0:0,2:0:0:0:
96,152,100627,2,0,L|96:217,1,46.5,0|0,0:0|2:0,0:0:0:0:
469,201,100775,6,0,L|176:200,1,279,4|0,1:0|0:0,2:1:0:0:
244,136,100998,1,0,2:1:0:0:
454,127,101072,2,0,L|402:127,1,46.5,8|0,2:1|2:0,2:0:0:0:
266,125,101221,2,0,L|265:62,1,46.5,0|0,1:0|0:0,0:0:0:0:
123,70,101369,5,2,2:0:0:0:
184,71,101443,1,0,2:0:0:0:
123,70,101518,1,2,2:0:0:0:
184,71,101592,1,2,2:0:0:0:
25,143,101666,1,10,2:1:0:0:
262,172,101815,2,0,L|202:174,1,46.5,0|0,1:0|0:0,0:0:0:0:
389,70,101963,5,2,2:0:0:0:
328,71,102037,1,0,2:0:0:0:
389,70,102112,1,2,2:0:0:0:
328,71,102186,1,0,2:0:0:0:
483,75,102260,1,10,2:1:0:0:
250,172,102409,2,0,L|310:174,1,46.5,2|2,1:0|2:0,0:0:0:0:
102,68,102557,5,2,2:0:0:0:
163,69,102631,1,2,2:0:0:0:
102,68,102706,1,2,2:0:0:0:
410,68,102854,1,10,2:1:0:0:
349,69,102928,1,2,2:0:0:0:
410,68,103003,1,2,2:0:0:0:
195,215,103152,6,0,L|263:212,2,46.5,0|0|0,1:0|0:0|0:0,2:0:0:0:
56,222,103374,1,0,2:0:0:0:
195,215,103449,2,0,L|127:212,2,46.5,8|0|0,2:1|0:0|1:0,0:0:0:0:
337,224,103671,1,0,0:0:0:0:
195,215,103746,6,0,L|189:152,1,46.5,2|0,2:0|0:0,0:0:0:0:
41,121,103894,2,0,L|32:57,1,46.5,2|0,2:0|0:0,0:0:0:0:
191,66,104043,2,0,L|198:2,1,46.5,10|0,2:1|0:0,0:0:0:0:
401,59,104191,2,0,L|345:47,1,46.5,0|0,1:0|0:0,2:0:0:0:
408,110,104340,6,0,L|467:108,1,46.5,0|0,0:0|2:0,0:0:0:0:
286,108,104488,2,0,L|283:57,1,46.5,0|0,2:0|0:0,0:0:0:0:
111,59,104637,2,0,L|167:47,1,46.5,8|0,2:1|0:0,2:0:0:0:
318,152,104785,2,0,L|251:147,1,46.5,0|0,2:0|1:0,0:0:0:0:
450,194,104934,6,0,L|453:83,1,93,0|0,0:0|1:0,0:0:0:0:
279,53,105156,1,0,0:0:0:0:
452,101,105231,2,0,L|393:98,1,46.5,8|0,2:1|0:0,2:0:0:0:
241,61,105379,2,0,L|296:63,1,46.5,0|0,0:0|2:0,0:0:0:0:
70,254,105528,6,0,P|113:251|65:65,1,325.5,4|0,1:0|0:0,0:0:0:0:
271,73,106122,5,8,2:1:0:0:
391,32,106270,2,0,L|336:32,1,46.5
494,105,106419,2,0,L|437:104,2,46.5,0|0|0,2:0|0:0|0:0,0:0:0:0:
312,104,106642,1,0,1:0:0:0:
133,101,106716,6,0,L|189:103,1,46.5,8|0,2:1|0:0,2:0:0:0:
31,31,106864,2,0,L|83:31,1,46.5
232,46,107013,2,0,L|176:45,1,46.5,0|0,2:0|0:0,0:0:0:0:
345,150,107161,1,0,0:0:0:0:
185,45,107236,1,0,1:0:0:0:
345,150,107310,6,0,L|345:92,1,46.5,8|0,2:1|0:0,2:0:0:0:
294,87,107458,1,0,0:0:0:0:
446,87,107533,2,0,L|490:63,2,46.5,0|0|0,0:0|2:0|0:0,0:0:0:0:
256,128,107755,2,0,L|256:189,1,46.5,0|0,0:0|1:0,0:0:0:0:
53,207,107904,6,0,L|119:207,1,46.5,8|0,2:1|0:0,2:0:0:0:
256,128,108052,2,0,L|203:128,1,46.5,0|0,1:0|0:0,0:0:0:0:
412,207,108201,2,0,L|459:207,1,46.5,8|0,2:1|0:0,2:0:0:0:
256,128,108349,2,0,L|256:61,1,46.5,0|0,1:0|0:0,0:0:0:0:
49,89,108498,6,0,L|116:89,1,46.5,8|0,2:1|2:0,2:0:0:0:
256,81,108647,1,0,1:0:0:0:
95,89,108721,2,0,L|164:89,2,46.5,8|0|0,2:1|2:0|1:0,2:0:0:0:
256,81,108944,2,0,L|255:148,1,46.5,8|0,2:1|2:0,2:0:0:0:
412,207,109092,6,0,L|509:207,1,93,0|0,1:0|1:0,0:0:0:0:
256,81,109389,2,0,L|355:82,1,93,0|0,1:0|1:0,0:0:0:0:
111,156,109686,5,0,0:0:0:0:
245,106,109835,1,0,0:0:0:0:
180,79,109909,1,0,0:0:0:0:
358,42,110132,1,0,0:0:0:0:
9,111,110280,6,0,L|435:111,1,418.500015964509,4|0,1:3|2:0,2:0:0:0:
267,173,110577,2,0,L|267:236,1,46.5,8|0,2:1|0:0,2:0:0:0:
104,244,110726,2,0,L|51:241,1,46.5,0|0,0:0|2:0,0:0:0:0:
236,151,110874,6,0,L|236:92,1,46.5,2|0,2:0|0:0,0:0:0:0:
401,73,111023,2,0,L|339:74,1,46.5,2|2,1:0|2:0,0:0:0:0:
160,82,111171,2,0,L|223:83,1,46.5,10|0,2:1|2:0,2:0:0:0:
160,82,111320,2,0,L|92:80,1,46.5,2|0,2:1|2:0,2:0:0:0:
341,182,111468,6,0,L|341:121,1,46.5,0|0,1:0|2:0,2:0:0:0:
160,82,111617,2,0,L|99:82,1,46.5,2|0,2:0|2:0,2:0:0:0:
256,115,111765,2,0,L|256:63,1,46.5,10|0,2:1|0:0,0:0:0:0:
411,47,111914,1,2,2:0:0:0:
346,42,111988,1,2,2:0:0:0:
411,47,112062,5,2,2:0:0:0:
346,42,112136,1,2,2:0:0:0:
494,65,112211,2,0,L|495:119,1,46.5,2|0,1:0|0:0,0:0:0:0:
316,155,112359,2,0,L|378:154,1,46.5,10|2,2:1|2:0,0:0:0:0:
214,87,112508,2,0,L|214:26,1,46.5,2|0,2:0|0:0,0:0:0:0:
41,53,112656,6,0,L|144:51,1,93,0|0,1:0|0:0,2:0:0:0:
133,51,112879,1,0,2:0:0:0:
281,180,112953,2,0,L|216:177,1,46.5,8|0,2:1|0:0,0:0:0:0:
389,114,113102,2,0,L|457:114,1,46.5,2|0,2:0|2:0,2:0:0:0:
275,63,113250,5,2,2:0:0:0:
210,39,113325,1,0,2:0:0:0:
275,63,113399,1,0,1:0:0:0:
210,39,113473,1,0,0:0:0:0:
372,57,113548,2,0,L|307:56,1,46.5,8|0,2:1|0:0,2:0:0:0:
168,145,113696,2,0,L|229:145,1,46.5,0|0,0:0|2:0,0:0:0:0:
34,93,113845,6,0,L|35:190,1,93,2|0,2:0|1:0,2:0:0:0:
77,43,114067,1,0,0:0:0:0:
247,166,114142,2,0,L|140:165,1,93,10|0,2:1|0:0,2:0:0:0:
204,116,114364,1,0,2:0:0:0:
369,98,114439,6,0,L|370:46,1,46.5,2|0,2:0|2:0,2:0:0:0:
214,47,114587,2,0,L|271:47,1,46.5,0|0,1:0|0:0,0:0:0:0:
102,109,114736,2,0,L|99:49,1,46.5,10|2,2:1|2:0,2:0:0:0:
266,45,114884,2,0,L|209:46,1,46.5,2|2,1:0|2:0,0:0:0:0:
440,212,115033,6,0,L|22:212,1,418.500015964509,4|0,1:0|2:0,2:0:0:0:
203,162,115330,2,0,L|204:103,1,46.5,8|0,2:1|0:0,2:0:0:0:
385,104,115478,2,0,L|319:104,1,46.5,0|0,0:0|2:0,0:0:0:0:
488,56,115627,6,0,L|431:56,1,46.5,2|0,2:0|0:0,0:0:0:0:
272,47,115775,2,0,L|330:47,1,46.5,2|2,1:0|2:0,0:0:0:0:
163,109,115924,1,10,2:1:0:0:
98,88,115998,1,0,2:0:0:0:
163,109,116072,1,2,2:1:0:0:
98,88,116147,1,0,2:0:0:0:
260,139,116221,6,0,L|261:248,1,93,0|2,1:0|2:0,2:0:0:0:
203,274,116444,1,0,2:0:0:0:
358,183,116518,2,0,L|297:181,1,46.5,10|0,2:1|0:0,0:0:0:0:
473,100,116666,1,2,2:0:0:0:
409,101,116740,1,2,2:0:0:0:
473,100,116815,5,2,2:0:0:0:
409,101,116889,1,2,2:0:0:0:
243,140,116963,2,0,L|242:78,1,46.5,2|0,1:0|0:0,0:0:0:0:
85,64,117112,2,0,L|153:62,1,46.5,10|2,2:1|2:0,0:0:0:0:
293,42,117260,2,0,L|228:41,1,46.5,2|0,2:0|0:0,0:0:0:0:
443,78,117409,6,0,L|444:180,1,93,0|0,1:0|0:0,2:0:0:0:
387,201,117632,1,0,2:0:0:0:
240,109,117706,2,0,L|242:175,1,46.5,8|0,2:1|0:0,0:0:0:0:
103,197,117854,2,0,L|49:193,1,46.5,2|0,2:0|2:0,2:0:0:0:
229,118,118003,6,0,L|295:118,1,46.5,2|0,2:0|2:0,2:0:0:0:
229,118,118151,2,0,L|173:119,1,46.5,0|0,1:0|0:0,0:0:0:0:
358,73,118300,2,0,L|415:70,1,46.5,8|0,2:1|0:0,2:0:0:0:
249,70,118449,2,0,L|247:24,1,46.5,0|0,0:0|2:0,0:0:0:0:
102,64,118597,6,0,L|155:61,1,46.5,2|0,2:0|0:0,0:0:0:0:
296,98,118746,2,0,L|298:42,1,46.5,0|0,1:0|0:0,0:0:0:0:
451,107,118894,1,10,2:1:0:0:
297,51,118968,2,0,L|364:49,2,46.5,0|0|0,0:0|0:0|2:0,0:0:0:0:
151,126,119191,6,0,L|152:69,1,46.5,2|0,2:0|2:0,2:0:0:0:
304,56,119340,2,0,L|244:55,1,46.5,0|0,1:0|0:0,0:0:0:0:
409,71,119488,2,0,L|470:71,1,46.5,10|2,2:1|2:0,2:0:0:0:
279,144,119637,2,0,L|337:144,1,46.5,2|2,1:0|2:0,0:0:0:0:
116,92,119785,6,0,B|22:93|22:93|23:142,1,139.5,2|0,1:0|2:0,2:0:0:0:
301,137,120082,2,0,L|20:138,1,279.000010643006,12|0,2:1|0:0,2:0:0:0:
67,91,120305,2,0,L|6:91,1,46.5,0|2,2:0|2:0,0:0:0:0:
173,137,120453,1,0,0:0:0:0:
22,137,120528,2,0,L|20:73,1,46.5,2|2,1:0|2:0,0:0:0:0:
219,68,120676,2,0,L|154:68,1,46.5,10|0,2:1|2:0,2:0:0:0:
219,68,120825,2,0,L|281:68,1,46.5,2|0,2:1|2:0,2:0:0:0:
124,208,120973,6,0,L|124:153,1,46.5,0|0,1:0|2:0,2:0:0:0:
275,127,121122,2,0,L|276:67,1,46.5,2|0,2:0|2:0,2:0:0:0:
419,68,121270,2,0,L|420:22,1,46.5,10|0,2:1|0:0,0:0:0:0:
266,48,121419,1,2,2:0:0:0:
332,51,121493,1,2,2:0:0:0:
266,48,121567,5,2,2:0:0:0:
332,51,121641,1,2,2:0:0:0:
186,117,121716,2,0,L|186:62,1,46.5,2|0,1:0|0:0,0:0:0:0:
20,48,121864,1,10,2:1:0:0:
85,47,121938,1,2,2:0:0:0:
20,48,122013,1,2,2:0:0:0:
303,98,122161,6,0,L|302:211,1,93,0|0,1:0|0:0,2:0:0:0:
247,90,122384,1,0,2:0:0:0:
101,92,122458,1,8,2:1:0:0:
247,90,122533,1,0,0:0:0:0:
186,90,122607,1,2,2:0:0:0:
247,90,122681,1,0,2:0:0:0:
389,92,122755,6,0,L|392:155,1,46.5,2|0,2:0|2:0,2:0:0:0:
214,201,122904,2,0,L|276:198,1,46.5,0|0,1:0|0:0,0:0:0:0:
102,125,123052,2,0,L|45:122,1,46.5,8|0,2:1|0:0,2:0:0:0:
253,75,123201,2,0,L|254:17,1,46.5,0|0,0:0|2:0,0:0:0:0:
433,44,123350,6,0,L|377:39,1,46.5,2|0,2:0|0:0,0:0:0:0:
253,28,123498,2,0,L|252:-27,1,46.5,0|0,1:0|0:0,0:0:0:0:
87,78,123647,2,0,L|137:77,1,46.5,10|0,2:1|0:0,2:0:0:0:
295,69,123795,1,0,0:0:0:0:
228,72,123869,1,0,2:0:0:0:
295,69,123944,5,2,2:0:0:0:
228,72,124018,1,0,2:0:0:0:
416,78,124092,2,0,L|417:137,1,46.5,0|0,1:0|0:0,0:0:0:0:
229,155,124241,1,10,2:1:0:0:
296,158,124315,1,2,2:0:0:0:
229,155,124390,1,2,1:0:0:0:
296,158,124464,1,2,2:0:0:0:
75,184,124538,6,0,L|494:185,1,418.500015964509,4|0,1:0|2:0,2:0:0:0:
315,122,124835,2,0,L|308:61,1,46.5,8|0,2:1|0:0,2:0:0:0:
137,61,124983,2,0,L|128:7,1,46.5,0|0,0:0|2:0,0:0:0:0:
319,31,125132,6,0,L|264:30,1,46.5,2|0,1:0|0:0,0:0:0:0:
446,98,125280,2,0,L|381:96,1,46.5,2|2,2:0|2:0,0:0:0:0:
206,178,125429,2,0,L|317:178,1,93,10|2,2:1|2:0,2:0:0:0:
50,112,125726,5,0,1:0:0:0:
299,178,125874,2,0,L|243:177,1,46.5,2|0,2:0|2:0,2:0:0:0:
425,137,126023,2,0,L|426:74,1,46.5,10|0,2:1|0:0,0:0:0:0:
266,97,126171,2,0,L|314:98,1,46.5,0|0,2:0|2:0,0:0:0:0:
124,61,126320,6,0,L|70:57,2,46.5,2|2|2,1:0|2:0|2:0,2:0:0:0:
440,55,126617,2,0,L|382:51,1,46.5,10|2,2:1|2:0,2:0:0:0:
235,45,126765,2,0,L|282:46,1,46.5,2|0,2:0|0:0,0:0:0:0:
131,141,126914,6,0,L|23:137,1,93,0|0,1:0|1:0,0:0:0:0:
272,182,127211,1,8,2:1:0:0:
131,141,127359,1,0,1:0:0:0:
368,86,127508,5,0,1:0:0:0:
131,141,127656,1,0,1:0:0:0:
368,86,127805,1,8,2:1:0:0:
38,137,127953,1,0,1:0:0:0:
368,86,128102,5,0,1:0:0:0:
302,87,128176,1,0,1:0:0:0:
368,86,128250,1,0,1:0:0:0:
302,87,128324,1,0,1:0:0:0:
469,150,128399,2,0,L|407:149,2,46.5,8|0|0,2:1|2:0|1:0,2:0:0:0:
290,173,128622,6,0,L|352:172,2,46.5,8|0|0,2:1|2:0|1:0,2:0:0:0:
469,150,128845,2,0,L|470:87,1,46.5,8|0,2:1|2:0,2:0:0:0:
290,173,128993,1,0,1:0:0:0:
469,103,129067,1,8,2:1:0:0:
290,173,129142,2,0,L|356:173,1,46.5,8|0,2:1|0:0,0:0:0:0:
191,78,129290,6,0,P|141:78|61:260,1,279,4|0,1:2|0:0,0:0:0:0:
191,271,129884,2,0,L|196:164,1,93,2|0,2:0|0:0,2:0:0:0:
65,150,130181,2,0,L|61:42,1,93,0|0,0:0|2:0,0:0:0:0:
313,66,130478,6,0,P|361:67|410:183,1,186,2|0,2:0|2:0,2:0:0:0:
284,189,130924,1,2,2:0:0:0:
408,162,131072,2,0,L|413:57,1,93
284,189,131369,1,0,0:0:0:0:
412,69,131518,1,0,2:0:0:0:
185,62,131666,6,0,P|140:63|88:192,1,186,2|0,2:0|2:0,2:0:0:0:
213,195,132112,1,2,2:0:0:0:
339,203,132260,2,0,P|416:217|440:320,1,186
191,236,132854,6,0,L|389:221,1,186,2|0,2:0|2:0,2:0:0:0:
239,140,133300,2,0,P|188:139|161:261,1,186,2|0,2:0|0:0,2:0:0:0:
290,248,133746,2,0,L|300:147,1,93,0|0,0:0|2:0,0:0:0:0:
72,172,134043,6,0,P|20:134|93:51,1,186,4|0,2:0|0:0,2:0:0:0:
340,167,134637,2,0,L|133:153,1,186,2|0,2:0|0:0,2:0:0:0:
422,108,135231,6,0,P|469:128|416:221,1,186,2|0,2:0|2:0,2:0:0:0:
286,203,135676,2,0,L|479:163,1,186,2|0,2:0|0:0,2:0:0:0:
327,123,136122,2,0,L|322:23,1,93,0|0,0:0|2:0,0:0:0:0:
181,41,136419,6,0,P|118:42|95:160,1,186,2|0,2:0|2:0,2:0:0:0:
233,171,136864,2,0,P|282:176|311:304,1,186,2|0,2:0|0:0,2:0:0:0:
189,257,137310,2,0,L|185:135,1,93,0|0,0:0|2:0,0:0:0:0:
328,113,137607,6,0,P|380:117|430:240,1,186,2|0,2:0|2:0,2:0:0:0:
202,177,138052,2,0,P|141:178|124:301,1,186,2|0,2:0|0:0,2:0:0:0:
237,312,138498,2,0,L|134:284,1,93,0|0,0:0|2:0,0:0:0:0:
384,263,138795,6,0,P|434:245|360:92,1,279,4|0,2:0|0:0,2:0:0:0:
231,157,139389,2,0,P|303:158|387:341,1,279,2|0,2:0|2:0,2:0:0:0:
246,261,139983,6,0,L|446:213,1,186,2|0,2:0|2:0,2:0:0:0:
273,163,140429,1,2,2:0:0:0:
406,178,140577,2,0,L|413:65,1,93,0|0,2:0|0:0,0:0:0:0:
273,163,140874,2,0,L|383:146,1,93,0|0,2:0|0:0,0:0:0:0:
75,290,141171,6,0,L|69:71,1,186,2|0,2:0|2:0,2:0:0:0:
205,65,141617,1,2,2:0:0:0:
68,86,141765,2,0,L|271:75,1,186
133,152,142211,1,0,2:0:0:0:
265,152,142359,6,0,P|328:155|372:286,1,186,2|0,2:0|2:0,2:0:0:0:
252,265,142805,1,2,2:0:0:0:
383,253,142953,2,0,L|386:60,1,186
118,157,143548,6,0,L|317:143,1,186,4|0,2:0|0:0,2:0:0:0:
173,85,143993,1,0,0:0:0:0:
303,143,144142,2,0,L|104:129,1,186,2|0,2:0|0:0,2:0:0:0:
117,129,144587,1,0,2:0:0:0:
373,98,144736,6,0,L|253:81,2,93,2|0|0,2:0|0:0|2:0,2:0:0:0:
246,190,145181,1,2,2:0:0:0:
373,98,145330,2,0,L|377:-2,1,93,0|0,0:0|2:0,0:0:0:0:
246,190,145627,1,2,2:0:0:0:
376,5,145775,1,0,0:0:0:0:
246,190,145924,6,0,L|246:295,1,93,0|0,0:0|2:0,0:0:0:0:
386,295,146221,2,0,L|198:261,1,186,2|0,2:0|2:0,2:0:0:0:
333,181,146666,1,0,0:0:0:0:
195,189,146815,2,0,L|191:80,1,93,2|0,2:0|0:0,0:0:0:0:
457,66,147112,6,0,L|349:47,1,93,0|0,2:0|2:0,2:0:0:0:
136,71,147409,2,0,L|37:47,1,93,2|0,2:0|2:0,2:0:0:0:
294,94,147706,1,0,2:0:0:0:
350,91,147780,1,0,2:0:0:0:
404,106,147854,1,0,2:0:0:0:
451,136,147928,1,0,2:0:0:0:
486,179,148003,1,0,2:0:0:0:
507,231,148077,1,0,0:0:0:0:
511,287,148151,1,0,0:0:0:0:
499,341,148225,1,0,0:0:0:0:
301,183,148300,6,0,P|228:182|219:302,1,186,4|0,2:0|2:0,2:0:0:0:
329,297,148746,1,0,2:0:0:0:
106,192,148894,2,0,L|101:73,1,93,2|0,2:0|2:0,2:0:0:0:
238,80,149191,2,0,L|106:61,1,93,0|0,2:0|2:0,0:0:0:0:
381,90,149488,6,0,L|483:82,2,93,2|0|0,2:0|2:0|2:0,2:0:0:0:
151,193,149934,2,0,L|338:177,1,186,2|0,2:0|2:0,2:0:0:0:
196,145,150379,2,0,L|192:32,1,93,0|0,2:0|2:0,0:0:0:0:
451,64,150676,6,0,L|355:46,2,93,2|0|0,2:0|2:0|2:0,2:0:0:0:
212,145,151122,1,2,2:0:0:0:
338,126,151270,2,0,L|341:18,1,93,0|0,2:0|2:0,0:0:0:0:
212,145,151567,2,0,L|107:142,1,93,0|0,2:0|2:0,0:0:0:0:
356,145,151864,6,0,P|426:152|458:272,1,186,2|0,2:0|2:0,2:0:0:0:
204,268,152310,2,0,L|397:217,1,186,2|0,2:0|2:0,2:0:0:0:
261,165,152755,2,0,L|388:133,1,93,0|0,2:0|2:0,0:0:0:0:
117,212,153052,6,0,P|58:186|134:122,1,186,0|0,2:0|2:0,2:0:0:0:
362,178,153647,2,0,L|172:165,1,186,2|0,2:0|2:0,2:0:0:0:
176,165,154092,1,0,2:0:0:0:
411,92,154241,5,2,2:0:0:0:
287,160,154389,2,0,L|281:42,1,93,0|0,2:0|2:0,0:0:0:0:
493,40,154686,1,2,2:0:0:0:
344,88,154835,2,0,P|413:98|418:212,1,186,0|0,2:0|2:0,0:0:0:0:
332,188,155280,1,0,2:0:0:0:
94,224,155429,6,0,L|90:108,1,93,2|0,2:0|2:0,2:0:0:0:
341,80,155726,1,0,2:0:0:0:
218,114,155874,2,0,L|427:101,1,186,2|0,2:0|2:0,2:0:0:0:
277,177,156320,2,0,L|384:166,1,93,0|0,2:0|2:0,0:0:0:0:
93,228,156617,6,0,P|37:190|129:130,1,186,2|0,2:0|2:0,2:0:0:0:
332,135,157062,2,0,L|138:121,1,186,2|0,2:0|2:0,2:0:0:0:
272,77,157508,2,0,L|167:70,1,93,0|0,2:0|2:0,0:0:0:0:
444,118,157805,6,0,L|446:329,1,186,0|0,3:0|0:0,0:0:0:0:
212,195,158250,1,0,0:0:0:0:
445,303,158399,2,0,L|220:291,1,186,0|0,3:0|0:0,0:0:0:0:
388,220,158845,1,0,0:0:0:0:
136,142,158993,6,0,L|257:137,2,93,0|0|0,3:0|0:0|0:0,0:0:0:0:
371,239,159439,1,0,0:0:0:0:
136,142,159587,2,0,L|135:45,1,93,0|0,3:0|0:0,0:0:0:0:
266,37,159884,1,0,0:0:0:0:
135,49,160033,1,0,0:0:0:0:
409,196,160181,6,0,L|409:84,1,93,0|0,3:0|0:0,0:0:0:0:
278,91,160478,1,0,0:0:0:0:
409,103,160627,1,0,0:0:0:0:
163,185,160775,2,0,L|363:172,1,186,0|0,3:0|0:0,0:0:0:0:
209,111,161221,1,0,0:0:0:0:
457,80,161369,6,0,L|350:56,3,93,0|0|0|0,3:0|0:0|0:0|0:0,0:0:0:0:
104,145,161963,2,0,L|211:121,3,93,0|0|0|0,3:0|0:0|0:0|0:0,0:0:0:0:
454,182,162557,6,0,L|465:68,1,93,0|0,3:0|0:0,0:0:0:0:
327,76,162854,2,0,L|322:-24,1,93,0|0,3:0|0:0,0:0:0:0:
195,134,163151,2,0,L|182:32,1,93,0|0,3:0|0:0,0:0:0:0:
38,68,163449,2,0,L|22:-31,1,93,0|0,3:0|0:0,0:0:0:0:
298,111,163746,5,0,3:0:0:0:
174,58,163894,1,0,3:0:0:0:
298,111,164043,1,0,3:0:0:0:
174,58,164191,1,0,3:0:0:0:
392,51,164340,2,0,L|498:45,1,93,0|0,3:0|3:0,0:0:0:0:
159,116,164637,2,0,L|53:110,1,93,0|0,3:0|3:0,0:0:0:0:
364,75,164934,6,0,L|290:67,1,46.5,0|0,3:0|3:0,0:0:0:0:
182,49,165082,2,0,L|124:38,1,46.5,0|0,3:0|3:0,0:0:0:0:
339,159,165231,2,0,L|412:160,1,46.5,0|0,3:0|3:0,0:0:0:0:
249,96,165379,2,0,L|244:37,1,46.5,0|0,3:0|3:0,0:0:0:0:
106,49,165528,6,0,L|57:43,1,46.5,0|0,3:0|3:0,0:0:0:0:
215,124,165676,2,0,L|216:193,1,46.5,0|0,3:0|3:0,0:0:0:0:
358,225,165825,2,0,L|429:220,1,46.5,0|0,3:0|3:0,0:0:0:0:
215,170,165973,2,0,L|275:174,1,46.5,0|0,3:0|3:0,0:0:0:0:
29,247,166122,6,0,B|1:46|222:56|241:58|241:58|240:72|242:231|29:248,1,651
347,258,167310,5,4,1:3:0:0:
370,258,167347,1,0,0:0:0:0:
392,252,167384,1,0,0:0:0:0:
413,242,167421,1,0,0:0:0:0:
430,226,167458,1,0,0:0:0:0:
443,207,167495,1,0,0:0:0:0:
451,185,167532,1,0,0:0:0:0:
453,162,167569,1,0,0:0:0:0:
450,139,167607,1,0,0:0:0:0:
441,118,167644,1,0,0:0:0:0:
427,99,167681,1,0,0:0:0:0:
409,85,167718,1,0,0:0:0:0:
388,75,167755,1,0,0:0:0:0:
366,71,167792,1,0,0:0:0:0:
342,72,167829,1,0,2:0:0:0:
201,204,167904,6,0,L|254:205,1,46.5,10|0,2:1|0:0,0:0:0:0:
394,127,168052,1,0,0:0:0:0:
127,143,168201,5,0,1:0:0:0:
152,139,168238,1,0,0:0:0:0:
178,139,168275,1,0,0:0:0:0:
204,143,168312,1,0,0:0:0:0:
229,151,168349,1,0,0:0:0:0:
252,162,168386,1,0,0:0:0:0:
274,177,168423,1,0,0:0:0:0:
292,195,168460,1,0,0:0:0:0:
308,216,168498,1,0,0:0:0:0:
321,239,168535,1,0,0:0:0:0:
329,263,168572,1,0,0:0:0:0:
334,289,168609,1,0,0:0:0:0:
335,315,168646,1,0,0:0:0:0:
332,341,168683,1,0,0:0:0:0:
325,366,168720,1,0,2:0:0:0:
139,292,168795,6,0,L|140:204,1,46.5,0|0,1:0|0:0,0:0:0:0:
298,177,168944,2,0,L|298:108,1,46.5
479,85,169092,2,0,L|363:79,2,93,10|2|2,2:1|2:0|2:0,0:0:0:0:
251,288,169538,6,0,L|251:71,1,186,2|2,2:0|2:0,0:0:0:0:
315,78,169909,1,0,0:0:0:0:
117,175,169983,5,0,1:0:0:0:
94,174,170020,1,0,0:0:0:0:
75,160,170057,1,0,0:0:0:0:
69,138,170094,1,0,0:0:0:0:
76,117,170131,1,0,0:0:0:0:
94,103,170168,1,0,0:0:0:0:
117,103,170205,1,0,2:0:0:0:
269,105,170280,6,0,L|206:108,1,46.5,8|0,2:1|0:0,0:0:0:0:
374,98,170429,2,0,L|424:97,1,46.5,2|0,2:0|0:0,0:0:0:0:
233,34,170577,5,0,1:0:0:0:
205,27,170614,1,0,0:0:0:0:
176,26,170651,1,0,0:0:0:0:
148,33,170688,1,0,0:0:0:0:
122,47,170725,1,0,0:0:0:0:
101,67,170762,1,0,0:0:0:0:
85,91,170799,1,0,0:0:0:0:
76,118,170836,1,0,0:0:0:0:
73,147,170874,1,0,0:0:0:0:
78,176,170911,1,0,0:0:0:0:
90,202,170948,1,0,2:0:0:0:
278,249,171023,6,0,L|203:248,1,46.5,0|0,1:0|0:0,2:0:0:0:
398,90,171171,1,0,0:0:0:0:
420,95,171208,1,0,0:0:0:0:
436,111,171245,1,0,0:0:0:0:
442,133,171282,1,0,0:0:0:0:
435,155,171319,1,0,0:0:0:0:
418,170,171356,1,0,0:0:0:0:
395,174,171393,1,0,2:0:0:0:
249,155,171468,5,10,2:1:0:0:
190,110,171543,1,2,2:0:0:0:
249,155,171617,1,2,2:0:0:0:
190,110,171691,1,2,2:0:0:0:
353,107,171765,1,2,2:0:0:0:
412,62,171840,1,2,2:0:0:0:
353,107,171914,1,2,2:0:0:0:
412,62,171988,1,2,2:0:0:0:
217,60,172062,5,0,1:0:0:0:
194,55,172099,1,0,0:0:0:0:
170,55,172136,1,0,0:0:0:0:
147,57,172173,1,0,0:0:0:0:
125,63,172210,1,0,0:0:0:0:
104,73,172247,1,0,0:0:0:0:
84,85,172284,1,0,0:0:0:0:
66,100,172321,1,0,0:0:0:0:
51,118,172359,1,0,0:0:0:0:
39,137,172396,1,0,0:0:0:0:
29,159,172433,1,0,0:0:0:0:
23,181,172470,1,0,0:0:0:0:
20,204,172507,1,0,0:0:0:0:
21,227,172544,1,0,0:0:0:0:
25,250,172581,1,0,2:0:0:0:
208,300,172656,6,0,L|211:214,1,46.5,10|0,2:1|0:0,0:0:0:0:
25,250,172805,1,0,0:0:0:0:
262,70,172953,5,0,1:0:0:0:
288,67,172990,1,0,0:0:0:0:
315,69,173027,1,0,0:0:0:0:
341,74,173064,1,0,0:0:0:0:
366,82,173101,1,0,0:0:0:0:
390,94,173138,1,0,0:0:0:0:
412,109,173175,1,0,0:0:0:0:
431,127,173212,1,0,0:0:0:0:
448,148,173250,1,0,0:0:0:0:
462,170,173287,1,0,0:0:0:0:
473,195,173324,1,0,0:0:0:0:
480,220,173361,1,0,0:0:0:0:
484,247,173398,1,0,0:0:0:0:
484,273,173435,1,0,0:0:0:0:
481,300,173472,1,0,2:0:0:0:
263,230,173548,5,0,1:0:0:0:
240,230,173585,1,0,0:0:0:0:
221,216,173622,1,0,0:0:0:0:
215,194,173659,1,0,0:0:0:0:
223,173,173696,1,0,0:0:0:0:
242,161,173733,1,0,0:0:0:0:
265,163,173770,1,0,0:0:0:0:
431,124,173845,6,0,L|324:112,1,93,10|2,2:1|2:0,0:0:0:0:
462,51,174142,1,2,2:0:0:0:
208,52,174290,1,2,2:0:0:0:
462,51,174439,6,0,L|461:222,1,139.5,2|0,2:0|0:0,2:0:0:0:
253,197,174736,2,0,L|327:197,3,46.5,0|0|0|0,1:0|0:0|0:0|2:0,2:0:0:0:
146,125,175033,1,8,2:1:0:0:
41,99,175181,1,0,2:0:0:0:
330,86,175330,5,0,1:0:0:0:
352,91,175367,1,0,0:0:0:0:
369,107,175404,1,0,0:0:0:0:
376,128,175441,1,0,0:0:0:0:
372,151,175478,1,0,0:0:0:0:
357,169,175515,1,0,0:0:0:0:
335,177,175552,1,0,0:0:0:0:
176,188,175627,2,0,L|114:187,1,46.5,0|0,0:0|2:0,0:0:0:0:
330,86,175775,5,0,1:0:0:0:
352,91,175812,1,0,0:0:0:0:
369,107,175849,1,0,0:0:0:0:
376,128,175886,1,0,0:0:0:0:
372,151,175923,1,0,0:0:0:0:
357,169,175960,1,0,0:0:0:0:
335,177,175997,1,0,0:0:0:0:
176,188,176072,2,0,L|114:187,1,46.5,0|0,0:0|2:0,0:0:0:0:
306,104,176221,5,10,2:1:0:0:
369,72,176295,1,2,2:0:0:0:
306,104,176369,1,2,2:0:0:0:
369,72,176444,1,2,2:0:0:0:
210,181,176518,2,0,L|206:243,1,46.5,2|2,2:0|2:0,0:0:0:0:
45,247,176666,2,0,L|36:307,1,46.5,2|2,2:0|2:0,0:0:0:0:
274,113,176815,5,4,1:3:0:0:
251,106,176852,1,0,0:0:0:0:
228,104,176889,1,0,0:0:0:0:
205,104,176926,1,0,0:0:0:0:
182,108,176963,1,0,0:0:0:0:
160,115,177000,1,0,0:0:0:0:
139,125,177037,1,0,0:0:0:0:
120,138,177074,1,0,0:0:0:0:
102,153,177112,1,0,0:0:0:0:
88,171,177149,1,0,0:0:0:0:
76,191,177186,1,0,0:0:0:0:
66,213,177223,1,0,0:0:0:0:
60,235,177260,1,0,0:0:0:0:
58,258,177297,1,0,0:0:0:0:
58,281,177334,1,0,2:0:0:0:
237,306,177409,6,0,L|158:295,1,46.5,10|0,2:1|0:0,0:0:0:0:
346,222,177557,1,0,0:0:0:0:
120,270,177706,5,0,1:0:0:0:
96,267,177743,1,0,0:0:0:0:
75,259,177780,1,0,0:0:0:0:
55,247,177817,1,0,0:0:0:0:
38,231,177854,1,0,0:0:0:0:
26,211,177891,1,0,0:0:0:0:
18,189,177928,1,0,0:0:0:0:
15,166,177965,1,0,0:0:0:0:
17,143,178003,1,0,0:0:0:0:
24,121,178040,1,0,0:0:0:0:
36,101,178077,1,0,0:0:0:0:
52,84,178114,1,0,0:0:0:0:
71,71,178151,1,0,0:0:0:0:
93,63,178188,1,0,0:0:0:0:
116,59,178225,1,0,2:0:0:0:
256,164,178300,6,0,L|263:246,1,46.5,0|0,1:0|0:0,0:0:0:0:
400,265,178449,2,0,L|408:348,1,46.5
213,291,178597,2,0,L|327:282,1,93,10|2,2:1|2:0,0:0:0:0:
73,212,178894,1,2,2:0:0:0:
313,150,179043,6,0,L|110:116,1,186,2|2,2:0|2:0,0:0:0:0:
420,88,179488,5,0,1:0:0:0:
442,87,179525,1,0,0:0:0:0:
461,100,179562,1,0,0:0:0:0:
469,121,179599,1,0,0:0:0:0:
462,143,179636,1,0,0:0:0:0:
444,157,179673,1,0,0:0:0:0:
421,157,179710,1,0,2:0:0:0:
235,176,179785,2,0,L|300:180,1,46.5,8|0,2:1|0:0,0:0:0:0:
469,202,179934,1,2,2:0:0:0:
182,86,180082,5,0,1:0:0:0:
156,83,180119,1,0,0:0:0:0:
131,85,180156,1,0,0:0:0:0:
107,93,180193,1,0,0:0:0:0:
84,105,180230,1,0,0:0:0:0:
65,122,180267,1,0,0:0:0:0:
50,142,180304,1,0,0:0:0:0:
39,165,180341,1,0,0:0:0:0:
33,190,180379,1,0,0:0:0:0:
33,216,180416,1,0,0:0:0:0:
38,241,180453,1,0,2:0:0:0:
235,96,180528,5,0,1:0:0:0:
260,93,180565,1,0,0:0:0:0:
286,95,180602,1,0,0:0:0:0:
310,102,180639,1,0,0:0:0:0:
333,115,180676,1,0,0:0:0:0:
352,132,180713,1,0,0:0:0:0:
367,152,180750,1,0,0:0:0:0:
378,175,180787,1,0,0:0:0:0:
384,200,180825,1,0,0:0:0:0:
384,226,180862,1,0,0:0:0:0:
379,251,180899,1,0,2:0:0:0:
167,244,180973,5,10,2:1:0:0:
108,199,181048,1,2,2:0:0:0:
167,244,181122,1,2,2:0:0:0:
108,199,181196,1,2,2:0:0:0:
271,196,181270,1,2,2:0:0:0:
330,151,181345,1,2,2:0:0:0:
271,196,181419,1,2,2:0:0:0:
330,151,181493,1,2,2:0:0:0:
117,280,181567,5,0,1:0:0:0:
93,281,181604,1,0,0:0:0:0:
71,276,181641,1,0,0:0:0:0:
50,266,181678,1,0,0:0:0:0:
32,251,181715,1,0,0:0:0:0:
19,232,181752,1,0,0:0:0:0:
11,210,181789,1,0,0:0:0:0:
9,187,181826,1,0,0:0:0:0:
13,164,181864,1,0,0:0:0:0:
23,143,181901,1,0,0:0:0:0:
38,125,181938,1,0,0:0:0:0:
56,111,181975,1,0,0:0:0:0:
78,103,182012,1,0,0:0:0:0:
101,100,182049,1,0,0:0:0:0:
124,104,182086,1,0,2:0:0:0:
297,161,182161,6,0,L|241:148,1,46.5,8|0,2:1|0:0,0:0:0:0:
87,83,182310,2,0,L|33:71,1,46.5
221,46,182458,5,0,1:0:0:0:
248,44,182495,1,0,0:0:0:0:
276,47,182532,1,0,0:0:0:0:
303,55,182569,1,0,0:0:0:0:
328,68,182606,1,0,0:0:0:0:
350,85,182643,1,0,0:0:0:0:
369,105,182680,1,0,0:0:0:0:
384,129,182717,1,0,0:0:0:0:
394,154,182755,1,0,0:0:0:0:
400,182,182792,1,0,0:0:0:0:
400,210,182829,1,0,0:0:0:0:
216,270,182904,2,0,L|168:272,1,46.5,0|0,0:0|2:0,0:0:0:0:
348,219,183052,5,0,1:0:0:0:
370,215,183089,1,0,0:0:0:0:
387,200,183126,1,0,0:0:0:0:
394,178,183163,1,0,0:0:0:0:
389,155,183200,1,0,0:0:0:0:
372,139,183237,1,0,0:0:0:0:
350,134,183274,1,0,0:0:0:0:
203,159,183350,5,8,2:1:0:0:
200,135,183387,1,0,0:0:0:0:
198,112,183424,1,0,0:0:0:0:
57,172,183498,1,0,0:0:0:0:
54,148,183535,1,0,0:0:0:0:
52,125,183572,1,0,0:0:0:0:
227,67,183647,1,0,0:0:0:0:
203,65,183684,1,0,0:0:0:0:
180,63,183721,1,0,0:0:0:0:
338,62,183795,1,0,2:0:0:0:
361,60,183832,1,0,0:0:0:0:
384,58,183869,1,0,0:0:0:0:
384,57,184092,6,0,L|333:57,1,46.5,0|0,2:0|0:0,0:0:0:0:
176,202,184241,2,0,L|234:200,1,46.5,0|0,1:0|0:0,0:0:0:0:
80,144,184389,2,0,L|18:142,1,46.5,8|0,2:1|0:0,0:0:0:0:
216,107,184538,2,0,L|222:45,1,46.5,8|0,2:1|0:0,0:0:0:0:
376,64,184686,2,0,L|384:4,1,46.5,8|0,2:1|0:0,0:0:0:0:
211,43,184835,6,0,B|149:42|44:58|44:58|37:190,1,279,0|8,1:0|2:1,0:0:0:0:
120,204,185429,1,8,2:1:0:0:
38,168,185577,1,8,2:1:0:0:
156,146,185726,1,8,2:1:0:0:
38,168,185874,1,8,2:1:0:0:
182,108,186023,1,8,2:1:0:0:
38,168,186171,1,8,2:1:0:0:
290,145,186320,6,0,L|281:93,1,46.5,0|0,1:0|0:0,0:0:0:0:
237,88,186468,2,0,L|249:32,1,46.5
290,145,186617,2,0,L|281:93,1,46.5
66,232,186765,6,0,L|217:233,2,130.199996026611,8|0|0,2:1|0:0|0:0,2:1:0:0:
407,119,187211,2,0,L|129:117,1,260.399992053223,8|0,2:1|0:0,2:1:0:0:
446,232,187656,6,0,L|289:232,2,130.199996026611,8|0|0,2:1|0:0|0:0,2:1:0:0:
188,101,188102,2,0,L|319:102,3,130.199996026611,8|0|0|0,2:1|0:0|0:0|0:0,2:1:0:0:
31,172,188696,6,0,L|40:120,1,46.5,0|0,1:0|0:0,0:0:0:0:
84,115,188844,2,0,L|72:59,1,46.5
31,172,188993,2,0,L|40:120,1,46.5
309,143,189142,5,8,2:1:0:0:
182,93,189290,1,0,0:0:0:0:
55,62,189439,1,0,0:0:0:0:
436,174,189587,1,8,2:1:0:0:
309,124,189735,1,0,0:0:0:0:
182,93,189884,1,0,0:0:0:0:
470,85,190033,6,0,L|333:70,1,130.199996026611,8|0,2:1|0:0,2:0:0:0:
67,143,190330,1,0,1:0:0:0:
381,93,190478,2,0,L|315:93,1,46.5,8|0,2:1|0:0,2:0:0:0:
193,94,190627,1,0,2:0:0:0:
334,93,190701,2,0,L|268:93,1,46.5,8|0,2:1|0:0,2:0:0:0:
147,94,190850,1,0,2:0:0:0:
287,93,190924,2,0,L|234:93,1,46.5,8|0,2:1|2:0,2:0:0:0:
35,254,191072,6,0,L|31:8,1,232.5,0|0,1:0|0:0,0:0:0:0:
249,53,191518,5,8,2:1:0:0:
387,48,191666,1,0,0:0:0:0:
108,97,191815,1,0,0:0:0:0:
350,78,191963,1,8,2:1:0:0:
212,73,192111,1,0,0:0:0:0:
491,122,192260,1,0,0:0:0:0:
127,46,192409,5,8,2:1:0:0:
256,29,192557,1,0,0:0:0:0:
387,42,192706,1,0,0:0:0:0:
29,124,192854,2,0,L|181:124,3,130.199996026611,8|0|0|0,2:1|0:0|0:0|0:0,2:1:0:0:
435,207,193449,6,0,L|440:150,1,46.5,0|0,1:0|0:0,0:0:0:0:
349,121,193597,2,0,L|339:55,1,46.5
433,57,193746,2,0,L|442:-1,1,46.5
206,166,193894,6,0,L|350:168,2,130.199996026611,8|0|0,2:1|0:0|0:0,2:0:0:0:
493,82,194340,2,0,L|349:84,2,130.199996026611,8|0|0,2:1|0:0|0:0,2:0:0:0:
180,97,194785,2,0,L|323:97,1,130.199996026611,8|0,2:1|0:0,0:0:0:0:
68,143,195082,2,0,L|138:144,1,65.0999980133057,0|0,1:0|0:0,0:0:0:0:
315,157,195231,2,0,L|174:155,1,130.199996026611,8|0,2:1|2:0,2:0:0:0:
465,100,195528,1,8,2:1:0:0:
205,69,195676,2,0,L|293:69,1,65.0999980133057,0|0,2:0|0:0,0:0:0:0:
91,170,195825,6,0,P|51:168|18:289,1,186,4|0,1:2|0:0,2:0:0:0:
256,192,203548,12,0,205181,0:0:0:0:
327,254,205330,6,0,B|95:256|95:256|233:43,1,465,0|0,1:0|0:0,2:0:0:0:
458,242,205775,2,0,L|462:122,2,93,0|0|0,1:0|0:0|0:0,0:0:0:0:
225,220,206221,1,0,2:0:0:0:
458,242,206369,2,0,L|374:242,1,46.5,0|0,2:0|0:0,0:0:0:0:
134,250,206518,6,0,B|366:252|366:252|228:39,1,465,0|0,1:0|0:0,2:0:0:0:
480,242,206963,2,0,L|480:124,1,93,0|0,1:0|0:0,0:0:0:0:
249,151,207260,1,0,1:0:0:0:
32,242,207409,2,0,L|32:124,1,93
378,250,207706,6,0,B|146:252|146:252|284:39,1,465,0|0,1:0|0:0,2:0:0:0:
54,242,208151,2,0,L|50:122,2,93,0|0|0,1:0|0:0|0:0,0:0:0:0:
287,220,208597,1,0,2:0:0:0:
54,242,208745,2,0,L|138:242,1,46.5,0|0,2:0|0:0,0:0:0:0:
327,234,208894,5,0,1:0:0:0:
209,141,209042,2,0,L|273:143,1,46.5
439,85,209191,2,0,L|409:85,1,31
277,52,209290,2,0,L|241:52,1,31
277,52,209389,2,0,L|330:52,1,31
158,127,209488,2,0,L|127:127,1,31
235,52,209587,2,0,L|266:52,1,31
235,52,209686,2,0,L|204:52,1,31
323,108,209785,1,0,0:0:0:0:
358,108,209834,1,0,0:0:0:0:
390,122,209884,1,0,0:0:0:0:
413,149,209933,1,0,2:0:0:0:
423,183,209983,1,0,0:0:0:0:
419,218,210032,1,0,0:0:0:0:
134,250,210082,6,0,B|366:252|366:252|228:39,1,465,0|0,1:0|0:0,2:0:0:0:
458,242,210528,2,0,L|462:122,2,93,0|0|0,1:0|0:0|0:0,0:0:0:0:
225,220,210973,2,0,L|289:220,1,46.5,0|0,2:0|0:0,2:0:0:0:
131,134,211122,2,0,L|132:63,1,46.5,0|0,2:0|0:0,0:0:0:0:
378,250,211270,6,0,B|146:252|146:252|284:39,1,465,0|0,1:0|0:0,2:0:0:0:
32,242,211716,2,0,L|32:124,1,93,0|0,1:0|0:0,0:0:0:0:
297,132,212013,2,0,L|234:131,1,46.5,0|0,1:0|0:0,2:0:0:0:
79,121,212161,1,0,0:0:0:0:
196,67,212310,2,0,L|130:66,1,46.5,0|0,0:0|2:0,0:0:0:0:
378,250,212458,6,0,B|146:252|146:252|284:39,1,465,0|0,1:0|0:0,2:0:0:0:
32,242,212904,2,0,L|136:243,2,93,0|0|0,1:0|0:0|0:0,0:0:0:0:
280,146,213349,2,0,L|216:144,1,46.5,0|0,2:0|0:0,2:0:0:0:
424,86,213498,2,0,L|424:148,1,46.5,0|0,2:0|0:0,0:0:0:0:
134,250,213647,6,0,B|366:252|366:252|228:39,1,465,0|0,1:0|0:0,2:0:0:0:
417,43,214018,2,0,L|495:38,2,46.5
205,96,214240,2,0,L|271:98,1,46.5
205,96,214389,2,0,L|124:96,1,46.5
379,147,214537,2,0,P|437:154|451:235,1,139.5
236,237,214834,6,0,L|233:139,1,93,0|0,3:0|2:0,2:0:0:0:
472,107,215132,2,0,L|357:91,1,93,0|0,3:0|2:0,2:0:0:0:
142,74,215429,1,0,3:0:0:0:
272,52,215577,2,0,L|215:49,1,46.5,0|0,2:0|0:0,0:0:0:0:
36,148,215726,2,0,L|32:29,1,93,0|0,3:0|2:0,2:0:0:0:
306,87,216023,5,0,3:0:0:0:
171,42,216171,2,0,L|245:46,1,46.5,0|0,2:0|0:0,0:0:0:0:
395,55,216320,2,0,L|501:57,1,93,0|0,3:0|2:0,2:0:0:0:
193,152,216617,1,0,3:0:0:0:
324,151,216765,1,0,2:0:0:0:
77,97,216914,2,0,L|163:97,1,46.5,0|0,3:0|0:0,2:0:0:0:
278,84,217062,2,0,L|209:83,1,46.5,0|0,2:0|0:0,0:0:0:0:
386,40,217211,6,0,L|484:40,1,93,0|0,3:0|2:0,2:0:0:0:
207,162,217508,1,0,3:0:0:0:
336,103,217656,2,0,L|272:102,1,46.5,0|0,2:0|0:0,0:0:0:0:
452,240,217805,2,0,L|451:111,1,93,0|0,3:0|2:0,2:0:0:0:
401,132,218028,1,0,0:0:0:0:
226,103,218102,2,0,L|292:104,1,46.5,0|0,3:0|0:0,2:0:0:0:
100,139,218250,2,0,L|37:139,1,46.5,0|0,2:0|0:0,0:0:0:0:
238,165,218399,6,0,L|241:222,1,46.5,0|0,3:0|0:0,2:0:0:0:
83,258,218547,2,0,L|141:258,1,46.5,0|0,2:0|0:0,0:0:0:0:
294,176,218696,2,0,L|229:170,1,46.5,0|0,3:0|0:0,2:3:0:0:
442,108,218844,2,0,L|370:96,1,46.5,0|0,2:3|0:0,0:0:0:0:
224,74,218993,5,0,3:0:0:0:
282,74,219067,1,0,0:0:0:0:
224,74,219141,1,0,2:0:0:0:
282,74,219215,1,0,0:0:0:0:
119,21,219290,1,0,0:0:0:0:
94,13,219327,1,0,0:0:0:0:
68,16,219364,1,0,0:0:0:0:
46,29,219401,1,0,0:0:0:0:
31,50,219438,1,0,0:0:0:0:
25,75,219475,1,0,0:0:0:0:
29,100,219512,1,0,0:0:0:0:
208,196,219587,6,0,L|214:262,1,46.5,0|0,3:0|0:0,0:0:0:0:
374,270,219736,2,0,L|382:326,1,46.5,0|0,3:0|0:0,0:0:0:0:
213,267,219884,2,0,L|218:328,1,46.5,0|0,3:0|0:0,0:0:0:0:
66,268,220033,2,0,L|112:268,1,46.5,0|0,3:0|0:0,0:0:0:0:
261,187,220181,6,0,L|194:183,2,46.5,0|0|0,3:0|0:0|3:0,0:0:0:0:
410,196,220404,1,0,0:0:0:0:
261,187,220478,2,0,L|259:253,1,46.5,0|0,3:0|0:0,0:0:0:0:
117,145,220627,2,0,L|116:87,1,46.5,0|0,3:0|0:0,0:0:0:0:
275,82,220775,6,0,L|338:83,2,46.5,0|0|0,3:0|0:0|3:0,0:0:0:0:
125,74,220998,1,0,0:0:0:0:
275,82,221072,2,0,L|280:25,1,46.5,0|0,3:0|0:0,0:0:0:0:
436,44,221221,2,0,L|437:98,1,46.5,0|0,3:0|0:0,0:0:0:0:
249,160,221369,6,0,L|306:155,2,46.5,0|0|0,3:0|0:0|3:0,0:0:0:0:
101,167,221592,1,0,0:0:0:0:
249,160,221666,2,0,L|251:106,1,46.5,0|0,3:0|0:0,0:0:0:0:
397,97,221815,2,0,L|459:94,1,46.5,0|0,3:0|0:0,0:0:0:0:
255,112,221963,6,0,L|252:165,1,46.5,0|0,3:0|3:0,0:0:0:0:
101,254,222112,2,0,L|46:260,1,46.5,0|0,3:0|3:0,0:0:0:0:
257,112,222260,2,0,L|260:165,1,46.5,0|0,3:0|3:0,0:0:0:0:
419,200,222409,2,0,L|479:195,1,46.5,0|0,3:0|3:0,0:0:0:0:
261,290,222557,6,0,L|312:292,1,46.5,0|0,3:0|3:0,0:0:0:0:
140,196,222706,2,0,L|82:193,1,46.5,0|0,3:0|3:0,0:0:0:0:
251,290,222854,2,0,L|200:292,1,46.5,0|0,3:0|3:0,0:0:0:0:
372,196,223003,2,0,L|430:193,1,46.5,0|0,3:0|3:0,0:0:0:0:
191,89,223151,6,0,B|48:93|48:93|47:147,1,186,0|0,1:0|2:0,2:0:0:0:
177,184,223597,6,0,L|123:182,1,46.5,0|0,2:0|2:0,0:0:0:0:
278,125,223746,2,0,L|219:124,1,46.5,0|0,2:0|0:0,2:0:0:0:
375,76,223894,2,0,L|436:76,1,46.5,0|0,2:0|0:0,0:0:0:0:
256,75,224043,2,0,L|257:236,1,139.5,0|0,2:0|2:0,2:0:0:0:
466,327,224340,6,0,L|323:275,1,127.410003596626,6|0,1:3|2:0,0:0:0:0:
188,214,224562,1,2,2:0:0:0:
347,284,224637,2,0,L|257:285,1,63.7050017983132,8|0,1:0|2:0,0:0:0:0:
442,167,224785,2,0,L|505:167,1,63.7050017983132,2|0,2:0|2:0,2:0:0:0:
289,108,224934,5,0,1:0:0:0:
426,67,225008,1,2,2:0:0:0:
397,62,225045,1,0,0:0:0:0:
368,58,225082,1,0,0:0:0:0:
426,67,225156,1,0,2:0:0:0:
265,109,225231,2,0,L|261:185,1,63.7050017983132,10|0,1:0|2:0,2:0:0:0:
116,239,225379,2,0,L|44:232,1,63.7050017983132,2|0,2:0|2:0,2:0:0:0:
214,207,225528,6,0,L|82:156,1,127.410003596626,2|0,1:0|2:0,0:0:0:0:
265,109,225750,1,2,2:0:0:0:
96,162,225825,2,0,L|167:166,1,63.7050017983132,8|0,1:0|2:0,0:0:0:0:
321,64,225973,2,0,L|244:60,1,63.7050017983132,2|0,2:0|2:0,2:0:0:0:
422,92,226122,5,0,1:0:0:0:
422,123,226159,1,0,0:0:0:0:
422,155,226196,1,2,2:0:0:0:
361,172,226270,2,0,L|438:151,1,63.7050017983132,0|0,0:0|2:0,0:0:0:0:
226,133,226419,1,10,1:0:0:0:
56,88,226493,1,2,2:0:0:0:
119,67,226567,1,2,2:0:0:0:
56,88,226642,1,2,2:0:0:0:
226,133,226716,6,0,L|226:276,1,127.410003596626,2|0,1:0|2:0,0:0:0:0:
406,317,226939,1,2,2:0:0:0:
226,260,227013,2,0,L|301:261,1,63.7050017983132,8|0,1:0|2:0,0:0:0:0:
123,178,227161,2,0,L|46:170,1,63.7050017983132,2|0,2:0|2:0,2:0:0:0:
251,117,227310,5,0,1:0:0:0:
189,73,227384,2,0,L|156:11,2,63.7050017983132,2|0|0,2:0|0:0|2:0,2:0:0:0:
362,187,227607,2,0,L|293:178,1,63.7050017983132,10|0,1:0|2:0,2:0:0:0:
474,127,227755,2,0,L|401:114,1,63.7050017983132,2|0,2:0|2:0,2:0:0:0:
260,139,227904,6,0,L|391:95,1,127.410003596626,2|0,1:0|2:0,0:0:0:0:
222,50,228127,1,2,2:0:0:0:
381,99,228201,2,0,L|386:178,1,63.7050017983132,8|0,1:0|2:0,0:0:0:0:
206,237,228350,2,0,L|287:232,1,63.7050017983132,2|0,2:0|2:0,2:0:0:0:
103,168,228498,5,0,1:0:0:0:
269,233,228572,1,2,2:0:0:0:
206,237,228647,2,0,L|203:161,1,63.7050017983132,0|0,0:0|2:0,0:0:0:0:
409,133,228795,2,0,L|328:122,1,63.7050017983132,10|0,1:0|2:0,2:0:0:0:
150,88,228944,2,0,L|75:75,1,63.7050017983132,2|0,2:0|2:0,2:0:0:0:
271,132,229092,6,0,L|137:98,1,127.410003596626,2|0,1:0|2:0,0:0:0:0:
316,69,229315,1,2,2:0:0:0:
249,65,229389,2,0,L|241:-3,1,63.7050017983132,8|0,1:0|0:0,0:0:0:0:
76,81,229538,2,0,L|63:8,1,63.7050017983132,2|0,2:0|0:0,2:0:0:0:
306,115,229686,6,0,L|446:76,1,127.410003596626,0|0,1:0|0:0,0:0:0:0:
366,42,229909,1,0,2:0:0:0:
188,140,229983,2,0,L|268:128,1,63.7050017983132,10|0,1:0|0:0,0:0:0:0:
65,64,230132,2,0,L|137:57,1,63.7050017983132,2|0,0:0|0:0,0:0:0:0:
282,89,230280,6,0,L|208:81,2,63.7050017983132,2|0|0,1:0|0:0|2:0,0:0:0:0:
464,109,230503,1,2,2:0:0:0:
401,81,230577,2,0,L|395:12,1,63.7050017983132,8|0,1:0|2:0,0:0:0:0:
226,179,230726,2,0,L|157:167,1,63.7050017983132,2|0,2:0|0:0,2:0:0:0:
326,122,230874,1,0,1:0:0:0:
163,168,230949,6,0,L|159:17,1,127.410003596626,2|0,2:0|2:0,2:0:0:0:
316,42,231171,2,0,L|236:33,1,63.7050017983132,10|2,1:0|2:0,0:0:0:0:
409,116,231320,2,0,L|482:116,1,63.7050017983132,2|2,2:0|2:0,0:0:0:0:
290,87,231468,6,0,L|369:88,2,63.7050017983132,2|0|0,1:0|0:0|2:0,0:0:0:0:
115,189,231691,1,2,2:0:0:0:
290,87,231765,2,0,L|217:84,1,63.7050017983132,8|0,1:0|2:0,0:0:0:0:
392,143,231914,2,0,L|393:232,1,63.7050017983132,2|0,2:0|2:0,2:0:0:0:
199,317,232062,6,0,L|330:259,1,127.410003596626,2|0,1:0|2:0,0:0:0:0:
137,210,232285,1,2,2:0:0:0:
316,266,232359,2,0,L|321:192,1,63.7050017983132,8|0,1:0|2:0,0:0:0:0:
486,127,232508,2,0,L|395:115,1,63.7050017983132,2|0,2:0|2:0,2:0:0:0:
239,136,232656,6,0,L|371:88,1,127.410003596626,2|0,1:0|0:0,0:0:0:0:
170,66,232879,1,2,1:0:0:0:
359,93,232953,1,8,2:1:0:0:
295,71,233028,1,0,0:0:0:0:
457,186,233102,2,0,L|385:186,1,63.7050017983132,2|0,1:0|0:0,0:0:0:0:
232,192,233250,5,8,2:1:0:0:
393,186,233325,1,2,3:0:0:0:
232,192,233399,2,0,L|317:192,1,63.7050017983132,2|10,3:0|2:1,0:0:0:0:
127,117,233548,1,0,3:0:0:0:
295,192,233622,1,2,3:0:0:0:
127,117,233696,2,0,L|217:119,1,63.7050017983132,10|2,2:1|3:0,0:0:0:0:
35,250,233845,6,0,L|29:98,1,127.410003596626,6|0,1:3|2:0,0:0:0:0:
210,67,234067,1,2,2:0:0:0:
396,73,234142,2,0,L|321:58,1,63.7050017983132,8|0,1:0|2:0,0:0:0:0:
164,112,234290,2,0,L|236:110,1,63.7050017983132,2|0,2:0|2:0,2:0:0:0:
45,166,234439,5,0,1:0:0:0:
107,123,234513,2,0,L|160:68,2,63.7050017983132,2|0|0,2:0|0:0|2:0,2:0:0:0:
274,206,234736,2,0,L|282:275,1,63.7050017983132,10|0,1:0|2:0,2:0:0:0:
452,289,234884,2,0,L|382:276,1,63.7050017983132,2|0,2:0|2:0,2:0:0:0:
214,232,235033,6,0,L|345:171,1,127.410003596626,2|0,1:0|2:0,0:0:0:0:
165,131,235255,1,2,2:0:0:0:
330,179,235330,2,0,L|342:97,1,63.7050017983132,8|0,1:0|2:0,0:0:0:0:
499,84,235478,2,0,L|420:70,1,63.7050017983132,2|0,2:0|2:0,2:0:0:0:
265,58,235627,5,0,1:0:0:0:
436,72,235701,1,2,2:0:0:0:
372,75,235775,2,0,L|456:71,1,63.7050017983132,0|0,0:0|2:0,0:0:0:0:
254,91,235924,1,8,1:0:0:0:
188,64,235998,1,2,2:0:0:0:
254,91,236072,1,2,2:0:0:0:
188,64,236147,1,2,2:0:0:0:
350,139,236221,6,0,L|358:285,1,127.410003596626,2|0,1:0|2:0,0:0:0:0:
425,291,236444,1,2,2:0:0:0:
250,197,236518,2,0,L|326:191,1,63.7050017983132,8|0,1:0|2:0,0:0:0:0:
159,142,236666,2,0,L|78:128,1,63.7050017983132,2|0,2:0|2:0,2:0:0:0:
274,98,236815,6,0,L|161:35,1,127.410003596626,0|0,1:0|0:0,0:0:0:0:
111,21,237038,1,0,2:0:0:0:
276,155,237112,2,0,L|199:142,1,63.7050017983132,10|0,1:0|2:0,2:0:0:0:
384,100,237260,2,0,L|449:94,1,63.7050017983132,2|0,2:0|2:0,2:0:0:0:
235,206,237409,6,0,L|325:202,2,63.7050017983132,2|0|0,1:0|0:0|2:0,0:0:0:0:
416,186,237632,1,2,2:0:0:0:
235,206,237706,2,0,L|229:127,1,63.7050017983132,8|0,1:0|2:0,0:0:0:0:
45,108,237854,2,0,L|119:104,1,63.7050017983132,2|0,2:0|2:0,2:0:0:0:
290,77,238003,5,0,1:0:0:0:
127,105,238077,1,2,2:0:0:0:
185,79,238151,2,0,L|118:108,1,63.7050017983132,0|0,0:0|2:0,0:0:0:0:
323,201,238300,1,10,1:0:0:0:
39,156,238449,1,2,1:0:0:0:
108,262,238597,6,0,L|33:146,1,127.410003596626
475,143,238894,2,0,L|400:137,1,63.7050017983132,8|0,3:1|0:0,0:0:0:0:
239,101,239043,2,0,L|316:92,1,63.7050017983132,0|0,3:0|0:0,0:0:0:0:
141,59,239191,5,0,3:0:0:0:
302,93,239265,1,0,0:0:0:0:
141,59,239340,2,0,L|140:148,1,63.7050017983132,0|0,3:0|0:0,0:0:0:0:
302,222,239488,2,0,L|225:207,1,63.7050017983132,8|0,3:1|0:0,0:0:0:0:
406,153,239637,2,0,L|482:141,1,63.7050017983132,0|0,3:0|0:0,0:0:0:0:
304,131,239785,5,0,3:0:0:0:
468,143,239859,2,0,L|394:137,1,63.7050017983132,0|0,0:0|3:1,0:0:0:0:
241,125,240008,1,0,0:0:0:0:
405,137,240082,2,0,L|330:130,1,63.7050017983132,8|0,3:1|0:0,0:0:0:0:
142,82,240231,2,0,L|67:66,1,63.7050017983132,0|0,3:1|0:0,0:0:0:0:
240,92,240379,6,0,L|248:168,1,63.7050017983132,0|0,3:0|0:0,0:0:0:0:
411,228,240528,2,0,L|477:226,1,63.7050017983132,0|0,3:0|0:0,0:0:0:0:
266,166,240676,2,0,L|340:165,1,63.7050017983132,8|0,3:1|0:0,0:0:0:0:
119,118,240825,2,0,L|114:201,1,63.7050017983132,0|0,3:0|0:0,0:0:0:0:
275,57,240973,5,0,3:0:0:0:
210,54,241048,1,0,3:0:0:0:
275,57,241122,1,0,3:0:0:0:
210,54,241196,1,0,3:0:0:0:
401,55,241270,1,8,3:1:0:0:
336,52,241345,1,0,3:0:0:0:
401,55,241419,1,0,3:0:0:0:
336,52,241493,1,0,3:0:0:0:
165,137,241567,5,0,3:0:0:0:
230,134,241642,1,0,3:0:0:0:
165,137,241716,1,0,3:0:0:0:
230,134,241790,1,0,3:0:0:0:
39,135,241864,1,8,3:1:0:0:
104,132,241939,1,0,3:0:0:0:
39,135,242013,1,0,3:0:0:0:
104,132,242087,1,0,3:0:0:0:
322,98,242161,6,0,L|131:69,1,186,0|0,3:2|0:0,0:0:0:0:
268,149,242607,1,0,0:0:0:0:
25,116,242755,6,0,L|83:99,1,46.5
151,74,242904,2,0,L|97:45,1,46.5
191,35,243052,2,0,L|253:15,1,46.5
154,118,243201,2,0,L|93:93,1,46.5,0|0,2:1|0:0,0:0:0:0:
365,78,243350,6,0,P|417:80|464:304,1,325.5,0|0,3:0|2:0,2:0:0:0:
228,254,243944,6,0,L|294:253,1,58.4039988236499,6|0,1:0|0:0,0:0:0:0:
121,166,244092,2,0,L|45:153,1,58.4039988236499,2|2,2:0|2:0,0:0:0:0:
266,217,244241,2,0,L|266:89,1,116.8079976473,8|2,1:0|2:0,2:0:0:0:
202,86,244463,1,0,2:0:0:0:
480,96,244538,6,0,L|349:88,2,116.8079976473,0|2|8,1:0|2:0|1:0,2:0:0:0:
217,127,244983,2,0,L|289:127,1,58.4039988236499,2|2,2:0|2:0,0:0:0:0:
40,74,245132,2,0,L|166:76,1,116.8079976473,0|2,1:0|2:0,0:0:0:0:
460,82,245429,2,0,L|389:80,2,58.4039988236499,8|0|2,1:0|2:0|2:0,0:0:0:0:
232,168,245726,6,0,L|312:161,1,58.4039988236499,0|0,1:0|0:0,2:0:0:0:
224,115,245874,2,0,L|162:103,1,58.4039988236499,0|0,0:0|2:0,0:0:0:0:
321,92,246023,2,0,L|327:30,1,58.4039988236499,8|0,1:0|0:0,2:0:0:0:
477,37,246171,2,0,L|406:29,1,58.4039988236499,0|0,0:0|2:0,0:0:0:0:
247,132,246320,6,0,L|326:130,1,58.4039988236499,0|0,1:0|0:0,0:0:0:0:
146,83,246468,2,0,L|72:77,1,58.4039988236499,2|0,2:0|0:0,0:0:0:0:
250,66,246617,2,0,L|252:-4,1,58.4039988236499,8|0,1:0|0:0,0:0:0:0:
410,79,246765,1,2,2:0:0:0:
251,7,246840,1,0,0:0:0:0:
410,79,246914,6,0,L|413:17,1,58.4039988236499,0|0,1:2|0:0,2:0:0:0:
249,66,247062,2,0,L|311:61,1,58.4039988236499,0|0,0:0|2:0,0:0:0:0:
116,177,247211,2,0,L|112:112,1,58.4039988236499,8|0,1:0|0:0,2:0:0:0:
276,103,247359,2,0,L|208:101,1,58.4039988236499,0|0,0:0|2:0,0:0:0:0:
416,165,247508,6,0,L|293:157,1,116.8079976473,0|0,1:0|0:0,2:3:0:0:
123,88,247731,1,0,2:3:0:0:
299,157,247805,2,0,L|422:149,1,116.8079976473,8|0,1:0|0:0,2:0:0:0:
475,88,248028,1,0,2:0:0:0:
212,140,248102,5,4,1:0:0:0:
209,169,248139,1,0,0:0:0:0:
207,198,248176,1,0,0:0:0:0:
296,201,248250,1,0,0:0:0:0:
298,230,248287,1,0,0:0:0:0:
300,259,248324,1,0,2:0:0:0:
78,232,248399,2,0,L|160:230,1,58.4039988236499,8|0,1:0|0:0,2:0:0:0:
327,151,248548,2,0,L|396:148,1,58.4039988236499,0|0,0:0|2:0,0:0:0:0:
220,156,248696,6,0,L|216:77,1,58.4039988236499,0|0,1:0|0:0,0:0:0:0:
56,73,248845,2,0,L|120:70,1,58.4039988236499,2|2,2:0|2:0,0:0:0:0:
258,63,248993,2,0,L|135:59,1,116.8079976473,8|2,1:0|2:0,2:0:0:0:
198,12,249216,1,0,2:0:0:0:
439,143,249290,6,0,L|316:134,1,116.8079976473,0|2,1:0|2:0,2:0:0:0:
381,82,249513,1,0,2:0:0:0:
199,180,249587,2,0,L|195:115,1,58.4039988236499,8|0,1:0|0:0,0:0:0:0:
349,67,249736,1,2,2:0:0:0:
195,121,249810,1,2,2:0:0:0:
349,67,249884,6,0,L|357:4,1,58.4039988236499,0|0,1:0|0:0,0:0:0:0:
177,81,250033,2,0,L|93:75,1,58.4039988236499,2|0,2:0|2:0,2:0:0:0:
339,90,250181,2,2,P|393:94|444:212,1,175.21199647095,2|0,2:0|0:0,2:0:0:0:
238,227,250478,6,0,L|363:199,1,116.8079976473,4|0,1:0|0:0,2:0:0:0:
81,123,250775,2,0,L|150:116,1,58.4039988236499,8|0,1:0|0:0,0:0:0:0:
296,93,250924,2,0,L|218:78,1,58.4039988236499,2|0,0:0|2:0,2:0:0:0:
401,88,251072,5,2,1:0:0:0:
452,106,251146,1,0,2:0:0:0:
453,161,251220,1,0,2:0:0:0:
402,181,251294,1,0,0:0:0:0:
233,191,251369,1,10,1:0:0:0:
262,189,251406,1,0,0:0:0:0:
291,187,251443,1,0,0:0:0:0:
133,127,251518,2,0,L|67:120,1,58.4039988236499,0|0,0:0|2:0,0:0:0:0:
236,95,251666,6,0,L|244:25,1,58.4039988236499,0|0,1:0|2:0,2:0:0:0:
397,26,251815,1,0,2:0:0:0:
426,24,251852,1,0,0:0:0:0:
455,22,251889,1,0,0:0:0:0:
291,157,251963,2,0,L|283:242,1,58.4039988236499,8|0,1:0|0:0,2:0:0:0:
111,264,252112,2,0,L|101:330,1,58.4039988236499,0|0,0:0|2:0,0:0:0:0:
266,305,252260,5,2,1:0:0:0:
102,321,252335,1,0,2:0:0:0:
266,305,252409,2,0,L|131:292,1,116.8079976473,0|10,2:0|1:0,0:0:0:0:
210,234,252632,1,2,2:0:0:0:
29,192,252706,2,0,L|21:123,1,58.4039988236499,2|2,2:0|2:0,0:0:0:0:
276,114,252854,6,0,L|133:100,1,116.8079976473,4|0,1:0|0:0,2:0:0:0:
331,59,253077,1,0,2:0:0:0:
159,102,253151,2,0,L|159:236,1,116.8079976473,8|0,1:0|0:0,2:0:0:0:
98,257,253374,1,0,2:0:0:0:
297,165,253449,6,0,L|236:160,1,58.4039988236499,0|0,1:0|0:0,0:0:0:0:
412,122,253597,2,0,L|489:118,1,58.4039988236499,2|2,2:0|2:0,0:0:0:0:
303,175,253746,2,0,L|298:316,1,116.8079976473,8|2,1:0|2:0,2:0:0:0:
360,336,253968,1,0,2:0:0:0:
191,209,254043,6,0,L|264:201,1,58.4039988236499,0|0,1:0|2:0,2:0:0:0:
84,131,254191,2,0,L|25:120,1,58.4039988236499,2|0,2:0|2:0,2:0:0:0:
195,130,254340,2,0,L|199:68,1,58.4039988236499,8|0,1:0|0:0,0:0:0:0:
353,57,254488,1,2,2:0:0:0:
198,71,254562,1,2,2:0:0:0:
353,57,254637,6,0,L|356:127,1,58.4039988236499,0|0,1:0|0:0,0:0:0:0:
203,179,254785,2,0,L|195:256,1,58.4039988236499,2|0,2:0|2:0,2:0:0:0:
55,261,254934,2,0,L|125:253,1,58.4039988236499,8|0,1:0|2:0,0:0:0:0:
283,205,255082,2,0,L|208:182,1,58.4039988236499,2|0,2:0|0:0,0:0:0:0:
404,240,255231,6,0,P|452:227|394:159,1,175.21199647095,0|0,1:0|2:0,2:0:0:0:
230,160,255528,2,0,L|351:141,1,116.8079976473,8|0,1:0|0:0,2:0:0:0:
49,129,255825,6,0,L|45:207,1,58.4039988236499,0|0,1:0|0:0,0:0:0:0:
211,245,255973,2,0,L|226:313,1,58.4039988236499,2|0,2:0|0:0,0:0:0:0:
389,309,256122,2,0,L|461:322,1,58.4039988236499,8|0,1:0|0:0,0:0:0:0:
254,198,256270,2,0,L|318:189,1,58.4039988236499,2|0,2:0|0:0,0:0:0:0:
116,183,256419,6,0,L|114:114,1,58.4039988236499,0|0,1:0|0:0,2:0:0:0:
286,104,256567,1,0,0:0:0:0:
256,102,256604,1,0,0:0:0:0:
227,101,256641,1,0,2:0:0:0:
411,108,256716,2,0,P|452:120|403:210,1,175.21199647095,8|0,1:0|2:0,2:0:0:0:
240,198,257013,5,0,1:0:0:0:
268,193,257050,1,0,0:0:0:0:
297,189,257087,1,0,0:0:0:0:
382,152,257161,2,0,L|388:91,1,58.4039988236499,0|0,0:0|2:0,0:0:0:0:
240,198,257310,1,8,1:0:0:0:
268,193,257347,1,0,0:0:0:0:
297,189,257384,1,0,0:0:0:0:
115,154,257458,2,0,L|109:93,1,58.4039988236499,0|0,0:0|2:0,0:0:0:0:
301,76,257607,6,0,L|176:63,1,116.8079976473,4|0,1:0|0:0,2:0:0:0:
161,26,257830,1,0,2:0:0:0:
365,162,257904,2,0,L|240:149,1,116.8079976473,8|0,1:0|0:0,2:0:0:0:
225,112,258127,1,0,2:0:0:0:
429,94,258201,6,0,L|363:87,1,58.4039988236499,0|0,1:0|0:0,0:0:0:0:
227,57,258350,2,0,L|296:51,1,58.4039988236499,2|2,2:0|2:0,0:0:0:0:
121,97,258498,2,0,L|121:236,1,116.8079976473,8|2,1:0|2:0,2:0:0:0:
59,249,258721,1,0,2:0:0:0:
264,161,258795,6,0,L|146:149,1,116.8079976473,0|2,1:0|2:0,2:0:0:0:
197,101,259018,1,0,2:0:0:0:
396,114,259092,2,0,L|400:53,1,58.4039988236499,8|0,1:0|0:0,0:0:0:0:
234,35,259241,1,2,2:0:0:0:
399,55,259315,1,2,2:0:0:0:
234,35,259389,6,0,L|231:118,1,58.4039988236499,0|0,1:0|0:0,0:0:0:0:
71,179,259538,2,0,L|0:176,1,58.4039988236499,2|0,2:0|2:0,2:0:0:0:
210,136,259686,2,0,L|213:65,1,58.4039988236499,8|0,1:0|2:0,0:0:0:0:
373,52,259835,2,0,L|456:45,1,58.4039988236499,2|0,2:0|0:0,0:0:0:0:
236,132,259983,6,0,L|355:110,1,116.8079976473,0|2,1:0|2:1,0:0:0:0:
292,60,260206,1,0,0:0:0:0:
106,99,260280,2,0,L|22:82,3,58.4039988236499,8|0|2|0,1:0|0:0|2:1|0:0,0:0:0:0:
215,133,260577,6,0,L|222:262,1,116.8079976473,0|2,1:0|2:1,0:0:0:0:
156,292,260800,1,0,0:0:0:0:
320,190,260874,2,0,L|250:179,3,58.4039988236499,8|0|2|0,1:0|0:0|2:0|0:0,0:0:0:0:
407,202,261171,6,0,L|411:133,1,58.4039988236499,8|0,2:1|3:0,2:0:0:0:
241,105,261320,1,0,3:0:0:0:
407,202,261394,2,0,L|411:133,1,58.4039988236499,8|0,2:1|3:0,2:0:0:0:
241,105,261543,1,0,3:0:0:0:
410,143,261617,2,0,L|419:64,1,58.4039988236499,8|0,2:1|3:0,2:0:0:0:
241,105,261765,6,0,L|371:92,1,116.8079976473,8|0,2:1|0:0,0:0:0:0:
357,93,262211,2,0,L|282:91,1,58.4039988236499
70,80,262359,5,4,1:2:0:0:
256,192,262508,12,0,267112,0:0:0:0:
