osu file format v14

[General]
AudioFilename: racemization.mp3
AudioLeadIn: 0
PreviewTime: 166178
Countdown: 0
SampleSet: Soft
StackLeniency: 0.2
Mode: 0
LetterboxInBreaks: 0
EpilepsyWarning: 1
WidescreenStoryboard: 1

[Editor]
DistanceSpacing: 1
BeatDivisor: 4
GridSize: 4
TimelineZoom: 2.899999

[Metadata]
Title:Racemization
TitleUnicode:Racemization
Artist:Camellia
ArtistUnicode:かめりあ
Creator:Sadistic Potato
Version:Motionless
Source:
Tags:
BeatmapID:787031
BeatmapSetID:357845

[Difficulty]
HPDrainRate:5.7
CircleSize:4
OverallDifficulty:8
ApproachRate:9.3
SliderMultiplier:2.1
SliderTickRate:1

[Events]
//Background and Video events
0,0,"colour.jpg",0,0
//Break Periods
2,196081,202456
//Storyboard Layer 0 (Background)
//Storyboard Layer 1 (Fail)
//Storyboard Layer 2 (Pass)
//Storyboard Layer 3 (Foreground)
//Storyboard Sound Samples

[TimingPoints]
1030,297.029702970297,4,2,1,100,1,0
5783,-133.333333333333,4,2,1,100,0,0
45436,-100,4,2,1,100,0,0
45733,-80,4,2,1,100,0,0
46179,-133.333333333333,4,2,1,100,0,0
48555,-100,4,2,1,100,0,0
49297,-133.333333333333,4,2,1,100,0,0
49743,-100,4,2,1,100,0,0
50188,-80,4,2,1,100,0,0
50485,-66.6666666666667,4,2,1,100,0,0
50931,-117.647058823529,4,2,1,100,0,0
55683,-117.647058823529,4,2,1,25,0,0
55981,-117.647058823529,4,2,1,50,0,0
56278,-117.647058823529,4,2,1,75,0,0
57020,-100,4,2,1,100,0,0
61624,-100,4,2,1,5,0,0
61661,-100,4,2,1,15,0,0
61698,-100,4,2,1,20,0,0
61735,-100,4,2,1,25,0,0
61773,-100,4,2,1,30,0,0
61810,-100,4,2,1,35,0,0
61847,-100,4,2,1,40,0,0
61884,-100,4,2,1,45,0,0
62070,-66.6666666666667,4,2,1,100,0,0
62812,-133.333333333333,4,2,1,100,0,0
64297,-66.6666666666667,4,2,1,100,0,0
64594,-133.333333333333,4,2,1,100,0,0
65188,-100,4,2,1,100,0,0
69569,-74.0740740740741,4,2,1,100,0,0
69941,-66.6666666666667,4,2,1,100,0,0
70535,-80,4,2,1,100,0,0
70981,-100,4,2,1,100,0,0
71426,-66.6666666666667,4,2,1,100,0,0
71723,-133.333333333333,4,2,1,100,0,0
71872,-100,4,2,1,100,0,0
72020,-66.6666666666667,4,2,1,100,0,0
72169,-50,4,2,1,100,0,0
73060,-100,4,2,1,100,0,0
78852,-80,4,2,1,100,0,0
79149,-100,4,2,1,100,0,0
81525,-83.3333333333333,4,2,1,100,0,0
81822,-100,4,2,1,100,0,0
94000,-68.9655172413793,4,2,1,100,0,0
94149,-100,4,2,1,100,0,0
98456,-83.3333333333333,4,2,1,100,0,0
99050,-100,4,2,1,100,0,0
100163,-83.3333333333333,4,2,1,100,0,0
100534,-100,4,2,1,100,0,0
101129,-66.6666666666667,4,2,1,100,0,0
101426,-100,4,2,1,100,0,0
110336,-100,4,2,1,100,0,1
115089,-80,4,2,1,100,0,1
115534,-100,4,2,1,100,0,1
119841,-66.6666666666667,4,2,1,100,0,0
120138,-100,4,2,1,100,0,1
124594,-100,4,2,1,100,0,0
129346,-133.333333333333,4,2,1,100,0,0
131723,-200,4,2,1,100,0,0
160237,-200,4,2,1,100,0,0
162614,-133.333333333333,4,2,1,100,0,0
166178,-153.846153846153,4,2,1,15,0,0
167366,-200,4,2,1,100,0,0
170039,-100,4,2,1,100,0,0
172119,-133.333333333333,4,2,1,100,0,0
173010,-125,4,2,1,100,0,0
174495,-100,4,2,1,100,0,0
177762,-133.333333333333,4,2,1,100,0,0
180138,-100,4,2,1,100,0,0
181624,-200,4,2,1,100,0,0
183406,-133.333333333333,4,2,1,100,0,0
185485,-117.647058823529,4,2,1,100,0,0
185782,-108.695652173913,4,2,1,100,0,0
186079,-100,4,2,1,100,0,0
187713,-83.3333333333333,4,2,1,100,0,0
188752,-100,4,2,1,100,0,0
191129,-133.333333333333,4,2,1,100,0,0
191574,-100,4,2,1,100,0,0
192911,-71.4285714285714,4,2,1,100,0,0
193505,-100,4,2,1,100,0,0
207465,-83.3333333333333,4,2,1,100,0,0
207762,-100,4,2,1,100,0,0
208950,-200,4,2,1,100,0,0
210138,-100,4,2,1,100,0,0
213703,-200,4,2,1,100,0,0
214891,-100,4,2,1,100,0,0
224396,-66.6666666666667,4,2,1,100,0,1
238950,-100,4,2,1,100,0,0
241030,-100,4,2,1,100,0,1
242218,-100,4,2,1,100,0,0
244000,-62.5,4,2,1,100,0,0
250535,-62.5,4,2,1,100,0,0
261822,-100,4,2,1,100,0,0

[Colours]
Combo1 : 215,0,107
Combo2 : 89,146,155
Combo3 : 160,220,220
Combo4 : 0,255,255
Combo5 : 21,180,255
Combo6 : 223,112,0
Combo7 : 187,0,0
Combo8 : 128,0,128

[HitObjects]
96,60,43802,6,0,L|240:72,1,118.125004506111,4|0,0:0|0:0,0:0:0:0:
180,168,44099,1,0,0:0:0:0:
268,288,44248,2,0,L|152:280,1,78.7500030040742,4|0,0:0|0:0,0:0:0:0:
380,144,44545,6,0,L|364:188,1,39.3750015020371
452,228,44693,2,0,L|436:272,1,39.3750015020371
344,348,44842,2,0,L|360:304,1,39.3750015020371
264,152,44990,2,0,P|224:204|136:184,1,157.500006008148,4|0,0:0|0:0,0:0:0:0:
112,168,45436,2,0,P|168:236|160:332,1,157.500006008148,4|0,0:0|0:0,0:0:0:0:
140,304,45733,2,0,P|228:276|168:324,1,262.5,4|0,0:0|0:0,0:0:0:0:
180,280,46179,6,0,P|272:284|344:232,1,157.500006008148,4|0,0:0|0:0,0:0:0:0:
220,112,46624,2,0,P|248:152|252:224,1,118.125004506111,4|0,0:0|0:0,0:0:0:0:
364,232,46921,1,0,0:0:0:0:
240,328,47070,2,0,L|228:360,6,19.6875007510186
336,304,47367,6,0,P|308:264|304:192,1,118.125004506111,4|0,0:0|0:0,0:0:0:0:
428,140,47664,2,2,L|444:100,8,39.3750015020371
424,140,48555,6,0,P|368:92|236:96,1,210,4|0,0:0|0:0,0:0:0:0:
237,95,49000,2,0,P|224:144|248:120,1,105,4|0,0:0|0:0,0:0:0:0:
348,148,49297,2,0,L|400:152,1,39.3750015020371
388,228,49446,2,0,L|432:232,1,39.3750015020371
328,304,49594,2,0,L|380:308,1,39.3750015020371
264,216,49743,6,0,P|212:196|92:292,1,210,4|0,0:0|0:0,0:0:0:0:
152,344,50188,2,0,L|284:352,1,131.25,4|0,0:0|0:0,0:0:0:0:
224,120,50485,2,0,B|104:136|104:136|32:124|72:96|72:96|144:92|180:60,1,315.000012016297,4|0,0:0|0:0,0:0:0:0:
48,32,50931,6,0,L|32:216,1,178.500003404617,4|0,0:0|0:0,0:0:0:0:
116,368,51377,2,0,L|132:248,1,89.2500017023087,4|0,0:0|0:0,0:0:0:0:
160,80,51674,1,0,0:0:0:0:
224,200,51822,2,0,L|232:228,6,22.3125004255772
256,324,52119,2,0,P|288:276|376:276,1,133.875002553463,4|0,0:0|0:0,0:0:0:0:
408,312,52416,2,2,L|424:360,8,44.6250008511543
256,188,53307,6,0,L|156:184,1,89.2500017023087
112,256,53604,2,0,L|12:252,1,89.2500017023087
364,264,53901,2,0,L|264:260,1,89.2500017023087
220,332,54198,2,0,L|120:328,1,89.2500017023087
360,152,54495,5,0,0:0:0:0:
152,136,54644,1,0,0:0:0:0:
320,216,54792,1,0,0:0:0:0:
112,200,54941,1,0,0:0:0:0:
228,64,55089,1,0,0:0:0:0:
204,271,55238,1,0,0:0:0:0:
290,106,55386,1,0,0:0:0:0:
267,313,55535,1,0,0:0:0:0:
360,152,55683,6,0,P|416:120|432:88,1,89.2500017023087,2|0,0:0|0:0,0:0:0:0:
376,244,55981,2,0,L|476:216,1,89.2500017023087,2|0,0:0|0:0,0:0:0:0:
348,328,56278,2,0,P|404:340|432:368,1,89.2500017023087,2|0,0:0|0:0,0:0:0:0:
244,332,56575,5,2,0:0:0:0:
244,332,56649,1,0,0:0:0:0:
244,332,56723,1,0,0:0:0:0:
168,232,56872,1,2,0:0:0:0:
168,232,56946,1,0,0:0:0:0:
168,232,57020,2,0,L|104:240,1,52.5
88,140,57169,1,2,0:0:0:0:
88,140,57243,1,0,0:0:0:0:
88,140,57317,2,0,L|24:148,1,52.5
176,96,57466,1,2,0:0:0:0:
176,96,57540,1,0,0:0:0:0:
176,96,57614,2,0,L|138:43,1,52.5
304,160,57763,1,2,0:0:0:0:
304,160,57837,1,0,0:0:0:0:
304,160,57911,2,0,L|266:107,1,52.5
256,228,58060,5,2,0:0:0:0:
290,266,58134,1,0,0:0:0:0:
339,283,58208,1,2,0:0:0:0:
390,275,58282,1,0,0:0:0:0:
431,242,58357,1,2,0:0:0:0:
451,194,58431,1,0,0:0:0:0:
445,143,58505,1,2,0:0:0:0:
416,100,58579,1,0,0:0:0:0:
369,78,58654,5,2,0:0:0:0:
320,96,58728,1,0,0:0:0:0:
299,143,58802,1,2,0:0:0:0:
262,181,58876,1,0,0:0:0:0:
215,202,58950,1,2,0:0:0:0:
163,205,59025,1,0,0:0:0:0:
113,190,59099,1,2,0:0:0:0:
72,157,59174,1,0,0:0:0:0:
46,112,59248,5,2,0:0:0:0:
66,64,59322,1,2,0:0:0:0:
103,26,59396,1,2,0:0:0:0:
150,5,59470,1,2,0:0:0:0:
202,2,59545,5,2,0:0:0:0:
252,17,59619,1,2,0:0:0:0:
293,50,59693,1,2,0:0:0:0:
319,95,59768,1,2,0:0:0:0:
299,143,59842,5,8,0:0:0:0:
284,191,59916,5,8,0:0:0:0:
330,230,59990,5,8,0:0:0:0:
380,195,60065,5,8,0:0:0:0:
359,138,60139,5,8,0:0:0:0:
299,143,60213,5,8,0:0:0:0:
284,191,60287,5,8,0:0:0:0:
330,230,60362,5,8,0:0:0:0:
380,195,60436,2,2,L|408:184,7,26.25
436,252,60733,2,0,L|448:312,1,52.5,2|0,0:0|0:0,0:0:0:0:
244,192,60882,2,0,L|232:132,1,52.5,2|0,0:0|0:0,0:0:0:0:
180,288,61030,2,0,L|192:348,1,52.5,2|0,0:0|0:0,0:0:0:0:
60,248,61179,2,0,L|72:308,1,52.5,2|0,0:0|0:0,0:0:0:0:
32,96,61327,1,2,0:0:0:0:
89,125,61401,1,2,0:0:0:0:
155,127,61475,1,2,0:0:0:0:
214,101,61549,1,2,0:0:0:0:
256,51,61624,2,8,L|292:44,6,26.25
320,92,61884,5,0,0:0:0:0:
320,92,62070,2,0,B|340:168|372:188|372:188|356:232|356:232|384:256|384:256|388:296|380:360,1,275.62501051426
428,348,62367,2,0,P|460:312|472:264,1,78.7500030040742
312,188,62515,2,0,P|264:264|224:148,1,275.62501051426
440,120,62812,2,0,L|168:60,1,275.62501051426,4|0,0:0|0:0,0:0:0:0:
76,136,63406,6,0,L|68:88,1,39.3750015020371
128,236,63555,1,0,0:0:0:0:
128,236,63629,1,0,0:0:0:0:
128,236,63703,1,0,0:0:0:0:
224,296,63852,6,0,L|216:344,1,39.3750015020371
276,196,64001,1,0,0:0:0:0:
276,196,64075,1,0,0:0:0:0:
276,196,64149,1,0,0:0:0:0:
380,84,64297,6,0,B|400:120|400:120|400:192,1,78.7500030040742
348,320,64446,1,0,0:0:0:0:
320,272,64520,1,0,0:0:0:0:
280,232,64594,2,0,L|228:228,1,39.3750015020371
53,321,64743,1,0,0:0:0:0:
116,335,64817,1,0,0:0:0:0:
177,313,64891,1,0,0:0:0:0:
228,272,64965,1,0,0:0:0:0:
280,232,65040,1,0,0:0:0:0:
343,217,65114,1,0,0:0:0:0:
404,237,65188,6,0,P|440:180|448:140,1,105
352,32,65485,2,0,P|316:89|308:129,1,105
360,276,65783,1,0,0:0:0:0:
160,216,65931,1,0,0:0:0:0:
188,52,66080,1,0,0:0:0:0:
424,100,66228,2,0,B|360:112|360:112|272:64,1,157.5
192,140,66525,2,0,L|140:112,1,52.5
220,240,66674,2,0,B|280:272|280:272|372:240,1,157.5
444,176,66971,2,0,L|468:192,7,26.25
400,92,67268,2,0,L|376:40,1,52.5
352,284,67416,2,0,L|376:232,1,52.5
316,164,67565,6,0,B|300:128|300:128|272:96|260:103|260:103|232:100|224:84|208:92|196:80|196:80|164:80|164:80|156:100|156:100|152:84|152:84|144:72|88:76|88:76|68:48,1,315
204,52,68159,2,0,L|216:104,1,52.5
332,148,68307,1,0,0:0:0:0:
332,148,68382,1,0,0:0:0:0:
332,148,68456,1,0,0:0:0:0:
436,200,68604,2,0,L|424:252,1,52.5
308,296,68752,1,0,0:0:0:0:
308,296,68827,1,0,0:0:0:0:
308,296,68901,1,0,0:0:0:0:
188,208,69050,5,0,0:0:0:0:
88,328,69198,2,0,L|144:312,1,52.5
88,56,69347,2,0,L|144:72,1,52.5
428,192,69495,2,0,L|368:192,1,52.5
25,193,69643,2,0,B|109:161|133:229|233:193,1,212.6250008111
233,194,69941,6,0,P|232:136|356:172,1,236.250009012223,4|0,0:0|0:0,0:0:0:0:
376,244,70238,1,0,0:0:0:0:
379,263,70312,1,0,0:0:0:0:
383,282,70386,1,0,0:0:0:0:
387,302,70460,1,0,0:0:0:0:
392,324,70535,2,0,P|308:336|304:240,1,196.875007510186,4|0,0:0|0:0,0:0:0:0:
360,168,70832,1,0,0:0:0:0:
392,324,70981,2,0,P|308:336|304:260,1,157.5,4|0,0:0|0:0,0:0:0:0:
260,116,71278,2,0,L|280:188,1,52.5,4|0,0:0|0:0,0:0:0:0:
252,268,71426,2,0,B|232:200|232:200|192:152|108:176|108:176|84:196|84:224,1,236.250009012223,4|0,0:0|0:0,0:0:0:0:
64,296,71723,6,0,L|56:348,1,39.3750015020371,8|0,0:0|0:0,0:0:0:0:
128,248,71872,2,0,L|124:304,1,52.5,8|0,0:0|0:0,0:0:0:0:
196,204,72020,2,0,L|192:288,1,78.7500030040742,8|0,0:0|0:0,0:0:0:0:
264,160,72169,2,0,L|264:280,1,105,8|0,0:0|0:0,0:0:0:0:
228,336,72317,2,2,B|292:336|292:336|316:356|316:356|344:332|344:332|372:352|372:352|412:348|412:348|432:320|440:288|440:288|452:280|452:280|440:276|440:276|452:272|452:272|436:264|436:264|456:260|456:260|440:256|440:256|456:252|456:252|440:248|440:248|456:244|456:244|440:236|440:236|460:236|460:236|440:224|440:224|460:224|460:224|440:212|440:212|464:212|464:212|456:188|448:148|416:132|416:132|340:92|264:152,1,787.5
268,208,72911,6,0,P|340:192|372:168,1,105
156,232,73060,1,0,0:0:0:0:
156,244,73134,1,0,0:0:0:0:
160,256,73208,2,0,P|208:268|232:268,1,52.5
72,312,73357,2,0,P|120:324|144:324,1,52.5
72,220,73505,6,0,P|24:208|0:208,1,52.5
184,152,73654,2,0,P|136:140|112:140,1,52.5
324,140,73802,2,0,P|276:128|252:128,1,52.5
336,248,73951,1,0,0:0:0:0:
379,199,74025,1,0,0:0:0:0:
423,150,74099,6,0,L|488:176,1,52.5
488,328,74248,2,0,L|423:302,1,52.5
224,340,74396,1,0,0:0:0:0:
226,274,74470,1,0,0:0:0:0:
229,208,74544,1,0,0:0:0:0:
232,143,74618,1,0,0:0:0:0:
235,77,74693,2,0,B|264:72|264:72|300:64|300:64|256:40|256:40|192:60|144:24,1,210
152,304,75139,6,0,L|132:248,1,52.5
360,80,75287,2,0,L|380:136,1,52.5
104,140,75435,1,0,0:0:0:0:
155,148,75509,1,0,0:0:0:0:
207,157,75584,1,0,0:0:0:0:
259,165,75658,1,0,0:0:0:0:
311,174,75733,6,0,B|312:280|312:280|268:216,1,157.5,4|0,0:0|0:0,0:0:0:0:
240,108,76030,2,0,L|264:184,1,52.5
340,328,76179,2,0,B|323:275|323:275|216:232,1,157.5,4|0,0:0|0:0,0:0:0:0:
196,352,76476,2,0,L|232:332,1,26.25
168,336,76550,2,0,L|196:304,1,26.25
136,328,76624,2,0,L|148:292,1,26.25
100,328,76698,2,8,L|100:288,9,26.25
184,260,77069,6,2,B|200:204|196:184|196:184|168:176|168:176|132:152|148:144|148:144|120:100|120:100|88:116|88:116|64:104|64:104|56:80|28:68|28:68,1,315
88,192,77664,2,0,L|72:248,1,52.5
164,344,77812,1,0,0:0:0:0:
180,292,77886,1,0,0:0:0:0:
200,240,77961,2,0,L|267:227,1,52.5
440,200,78109,2,0,L|506:186,1,52.5
360,284,78258,6,0,P|364:244|352:216,1,52.5
360,100,78406,2,0,P|364:140|352:168,1,52.5
292,288,78555,2,0,P|304:332|304:356,1,52.5
292,96,78703,2,0,P|304:52|304:28,1,52.5
184,188,78852,2,0,B|244:196|300:184|340:196,2,131.25
136,208,79223,1,0,0:0:0:0:
106,249,79297,1,0,0:0:0:0:
109,301,79371,1,0,0:0:0:0:
144,338,79446,6,0,L|256:328,1,105,8|0,0:0|0:0,0:0:0:0:
224,224,79743,1,0,0:0:0:0:
440,252,79891,2,0,L|328:262,1,105,8|0,0:0|0:0,0:0:0:0:
280,160,80188,2,0,P|272:120|208:72,1,105,8|0,0:0|0:0,0:0:0:0:
152,144,80485,1,0,0:0:0:0:
304,252,80634,6,0,B|328:288|328:288|336:356,1,105,8|0,0:0|0:0,0:0:0:0:
220,304,80931,1,0,0:0:0:0:
420,236,81080,2,0,B|448:200|448:200|456:140,1,105,8|0,0:0|0:0,0:0:0:0:
472,316,81377,1,8,0:0:0:0:
404,136,81525,2,2,B|380:96|308:92|308:92|272:108|272:108|248:88|248:88|220:92|208:68,1,220.499993270874
212,75,81822,6,0,P|208:156|180:184,1,105
100,124,82119,1,0,0:0:0:0:
40,204,82268,1,0,0:0:0:0:
62,236,82342,1,0,0:0:0:0:
85,268,82416,1,0,0:0:0:0:
108,300,82490,1,0,0:0:0:0:
130,332,82565,1,0,0:0:0:0:
304,224,82713,1,0,0:0:0:0:
180,140,82862,6,0,P|176:208|204:268,2,105
256,104,83307,1,0,0:0:0:0:
384,116,83456,1,0,0:0:0:0:
370,152,83530,1,0,0:0:0:0:
366,192,83604,1,0,0:0:0:0:
372,230,83678,1,0,0:0:0:0:
387,267,83753,1,0,0:0:0:0:
296,332,83901,1,0,0:0:0:0:
484,224,84050,6,0,L|444:168,2,52.5
348,344,84347,1,0,0:0:0:0:
272,176,84495,1,0,0:0:0:0:
424,120,84644,1,0,0:0:0:0:
387,106,84718,1,0,0:0:0:0:
348,96,84792,1,0,0:0:0:0:
309,92,84866,1,0,0:0:0:0:
270,92,84941,1,0,0:0:0:0:
180,172,85089,1,0,0:0:0:0:
112,72,85238,5,0,0:0:0:0:
73,106,85312,1,0,0:0:0:0:
55,155,85386,1,0,0:0:0:0:
100,308,85535,2,0,P|104:244|124:196,1,105
224,320,85832,1,0,0:0:0:0:
237,270,85906,1,0,0:0:0:0:
280,242,85980,1,0,0:0:0:0:
330,251,86054,1,0,0:0:0:0:
361,292,86129,1,0,0:0:0:0:
472,224,86278,2,0,P|404:224|336:176,1,105
312,156,86500,1,0,0:0:0:0:
368,96,86575,6,0,P|436:96|504:144,1,105
376,180,86872,1,2,0:0:0:0:
248,88,87020,1,2,0:0:0:0:
372,221,87169,1,2,0:0:0:0:
284,91,87317,1,2,0:0:0:0:
355,259,87466,1,2,0:0:0:0:
316,107,87614,1,2,0:0:0:0:
326,289,87763,5,2,0:0:0:0:
342,133,87911,1,2,0:0:0:0:
236,311,88060,1,2,0:0:0:0:
358,211,88208,1,2,0:0:0:0:
158,262,88357,1,2,0:0:0:0:
314,278,88505,1,2,0:0:0:0:
136,172,88654,1,2,0:0:0:0:
236,294,88802,1,2,0:0:0:0:
236,204,88951,5,10,0:0:0:0:
230,239,89025,1,0,0:0:0:0:
213,271,89099,1,10,0:0:0:0:
186,294,89174,1,0,0:0:0:0:
152,306,89248,1,10,0:0:0:0:
116,306,89322,1,2,0:0:0:0:
83,294,89396,1,2,0:0:0:0:
56,270,89471,1,0,0:0:0:0:
39,238,89545,5,10,0:0:0:0:
34,203,89619,1,0,0:0:0:0:
42,168,89693,1,2,0:0:0:0:
62,138,89768,1,10,0:0:0:0:
91,117,89842,1,2,0:0:0:0:
126,107,89916,1,0,0:0:0:0:
162,110,89990,1,8,0:0:0:0:
194,126,90064,1,0,0:0:0:0:
219,152,90139,5,10,0:0:0:0:
256,192,90213,12,0,91030,0:0:0:0:
328,220,91327,6,0,B|332:172|332:172|304:120,1,105
200,52,91624,1,0,0:0:0:0:
264,308,91773,1,0,0:0:0:0:
380,308,91921,2,0,L|356:260,1,52.5
400,108,92070,1,0,0:0:0:0:
400,108,92144,1,0,0:0:0:0:
400,108,92218,2,0,B|424:148|424:148|416:216,1,105
464,52,92515,1,0,0:0:0:0:
312,340,92664,1,0,0:0:0:0:
312,340,92738,1,0,0:0:0:0:
312,340,92812,2,0,B|288:300|288:300|296:232,1,105
368,212,93109,6,0,L|368:268,1,52.5
484,176,93258,1,0,0:0:0:0:
368,68,93406,2,0,L|368:12,1,52.5
252,104,93555,1,0,0:0:0:0:
248,264,93703,2,0,B|240:236|240:236|220:212,1,52.5
100,120,93852,2,0,B|108:148|108:148|128:172,1,52.5
176,328,94000,6,0,B|212:352|260:348|280:360|280:360|308:316|304:304,1,152.250004646301
360,64,94297,1,0,0:0:0:0:
476,212,94446,1,0,0:0:0:0:
168,140,94594,1,0,0:0:0:0:
336,128,94743,2,0,L|360:296,1,157.5
96,224,95040,1,0,0:0:0:0:
264,212,95188,2,0,L|252:104,1,105
268,48,95386,2,0,B|324:64|324:64|352:56|396:12,2,140
208,40,95857,1,0,0:0:0:0:
156,46,95931,1,0,0:0:0:0:
111,72,96005,1,0,0:0:0:0:
79,114,96080,6,0,B|68:176|68:176|120:156,1,105
228,112,96377,2,2,L|392:144,1,157.5,6|2,0:0|0:0,0:0:0:0:
444,232,96674,1,0,0:0:0:0:
455,194,96748,1,0,0:0:0:0:
456,155,96822,1,0,0:0:0:0:
445,117,96896,1,0,0:0:0:0:
432,88,96971,2,0,B|376:72|376:72|452:28,1,105
372,152,97268,1,0,0:0:0:0:
347,197,97342,1,0,0:0:0:0:
305,228,97416,1,0,0:0:0:0:
254,237,97490,1,0,0:0:0:0:
204,222,97565,2,0,P|240:172|316:156,1,105
348,60,97862,6,0,L|352:8,1,52.5
168,132,98010,2,0,L|164:184,1,52.5
84,52,98159,1,0,0:0:0:0:
173,56,98233,1,0,0:0:0:0:
252,103,98307,1,0,0:0:0:0:
335,142,98381,1,0,0:0:0:0:
424,136,98456,6,0,B|440:148|456:164|456:164|448:192|448:192|460:212|460:212|464:232|464:232|457:260|464:268|464:276|464:276|437:293|427:312|448:364,1,251.999992309571,4|0,0:0|0:0,0:0:0:0:
316,256,98901,1,0,0:0:0:0:
424,136,99050,2,0,B|444:184|464:180|464:180|484:180|496:204|496:204|492:232|492:232|496:240|492:260|492:260|497:279|528:296,1,210,4|0,0:0|0:0,0:0:0:0:
436,260,99495,2,4,B|376:232|296:244|296:244|256:228|236:160,1,210
340,132,99941,2,0,P|272:120|208:96,1,105,4|0,0:0|0:0,0:0:0:0:
192,64,100163,2,0,B|260:56|280:64|280:64|312:48|312:48|344:40|357:41,2,157.5
152,80,100609,1,0,0:0:0:0:
200,129,100683,1,0,0:0:0:0:
266,147,100757,1,0,0:0:0:0:
333,129,100832,6,2,P|384:144|352:232,1,157.5
333,129,101129,6,0,P|384:144|296:192,1,236.250009012223,4|0,0:0|0:0,0:0:0:0:
240,64,101426,2,0,L|292:52,1,52.5
464,92,101575,2,0,L|412:104,1,52.5
168,160,101723,2,0,L|272:136,1,105,4|0,0:0|0:0,0:0:0:0:
420,168,102020,2,0,L|356:188,1,52.5
248,288,102169,2,0,L|312:268,1,52.5
460,304,102317,2,0,B|424:328|424:328|396:336|352:328,1,105,4|0,0:0|0:0,0:0:0:0:
312,208,102614,5,4,0:0:0:0:
312,208,102688,1,0,0:0:0:0:
312,208,102763,1,0,0:0:0:0:
212,64,102911,1,4,0:0:0:0:
212,64,102985,1,0,0:0:0:0:
212,64,103060,1,0,0:0:0:0:
392,40,103208,6,0,B|320:32|296:12|296:12|252:8|216:16,1,157.5
239,12,103505,1,0,0:0:0:0:
336,144,103654,1,0,0:0:0:0:
436,60,103802,1,0,0:0:0:0:
236,236,103951,1,0,0:0:0:0:
440,288,104099,1,0,0:0:0:0:
336,136,104248,2,0,B|304:104|304:104|256:96|204:124|204:124|204:172,1,157.5
196,240,104545,1,0,0:0:0:0:
72,96,104693,2,0,B|104:128|104:128|152:136|204:108|204:108|204:60,1,157.5
252,56,104990,5,0,0:0:0:0:
464,168,105188,1,0,0:0:0:0:
396,300,105287,2,2,B|296:312|296:312|376:228,1,210
396,300,106179,2,0,L|384:228,1,52.5
320,44,106327,1,0,0:0:0:0:
294,48,106401,1,0,0:0:0:0:
272,52,106476,2,0,L|284:108,1,52.5
264,192,106624,2,0,L|276:248,1,52.5
176,352,106773,6,0,L|160:288,1,52.5
40,232,106921,1,0,0:0:0:0:
66,228,106995,1,0,0:0:0:0:
88,224,107070,2,0,L|76:168,1,52.5
140,28,107218,2,0,L|152:80,1,52.5
248,148,107367,2,0,B|320:160|316:168|316:168|352:168|364:160,2,105
200,168,107738,1,0,0:0:0:0:
204,202,107812,1,0,0:0:0:0:
208,237,107886,1,0,0:0:0:0:
212,272,107961,5,2,0:0:0:0:
420,328,108109,1,2,0:0:0:0:
310,96,108258,1,2,0:0:0:0:
92,56,108407,1,2,0:0:0:0:
44,160,108555,5,2,0:0:0:0:
94,147,108629,1,0,0:0:0:0:
145,134,108703,1,0,0:0:0:0:
196,121,108777,1,2,0:0:0:0:
247,108,108852,1,0,0:0:0:0:
289,139,108926,1,0,0:0:0:0:
330,171,109000,1,2,0:0:0:0:
372,203,109074,1,0,0:0:0:0:
413,236,109149,5,2,0:0:0:0:
256,192,109223,12,0,110040,0:0:0:0:
196,121,110336,5,0,0:0:0:0:
300,60,110485,1,0,0:0:0:0:
352,224,110633,2,0,P|384:176|392:100,1,105
160,160,110930,2,0,P|128:208|120:284,1,105
216,280,111228,2,0,P|208:320|208:344,1,52.5
288,312,111376,2,0,P|280:352|280:376,1,52.5
360,368,111525,6,0,P|360:296|336:248,1,105
204,200,111822,1,0,0:0:0:0:
328,180,111970,1,0,0:0:0:0:
372,152,112044,1,0,0:0:0:0:
399,108,112118,1,0,0:0:0:0:
403,56,112192,1,0,0:0:0:0:
384,8,112267,1,0,0:0:0:0:
244,96,112416,1,0,0:0:0:0:
230,128,112490,1,0,0:0:0:0:
226,162,112564,1,0,0:0:0:0:
336,268,112713,6,0,P|276:300|188:280,1,157.5
264,216,113010,2,0,B|288:160|288:160|300:144|340:132,1,105
436,192,113307,2,0,B|432:248|432:248|432:260|452:292,2,105
356,76,113752,2,0,B|292:40|240:128|128:96,1,210
168,184,114198,1,0,0:0:0:0:
28,112,114346,2,0,B|36:172|36:172|32:196|32:196|44:240,2,105
92,56,114792,1,0,0:0:0:0:
134,105,114866,1,0,0:0:0:0:
158,166,114940,1,0,0:0:0:0:
162,231,115014,1,0,0:0:0:0:
145,294,115089,6,0,B|136:312|104:316|88:296|96:276|104:264|116:260|136:264|136:264|208:276|232:328|232:328|268:344|288:328,1,262.5
296,156,115534,1,0,0:0:0:0:
292,188,115608,1,0,0:0:0:0:
288,221,115682,1,0,0:0:0:0:
284,253,115756,1,0,0:0:0:0:
280,286,115831,1,0,0:0:0:0:
432,120,115980,1,0,0:0:0:0:
438,172,116054,1,0,0:0:0:0:
444,224,116128,1,0,0:0:0:0:
336,44,116277,6,0,B|336:104|336:104|280:60,1,105
380,216,116574,1,0,0:0:0:0:
88,156,116723,1,0,0:0:0:0:
127,124,116797,1,0,0:0:0:0:
175,139,116871,1,0,0:0:0:0:
189,187,116945,1,0,0:0:0:0:
156,226,117020,1,0,0:0:0:0:
60,332,117168,1,0,0:0:0:0:
110,319,117242,1,0,0:0:0:0:
158,338,117316,1,0,0:0:0:0:
372,336,117465,6,0,B|300:296|244:308|244:308|248:364|284:368|324:348,1,210
448,344,117911,1,0,0:0:0:0:
360,244,118059,1,0,0:0:0:0:
444,212,118208,1,0,0:0:0:0:
416,56,118356,1,0,0:0:0:0:
272,124,118505,2,0,P|340:144|476:88,1,210
340,76,118950,5,0,0:0:0:0:
288,264,119099,1,0,0:0:0:0:
160,168,119247,1,0,0:0:0:0:
288,80,119396,1,0,0:0:0:0:
416,176,119544,1,0,0:0:0:0:
192,52,119693,1,0,0:0:0:0:
120,240,119841,2,0,P|140:236|112:248,1,157.5
200,216,120138,6,2,B|216:152|216:152|208:96,1,105
108,144,120435,1,0,0:0:0:0:
272,48,120584,1,0,0:0:0:0:
292,156,120732,2,0,B|286:194|286:194|302:258,1,105
392,348,121030,2,0,B|424:292|424:292|424:208,1,105
356,168,121327,1,0,0:0:0:0:
460,88,121475,5,0,0:0:0:0:
408,79,121549,1,0,0:0:0:0:
356,71,121623,1,0,0:0:0:0:
304,63,121697,1,0,0:0:0:0:
252,55,121772,1,0,0:0:0:0:
128,324,121921,1,0,0:0:0:0:
154,280,121995,1,0,0:0:0:0:
146,229,122069,1,0,0:0:0:0:
72,76,122218,6,0,B|136:128|168:112|168:112|200:80|264:132,1,210
368,144,122663,1,0,0:0:0:0:
180,32,122812,1,0,0:0:0:0:
248,240,122960,1,0,0:0:0:0:
344,36,123109,1,0,0:0:0:0:
392,268,123257,2,0,B|368:328|368:328|340:312|328:296|328:296|296:292|296:292|272:304|252:340,1,210
136,240,123703,5,0,0:0:0:0:
348,168,123851,1,0,0:0:0:0:
132,72,124000,1,0,0:0:0:0:
328,328,124148,1,0,0:0:0:0:
344,224,124297,1,0,0:0:0:0:
360,120,124445,1,0,0:0:0:0:
376,16,124594,6,0,B|280:24|280:24|340:48,1,157.5
448,112,124891,1,0,0:0:0:0:
412,260,125039,1,0,0:0:0:0:
260,104,125188,6,0,B|164:112|164:112|224:136,1,157.5
332,200,125485,1,0,0:0:0:0:
296,348,125633,1,0,0:0:0:0:
192,296,125782,2,0,B|212:232|212:232|112:248,1,157.5
292,232,126079,1,0,0:0:0:0:
176,116,126228,5,0,0:0:0:0:
161,94,126302,1,0,0:0:0:0:
144,72,126376,2,0,P|80:72|36:96,1,105
80,240,126673,1,0,0:0:0:0:
216,176,126822,1,0,0:0:0:0:
348,244,126970,5,0,0:0:0:0:
348,244,127119,1,0,0:0:0:0:
440,164,127267,1,0,0:0:0:0:
440,164,127416,1,0,0:0:0:0:
360,88,127564,5,0,0:0:0:0:
436,304,127713,1,0,0:0:0:0:
244,116,127861,1,0,0:0:0:0:
216,312,128010,1,0,0:0:0:0:
112,180,128158,5,0,0:0:0:0:
177,204,128232,1,0,0:0:0:0:
246,203,128307,1,0,0:0:0:0:
311,177,128381,1,0,0:0:0:0:
307,133,128455,5,0,0:0:0:0:
242,109,128529,1,0,0:0:0:0:
173,110,128604,1,0,0:0:0:0:
108,136,128678,1,0,0:0:0:0:
112,180,128752,5,0,0:0:0:0:
177,204,128826,1,0,0:0:0:0:
246,203,128901,1,0,0:0:0:0:
311,177,128975,1,0,0:0:0:0:
307,133,129049,5,0,0:0:0:0:
242,109,129123,1,0,0:0:0:0:
173,110,129198,1,0,0:0:0:0:
108,136,129272,1,0,0:0:0:0:
112,180,129346,6,0,B|142:74|328:147|328:147|331:200|274:226|274:226|295:266|295:266|282:280|282:280|295:324|255:356|255:356|183:304|103:336,1,630.000024032594,4|0,0:0|0:0,0:0:0:0:
160,352,131723,2,0,P|176:300|8:136,1,315.000012016297
104,36,132911,2,0,B|136:64|136:64|156:88|208:48|312:96|312:96|316:148|372:168,1,315
404,104,134099,6,2,B|424:144|424:144|448:80|444:56|416:40|416:40|384:28|364:48|364:48|368:100|336:112|336:112|304:148|328:224,1,393.75
384,204,135287,2,0,P|416:236|288:240,1,315
200,304,136475,2,2,P|144:324|192:280,1,157.5
232,160,137366,1,0,0:0:0:0:
100,212,137663,2,2,P|72:252|128:224,1,157.5
152,120,138554,1,0,0:0:0:0:
40,172,138851,6,0,L|32:284,1,105
144,336,139445,1,0,0:0:0:0:
248,264,139742,1,0,0:0:0:0:
152,212,140039,2,2,L|168:56,1,157.5
48,72,140930,1,0,0:0:0:0:
72,176,141228,2,2,B|216:120|280:116|280:116|244:144|252:184|180:160,1,315
152,240,142416,2,2,B|280:236|348:216|348:216|352:172|404:112,1,315
408,204,143604,6,8,B|424:152|436:136|436:136|440:104|456:88,1,105
448,276,144198,2,10,P|432:320|360:340,1,105
280,308,144792,2,10,B|204:320|204:320|176:304|176:304|108:304,2,157.5
252,344,145980,2,10,B|176:356|176:356|148:340|148:340|80:340,2,157.5
256,192,147020,12,0,148357,0:0:0:0:
204,160,148505,5,0,0:0:0:0:
184,192,148653,1,0,0:0:0:0:
220,204,148802,1,0,0:0:0:0:
240,172,148950,5,2,0:0:0:0:
220,204,149099,1,0,0:0:0:0:
200,236,149247,1,0,0:0:0:0:
236,248,149396,1,0,0:0:0:0:
256,216,149544,5,2,0:0:0:0:
236,248,149693,5,0,0:0:0:0:
216,280,149841,1,0,0:0:0:0:
252,292,149990,1,0,0:0:0:0:
272,260,150138,5,2,0:0:0:0:
252,292,150287,1,0,0:0:0:0:
232,324,150435,1,0,0:0:0:0:
268,336,150584,1,0,0:0:0:0:
288,304,150732,2,2,B|344:264|344:264|356:240|356:240|408:200,2,157.5
288,304,151921,2,2,B|299:236|299:236|290:210|290:210|299:145,2,157.5
264,256,153109,5,2,0:0:0:0:
308,224,153258,5,0,0:0:0:0:
328,192,153406,1,0,0:0:0:0:
292,180,153555,1,0,0:0:0:0:
272,212,153703,1,2,0:0:0:0:
292,180,153852,5,0,0:0:0:0:
312,148,154000,1,0,0:0:0:0:
276,136,154149,1,0,0:0:0:0:
256,168,154297,1,2,0:0:0:0:
276,136,154446,5,0,0:0:0:0:
296,104,154594,1,0,0:0:0:0:
260,92,154743,1,0,0:0:0:0:
240,124,154891,1,2,0:0:0:0:
260,92,155040,5,0,0:0:0:0:
280,60,155188,1,0,0:0:0:0:
244,48,155337,1,0,0:0:0:0:
224,80,155485,2,2,B|168:120|168:120|156:144|156:144|104:184,2,157.5
224,80,156673,2,2,B|212:147|212:147|221:173|221:173|212:238,2,157.5
60,60,157861,5,8,0:0:0:0:
179,104,158455,5,8,0:0:0:0:
226,223,159049,5,8,0:0:0:0:
170,337,159643,5,8,0:0:0:0:
320,316,160237,6,8,B|300:240|300:240|312:216|308:204|308:204|276:176|288:116,1,210
408,32,161426,2,8,B|428:108|428:108|416:132|420:144|420:144|452:172|440:232,1,210
412,276,162317,1,0,0:0:0:0:
340,308,162614,5,8,0:0:0:0:
448,348,162911,1,8,0:0:0:0:
227,221,163208,5,8,0:0:0:0:
269,328,163505,1,8,0:0:0:0:
160,128,163802,5,8,0:0:0:0:
148,208,163950,1,8,0:0:0:0:
256,120,164099,5,8,0:0:0:0:
68,264,164247,1,8,0:0:0:0:
24,88,164396,5,8,0:0:0:0:
72,196,164544,1,8,0:0:0:0:
184,80,164693,5,8,0:0:0:0:
120,272,164841,1,8,0:0:0:0:
208,220,164990,5,2,0:0:0:0:
236,246,165064,1,2,0:0:0:0:
274,256,165138,1,2,0:0:0:0:
312,247,165212,1,2,0:0:0:0:
341,222,165287,1,2,0:0:0:0:
354,185,165361,1,2,0:0:0:0:
349,146,165435,1,2,0:0:0:0:
326,115,165509,1,2,0:0:0:0:
296,92,165584,5,2,0:0:0:0:
343,80,165658,1,2,0:0:0:0:
391,88,165732,1,2,0:0:0:0:
432,114,165806,1,2,0:0:0:0:
460,155,165881,1,2,0:0:0:0:
470,203,165955,1,2,0:0:0:0:
460,251,166029,1,2,0:0:0:0:
432,291,166103,1,2,0:0:0:0:
391,317,166178,6,0,B|344:288|296:320|296:320|256:316|272:272|272:272|304:220|304:208|304:208|284:184|284:184|280:140|280:140|300:120|300:120|280:56|204:68|204:68|160:84|152:120,1,511.875019526482
152,128,167366,6,2,B|116:160|116:160|104:332,1,210
360,256,168257,6,2,B|396:224|396:224|408:52,1,210
240,220,169148,5,0,0:0:0:0:
372,116,169297,1,0,0:0:0:0:
232,340,169445,1,0,0:0:0:0:
48,340,169594,1,0,0:0:0:0:
56,144,170039,6,2,P|124:160|152:240,1,157.5
152,236,170336,2,2,L|348:252,1,157.5
309,248,170633,2,2,L|92:232,1,210
184,132,171079,5,2,0:0:0:0:
152,236,171228,2,2,L|260:248,1,105
384,344,171525,5,8,0:0:0:0:
373,292,171624,1,8,0:0:0:0:
363,241,171723,1,8,0:0:0:0:
352,189,171822,1,8,0:0:0:0:
342,138,171921,1,8,0:0:0:0:
331,86,172020,1,8,0:0:0:0:
321,35,172119,6,2,B|376:64|376:64|388:128|448:100|448:100|480:120|480:176|424:200|424:200|388:200|396:140,1,315
400,120,173010,2,2,B|332:168|308:164|256:136|256:136|200:116|172:120|172:120|184:164|204:172|204:172|236:192|224:220,1,336
264,212,173901,1,0,0:0:0:0:
144,248,174049,1,0,0:0:0:0:
312,148,174198,1,0,0:0:0:0:
96,312,174346,1,0,0:0:0:0:
304,104,174495,6,8,P|352:104|300:88,1,157.5
340,200,174792,6,2,L|384:368,1,157.5
172,184,175089,2,2,L|128:16,1,157.5
152,316,175386,2,2,B|252:260|264:168|276:156|276:156|340:120|388:160,1,315
376,320,175980,1,2,0:0:0:0:
72,224,176129,1,2,0:0:0:0:
296,36,176277,5,8,0:0:0:0:
264,26,176351,1,8,0:0:0:0:
231,26,176425,1,8,0:0:0:0:
200,35,176499,1,8,0:0:0:0:
172,53,176574,1,2,0:0:0:0:
150,77,176648,1,2,0:0:0:0:
136,107,176722,1,2,0:0:0:0:
131,139,176796,1,2,0:0:0:0:
134,171,176871,6,2,B|192:168|236:140|236:140|192:96|88:116|88:116|48:136|28:156|20:196|20:196|31:229|16:272,1,420
136,292,177762,2,2,B|200:288|240:304|264:308|264:308|252:268|272:248|272:248|300:252|336:288|336:288|316:352|352:368,1,315
368,336,178653,1,0,0:0:0:0:
280,68,178802,1,0,0:0:0:0:
416,152,178950,1,0,0:0:0:0:
168,128,179099,1,0,0:0:0:0:
168,128,179544,6,2,P|156:72|80:72,1,118.125004506111
272,220,179841,2,2,L|296:352,1,118.125004506111
392,104,180138,2,2,B|344:112|296:52|296:52|264:24|244:16|244:16|224:24|200:60|200:60|184:116|128:140,1,315
76,92,180732,1,2,0:0:0:0:
208,136,180881,1,2,0:0:0:0:
56,264,181030,5,8,0:0:0:0:
122,285,181129,1,8,0:0:0:0:
191,293,181228,1,8,0:0:0:0:
259,277,181327,1,8,0:0:0:0:
311,232,181426,1,8,0:0:0:0:
329,166,181525,1,8,0:0:0:0:
385,126,181624,6,2,L|392:344,1,210
120,336,182515,2,2,L|126:126,1,210
208,128,183406,2,8,L|188:40,1,78.7500030040742
44,152,183703,2,2,L|36:184,8,19.6875007510186
80,240,184148,5,8,0:0:0:0:
224,168,184297,1,2,0:0:0:0:
368,96,184445,1,2,0:0:0:0:
512,24,184594,5,2,0:0:0:0:
467,175,184742,1,2,0:0:0:0:
422,326,184891,2,2,P|348:308|308:260,1,118.125004506111
324,244,185188,6,8,L|300:320,1,78.7500030040742
224,176,185485,2,8,L|216:280,1,89.2500017023087
120,120,185782,2,8,L|120:224,1,96.5999967572022
24,64,186079,2,8,L|32:176,1,105
272,64,186376,5,6,0:0:0:0:
272,64,186822,2,0,B|440:64|440:64|352:108,1,262.5,4|0,0:0|0:0,0:0:0:0:
352,312,187267,2,0,P|396:168|496:128,1,262.5,4|0,0:0|0:0,0:0:0:0:
460,208,187713,2,0,B|416:232|280:228|280:228|344:164|356:120,1,314.999990386963,4|0,0:0|0:0,0:0:0:0:
324,76,188158,2,0,P|196:72|128:336,1,440.999986541748,4|0,0:0|0:0,0:0:0:0:
220,384,188752,5,12,0:0:0:0:
220,384,189198,2,0,B|312:276|312:276|304:348,1,210,4|0,0:0|0:0,0:0:0:0:
428,232,189643,2,0,B|412:288|412:288|392:168|344:120,1,210,4|0,0:0|0:0,0:0:0:0:
232,88,190089,2,0,B|312:72|344:60|344:60|304:40,1,157.5,4|0,0:0|0:0,0:0:0:0:
240,44,190386,2,0,L|232:112,1,52.5,4|0,0:0|0:0,0:0:0:0:
168,176,190534,6,0,L|144:56,1,105,8|0,0:0|0:0,0:0:0:0:
104,252,190732,6,0,L|111:129,1,105,8|0,0:0|0:0,0:0:0:0:
36,316,190930,6,0,L|75:200,1,105,8|0,0:0|0:0,0:0:0:0:
144,360,191129,6,0,B|204:308|204:308|216:232|216:232|272:188,1,216.562508261204,4|0,0:0|0:0,0:0:0:0:
263,194,191574,2,0,P|320:196|376:64,1,210,4|0,0:0|0:0,0:0:0:0:
304,368,192020,2,0,L|424:188,1,210,4|0,0:0|0:0,0:0:0:0:
80,164,192465,2,0,L|308:152,1,210,4|0,0:0|0:0,0:0:0:0:
292,76,192911,2,0,B|0:224|28:64|100:8|180:48|168:96|168:96|176:224|80:248,1,587.999982055665,4|8,0:0|0:0,0:0:0:0:
85,246,193950,6,0,B|164:264|164:264|-20:320,1,262.5,4|0,0:0|0:0,0:0:0:0:
427,138,194396,2,0,B|348:120|348:120|532:64,1,262.5,4|0,0:0|0:0,0:0:0:0:
420,288,194841,2,0,P|384:220|296:188,1,157.5,4|0,0:0|0:0,0:0:0:0:
264,360,195138,1,4,0:0:0:0:
128,176,195287,6,4,L|112:292,1,105
384,176,195584,6,4,L|400:292,1,105
256,8,195881,5,4,0:0:0:0:
256,192,203010,12,0,203901,0:0:0:0:
256,128,204198,6,2,L|268:100,28,26.25
308,220,205386,2,0,P|376:180|440:288,1,210,4|0,0:0|0:0,0:0:0:0:
380,348,205831,2,0,P|312:324|252:336,1,105,4|0,0:0|0:0,0:0:0:0:
196,204,206129,1,0,0:0:0:0:
360,128,206277,2,0,L|432:116,1,52.5
280,60,206426,2,0,L|352:48,1,52.5
112,44,206574,6,0,B|216:20|216:20|164:72|156:128,1,210,4|0,0:0|0:0,0:0:0:0:
72,208,207020,1,4,0:0:0:0:
40,332,207168,1,0,0:0:0:0:
196,224,207317,1,4,0:0:0:0:
225,348,207465,2,0,B|284:316|284:316|292:280|292:280|312:268|312:268|336:272|336:272|400:232,1,188.999994232178
367,252,207762,6,0,P|380:184|504:192,1,210,4|0,0:0|0:0,0:0:0:0:
304,16,208208,1,4,0:0:0:0:
212,136,208356,1,8,0:0:0:0:
235,147,208430,1,8,0:0:0:0:
260,155,208504,1,8,0:0:0:0:
286,159,208578,1,8,0:0:0:0:
312,159,208653,1,8,0:0:0:0:
338,155,208727,1,8,0:0:0:0:
363,147,208801,1,8,0:0:0:0:
386,135,208875,1,8,0:0:0:0:
408,120,208950,6,0,B|436:168|436:168|424:232|272:236|272:236|288:296|340:312|408:304,1,393.75,4|0,0:0|0:0,0:0:0:0:
432,292,210138,6,0,P|372:332|216:284,1,210,4|0,0:0|0:0,0:0:0:0:
32,352,210584,2,0,P|88:336|152:352,1,105,4|0,0:0|0:0,0:0:0:0:
80,172,210881,1,0,0:0:0:0:
300,56,211029,1,0,0:0:0:0:
64,24,211178,2,0,L|40:16,2,26.25
352,260,211327,2,0,P|264:304|180:232,1,210,4|0,0:0|0:0,0:0:0:0:
400,76,211772,2,0,L|420:200,1,105,4|0,0:0|0:0,0:0:0:0:
324,356,212069,2,0,P|308:292|248:252,1,105,4|0,0:0|0:0,0:0:0:0:
176,160,212366,2,0,L|164:188,2,26.25
280,120,212515,6,0,L|96:88,1,157.5,4|0,0:0|0:0,0:0:0:0:
72,240,212812,1,0,0:0:0:0:
232,264,212960,6,0,L|376:288,1,105,4|0,0:0|0:0,0:0:0:0:
440,144,213257,1,0,0:0:0:0:
440,144,213406,5,0,0:0:0:0:
446,221,213480,1,0,0:0:0:0:
410,290,213554,1,0,0:0:0:0:
344,331,213628,1,0,0:0:0:0:
266,330,213703,2,0,B|264:264|300:160|300:160|332:200|352:176|368:216|368:216|384:276,1,315,4|0,0:0|0:0,0:0:0:0:
188,144,214891,6,0,B|180:88|180:88|208:16,1,105,8|0,0:0|0:0,0:0:0:0:
404,244,215188,2,0,B|412:188|412:188|384:116,1,105,8|0,0:0|0:0,0:0:0:0:
108,244,215485,2,0,B|100:188|100:188|128:116,1,105,8|0,0:0|0:0,0:0:0:0:
324,144,215782,2,0,B|332:88|332:88|304:16,1,105,8|0,0:0|0:0,0:0:0:0:
332,280,216079,2,0,L|448:304,1,105,8|0,0:0|0:0,0:0:0:0:
280,352,216376,1,0,0:0:0:0:
164,240,216525,2,0,L|48:216,1,105,8|0,0:0|0:0,0:0:0:0:
92,336,216822,1,0,0:0:0:0:
332,180,216970,2,0,L|434:201,2,105,8|0|0,0:0|0:0|0:0,0:0:0:0:
248,316,217416,1,0,0:0:0:0:
412,44,217564,6,0,B|436:100|436:100|348:88,1,105,8|0,0:0|0:0,0:0:0:0:
100,44,217861,2,0,B|76:100|76:100|164:88,1,105,8|0,0:0|0:0,0:0:0:0:
120,228,218158,1,0,0:0:0:0:
208,36,218307,1,0,0:0:0:0:
256,304,218455,1,0,0:0:0:0:
256,104,218604,1,0,0:0:0:0:
392,228,218752,1,0,0:0:0:0:
304,36,218901,1,0,0:0:0:0:
472,96,219049,5,0,0:0:0:0:
352,288,219198,1,0,0:0:0:0:
352,288,219272,1,0,0:0:0:0:
352,288,219346,2,2,P|268:332|224:328,1,105
40,288,219643,5,0,0:0:0:0:
160,96,219792,1,0,0:0:0:0:
160,96,219866,1,0,0:0:0:0:
160,96,219940,2,2,P|244:52|288:56,1,105
428,124,220237,2,2,L|316:112,1,105
432,248,220534,5,0,0:0:0:0:
366,135,220683,5,0,0:0:0:0:
376,315,220831,1,0,0:0:0:0:
239,160,220980,1,0,0:0:0:0:
300,356,221129,1,0,0:0:0:0:
147,252,221277,1,0,0:0:0:0:
213,364,221426,5,0,0:0:0:0:
256,20,221574,1,0,0:0:0:0:
56,192,221723,1,0,0:0:0:0:
456,192,221871,1,0,0:0:0:0:
56,192,222020,5,2,0:0:0:0:
68,141,222094,1,2,0:0:0:0:
100,100,222168,1,2,0:0:0:0:
146,76,222242,1,2,0:0:0:0:
198,72,222317,5,2,0:0:0:0:
247,91,222391,1,2,0:0:0:0:
280,132,222465,1,2,0:0:0:0:
283,199,222539,1,2,0:0:0:0:
252,259,222613,5,2,0:0:0:0:
196,296,222688,1,2,0:0:0:0:
129,301,222762,1,2,0:0:0:0:
68,272,222836,1,2,0:0:0:0:
30,217,222911,5,2,0:0:0:0:
23,149,222985,1,2,0:0:0:0:
51,88,223059,1,2,0:0:0:0:
106,48,223133,1,2,0:0:0:0:
156,32,223208,6,2,B|216:24|216:24|240:52|240:52|276:36|276:36|368:48,1,210
396,128,223653,2,2,B|384:196|384:196|344:176,1,105
276,100,223950,2,2,L|264:176,1,52.5
244,360,224099,2,0,P|248:268|200:188,1,157.5,8|0,0:0|0:0,0:0:0:0:
184,116,224396,6,2,P|124:148|40:128,1,157.500006008148
356,40,224693,1,0,0:0:0:0:
332,216,224842,1,0,0:0:0:0:
332,216,224916,1,0,0:0:0:0:
332,216,224990,2,0,B|328:312|328:312|380:264,1,157.500006008148,8|0,0:0|0:0,0:0:0:0:
456,160,225287,5,0,0:0:0:0:
252,264,225436,1,0,0:0:0:0:
300,104,225584,1,2,0:0:0:0:
416,320,225733,2,0,P|380:268|392:172,1,157.500006008148
196,40,226030,1,0,0:0:0:0:
196,40,226104,1,0,0:0:0:0:
196,40,226179,2,0,B|128:116|128:116|224:104,1,157.500006008148,8|0,0:0|0:0,0:0:0:0:
408,64,226476,6,8,L|456:56,1,39.3750015020371
420,108,226550,2,8,L|468:100,1,39.3750015020371
440,156,226624,2,8,L|488:148,1,39.3750015020371
460,204,226698,2,8,L|508:196,1,39.3750015020371
484,256,226773,6,2,B|416:280|416:280|320:260,1,157.500006008148
28,128,227070,2,8,B|96:104|96:104|192:124,2,157.500006008148
112,280,227515,1,0,0:0:0:0:
336,328,227664,2,0,B|288:344|288:344|184:324,1,157.500006008148,8|0,0:0|0:0,0:0:0:0:
280,216,227961,2,2,B|384:236|384:236|432:220,1,157.500006008148
432,132,228258,2,0,B|336:108|336:108|304:36,1,157.500006008148,8|0,0:0|0:0,0:0:0:0:
348,212,228555,5,2,0:0:0:0:
80,200,228703,1,8,0:0:0:0:
80,200,228778,1,8,0:0:0:0:
296,312,228926,1,8,0:0:0:0:
296,312,229001,1,8,0:0:0:0:
408,252,229149,6,2,B|384:208|384:208|340:176|280:188,1,157.500006008148
316,288,229446,1,8,0:0:0:0:
380,76,229594,1,0,0:0:0:0:
380,76,229669,1,0,0:0:0:0:
380,76,229743,2,2,B|331:61|331:61|278:70|244:121,1,157.500006008148
240,232,230040,1,8,0:0:0:0:
240,232,230114,1,0,0:0:0:0:
240,232,230188,1,0,0:0:0:0:
400,164,230337,2,2,B|354:188|354:188|323:231|335:291,1,157.500006008148
404,320,230633,1,8,0:0:0:0:
404,320,230708,1,0,0:0:0:0:
404,320,230782,1,0,0:0:0:0:
164,332,230930,6,2,B|108:272|108:272|24:276,1,157.500006008148
72,88,231228,1,8,0:0:0:0:
120,121,231302,1,0,0:0:0:0:
177,135,231376,1,0,0:0:0:0:
235,129,231450,1,0,0:0:0:0:
288,104,231525,2,2,P|224:48|148:52,1,157.500006008148
264,248,231822,1,8,0:0:0:0:
318,225,231896,1,0,0:0:0:0:
376,230,231970,1,0,0:0:0:0:
426,260,232044,1,0,0:0:0:0:
457,310,232119,2,2,P|432:216|468:148,1,157.500006008148
368,32,232416,5,8,0:0:0:0:
381,88,232490,1,0,0:0:0:0:
368,145,232564,1,0,0:0:0:0:
331,191,232638,1,0,0:0:0:0:
278,215,232713,2,2,P|256:304|388:360,1,236.250009012223
392,296,233010,5,8,0:0:0:0:
391,218,233084,1,8,0:0:0:0:
341,160,233158,1,8,0:0:0:0:
264,150,233232,1,8,0:0:0:0:
200,191,233307,1,2,0:0:0:0:
172,262,233381,1,2,0:0:0:0:
99,280,233455,1,2,0:0:0:0:
42,229,233529,1,2,0:0:0:0:
52,154,233604,5,2,0:0:0:0:
124,179,233678,1,2,0:0:0:0:
187,136,233752,1,2,0:0:0:0:
190,61,233826,1,2,0:0:0:0:
131,12,233901,2,2,L|100:184,1,157.500006008148
156,352,234198,2,0,L|176:252,1,78.7500030040742,8|0,0:0|0:0,0:0:0:0:
304,240,234346,2,0,L|324:140,1,78.7500030040742
468,28,234495,2,2,L|436:199,1,157.500006008148
376,344,234792,6,0,L|248:328,1,78.7500030040742,8|0,0:0|0:0,0:0:0:0:
144,280,234940,2,0,L|16:264,1,78.7500030040742
216,136,235089,2,2,L|408:156,1,157.500006008148
448,288,235386,1,8,0:0:0:0:
369,279,235460,1,0,0:0:0:0:
291,270,235534,1,0,0:0:0:0:
213,261,235608,1,0,0:0:0:0:
134,253,235683,6,2,L|292:272,1,157.500006008148
369,279,235906,1,0,0:0:0:0:
382,218,235980,1,8,0:0:0:0:
366,157,236054,1,0,0:0:0:0:
325,110,236128,1,0,0:0:0:0:
268,86,236203,1,0,0:0:0:0:
205,91,236277,6,2,P|304:72|360:20,1,157.500006008148
356,176,236574,2,0,L|376:88,1,78.7500030040742,8|0,0:0|0:0,0:0:0:0:
440,288,236723,2,0,L|420:376,1,78.7500030040742
184,304,236871,2,2,B|220:264|288:320|364:232,1,157.500006008148
327,364,237168,1,8,0:0:0:0:
260,322,237242,1,0,0:0:0:0:
184,304,237316,1,0,0:0:0:0:
106,312,237390,1,0,0:0:0:0:
28,344,237465,6,2,B|44:264|44:264|136:336,1,157.500006008148
40,252,237762,2,0,L|56:168,1,78.7500030040742,8|0,0:0|0:0,0:0:0:0:
240,224,237911,2,0,L|256:140,1,78.7500030040742
440,188,238059,2,2,L|464:28,1,157.500006008148
463,32,238282,1,2,0:0:0:0:
463,32,238356,2,2,B|380:96|380:96|364:156,1,157.500006008148
48,64,238653,6,0,B|144:48|140:132|304:96,1,236.250009012223
332,116,238950,6,0,L|332:176,1,52.5,8|0,0:0|0:0,0:0:0:0:
224,180,239099,2,0,L|224:240,1,52.5,8|0,0:0|0:0,0:0:0:0:
392,272,239247,2,0,L|392:332,1,52.5,8|0,0:0|0:0,0:0:0:0:
196,304,239396,2,0,L|196:356,1,52.5,8|0,0:0|0:0,0:0:0:0:
72,328,239544,6,0,L|72:268,1,52.5,8|0,0:0|0:0,0:0:0:0:
180,264,239693,2,0,L|180:204,1,52.5,8|0,0:0|0:0,0:0:0:0:
12,172,239841,2,0,L|12:112,1,52.5,8|0,0:0|0:0,0:0:0:0:
208,140,239990,2,0,L|208:88,1,52.5,8|0,0:0|0:0,0:0:0:0:
36,32,240138,6,0,L|24:104,1,52.5,8|0,0:0|0:0,0:0:0:0:
144,56,240287,2,0,L|132:128,1,52.5,8|0,0:0|0:0,0:0:0:0:
264,80,240435,2,0,L|252:152,1,52.5,8|0,0:0|0:0,0:0:0:0:
372,104,240584,6,0,L|360:176,1,52.5,8|0,0:0|0:0,0:0:0:0:
288,276,240732,2,0,L|300:204,1,52.5,8|0,0:0|0:0,0:0:0:0:
456,176,240881,2,0,L|444:248,1,52.5,8|0,0:0|0:0,0:0:0:0:
388,320,241029,5,2,0:0:0:0:
360,348,241103,1,2,0:0:0:0:
326,367,241177,1,2,0:0:0:0:
288,376,241251,1,2,0:0:0:0:
249,375,241326,1,2,0:0:0:0:
212,362,241400,1,2,0:0:0:0:
180,339,241474,1,2,0:0:0:0:
156,308,241548,1,2,0:0:0:0:
141,272,241624,5,2,0:0:0:0:
137,233,241697,1,2,0:0:0:0:
144,194,241771,1,2,0:0:0:0:
162,159,241845,1,2,0:0:0:0:
189,131,241920,1,2,0:0:0:0:
223,111,241994,1,2,0:0:0:0:
261,101,242068,1,2,0:0:0:0:
300,103,242142,1,2,0:0:0:0:
337,115,242218,5,2,0:0:0:0:
256,192,242292,12,0,243406,0:0:0:0:
168,72,244000,6,0,B|96:140|96:140|44:88,1,168,8|0,0:0|0:0,0:0:0:0:
64,220,244297,2,0,B|96:308|96:308|72:384,1,168,4|0,0:0|0:0,0:0:0:0:
216,192,244594,5,8,0:0:0:0:
256,356,244742,1,0,0:0:0:0:
332,104,244891,1,4,0:0:0:0:
332,167,244965,1,0,0:0:0:0:
332,230,245039,1,0,0:0:0:0:
332,293,245113,1,0,0:0:0:0:
332,356,245188,2,8,P|416:316|444:224,1,168
244,92,245485,1,4,0:0:0:0:
48,164,245633,2,0,P|80:160|128:128,1,84
152,52,245782,6,0,L|192:232,1,168,8|0,0:0|0:0,0:0:0:0:
88,352,246079,1,4,0:0:0:0:
368,116,246228,1,0,0:0:0:0:
384,328,246376,1,8,0:0:0:0:
196,236,246525,1,0,0:0:0:0:
368,116,246673,1,8,0:0:0:0:
384,328,246822,6,0,B|416:260|424:224|424:224|484:216,1,168,0|8,0:0|0:0,0:0:0:0:
336,272,247119,2,0,B|304:340|296:376|296:376|236:384,1,168,0|8,0:0|0:0,0:0:0:0:
140,320,247416,1,0,0:0:0:0:
360,212,247564,1,8,0:0:0:0:
72,228,247713,1,0,0:0:0:0:
380,120,247861,1,8,0:0:0:0:
324,148,247935,1,0,0:0:0:0:
261,153,248009,1,0,0:0:0:0:
201,136,248083,1,0,0:0:0:0:
152,100,248158,6,0,B|148:92|148:92|156:92|156:92|156:100|156:100|148:104|148:104|144:96|144:96|152:88|152:88|160:96|160:96|152:108|152:108|152:208,1,168,8|0,0:0|0:0,0:0:0:0:
280,28,248455,2,0,L|280:216,1,168,4|0,0:0|0:0,0:0:0:0:
376,296,248752,1,8,0:0:0:0:
376,296,248827,1,0,0:0:0:0:
376,296,248901,2,0,P|428:304|480:288,1,84
136,296,249049,1,4,0:0:0:0:
136,296,249123,2,0,P|84:304|32:288,1,84
320,360,249346,2,0,P|424:360|496:384,1,168,8|0,0:0|0:0,0:0:0:0:
184,384,249643,5,4,0:0:0:0:
203,324,249717,1,0,0:0:0:0:
201,261,249791,1,0,0:0:0:0:
178,203,249865,1,0,0:0:0:0:
135,157,249940,5,8,0:0:0:0:
210,120,250014,1,0,0:0:0:0:
293,121,250088,1,0,0:0:0:0:
366,161,250162,1,0,0:0:0:0:
413,229,250237,2,2,B|392:352|392:352|344:372,1,168
28,220,250534,6,0,B|49:342|49:342|97:362,1,168,8|0,0:0|0:0,0:0:0:0:
108,104,250831,1,2,0:0:0:0:
224,184,250980,1,0,0:0:0:0:
188,80,251129,1,8,0:0:0:0:
120,276,251277,1,0,0:0:0:0:
332,252,251426,2,0,B|368:236|396:228|396:228|416:208|496:192,2,168,4|0|0,0:0|0:0|0:0,0:0:0:0:
376,368,251871,1,0,0:0:0:0:
484,136,252020,2,0,B|464:100|424:88|396:72|396:72|368:72|368:72|296:44,1,168,6|0,0:0|0:0,0:0:0:0:
472,36,252317,6,2,L|504:8,1,42
276,76,252465,2,2,L|240:104,1,42
412,108,252614,2,2,L|456:112,1,42
196,12,252762,2,2,L|152:8,1,42
244,180,252911,6,0,B|264:296|264:296|296:284|340:292,1,168,8|0,0:0|0:0,0:0:0:0:
112,360,253208,2,0,B|128:264|128:264|176:320,1,168,4|0,0:0|0:0,0:0:0:0:
328,336,253505,1,8,0:0:0:0:
362,261,253579,1,0,0:0:0:0:
436,224,253653,1,0,0:0:0:0:
128,240,253802,1,4,0:0:0:0:
93,165,253876,1,0,0:0:0:0:
19,128,253950,1,0,0:0:0:0:
444,64,254099,2,0,L|264:80,1,168,8|0,0:0|0:0,0:0:0:0:
0,200,254396,5,4,0:0:0:0:
83,192,254470,1,0,0:0:0:0:
167,185,254544,1,0,0:0:0:0:
508,280,254693,2,0,L|328:296,1,168,8|0,0:0|0:0,0:0:0:0:
0,332,254990,5,4,0:0:0:0:
83,324,255064,1,0,0:0:0:0:
167,317,255138,1,0,0:0:0:0:
272,232,255287,1,8,0:0:0:0:
368,152,255435,2,2,P|336:116|188:96,1,168
308,284,255732,2,2,P|340:320|488:340,1,168
216,324,256029,1,0,0:0:0:0:
432,168,256178,6,10,B|436:104|436:104|496:16,1,168
80,168,256475,2,6,B|76:104|76:104|16:16,1,168
152,40,256772,1,8,0:0:0:0:
344,212,256921,1,6,0:0:0:0:
360,40,257069,1,8,0:0:0:0:
168,212,257218,1,6,0:0:0:0:
360,40,257366,2,0,B|404:100|404:100|420:304,1,252,8|0,0:0|0:0,0:0:0:0:
417,277,257663,6,0,P|304:328|236:296,1,168,4|0,0:0|0:0,0:0:0:0:
35,337,257960,1,8,0:0:0:0:
92,362,258034,1,0,0:0:0:0:
154,367,258108,1,0,0:0:0:0:
215,352,258182,1,0,0:0:0:0:
268,317,258257,2,0,B|268:280|268:280|260:272|288:240|288:240|272:216|272:216|284:172|292:108,1,168,4|0,0:0|0:0,0:0:0:0:
424,88,258554,5,8,0:0:0:0:
422,129,258628,1,0,0:0:0:0:
421,171,258702,1,0,0:0:0:0:
336,260,258851,1,4,0:0:0:0:
334,301,258925,1,0,0:0:0:0:
333,343,258999,1,0,0:0:0:0:
232,156,259148,2,0,P|332:176|384:248,1,168,8|0,0:0|0:0,0:0:0:0:
160,372,259445,2,0,P|60:352|8:280,1,168,4|0,0:0|0:0,0:0:0:0:
80,256,259742,5,8,0:0:0:0:
63,195,259816,1,0,0:0:0:0:
78,135,259890,1,0,0:0:0:0:
120,90,259964,1,0,0:0:0:0:
180,71,260039,2,8,L|364:60,1,168,12|8,0:0|0:0,0:0:0:0:
232,136,260336,5,8,0:0:0:0:
432,192,260485,1,8,0:0:0:0:
124,36,260633,5,8,0:0:0:0:
360,276,260782,1,8,0:0:0:0:
352,32,260930,5,8,0:0:0:0:
96,348,261079,1,8,0:0:0:0:
448,176,261228,5,12,0:0:0:0:
401,151,261302,1,8,0:0:0:0:
350,147,261376,1,8,0:0:0:0:
302,167,261450,1,12,0:0:0:0:
259,198,261525,5,8,0:0:0:0:
216,228,261599,1,0,0:0:0:0:
167,247,261673,1,12,0:0:0:0:
116,242,261747,1,0,0:0:0:0:
70,217,261822,5,6,0:0:0:0:
256,192,261896,12,0,262416,0:0:0:0:
