osu file format v14

[General]
AudioFilename: audio.mp3
AudioLeadIn: 0
PreviewTime: 90086
Countdown: 0
SampleSet: Normal
StackLeniency: 0.7
Mode: 1
LetterboxInBreaks: 0
WidescreenStoryboard: 0

[Editor]
Bookmarks: 3350,24736,43746,53250,62755,81765,91270,110280,129290,148300,167310,186320,195825,205330,214835,224340,243350,262359,290874,300379
DistanceSpacing: 1
BeatDivisor: 8
GridSize: 8
TimelineZoom: 2.699999

[Metadata]
Title:Racemization
TitleUnicode:Racemization
Artist:Camellia
ArtistUnicode:Camellia
Creator:Kbludoh
Version:Inflorescence
Source:
Tags:electronic instrumental fa featured artist cametek planet shaper planet//shaper drumstep dubstep hardcore kamelcamellia c88 comiket 88 ctcd-011
BeatmapID:2242896
BeatmapSetID:1071559

[Difficulty]
HPDrainRate:5
CircleSize:5
OverallDifficulty:7
ApproachRate:5
SliderMultiplier:1.4
SliderTickRate:1

[Events]
//Background and Video events
0,0,"dA32P7FGE.jpg.png",0,0
//Break Periods
//Storyboard Layer 0 (Background)
//Storyboard Layer 1 (Fail)
//Storyboard Layer 2 (Pass)
//Storyboard Layer 3 (Foreground)
//Storyboard Layer 4 (Overlay)
//Storyboard Sound Samples

[TimingPoints]
3354,297.029702970297,4,1,0,30,1,0
3354,-200,4,1,0,30,0,0
24740,-181.818181818182,4,1,0,60,0,0
25037,-166.666666666667,4,1,0,60,0,0
25334,-148.148148148148,4,1,0,60,0,0
25779,-133.333333333333,4,1,0,60,0,0
43750,-57.1428571428571,4,1,0,90,0,0
45680,-66.6666666666667,4,1,0,90,0,0
46126,-57.1428571428571,4,1,0,90,0,0
47017,-88.8888888888889,4,1,0,90,0,0
47165,-80,4,1,0,90,0,0
47314,-50,4,1,0,60,0,0
48502,-57.1428571428571,4,1,0,90,0,0
50433,-66.6666666666667,4,1,0,90,0,0
50878,-57.1428571428571,4,1,0,90,0,0
51769,-88.8888888888889,4,1,0,90,0,0
51918,-80,4,1,0,90,0,0
52066,-50,4,1,0,60,0,0
53254,-80,4,1,0,60,0,0
53552,-82.0485218548545,4,1,0,60,0,0
53700,-83.1126691966163,4,1,0,60,0,0
53774,-83.655126720786,4,1,0,60,0,0
53848,-84.2047826632457,4,1,0,60,0,0
53997,-85.3259065664258,4,1,0,60,0,0
54071,-85.8978125263062,4,1,0,60,0,0
54145,-86.4773619561871,4,1,0,60,0,0
54294,-87.6603197673144,4,1,0,60,0,0
54368,-88.2639799111182,4,1,0,60,0,0
54442,-88.8760117422987,4,1,0,60,0,0
54740,-91.4116054346028,4,1,0,60,0,0
54888,-92.7343559459878,4,1,0,60,0,0
54962,-93.4102784934043,4,1,0,60,0,0
55037,-94.0960381804085,4,1,0,60,0,0
55185,-95.498305382571,4,1,0,60,0,0
55259,-96.2151833332211,4,1,0,60,0,0
55333,-96.9429994551803,4,1,0,60,0,0
55482,-98.4319785812015,4,1,0,60,0,0
55556,-99.1938515683044,4,1,0,60,0,0
55630,-99.9675105590683,4,1,0,60,0,0
55928,-103.186821804614,4,1,0,60,0,0
56076,-104.875559904395,4,1,0,60,0,0
56150,-105.740772267156,4,1,0,60,0,0
56224,-106.620492885215,4,1,0,60,0,0
56373,-108.424355579843,4,1,0,60,0,0
56447,-109.349490814096,4,1,0,60,0,0
56521,-110.290427783482,4,1,0,60,0,0
56670,-112.221858124638,4,1,0,60,0,0
56744,-113.21310102005,4,1,0,75,0,0
56818,-114.222011038415,4,1,0,75,0,0
56967,-116.294891281721,4,1,0,75,0,0
57042,-117.359734579224,4,1,0,75,0,0
57116,-118.444398645944,4,1,0,75,0,0
57264,-120.674716474754,4,1,0,75,0,0
57339,-121.821820968215,4,1,0,75,0,0
57413,-122.990791679427,4,1,0,75,0,0
57561,-125.397510107039,4,1,0,75,0,0
57710,-127.900135574144,4,1,0,75,0,0
58007,-133.333333333333,4,1,0,75,0,0
58155,-128,4,1,0,75,0,0
58230,-125.490196078431,4,1,0,75,0,0
58304,-123.076923076923,4,1,0,75,0,0
58453,-118.518518518519,4,1,0,75,0,0
58601,-114.285714285714,4,1,0,75,0,0
58675,-112.280701754386,4,1,0,75,0,0
58750,-110.344827586207,4,1,0,75,0,0
58824,-108.474576271186,4,1,0,75,0,0
58898,-106.666666666667,4,1,0,75,0,0
59047,-103.225806451613,4,1,0,75,0,0
59195,-100,4,1,0,75,0,0
59344,-96.969696969697,4,1,0,75,0,0
59418,-95.5223880597015,4,1,0,75,0,0
59492,-94.1176470588235,4,1,0,75,0,0
59641,-91.4285714285714,4,1,0,75,0,0
59789,-88.8888888888889,4,1,0,75,0,0
59863,-87.6712328767123,4,1,0,75,0,0
59938,-86.4864864864865,4,1,0,75,0,0
60012,-85.3333333333333,4,1,0,75,0,0
60086,-84.2105263157895,4,1,0,75,0,0
60160,-83.1168831168831,4,1,0,75,0,0
60235,-82.0512820512821,4,1,0,75,0,0
60309,-81.0126582278481,4,1,0,75,0,0
60383,-80,4,1,0,75,0,0
60532,-84.2105263157895,4,1,0,75,0,0
60680,-88.8888888888889,4,1,0,75,0,0
60829,-94.1176470588235,4,1,0,75,0,0
60903,-96.969696969697,4,1,0,75,0,0
60977,-100,4,1,0,75,0,0
61052,-103.225806451613,4,1,0,75,0,0
61126,-106.666666666667,4,1,0,75,0,0
61200,-110.344827586207,4,1,0,75,0,0
61274,-114.285714285714,4,1,0,75,0,0
61349,-118.518518518519,4,1,0,75,0,0
61423,-123.076923076923,4,1,0,75,0,0
61497,-128,4,1,0,75,0,0
61571,-133.333333333333,4,1,0,75,0,0
62017,-111.111111111111,4,1,0,60,0,0
62165,-117.647058823529,4,1,0,60,0,0
62314,-125,4,1,0,60,0,0
62462,-133.333333333333,4,1,0,60,0,0
62759,-83.3333333333333,4,1,0,90,0,1
62834,-84.2082571248606,4,1,0,90,0,1
62908,-85.1016752264768,4,1,0,90,0,1
62982,-86.0143282668027,4,1,0,90,0,1
63056,-86.9466929825324,4,1,0,90,0,1
63205,-88.873484151636,4,1,0,90,0,1
63353,-90.887608383473,4,1,0,90,0,1
63502,-92.9951410038825,4,1,0,90,0,1
63576,-94.0860341513487,4,1,0,90,0,1
63651,-95.2027342225269,4,1,0,90,0,1
63799,-97.5176872705287,4,1,0,90,0,1
63948,-99.9481269221274,4,1,0,90,0,1
64022,-101.209248096254,4,1,0,90,0,1
64096,-102.50270607144,4,1,0,90,0,1
64170,-103.82954511238,4,1,0,90,0,1
64245,-105.191295630669,4,1,0,90,0,1
64393,-108.024724698989,4,1,0,90,0,1
64467,-109.49940158577,4,1,0,90,0,1
64542,-111.015021442551,4,1,0,90,0,1
64690,-114.17558377976,4,1,0,90,0,1
64764,-115.824257537553,4,1,0,90,0,1
64839,-117.521380077071,4,1,0,90,0,1
64913,-119.268834337974,4,1,0,90,0,1
64987,-121.069186197144,4,1,0,90,0,1
65136,-125,4,1,0,90,0,1
65210,-123.076923076923,4,1,0,90,0,1
65284,-121.212121212121,4,1,0,90,0,1
65358,-119.402985074627,4,1,0,90,0,1
65433,-117.647058823529,4,1,0,90,0,1
65581,-114.285714285714,4,1,0,90,0,1
65730,-111.111111111111,4,1,0,90,0,1
65878,-108.108108108108,4,1,0,90,0,1
65953,-106.666666666667,4,1,0,90,0,1
66027,-105.263157894737,4,1,0,90,0,1
66175,-102.564102564103,4,1,0,90,0,1
66250,-101.26582278481,4,1,0,90,0,1
66324,-100,4,1,0,90,0,1
66472,-97.5609756097561,4,1,0,90,0,1
66621,-95.2380952380952,4,1,0,90,0,1
66695,-94.1176470588235,4,1,0,90,0,1
66769,-93.0232558139535,4,1,0,90,0,1
66918,-90.9090909090909,4,1,0,90,0,1
66992,-89.8876404494382,4,1,0,90,0,1
67066,-88.8888888888889,4,1,0,90,0,1
67141,-87.9120879120879,4,1,0,90,0,1
67215,-86.9565217391304,4,1,0,90,0,1
67289,-86.0215053763441,4,1,0,90,0,1
67363,-85.1063829787234,4,1,0,90,0,1
67438,-84.2105263157895,4,1,0,90,0,1
67512,-83.3333333333333,4,1,0,90,0,1
67660,-85.1063829787234,4,1,0,90,0,1
67735,-86.0215053763441,4,1,0,90,0,1
67809,-86.9565217391304,4,1,0,90,0,1
67957,-88.8888888888889,4,1,0,90,0,1
68106,-90.9090909090909,4,1,0,90,0,1
68254,-93.0232558139535,4,1,0,90,0,1
68329,-94.1176470588235,4,1,0,90,0,1
68403,-95.2380952380952,4,1,0,90,0,1
68552,-97.5609756097561,4,1,0,90,0,1
68700,-100,4,1,0,90,0,1
68774,-101.26582278481,4,1,0,90,0,1
68849,-102.564102564103,4,1,0,90,0,1
68923,-103.896103896104,4,1,0,90,0,1
68997,-105.263157894737,4,1,0,90,0,1
69146,-108.108108108108,4,1,0,90,0,1
69220,-109.58904109589,4,1,0,90,0,1
69294,-111.111111111111,4,1,0,90,0,1
69443,-114.285714285714,4,1,0,90,0,1
69591,-117.647058823529,4,1,0,90,0,1
69888,-71.4285714285714,4,1,0,90,0,1
70037,-73.394495412844,4,1,0,90,0,1
70111,-74.4186046511628,4,1,0,90,0,1
70185,-75.4716981132076,4,1,0,90,0,1
70334,-77.6699029126214,4,1,0,90,0,1
70482,-80,4,1,0,90,0,1
70631,-82.4742268041237,4,1,0,90,0,1
70705,-83.7696335078534,4,1,0,90,0,1
70779,-85.1063829787234,4,1,0,90,0,1
70928,-87.9120879120879,4,1,0,90,0,1
71225,-94.1176470588235,4,1,0,90,0,1
71373,-97.5609756097561,4,1,0,90,0,1
71522,-101.26582278481,4,1,0,90,0,1
71596,-103.225806451613,4,1,0,90,0,1
71670,-105.263157894737,4,1,0,90,0,1
71819,-109.58904109589,4,1,0,90,0,1
71967,-114.285714285714,4,1,0,90,0,1
72116,-119.402985074627,4,1,0,90,0,1
72264,-125,4,1,0,90,0,0
72710,-83.3333333333333,4,1,0,90,0,0
72784,-84.4120489758708,4,1,0,90,0,0
72858,-85.5191310572131,4,1,0,90,0,1
73007,-87.8226824911431,4,1,0,90,0,1
73081,-89.0215904063212,4,1,0,90,0,1
73155,-90.2537665153111,4,1,0,90,0,1
73304,-92.8232756220088,4,1,0,90,0,1
73453,-95.543379082688,4,1,0,90,0,1
73527,-96.9640554246541,4,1,0,90,0,1
73601,-98.4277156698892,4,1,0,90,0,1
73675,-99.9361408060249,4,1,0,90,0,1
73750,-101.491519368642,4,1,0,90,0,1
73898,-104.752297479764,4,1,0,90,0,1
73972,-106.462599156603,4,1,0,90,0,1
74047,-108.229559224297,4,1,0,90,0,1
74195,-111.9456033924,4,1,0,90,0,1
74344,-115.925900164615,4,1,0,90,0,1
74418,-118.024180794161,4,1,0,90,0,1
74492,-120.199675701275,4,1,0,90,0,1
74641,-124.80063099199,4,1,0,90,0,1
74715,-123.076923076923,4,1,0,90,0,1
74789,-121.212121212121,4,1,0,90,0,1
74863,-119.402985074627,4,1,0,90,0,1
74938,-117.647058823529,4,1,0,90,0,1
75086,-114.285714285714,4,1,0,90,0,1
75235,-111.111111111111,4,1,0,90,0,1
75383,-108.108108108108,4,1,0,90,0,1
75457,-106.666666666667,4,1,0,90,0,1
75532,-105.263157894737,4,1,0,90,0,1
75680,-102.564102564103,4,1,0,90,0,1
75754,-101.26582278481,4,1,0,90,0,1
75829,-100,4,1,0,90,0,1
75977,-97.5609756097561,4,1,0,90,0,1
76126,-95.2380952380952,4,1,0,90,0,1
76200,-94.1176470588235,4,1,0,90,0,1
76274,-93.0232558139535,4,1,0,90,0,1
76423,-90.9090909090909,4,1,0,90,0,1
76497,-89.8876404494382,4,1,0,90,0,1
76571,-88.8888888888889,4,1,0,90,0,1
76646,-87.9120879120879,4,1,0,90,0,1
76720,-86.9565217391304,4,1,0,90,0,1
76794,-86.0215053763441,4,1,0,90,0,1
76868,-85.1063829787234,4,1,0,90,0,1
76943,-84.2105263157895,4,1,0,90,0,1
77165,-85.1063829787234,4,1,0,90,0,1
77240,-86.0215053763441,4,1,0,90,0,1
77314,-86.9565217391304,4,1,0,90,0,1
77462,-88.8888888888889,4,1,0,90,0,1
77611,-90.9090909090909,4,1,0,90,0,1
77759,-93.0232558139535,4,1,0,90,0,1
77834,-94.1176470588235,4,1,0,90,0,1
77908,-95.2380952380952,4,1,0,90,0,1
78056,-97.5609756097561,4,1,0,90,0,1
78205,-100,4,1,0,90,0,1
78279,-101.26582278481,4,1,0,90,0,1
78354,-102.564102564103,4,1,0,90,0,1
78428,-103.896103896104,4,1,0,90,0,1
78502,-105.263157894737,4,1,0,90,0,1
78651,-108.108108108108,4,1,0,90,0,1
78725,-109.58904109589,4,1,0,90,0,1
78799,-111.111111111111,4,1,0,90,0,1
78948,-114.285714285714,4,1,0,90,0,1
79096,-117.647058823529,4,1,0,90,0,1
79170,-119.402985074627,4,1,0,90,0,1
79245,-121.212121212121,4,1,0,90,0,1
79393,-125,4,1,0,90,0,1
79542,-119.402985074627,4,1,0,90,0,1
79616,-116.788321167883,4,1,0,90,0,1
79690,-114.285714285714,4,1,0,90,0,1
79839,-109.58904109589,4,1,0,90,0,1
79987,-105.263157894737,4,1,0,90,0,1
80061,-103.225806451613,4,1,0,90,0,1
80136,-101.26582278481,4,1,0,90,0,1
80284,-97.5609756097561,4,1,0,90,0,1
80358,-95.8083832335329,4,1,0,90,0,1
80433,-94.1176470588235,4,1,0,90,0,1
80507,-92.485549132948,4,1,0,90,0,1
80581,-90.9090909090909,4,1,0,90,0,1
80730,-87.9120879120879,4,1,0,90,0,1
80878,-85.1063829787234,4,1,0,90,0,1
80953,-83.7696335078534,4,1,0,90,0,1
81027,-82.4742268041237,4,1,0,90,0,1
81175,-80,4,1,0,90,0,1
81250,-78.8177339901478,4,1,0,90,0,1
81324,-77.6699029126214,4,1,0,90,0,1
81472,-75.4716981132076,4,1,0,90,0,1
81621,-73.394495412844,4,1,0,90,0,1
81769,-71.4285714285714,4,1,0,60,0,0
82066,-82.0485218548545,4,1,0,60,0,0
82215,-83.1126691966163,4,1,0,60,0,0
82289,-83.655126720786,4,1,0,60,0,0
82363,-84.2047826632457,4,1,0,60,0,0
82512,-85.3259065664258,4,1,0,60,0,0
82586,-85.8978125263062,4,1,0,60,0,0
82660,-86.4773619561871,4,1,0,60,0,0
82809,-87.6603197673144,4,1,0,60,0,0
82883,-88.2639799111182,4,1,0,60,0,0
82957,-88.8760117422987,4,1,0,60,0,0
83254,-91.4116054346028,4,1,0,60,0,0
83403,-92.7343559459878,4,1,0,60,0,0
83477,-93.4102784934043,4,1,0,60,0,0
83552,-94.0960381804085,4,1,0,60,0,0
83700,-95.498305382571,4,1,0,60,0,0
83774,-96.2151833332211,4,1,0,60,0,0
83849,-96.9429994551803,4,1,0,60,0,0
83997,-98.4319785812015,4,1,0,60,0,0
84071,-99.1938515683044,4,1,0,60,0,0
84146,-99.9675105590683,4,1,0,60,0,0
84443,-103.186821804614,4,1,0,60,0,0
84591,-104.875559904395,4,1,0,60,0,0
84665,-105.740772267156,4,1,0,60,0,0
84740,-106.620492885215,4,1,0,60,0,0
84888,-108.424355579843,4,1,0,60,0,0
84962,-109.349490814096,4,1,0,60,0,0
85037,-110.290427783482,4,1,0,60,0,0
85185,-112.221858124638,4,1,0,60,0,0
85259,-113.21310102005,4,1,0,60,0,0
85334,-114.222011038415,4,1,0,60,0,0
85631,-118.444398645944,4,1,0,60,0,0
85779,-120.674716474754,4,1,0,60,0,0
85854,-121.821820968215,4,1,0,60,0,0
85928,-122.990791679427,4,1,0,60,0,0
86076,-125.397510107039,4,1,0,60,0,0
86225,-127.900135574144,4,1,0,60,0,0
86522,-133.217877839206,4,1,0,60,0,0
86671,-128.686382278341,4,1,0,60,0,0
86745,-126.482213438735,4,1,0,60,0,0
86819,-124.352280061231,4,1,0,60,0,0
86967,-120.300751879699,4,1,0,60,0,0
87116,-116.504899613553,4,1,0,60,0,0
87190,-114.695340501792,4,1,0,60,0,0
87265,-112.941133951573,4,1,0,60,0,0
87339,-111.239902197878,4,1,0,60,0,0
87414,-109.58904109589,4,1,0,60,0,0
87562,-106.430192968583,4,1,0,60,0,0
87710,-103.448240190262,4,1,0,60,0,0
87858,-100.62893081761,4,1,0,60,0,0
87933,-99.2760788331487,4,1,0,60,0,0
88007,-97.959215660152,4,1,0,60,0,0
88155,-95.4274050330322,4,1,0,60,0,0
88304,-93.0232558139535,4,1,0,60,0,0
88378,-91.8660005769185,4,1,0,60,0,0
88453,-90.7372675197785,4,1,0,60,0,0
88527,-89.6358543417367,4,1,0,60,0,0
88601,-88.5608594654289,4,1,0,60,0,0
88747,-86.4864864864865,4,1,0,60,0,0
88898,-84.5070660583285,4,1,0,75,0,0
88972,-83.5509138381201,4,1,0,75,0,0
89047,-82.616156250284,4,1,0,75,0,0
89121,-81.7021499103727,4,1,0,75,0,0
89195,-80.8080808080808,4,1,0,75,0,0
89269,-79.9333675448146,4,1,0,75,0,0
89344,-79.0774508276641,4,1,0,75,0,0
89418,-78.239608801956,4,1,0,75,0,0
89492,-77.4193348595265,4,1,0,75,0,0
89566,-76.6161408756305,4,1,0,75,0,0
89641,-75.8293838862559,4,1,0,75,0,0
89715,-75.0586207828314,4,1,0,75,0,0
89789,-74.3034239760802,4,1,0,75,0,0
89863,-73.5632183908046,4,1,0,75,0,0
89938,-72.8376150925366,4,1,0,75,0,0
90012,-72.1262382271948,4,1,0,75,0,0
90086,-71.4285714285714,4,1,0,75,0,0
91274,-71.4285714285714,4,1,0,90,0,1
91349,-72.0704099076634,4,1,0,90,0,1
91423,-72.7238348732605,4,1,0,90,0,1
91497,-73.3892706354116,4,1,0,90,0,1
91571,-74.0669417019102,4,1,0,90,0,1
91720,-75.4605925920336,4,1,0,90,0,1
91868,-76.9076953840001,4,1,0,90,0,1
91943,-77.6522916744319,4,1,0,90,0,1
92017,-78.4113853331504,4,1,0,90,0,1
92091,-79.18552931963,4,1,0,90,0,1
92165,-79.9750477850911,4,1,0,90,0,1
92314,-81.6023436193088,4,1,0,90,0,1
92462,-83.2973072479486,4,1,0,90,0,1
92537,-84.1713999050547,4,1,0,90,0,1
92611,-85.0641043090073,4,1,0,90,0,1
92685,-85.9758734503924,4,1,0,90,0,1
92759,-86.9074756941517,4,1,0,90,0,1
92908,-88.832509855967,4,1,0,90,0,1
92982,-89.8273249332808,4,1,0,90,0,1
93056,-90.844756304399,4,1,0,90,0,1
93131,-91.8854152118143,4,1,0,90,0,1
93205,-92.9502790367377,4,1,0,90,0,1
93279,-94.0400253155748,4,1,0,90,0,1
93354,-95.155717574024,4,1,0,90,0,1
93502,-97.4683568979331,4,1,0,90,0,1
93651,-99.8962078400542,4,1,0,90,0,1
93725,-99.3788819875776,4,1,0,90,0,1
93799,-98.7654320987654,4,1,0,90,0,1
93873,-98.159509202454,4,1,0,90,0,1
93948,-97.5609756097561,4,1,0,90,0,1
94096,-96.3855421686747,4,1,0,90,0,1
94170,-95.8083832335329,4,1,0,90,0,1
94245,-95.2380952380952,4,1,0,90,0,1
94393,-94.1176470588235,4,1,0,90,0,1
94542,-93.0232558139535,4,1,0,90,0,1
94690,-91.9540229885058,4,1,0,90,0,1
94764,-91.4285714285714,4,1,0,90,0,1
94839,-90.9090909090909,4,1,0,90,0,1
94913,-90.3954802259887,4,1,0,90,0,1
94987,-89.8876404494382,4,1,0,90,0,1
95136,-88.8888888888889,4,1,0,90,0,1
95284,-87.9120879120879,4,1,0,90,0,1
95358,-87.431693989071,4,1,0,90,0,1
95507,-86.4864864864865,4,1,0,90,0,1
95581,-86.0215053763441,4,1,0,90,0,1
95655,-85.5614973262032,4,1,0,90,0,1
95730,-85.1063829787234,4,1,0,90,0,1
95878,-84.2105263157895,4,1,0,90,0,1
96027,-71.4285714285714,4,1,0,90,0,1
96101,-72.0720720720721,4,1,0,90,0,1
96175,-72.7272727272727,4,1,0,90,0,1
96324,-74.0740740740741,4,1,0,90,0,1
96472,-75.4716981132076,4,1,0,90,0,1
96621,-76.9230769230769,4,1,0,90,0,1
96695,-77.6699029126214,4,1,0,90,0,1
96769,-78.4313725490196,4,1,0,90,0,1
96844,-79.2079207920792,4,1,0,90,0,1
96918,-80,4,1,0,90,0,1
97066,-81.6326530612245,4,1,0,90,0,1
97215,-83.3333333333333,4,1,0,90,0,1
97289,-84.2105263157895,4,1,0,90,0,1
97363,-85.1063829787234,4,1,0,90,0,1
97438,-86.0215053763441,4,1,0,90,0,1
97512,-86.9565217391304,4,1,0,90,0,1
97660,-88.8888888888889,4,1,0,90,0,1
97735,-89.8876404494382,4,1,0,90,0,1
97809,-90.9090909090909,4,1,0,90,0,1
97883,-91.9540229885058,4,1,0,90,0,1
97957,-93.0232558139535,4,1,0,90,0,1
98032,-94.1176470588235,4,1,0,90,0,1
98106,-95.2380952380952,4,1,0,90,0,1
98254,-97.5609756097561,4,1,0,90,0,1
98403,-71.4285714285714,4,1,0,90,0,1
98552,-72.7272727272727,4,1,0,90,0,1
98626,-73.394495412844,4,1,0,90,0,1
98700,-74.0740740740741,4,1,0,90,0,1
98849,-75.4716981132076,4,1,0,90,0,1
98997,-76.9230769230769,4,1,0,90,0,1
99146,-78.4313725490196,4,1,0,90,0,1
99220,-79.2079207920792,4,1,0,90,0,1
99294,-80,4,1,0,90,0,1
99443,-81.6326530612245,4,1,0,90,0,1
99591,-83.3333333333333,4,1,0,90,0,1
99740,-85.1063829787234,4,1,0,90,0,1
99814,-86.0215053763441,4,1,0,90,0,1
99888,-86.9565217391304,4,1,0,90,0,1
100037,-88.8888888888889,4,1,0,90,0,1
100111,-89.8876404494382,4,1,0,90,0,1
100259,-91.9540229885058,4,1,0,90,0,1
100334,-93.0232558139535,4,1,0,90,0,1
100408,-94.1176470588235,4,1,0,90,0,1
100482,-95.2380952380952,4,1,0,90,0,1
100631,-97.5609756097561,4,1,0,90,0,1
100779,-71.4285714285714,4,1,0,90,0,1
100854,-72.0720720720721,4,1,0,90,0,1
100928,-72.7272727272727,4,1,0,90,0,1
101002,-73.394495412844,4,1,0,90,0,1
101076,-74.0740740740741,4,1,0,90,0,1
101225,-75.4716981132076,4,1,0,90,0,1
101373,-76.9230769230769,4,1,0,90,0,1
101448,-77.6699029126214,4,1,0,90,0,1
101522,-78.4313725490196,4,1,0,90,0,1
101596,-79.2079207920792,4,1,0,90,0,1
101670,-80,4,1,0,90,0,1
101819,-81.6326530612245,4,1,0,90,0,1
101893,-82.4742268041237,4,1,0,90,0,1
101967,-83.3333333333333,4,1,0,90,0,1
102042,-84.2105263157895,4,1,0,90,0,1
102116,-85.1063829787234,4,1,0,90,0,1
102264,-86.9565217391304,4,1,0,90,0,1
102413,-88.8888888888889,4,1,0,90,0,1
102487,-89.8876404494382,4,1,0,90,0,1
102561,-90.9090909090909,4,1,0,90,0,1
102636,-91.9540229885058,4,1,0,90,0,1
102710,-93.0232558139535,4,1,0,90,0,1
102784,-94.1176470588235,4,1,0,90,0,1
102858,-95.2380952380952,4,1,0,90,0,1
103007,-97.5609756097561,4,1,0,90,0,1
103155,-100,4,1,0,90,0,1
103230,-99.2268245828504,4,1,0,90,0,1
103304,-98.4655134385733,4,1,0,90,0,1
103453,-96.9773140969133,4,1,0,90,0,1
103601,-95.5335212796142,4,1,0,90,0,1
103675,-94.8276270808737,4,1,0,90,0,1
103750,-94.1319994201469,4,1,0,90,0,1
103898,-92.7710910436933,4,1,0,90,0,1
104047,-91.4489723878973,4,1,0,90,0,1
104195,-90.1639270357437,4,1,0,90,0,1
104269,-89.5348930908609,4,1,0,90,0,1
104344,-88.9145753217596,4,1,0,90,0,1
104418,-88.3027158383283,4,1,0,90,0,1
104492,-87.6992966516409,4,1,0,90,0,1
104641,-86.5168655977796,4,1,0,90,0,1
104789,-85.3658224271381,4,1,0,90,0,1
104863,-84.8017462375585,4,1,0,90,0,1
105012,-83.6956658199455,4,1,0,90,0,1
105086,-83.1533755697046,4,1,0,90,0,1
105160,-82.6179991572964,4,1,0,90,0,1
105235,-82.0895399866358,4,1,0,90,0,1
105383,-81.052646936291,4,1,0,90,0,1
105532,-80.0415575766938,4,1,0,90,0,0
106126,-84.3414242061574,4,1,0,90,0,1
106274,-85.5014359966176,4,1,0,90,0,1
106349,-86.0934906433594,4,1,0,90,0,1
106423,-86.6938018266384,4,1,0,90,0,1
106646,-88.5459602233838,4,1,0,90,0,1
106720,-89.1810857618829,4,1,0,90,0,1
106868,-90.4790685722765,4,1,0,90,0,1
106943,-91.142332423429,4,1,0,90,0,1
107017,-91.8153922996267,4,1,0,90,0,1
107240,-93.8955674719464,4,1,0,90,0,1
107314,-94.6099751081155,4,1,0,90,0,1
107834,-83.3333333333333,4,1,0,90,0,1
107908,-85.4579606654099,4,1,0,90,0,1
108056,-90.0497705081599,4,1,0,90,0,1
108131,-92.5357859018029,4,1,0,90,0,1
108205,-95.1629618139583,4,1,0,90,0,1
108354,-100.89188425683,4,1,0,90,0,1
108502,-107.354652535932,4,1,0,90,0,1
108651,-114.70218152079,4,1,0,90,0,1
108725,-118.766397185711,4,1,0,90,0,1
108799,-123.12920563193,4,1,0,90,0,1
108873,-127.824930974537,4,1,0,90,0,1
108948,-132.892837873396,4,1,0,90,0,0
109245,-125,4,1,0,90,0,0
109393,-112.903262226859,4,1,0,90,0,0
109542,-102.941131055383,4,1,0,90,0,0
109690,-94.594581811543,4,1,0,90,0,0
109839,-87.5000109375014,4,1,0,90,0,0
109913,-84.3373697198481,4,1,0,90,0,0
110136,-76.0869399811,4,1,0,90,0,0
110284,-66.6666666666667,4,1,0,90,0,1
110358,-67.2897246571757,4,1,0,90,0,1
110433,-67.9245385546473,4,1,0,90,0,1
110507,-68.5714442449015,4,1,0,90,0,1
110581,-69.2307905325509,4,1,0,90,0,1
110730,-70.588218685125,4,1,0,90,0,1
110878,-71.9999942400005,4,1,0,90,0,1
111027,-73.4693937526036,4,1,0,90,0,1
111101,-74.2268163673099,4,1,0,90,0,1
111175,-75.0000187500047,4,1,0,90,0,1
111324,-76.5957186057128,4,1,0,90,0,1
111472,-78.2608559546337,4,1,0,90,0,1
111621,-80,4,1,0,90,0,1
111695,-80.8988836763042,4,1,0,90,0,1
111769,-81.8181966942176,4,1,0,90,0,1
111918,-83.7209613845438,4,1,0,90,0,1
111992,-84.7058504636798,4,1,0,90,0,1
112066,-85.7142612244968,4,1,0,90,0,1
112141,-86.7469712294995,4,1,0,90,0,1
112215,-87.8048694824518,4,1,0,90,0,1
112363,-90.0000090000009,4,1,0,90,0,1
112438,-91.1392589649132,4,1,0,90,0,1
112512,-92.3077207100679,4,1,0,90,0,1
112586,-93.5065323663511,4,1,0,90,0,1
112660,-94.7368022160833,4,1,0,90,0,1
112809,-68.0813517688556,4,1,0,90,0,1
112883,-68.8114271008301,4,1,0,90,0,1
112957,-69.5573785771621,4,1,0,90,0,1
113106,-71.0987746837171,4,1,0,90,0,1
113180,-71.895429535649,4,1,0,90,0,1
113254,-72.7100867067784,4,1,0,90,0,1
113329,-73.5434715460309,4,1,0,90,0,1
113403,-74.3961266400626,4,1,0,90,0,1
113552,-76.1622163814265,4,1,0,90,0,1
113626,-77.0770531592728,4,1,0,90,0,1
113700,-78.0141954630065,4,1,0,90,0,1
113774,-78.97434439448,4,1,0,90,0,1
113849,-79.9584855543002,4,1,0,90,0,1
113923,-80.9673984770032,4,1,0,90,0,1
113997,-82.002097613657,4,1,0,90,0,1
114146,-84.1529833915672,4,1,0,90,0,1
114220,-85.271337660001,4,1,0,90,0,1
114294,-86.4197424173157,4,1,0,90,0,1
114368,-87.599578821225,4,1,0,90,0,1
114443,-88.8119974351095,4,1,0,90,0,1
114517,-90.0584479327083,4,1,0,90,0,1
114591,-91.3404670238079,4,1,0,90,0,1
114740,-94.0171261597012,4,1,0,90,0,1
114814,-95.4151129905768,4,1,0,90,0,1
114888,-96.855302052945,4,1,0,90,0,1
114962,-98.3397303327915,4,1,0,90,0,1
115037,-99.870268521191,4,1,0,90,0,1
115185,-68.0851063829787,4,1,0,90,0,1
115259,-68.8172043010753,4,1,0,90,0,1
115334,-69.5652173913043,4,1,0,90,0,1
115482,-71.1111111111111,4,1,0,90,0,1
115631,-72.7272727272727,4,1,0,90,0,1
115779,-74.4186046511628,4,1,0,90,0,1
115854,-75.2941176470588,4,1,0,90,0,1
115928,-76.1904761904762,4,1,0,90,0,1
116076,-78.0487804878049,4,1,0,90,0,1
116225,-80,4,1,0,90,0,1
116373,-82.0512820512821,4,1,0,90,0,1
116448,-83.1168831168831,4,1,0,90,0,1
116522,-84.2105263157895,4,1,0,90,0,1
116670,-86.4864864864865,4,1,0,90,0,1
116745,-87.6712328767123,4,1,0,90,0,1
116819,-88.8888888888889,4,1,0,90,0,1
116893,-90.1408450704225,4,1,0,90,0,1
116967,-91.4285714285714,4,1,0,90,0,1
117116,-94.1176470588235,4,1,0,90,0,1
117190,-95.5223880597015,4,1,0,90,0,1
117264,-96.969696969697,4,1,0,90,0,1
117339,-98.4615384615385,4,1,0,90,0,1
117439,-100,4,1,0,90,0,1
117561,-68.0851063829787,4,1,0,90,0,1
117636,-68.8172043010753,4,1,0,90,0,1
117710,-69.5652173913043,4,1,0,90,0,1
117858,-71.1111111111111,4,1,0,90,0,1
117933,-71.9101123595506,4,1,0,90,0,1
118007,-72.7272727272727,4,1,0,90,0,1
118081,-73.5632183908046,4,1,0,90,0,1
118155,-74.4186046511628,4,1,0,90,0,1
118304,-76.1904761904762,4,1,0,90,0,1
118378,-77.1084337349398,4,1,0,90,0,1
118453,-78.0487804878049,4,1,0,90,0,1
118527,-79.0123456790123,4,1,0,90,0,1
118601,-80,4,1,0,90,0,1
118675,-81.0126582278481,4,1,0,90,0,1
118750,-82.0512820512821,4,1,0,90,0,1
118898,-84.2105263157895,4,1,0,90,0,1
118972,-85.3333333333333,4,1,0,90,0,1
119047,-86.4864864864865,4,1,0,90,0,1
119121,-87.6712328767123,4,1,0,90,0,1
119195,-88.8888888888889,4,1,0,90,0,1
119269,-90.1408450704225,4,1,0,90,0,1
119344,-91.4285714285714,4,1,0,90,0,1
119492,-94.1176470588235,4,1,0,90,0,1
119566,-95.5223880597015,4,1,0,90,0,1
119641,-96.969696969697,4,1,0,90,0,1
119789,-100,4,1,0,90,0,0
120086,-69.5652173913043,4,1,0,90,0,1
120235,-71.1111111111111,4,1,0,90,0,1
120309,-71.9101123595506,4,1,0,90,0,1
120383,-72.7272727272727,4,1,0,90,0,1
120532,-74.4186046511628,4,1,0,90,0,1
120606,-75.2941176470588,4,1,0,90,0,1
120680,-76.1904761904762,4,1,0,90,0,1
120754,-77.1084337349398,4,1,0,90,0,1
120829,-78.0487804878049,4,1,0,90,0,1
120903,-79.0123456790123,4,1,0,90,0,1
120977,-80,4,1,0,90,0,1
121126,-82.0512820512821,4,1,0,90,0,1
121274,-84.2105263157895,4,1,0,90,0,1
121423,-86.4864864864865,4,1,0,90,0,1
121497,-87.6712328767123,4,1,0,90,0,1
121571,-88.8888888888889,4,1,0,90,0,1
121646,-90.1408450704225,4,1,0,90,0,1
121720,-91.4285714285714,4,1,0,90,0,1
121868,-94.1176470588235,4,1,0,90,0,1
121943,-95.5223880597015,4,1,0,90,0,1
122017,-96.969696969697,4,1,0,90,0,1
122091,-98.4615384615385,4,1,0,90,0,1
122165,-100,4,1,0,90,0,1
122314,-68.0813517688556,4,1,0,90,0,1
122388,-68.8114271008301,4,1,0,90,0,1
122462,-69.5573785771621,4,1,0,90,0,1
122611,-71.0987746837171,4,1,0,90,0,1
122685,-71.895429535649,4,1,0,90,0,1
122759,-72.7100867067784,4,1,0,90,0,1
122834,-73.5434715460309,4,1,0,90,0,1
122908,-74.3961266400626,4,1,0,90,0,1
123056,-76.1622163814265,4,1,0,90,0,1
123131,-77.0770531592728,4,1,0,90,0,1
123205,-78.0141954630065,4,1,0,90,0,1
123279,-78.97434439448,4,1,0,90,0,1
123354,-79.9584855543002,4,1,0,90,0,1
123428,-80.9673984770032,4,1,0,90,0,1
123502,-82.002097613657,4,1,0,90,0,1
123651,-84.1529833915672,4,1,0,90,0,1
123725,-85.271337660001,4,1,0,90,0,1
123799,-86.4197424173157,4,1,0,90,0,1
123873,-87.599578821225,4,1,0,90,0,1
123948,-88.8119974351095,4,1,0,90,0,1
124022,-90.0584479327083,4,1,0,90,0,1
124096,-91.3404670238079,4,1,0,90,0,1
124245,-94.0171261597012,4,1,0,90,0,1
124319,-95.4151129905768,4,1,0,90,0,1
124393,-96.855302052945,4,1,0,90,0,1
124467,-98.3397303327915,4,1,0,90,0,1
124542,-99.870268521191,4,1,0,90,0,1
124690,-68.2926696014303,4,1,0,90,0,1
124764,-69.1357819844597,4,1,0,90,0,1
124839,-70.0000210000063,4,1,0,90,0,1
124987,-71.7948791584491,4,1,0,90,0,1
125136,-73.6842027700839,4,1,0,90,0,1
125210,-74.6666507377812,4,1,0,90,0,1
125284,-75.6756511322213,4,1,0,90,0,1
125358,-76.7123539876232,4,1,0,90,0,1
125433,-77.7777950617322,4,1,0,90,0,1
125581,-80,4,1,0,90,0,1
125730,-82.3529217993125,4,1,0,90,0,1
125878,-84.8485157024906,4,1,0,90,0,1
125953,-86.153867360952,4,1,0,90,0,1
126027,-87.5000109375014,4,1,0,90,0,1
126175,-90.3225689906363,4,1,0,90,0,1
126250,-91.8032546089824,4,1,0,90,0,1
126324,-93.3332960000149,4,1,0,90,0,1
126398,-94.9152928468988,4,1,0,90,0,1
126472,-96.5517507728968,4,1,0,90,0,1
126547,-98.2456278239478,4,1,0,90,0,1
126621,-100,4,1,0,90,0,1
126769,-95.9999692800098,4,1,0,90,0,1
126844,-94.1176470588235,4,1,0,90,0,1
126918,-92.3077207100679,4,1,0,90,0,1
127066,-88.8888888888889,4,1,0,90,0,1
127141,-87.2727526611644,4,1,0,90,0,1
127215,-85.7142612244968,4,1,0,90,0,1
127363,-82.7586435196258,4,1,0,90,0,1
127512,-80,4,1,0,90,0,1
127586,-78.6885452297823,4,1,0,90,0,1
127660,-77.4193348595265,4,1,0,90,0,1
127735,-76.1904761904762,4,1,0,90,0,1
127809,-75.0000187500047,4,1,0,90,0,1
127957,-72.7272727272727,4,1,0,90,0,1
128106,-70.588218685125,4,1,0,90,0,1
128180,-69.5652173913043,4,1,0,90,0,1
128254,-68.5714442449015,4,1,0,90,0,1
128329,-67.6056185677479,4,1,0,90,0,1
128403,-66.6666666666667,4,1,0,90,0,1
128552,-64.8648508400323,4,1,0,90,0,1
128626,-64,4,1,0,90,0,1
128700,-63.1579080332438,4,1,0,90,0,1
128774,-62.3376493843845,4,1,0,90,0,1
128849,-61.5384615384615,4,1,0,90,0,1
128923,-60.7595059766088,4,1,0,90,0,1
128997,-59.9999880000024,4,1,0,90,0,1
129071,-59.2592592592593,4,1,0,90,0,1
129146,-58.5365967876286,4,1,0,90,0,1
129220,-57.8313141529997,4,1,0,90,0,1
129294,-57.1428571428571,4,1,0,60,0,0
130482,-100,4,1,0,60,0,0
131670,-114.285714285714,4,1,0,60,0,0
132858,-133.333333333333,4,1,0,60,0,0
134047,-150.15015015015,4,1,0,30,0,0
135235,-166.666666666667,4,1,0,30,0,0
136423,-181.818181818182,4,1,0,30,0,0
137611,-200,4,1,0,30,0,0
147116,-181.818181818182,4,1,0,60,0,0
148304,-166.666666666667,4,1,0,60,0,0
158254,-166.666666666667,4,1,0,60,0,0
158403,-165.244189601183,4,1,0,60,0,0
158700,-162.470856790063,4,1,0,60,0,0
158997,-159.78907841649,4,1,0,60,0,0
159443,-155.928397679785,4,1,0,60,0,0
159591,-154.682629914074,4,1,0,60,0,0
159888,-152.249872490732,4,1,0,60,0,0
160185,-149.892452165571,4,1,0,60,0,0
160631,-146.490097269425,4,1,0,60,0,0
160779,-145.390045143609,4,1,0,60,0,0
161076,-143.23877187077,4,1,0,60,0,0
161373,-141.15023325076,4,1,0,60,0,0
161819,-138.129178407647,4,1,0,60,0,0
161967,-137.15069432539,4,1,0,60,0,0
162264,-135.234733689001,4,1,0,60,0,0
162561,-133.371566515735,4,1,0,60,0,0
162858,-126.327384997865,4,1,0,75,0,0
163155,-120.020787600412,4,1,0,75,0,0
163453,-114.314064173629,4,1,0,75,0,0
163750,-109.125273631624,4,1,0,75,0,0
163898,-106.703657267853,4,1,0,75,0,0
164047,-104.387184594122,4,1,0,75,0,0
164195,-102.169153293576,4,1,0,75,0,0
164344,-100.043318757022,4,1,0,75,0,0
164492,-98.0042416235775,4,1,0,75,0,0
164641,-96.0466248735786,4,1,0,75,0,0
164789,-94.1656826352831,4,1,0,75,0,0
164938,-92.3569114371105,4,1,0,75,0,0
165012,-91.4784193260968,4,1,0,75,0,0
165086,-90.6163999372935,4,1,0,75,0,0
165160,-89.7705554373577,4,1,0,75,0,0
165235,-88.9402766042602,4,1,0,75,0,0
165309,-88.125215355995,4,1,0,75,0,0
165383,-87.325033379994,4,1,0,75,0,0
165457,-86.539177150888,4,1,0,75,0,0
165532,-85.7673389396584,4,1,0,75,0,0
165606,-85.0092192498277,4,1,0,75,0,0
165680,-84.2643135576225,4,1,0,75,0,0
165754,-83.5324189317874,4,1,0,75,0,0
165829,-82.813060282111,4,1,0,75,0,0
165903,-82.1059856905688,4,1,0,75,0,0
165977,-81.4109494470568,4,1,0,75,0,0
166052,-80.7275163775949,4,1,0,75,0,0
166126,-80.0555265131895,4,1,0,75,0,0
167314,-133.333333333333,4,1,0,90,0,1
167908,-151.515151515152,4,1,0,90,0,1
168205,-133.333333333333,4,1,0,90,0,1
169096,-133.333333333333,4,1,0,90,0,1
169245,-142.857142857143,4,1,0,90,0,1
169393,-153.846153846154,4,1,0,90,0,1
169542,-166.666666666667,4,1,0,90,0,1
169690,-133.333333333333,4,1,0,90,0,1
170284,-151.515151515152,4,1,0,90,0,1
170581,-133.333333333333,4,1,0,90,0,1
171472,-144.927536231884,4,1,0,90,0,1
171571,-149.253731343284,4,1,0,90,0,1
171670,-153.846153846154,4,1,0,90,0,1
171769,-158.730158730159,4,1,0,90,0,1
171868,-163.934426229508,4,1,0,90,0,1
171967,-169.491525423729,4,1,0,90,0,1
172066,-133.333333333333,4,1,0,90,0,1
172660,-151.515151515152,4,1,0,90,0,1
172957,-133.333333333333,4,1,0,90,0,1
173849,-133.333333333333,4,1,0,90,0,1
173997,-142.857142857143,4,1,0,90,0,1
174146,-153.846153846154,4,1,0,90,0,1
174294,-166.666666666667,4,1,0,90,0,1
174443,-181.818181818182,4,1,0,90,0,1
174740,-133.333333333333,4,1,0,90,0,1
175037,-151.515151515152,4,1,0,90,0,1
175334,-133.333333333333,4,1,0,90,0,1
176225,-144.927536231884,4,1,0,90,0,1
176324,-149.253731343284,4,1,0,90,0,1
176423,-153.846153846154,4,1,0,90,0,1
176522,-158.730158730159,4,1,0,90,0,1
176621,-163.934426229508,4,1,0,90,0,1
176720,-169.491525423729,4,1,0,90,0,1
176819,-133.333333333333,4,1,0,90,0,1
177413,-166.666666666667,4,1,0,90,0,1
177710,-133.333333333333,4,1,0,90,0,1
178601,-133.333333333333,4,1,0,90,0,1
178750,-142.857142857143,4,1,0,90,0,1
178898,-153.846153846154,4,1,0,90,0,1
179047,-166.666666666667,4,1,0,90,0,1
179195,-133.333333333333,4,1,0,90,0,1
179789,-151.515151515152,4,1,0,90,0,1
180086,-133.333333333333,4,1,0,90,0,1
180977,-144.927536231884,4,1,0,90,0,1
181076,-149.253731343284,4,1,0,90,0,1
181175,-153.846153846154,4,1,0,90,0,1
181274,-158.730158730159,4,1,0,90,0,1
181373,-163.934426229508,4,1,0,90,0,1
181472,-169.491525423729,4,1,0,90,0,1
181571,-133.333333333333,4,1,0,90,0,1
182165,-151.515151515152,4,1,0,90,0,1
182462,-133.333333333333,4,1,0,90,0,1
183354,-142.857142857143,4,1,0,90,0,1
183502,-153.846153846154,4,1,0,90,0,1
183651,-166.666666666667,4,1,0,90,0,1
183799,-181.818181818182,4,1,0,90,0,1
183948,-133.333333333333,4,1,0,90,0,1
184096,-125,4,1,0,90,0,1
184245,-117.647058823529,4,1,0,90,0,1
184393,-111.111111111111,4,1,0,90,0,1
184542,-105.263157894737,4,1,0,90,0,1
184690,-100,4,1,0,90,0,1
184839,-95.2380952380952,4,1,0,90,0,0
185136,-133.333333333333,4,1,0,90,0,0
185284,-133.333333333333,4,1,0,90,0,0
185433,-122.864462068669,4,1,0,90,0,0
185581,-113.919738987094,4,1,0,90,0,0
185730,-106.1891270829,4,1,0,90,0,0
185878,-99.4410419034606,4,1,0,90,0,0
186027,-93.4992758481086,4,1,0,90,0,0
186175,-88.2276131254455,4,1,0,90,0,0
186324,-83.5186751933666,4,1,0,90,0,0
186769,-111.111111111111,4,1,0,90,0,1
187215,-95.2380952380952,4,1,0,90,0,1
187660,-83.3333333333333,4,1,0,90,0,1
188106,-74.0740740740741,4,1,0,90,0,1
188700,-111.111111111111,4,1,0,90,0,0
189146,-95.2380952380952,4,1,0,90,0,1
189591,-83.3333333333333,4,1,0,90,0,1
190037,-74.0740740740741,4,1,0,90,0,1
190334,-71.7948791584491,4,1,0,90,0,1
190482,-70.7070564228169,4,1,0,90,0,1
190680,-69.3069375551423,4,1,0,90,0,1
190878,-67.9611452540354,4,1,0,90,0,1
191076,-66.6666666666667,4,1,0,90,0,0
191522,-95.2380952380952,4,1,0,90,0,1
191967,-83.3333333333333,4,1,0,90,0,1
192413,-74.0740740740741,4,1,0,90,0,1
192858,-66.6666666666667,4,1,0,90,0,1
193453,-111.111111111111,4,1,0,90,0,0
193898,-95.2380952380952,4,1,0,90,0,1
194344,-83.3333333333333,4,1,0,90,0,1
194789,-74.0740740740741,4,1,0,90,0,1
195086,-71.8079224244652,4,1,0,90,0,1
195235,-70.7261096042521,4,1,0,90,0,1
195532,-68.6573169132494,4,1,0,90,0,1
195829,-66.7061567114398,4,1,0,90,0,0
197017,-80,4,1,0,60,0,0
198056,-92.5925925925926,4,1,0,60,0,0
198205,-95.2380952380952,4,1,0,60,0,0
198725,-100,4,1,0,60,0,0
199393,-108.108108108108,4,1,0,60,0,0
199913,-114.285714285714,4,1,0,60,0,0
200247,-117.647058823529,4,1,0,60,0,0
200581,-121.951219512195,4,1,0,60,0,0
201769,-142.857142857143,4,1,0,60,0,0
202809,-160,4,1,0,60,0,0
202957,-166.666666666667,4,1,0,60,0,0
204294,-133.333333333333,4,1,0,60,0,0
205334,-57.1428571428571,4,1,0,90,0,0
207264,-66.6666666666667,4,1,0,90,0,0
207710,-57.1428571428571,4,1,0,90,0,0
208601,-100,4,1,0,90,0,0
208750,-80,4,1,0,90,0,0
208898,-50,4,1,0,90,0,0
210086,-57.1428571428571,4,1,0,90,0,0
212017,-66.6666666666667,4,1,0,90,0,0
212462,-57.1428571428571,4,1,0,90,0,0
213354,-88.8888888888889,4,1,0,90,0,0
213502,-80,4,1,0,90,0,0
213651,-50,4,1,0,90,0,0
214839,-83.3333333333333,4,1,0,60,0,0
215136,-85.3333333333333,4,1,0,60,0,0
215284,-86.3698078789994,4,1,0,60,0,0
215358,-86.8975069974217,4,1,0,60,0,0
215433,-87.431693989071,4,1,0,60,0,0
215581,-88.5200161460509,4,1,0,60,0,0
215655,-89.0744805176296,4,1,0,60,0,0
215730,-89.6358543417367,4,1,0,60,0,0
215878,-90.7801830491611,4,1,0,60,0,0
215953,-91.3633327881988,4,1,0,60,0,0
216027,-91.9540229885058,4,1,0,60,0,0
216324,-94.3952802359882,4,1,0,60,0,0
216472,-95.6651261392521,4,1,0,60,0,0
216547,-96.3130404967441,4,1,0,60,0,0
216621,-96.969696969697,4,1,0,60,0,0
216769,-98.3103401832701,4,1,0,60,0,0
216844,-98.9946107333917,4,1,0,60,0,0
216918,-99.6884735202492,4,1,0,60,0,0
217066,-101.10589629366,4,1,0,60,0,0
217141,-101.829779304319,4,1,0,60,0,0
217215,-102.564102564103,4,1,0,60,0,0
217512,-105.610561056106,4,1,0,60,0,0
217660,-107.202737529106,4,1,0,60,0,0
217735,-108.016906806253,4,1,0,60,0,0
217809,-108.843537414966,4,1,0,60,0,0
217957,-110.535344781847,4,1,0,60,0,0
218032,-111.401249476414,4,1,0,60,0,0
218106,-112.280701754386,4,1,0,60,0,0
218254,-114.082061508484,4,1,0,60,0,0
218329,-115.004525428076,4,1,0,60,0,0
218403,-115.942028985507,4,1,0,60,0,0
218700,-119.850187265918,4,1,0,60,0,0
218849,-121.904836208662,4,1,0,60,0,0
218923,-122.958731360993,4,1,0,60,0,0
218997,-124.031007751938,4,1,0,60,0,0
219146,-126.232661943882,4,1,0,60,0,0
219591,-133.333333333333,4,1,0,75,0,0
219740,-128.686382278341,4,1,0,75,0,0
219814,-126.482213438735,4,1,0,75,0,0
219888,-124.352280061231,4,1,0,75,0,0
220037,-120.300751879699,4,1,0,75,0,0
220185,-116.504899613553,4,1,0,75,0,0
220259,-114.695340501792,4,1,0,75,0,0
220334,-112.941133951573,4,1,0,75,0,0
220408,-111.239902197878,4,1,0,75,0,0
220482,-109.58904109589,4,1,0,75,0,0
220631,-106.430192968583,4,1,0,75,0,0
220779,-103.448240190262,4,1,0,75,0,0
220928,-100.62893081761,4,1,0,75,0,0
221002,-99.2760788331487,4,1,0,75,0,0
221076,-97.959215660152,4,1,0,75,0,0
221225,-95.4274050330322,4,1,0,75,0,0
221373,-93.0232558139535,4,1,0,75,0,0
221448,-91.8660005769185,4,1,0,75,0,0
221522,-90.7372675197785,4,1,0,75,0,0
221596,-89.6358543417367,4,1,0,75,0,0
221670,-88.5608594654289,4,1,0,75,0,0
221819,-86.4864864864865,4,1,0,75,0,0
221967,-84.5070660583285,4,1,0,75,0,0
222042,-83.5509138381201,4,1,0,75,0,0
222116,-82.616156250284,4,1,0,75,0,0
222190,-81.7021499103727,4,1,0,75,0,0
222264,-80.8080808080808,4,1,0,75,0,0
222339,-79.9333675448146,4,1,0,75,0,0
222413,-79.0774508276641,4,1,0,75,0,0
222487,-78.239608801956,4,1,0,75,0,0
222561,-77.4193348595265,4,1,0,75,0,0
222636,-76.6161408756305,4,1,0,75,0,0
222710,-75.8293838862559,4,1,0,75,0,0
222784,-75.0586207828314,4,1,0,75,0,0
222858,-74.3034239760802,4,1,0,75,0,0
222933,-73.5632183908046,4,1,0,75,0,0
223007,-72.8376150925366,4,1,0,75,0,0
223081,-72.1262382271948,4,1,0,75,0,0
223155,-71.4285714285714,4,1,0,75,0,0
223601,-111.111111111111,4,1,0,75,0,0
223750,-117.647058823529,4,1,0,75,0,0
223898,-125,4,1,0,75,0,0
224047,-133.333333333333,4,1,0,75,0,0
224344,-80,4,1,0,90,0,1
238453,-80,4,1,0,90,0,0
238898,-80,4,1,0,90,0,1
242165,-80,4,1,0,90,0,0
243354,-151.515151515152,4,1,0,90,0,0
243948,-66.6666666666667,4,1,0,90,0,1
244096,-68.5714442449015,4,1,0,90,0,1
244170,-69.5652173913043,4,1,0,90,0,1
244245,-70.588218685125,4,1,0,90,0,1
244393,-72.7272727272727,4,1,0,90,0,1
244542,-75.0000187500047,4,1,0,90,0,1
244616,-76.1904761904762,4,1,0,90,0,1
244690,-77.4193348595265,4,1,0,90,0,1
244839,-80,4,1,0,90,0,1
244987,-82.7586435196258,4,1,0,90,0,1
245061,-84.2105263157895,4,1,0,90,0,1
245136,-85.7142612244968,4,1,0,90,0,1
245284,-88.8888888888889,4,1,0,90,0,1
245433,-92.3077207100679,4,1,0,90,0,1
245507,-94.1176470588235,4,1,0,90,0,1
245581,-95.9999692800098,4,1,0,90,0,1
245730,-100,4,1,0,90,0,1
245878,-68.0851063829787,4,1,0,90,0,1
245953,-68.8172043010753,4,1,0,90,0,1
246027,-69.5652173913043,4,1,0,90,0,1
246175,-71.1111111111111,4,1,0,90,0,1
246324,-72.7272727272727,4,1,0,90,0,1
246472,-74.4186046511628,4,1,0,90,0,1
246547,-75.2941176470588,4,1,0,90,0,1
246621,-76.1904761904762,4,1,0,90,0,1
246769,-78.0487804878049,4,1,0,90,0,1
246844,-79.0123456790123,4,1,0,90,0,1
246918,-80,4,1,0,90,0,1
247066,-82.0512820512821,4,1,0,90,0,1
247141,-83.1168831168831,4,1,0,90,0,1
247215,-84.2105263157895,4,1,0,90,0,1
247363,-86.4864864864865,4,1,0,90,0,1
247438,-87.6712328767123,4,1,0,90,0,1
247512,-88.8888888888889,4,1,0,90,0,1
247660,-91.4285714285714,4,1,0,90,0,1
247735,-92.7536231884058,4,1,0,90,0,1
247809,-94.1176470588235,4,1,0,90,0,1
247957,-96.969696969697,4,1,0,90,0,1
248032,-98.4615384615385,4,1,0,90,0,1
248106,-100,4,1,0,90,0,1
248254,-68.4153165474074,4,1,0,90,0,1
248403,-70.2581213118877,4,1,0,90,0,1
248477,-71.2173103643264,4,1,0,90,0,1
248552,-72.2030001790634,4,1,0,90,0,1
248700,-74.258620497607,4,1,0,90,0,1
248849,-76.4346594491965,4,1,0,90,0,1
248923,-77.5712744262247,4,1,0,90,0,1
248997,-78.7421415342749,4,1,0,90,0,1
249146,-81.1932814183492,4,1,0,90,0,1
249294,-83.8018555406854,4,1,0,90,0,1
249368,-85.1700974601425,4,1,0,90,0,1
249443,-86.5836848630939,4,1,0,90,0,1
249591,-89.556542866687,4,1,0,90,0,1
249740,-92.7407201316918,4,1,0,90,0,1
249814,-94.4193446353289,4,1,0,90,0,1
249888,-96.1597636777648,4,1,0,90,0,1
250037,-99.8405546342491,4,1,0,90,0,0
250482,-66.6666666666667,4,1,0,90,0,1
250631,-68.0851063829787,4,1,0,90,0,1
250705,-68.8172043010753,4,1,0,90,0,1
250779,-69.5652173913043,4,1,0,90,0,1
250928,-71.1111111111111,4,1,0,90,0,1
251002,-71.9101123595506,4,1,0,90,0,1
251076,-72.7272727272727,4,1,0,90,0,1
251225,-74.4186046511628,4,1,0,90,0,1
251373,-76.1904761904762,4,1,0,90,0,1
251522,-78.0487804878049,4,1,0,90,0,1
251596,-79.0123456790123,4,1,0,90,0,1
251670,-80,4,1,0,90,0,1
251819,-82.0512820512821,4,1,0,90,0,1
251893,-83.1168831168831,4,1,0,90,0,1
251967,-84.2105263157895,4,1,0,90,0,1
252116,-86.4864864864865,4,1,0,90,0,1
252190,-87.6712328767123,4,1,0,90,0,1
252264,-88.8888888888889,4,1,0,90,0,1
252413,-91.4285714285714,4,1,0,90,0,1
252487,-92.7536231884058,4,1,0,90,0,1
252561,-94.1176470588235,4,1,0,90,0,1
252710,-96.969696969697,4,1,0,90,0,1
252784,-98.4615384615385,4,1,0,90,0,1
252858,-100,4,1,0,90,0,1
253007,-68.0813517688556,4,1,0,90,0,1
253155,-69.5573785771621,4,1,0,90,0,1
253230,-70.3196308500659,4,1,0,90,0,1
253304,-71.0987746837171,4,1,0,90,0,1
253453,-72.7100867067784,4,1,0,90,0,1
253601,-74.3961266400626,4,1,0,90,0,1
253675,-75.2688414845725,4,1,0,90,0,1
253750,-76.1622163814265,4,1,0,90,0,1
253898,-78.0141954630065,4,1,0,90,0,1
254047,-79.9584855543002,4,1,0,90,0,1
254121,-80.9673984770032,4,1,0,90,0,1
254195,-82.002097613657,4,1,0,90,0,1
254344,-84.1529833915672,4,1,0,90,0,1
254492,-86.4197424173157,4,1,0,90,0,1
254566,-87.599578821225,4,1,0,90,0,1
254641,-88.8119974351095,4,1,0,90,0,1
254789,-91.3404670238079,4,1,0,90,0,1
254938,-94.0171261597012,4,1,0,90,0,1
255012,-95.4151129905768,4,1,0,90,0,1
255086,-96.855302052945,4,1,0,90,0,1
255235,-100,4,1,0,90,0,1
255383,-68.0851063829787,4,1,0,90,0,1
255457,-68.8172043010753,4,1,0,90,0,1
255532,-69.5652173913043,4,1,0,90,0,1
255680,-71.1111111111111,4,1,0,90,0,1
255754,-71.9101123595506,4,1,0,90,0,1
255829,-72.7272727272727,4,1,0,90,0,1
255977,-74.4186046511628,4,1,0,90,0,1
256052,-75.2941176470588,4,1,0,90,0,1
256126,-76.1904761904762,4,1,0,90,0,1
256274,-78.0487804878049,4,1,0,90,0,1
256349,-79.0123456790123,4,1,0,90,0,1
256423,-80,4,1,0,90,0,1
256571,-82.0512820512821,4,1,0,90,0,1
256646,-83.1168831168831,4,1,0,90,0,1
256720,-84.2105263157895,4,1,0,90,0,1
256868,-86.4864864864865,4,1,0,90,0,1
256943,-87.6712328767123,4,1,0,90,0,1
257017,-88.8888888888889,4,1,0,90,0,1
257165,-91.4285714285714,4,1,0,90,0,1
257240,-92.7536231884058,4,1,0,90,0,1
257314,-94.1176470588235,4,1,0,90,0,1
257462,-96.969696969697,4,1,0,90,0,1
257537,-98.4615384615385,4,1,0,90,0,1
257611,-100,4,1,0,90,0,1
257759,-68.0851063829787,4,1,0,90,0,1
257908,-69.5652173913043,4,1,0,90,0,1
257982,-70.3296703296703,4,1,0,90,0,1
258056,-71.1111111111111,4,1,0,90,0,1
258205,-72.7272727272727,4,1,0,90,0,1
258354,-74.4186046511628,4,1,0,90,0,1
258428,-75.2941176470588,4,1,0,90,0,1
258502,-76.1904761904762,4,1,0,90,0,1
258651,-78.0487804878049,4,1,0,90,0,1
258799,-80,4,1,0,90,0,1
258873,-81.0126582278481,4,1,0,90,0,1
258948,-82.0512820512821,4,1,0,90,0,1
259096,-84.2105263157895,4,1,0,90,0,1
259245,-86.4864864864865,4,1,0,90,0,1
259319,-87.6712328767123,4,1,0,90,0,1
259393,-88.8888888888889,4,1,0,90,0,1
259542,-91.4285714285714,4,1,0,90,0,1
259690,-94.1176470588235,4,1,0,90,0,1
259764,-95.5223880597015,4,1,0,90,0,1
259839,-96.969696969697,4,1,0,90,0,1
259987,-100,4,1,0,90,0,1
260136,-97.5609756097561,4,1,0,90,0,1
260284,-95.2380952380952,4,1,0,90,0,1
260358,-94.1176470588235,4,1,0,90,0,1
260433,-93.0232558139535,4,1,0,90,0,1
260581,-90.9090909090909,4,1,0,90,0,1
260730,-88.8888888888889,4,1,0,90,0,1
260804,-87.9120879120879,4,1,0,90,0,1
260878,-86.9565217391304,4,1,0,90,0,1
261027,-85.1063829787234,4,1,0,90,0,1
261175,-83.3333333333333,4,1,0,90,0,1
261250,-82.4742268041237,4,1,0,90,0,1
261324,-81.6326530612245,4,1,0,90,0,1
261398,-80.8080808080808,4,1,0,90,0,1
261472,-80,4,1,0,90,0,1
261547,-79.2079207920792,4,1,0,90,0,1
261621,-78.4313725490196,4,1,0,90,0,1
261695,-77.6699029126214,4,1,0,90,0,1
261769,-76.9230769230769,4,1,0,90,0,1
262363,-76.9230769230769,4,1,0,60,0,0
262660,-79.0095364510496,4,1,0,60,0,0
262957,-81.2124037328469,4,1,0,60,0,0
263106,-82.3605183441583,4,1,0,60,0,0
263403,-84.7569678703286,4,1,0,60,0,0
263552,-86.0082619536433,4,1,0,60,0,0
263849,-88.625061926762,4,1,0,60,0,0
263997,-89.9941773767237,4,1,0,60,0,0
264294,-92.8631855972914,4,1,0,60,0,0
264443,-94.3673987060342,4,1,0,60,0,0
264740,-97.5269125515186,4,1,0,60,0,0
265037,-100.905424372898,4,1,0,60,0,0
265334,-104.526302476124,4,1,0,60,0,0
265482,-106.435970249018,4,1,0,60,0,0
265779,-110.472579601017,4,1,0,60,0,0
265928,-112.608047421501,4,1,0,60,0,0
266225,-117.136344362111,4,1,0,60,0,0
266373,-119.539867143392,4,1,0,60,0,0
266670,-124.655483407732,4,1,0,60,0,0
266819,-127.381070663375,4,1,0,60,0,0
266967,-130.228681564828,4,1,0,60,0,0
267116,-133.206343286067,4,1,0,60,0,0
281522,-133.333333333333,4,1,0,60,0,0
281967,-135.59156566225,4,1,0,60,0,0
282413,-137.927800313648,4,1,0,60,0,0
282561,-138.888888888889,4,1,0,60,0,0
282858,-140.345755803999,4,1,0,60,0,0
283304,-142.850000357125,4,1,0,60,0,0
283750,-143.884892086331,4,1,0,60,0,0
283898,-146.331470045948,4,1,0,60,0,0
284344,-149.056176291721,4,1,0,60,0,0
284789,-151.884045644193,4,1,0,60,0,0
284938,-151.515151515152,4,1,0,60,0,0
285235,-154.821289785201,4,1,0,60,0,0
285680,-157.874628599936,4,1,0,60,0,0
286126,-160,4,1,0,60,0,0
286274,-162.137885300417,4,1,0,60,0,0
286720,-165.489484798136,4,1,0,60,0,0
287165,-168.982572827264,4,1,0,60,0,0
287314,-171.673819742489,4,1,0,60,0,0
287611,-172.626600032799,4,1,0,60,0,0
288056,-176.430943164536,4,1,0,60,0,0
288502,-179.372197309417,4,1,0,60,0,0
288651,-181.772243014947,4,1,0,60,0,0
289096,-185.995643982018,4,1,0,60,0,0
289542,-190.41960864962,4,1,0,60,0,0
289690,-193.236714975845,4,1,0,60,0,0
289987,-195.059151687749,4,1,0,60,0,0
290433,-199.930823934919,4,1,0,60,0,0
300235,-200,4,1,0,15,0,0
302759,-200,4,1,0,10,0,0
305136,-200,4,1,0,5,0,0

[HitObjects]
256,190,5878,5,8,0:0:0:0:
239,198,6175,1,0,0:0:0:0:
269,197,6324,1,8,0:0:0:0:
267,177,6769,1,8,0:0:0:0:
284,198,7066,1,0,0:0:0:0:
276,183,7215,1,8,0:0:0:0:
275,181,7660,1,8,0:0:0:0:
284,198,7957,1,0,0:0:0:0:
276,183,8106,1,8,0:0:0:0:
268,176,8552,1,8,0:0:0:0:
284,198,8849,1,0,0:0:0:0:
268,176,8997,1,8,0:0:0:0:
268,176,9443,1,8,0:0:0:0:
284,198,9740,1,0,0:0:0:0:
268,176,9888,1,8,0:0:0:0:
268,176,10334,1,8,0:0:0:0:
289,198,10631,1,0,0:0:0:0:
268,176,10779,1,0,0:0:0:0:
268,176,11224,1,8,0:0:0:0:
276,189,11522,1,0,0:0:0:0:
268,176,11670,1,0,0:0:0:0:
262,182,12116,1,8,0:0:0:0:
281,171,12413,1,0,0:0:0:0:
261,180,12561,1,0,0:0:0:0:
262,182,13007,1,8,0:0:0:0:
273,181,13304,1,0,0:0:0:0:
261,180,13453,1,0,0:0:0:0:
262,182,13898,1,8,0:0:0:0:
281,193,14195,1,0,0:0:0:0:
261,180,14344,1,0,0:0:0:0:
262,182,14789,1,8,0:0:0:0:
281,193,15086,1,0,0:0:0:0:
251,179,15235,1,0,0:0:0:0:
256,190,15383,1,8,0:0:0:0:
291,186,15680,1,0,0:0:0:0:
269,197,15829,1,8,0:0:0:0:
267,177,16274,1,8,0:0:0:0:
291,186,16571,1,0,0:0:0:0:
276,183,16720,1,8,0:0:0:0:
275,181,17165,1,8,0:0:0:0:
291,186,17462,1,0,0:0:0:0:
276,183,17611,1,8,0:0:0:0:
268,176,18057,1,8,0:0:0:0:
291,186,18354,1,0,0:0:0:0:
268,176,18502,1,8,0:0:0:0:
268,176,18948,1,8,0:0:0:0:
291,186,19245,1,0,0:0:0:0:
268,176,19393,1,8,0:0:0:0:
259,178,19839,1,8,0:0:0:0:
291,186,20136,1,0,0:0:0:0:
268,176,20284,1,0,0:0:0:0:
268,176,20729,1,8,0:0:0:0:
298,197,21027,1,0,0:0:0:0:
268,176,21175,1,0,0:0:0:0:
262,182,21621,1,8,0:0:0:0:
289,203,21918,1,0,0:0:0:0:
261,180,22066,1,0,0:0:0:0:
262,182,22512,1,8,0:0:0:0:
269,181,22809,1,0,0:0:0:0:
261,180,22958,1,0,0:0:0:0:
262,182,23403,1,0,0:0:0:0:
261,180,23849,1,0,0:0:0:0:
262,182,24294,1,0,0:0:0:0:
270,197,24740,1,0,0:0:0:0:
267,195,25037,1,8,0:0:0:0:
265,193,25334,1,0,0:0:0:0:
265,193,25779,1,8,0:0:0:0:
279,198,26225,1,0,0:0:0:0:
279,198,26670,1,0,0:0:0:0:
273,210,26967,1,0,0:0:0:0:
279,198,27561,1,0,0:0:0:0:
288,200,27636,1,8,0:0:0:0:
288,200,27710,1,8,0:0:0:0:
281,203,28155,1,8,0:0:0:0:
275,153,28824,1,8,0:0:0:0:
260,145,29158,1,8,0:0:0:0:
276,184,29492,1,8,0:0:0:0:
271,156,29641,1,0,0:0:0:0:
269,165,30086,1,0,0:0:0:0:
269,165,30532,1,8,0:0:0:0:
269,165,30977,1,0,0:0:0:0:
258,162,31423,1,0,0:0:0:0:
258,162,31720,1,0,0:0:0:0:
275,168,32017,1,0,0:0:0:0:
278,175,32388,1,0,0:0:0:0:
272,160,32462,1,0,0:0:0:0:
264,152,32982,1,0,0:0:0:0:
264,152,33056,1,8,0:0:0:0:
264,152,33576,1,0,0:0:0:0:
264,152,33651,1,8,0:0:0:0:
279,134,34393,1,0,0:0:0:0:
273,140,34467,1,8,0:0:0:0:
282,166,34542,1,8,0:0:0:0:
290,145,34839,1,0,0:0:0:0:
290,145,35284,1,8,0:0:0:0:
290,145,35730,1,0,0:0:0:0:
291,132,36175,1,0,0:0:0:0:
291,132,36769,1,0,0:0:0:0:
278,141,37141,1,0,0:0:0:0:
291,132,37215,1,8,0:0:0:0:
286,137,37660,1,8,0:0:0:0:
291,132,38329,1,8,0:0:0:0:
264,144,38663,1,8,0:0:0:0:
288,136,38997,1,8,0:0:0:0:
281,120,39146,1,0,0:0:0:0:
284,117,39591,1,0,0:0:0:0:
281,120,40037,1,8,0:0:0:0:
284,117,40482,1,0,0:0:0:0:
281,120,40928,1,0,0:0:0:0:
291,123,41522,1,0,0:0:0:0:
256,144,41893,1,0,0:0:0:0:
256,144,41967,1,8,0:0:0:0:
301,138,42487,1,0,0:0:0:0:
256,144,42561,1,0,0:0:0:0:
256,192,42710,12,0,43601,0:0:0:0:
271,175,43750,5,12,0:0:0:0:
276,183,44195,1,12,0:0:0:0:
276,183,44938,1,12,0:0:0:0:
276,183,45383,1,12,0:0:0:0:
276,183,45680,1,4,0:0:0:0:
271,180,46126,1,12,0:0:0:0:
271,180,46571,1,12,0:0:0:0:
265,176,47017,1,0,0:0:0:0:
248,174,47165,1,8,0:0:0:0:
256,192,47314,12,0,48353,0:0:0:0:
262,173,48502,5,12,0:0:0:0:
260,168,48948,1,12,0:0:0:0:
260,168,49690,1,12,0:0:0:0:
260,168,50136,1,12,0:0:0:0:
260,168,50433,1,4,0:0:0:0:
260,168,50878,1,12,0:0:0:0:
260,168,51324,1,12,0:0:0:0:
283,143,51769,1,0,0:0:0:0:
282,219,51918,1,8,0:0:0:0:
256,192,52066,12,0,53106,0:0:0:0:
271,163,53254,5,4,0:0:0:0:
271,174,53552,1,0,0:0:0:0:
285,163,53700,1,8,0:0:0:0:
285,163,53774,1,8,0:0:0:0:
285,163,53848,1,0,0:0:0:0:
285,163,53997,1,8,0:0:0:0:
285,163,54071,1,8,0:0:0:0:
285,163,54145,1,0,0:0:0:0:
285,163,54294,1,8,0:0:0:0:
285,163,54368,1,8,0:0:0:0:
285,163,54442,1,0,0:0:0:0:
279,167,54740,1,0,0:0:0:0:
285,163,54888,1,8,0:0:0:0:
285,163,54962,1,8,0:0:0:0:
285,163,55037,1,0,0:0:0:0:
285,163,55185,1,8,0:0:0:0:
285,163,55259,1,8,0:0:0:0:
285,163,55333,1,0,0:0:0:0:
285,163,55482,1,8,0:0:0:0:
285,163,55556,1,8,0:0:0:0:
285,163,55630,1,0,0:0:0:0:
285,163,55928,1,0,0:0:0:0:
285,163,56076,1,8,0:0:0:0:
285,163,56150,1,8,0:0:0:0:
285,163,56224,1,0,0:0:0:0:
285,163,56373,1,8,0:0:0:0:
285,163,56447,1,8,0:0:0:0:
285,163,56521,1,0,0:0:0:0:
285,163,56670,1,8,0:0:0:0:
285,163,56744,1,8,0:0:0:0:
285,163,56818,1,0,0:0:0:0:
276,163,56967,1,8,0:0:0:0:
276,163,57042,1,8,0:0:0:0:
276,163,57116,1,0,0:0:0:0:
280,154,57264,1,8,0:0:0:0:
280,154,57339,1,8,0:0:0:0:
280,154,57413,1,0,0:0:0:0:
280,154,57561,1,0,0:0:0:0:
280,154,57710,1,8,0:0:0:0:
287,159,58007,1,8,0:0:0:0:
287,159,58155,1,0,0:0:0:0:
287,159,58230,1,0,0:0:0:0:
287,159,58304,1,8,0:0:0:0:
285,155,58453,1,0,0:0:0:0:
285,155,58601,1,8,0:0:0:0:
285,155,58675,1,8,0:0:0:0:
285,155,58750,1,0,0:0:0:0:
287,159,58824,1,0,0:0:0:0:
287,159,58898,1,8,0:0:0:0:
287,159,59047,1,0,0:0:0:0:
283,153,59195,1,8,0:0:0:0:
283,153,59344,1,0,0:0:0:0:
285,155,59418,1,0,0:0:0:0:
285,155,59492,1,8,0:0:0:0:
285,155,59641,1,0,0:0:0:0:
285,155,59789,1,8,0:0:0:0:
283,150,59863,1,8,0:0:0:0:
283,150,59938,1,0,0:0:0:0:
283,149,60012,1,0,0:0:0:0:
278,133,60086,1,8,0:0:0:0:
278,133,60160,1,0,0:0:0:0:
278,133,60235,1,8,0:0:0:0:
278,133,60309,1,8,0:0:0:0:
278,133,60383,1,0,0:0:0:0:
276,128,60532,1,0,0:0:0:0:
282,128,60680,1,8,0:0:0:0:
281,127,60829,1,0,0:0:0:0:
281,127,60903,1,0,0:0:0:0:
281,127,60977,1,8,0:0:0:0:
281,127,61052,1,8,0:0:0:0:
281,127,61126,1,0,0:0:0:0:
281,127,61200,1,8,0:0:0:0:
281,127,61274,1,8,0:0:0:0:
281,127,61349,1,8,0:0:0:0:
289,128,61423,1,0,0:0:0:0:
289,127,61497,1,0,0:0:0:0:
289,127,61571,1,8,0:0:0:0:
282,120,62017,1,0,0:0:0:0:
280,117,62165,1,8,0:0:0:0:
280,117,62314,1,8,0:0:0:0:
280,117,62462,1,0,0:0:0:0:
257,188,62759,1,0,0:0:0:0:
262,198,62834,1,0,0:0:0:0:
262,198,62908,1,0,0:0:0:0:
262,198,62982,1,0,0:0:0:0:
262,198,63056,1,0,0:0:0:0:
262,198,63205,1,0,0:0:0:0:
277,199,63353,1,8,0:0:0:0:
269,186,63502,1,8,0:0:0:0:
269,186,63576,1,8,0:0:0:0:
269,186,63651,1,8,0:0:0:0:
269,186,63799,1,8,0:0:0:0:
269,185,63948,1,0,0:0:0:0:
269,185,64022,1,8,0:0:0:0:
269,183,64096,1,8,0:0:0:0:
269,183,64170,1,0,0:0:0:0:
269,183,64245,1,8,0:0:0:0:
261,183,64393,1,0,0:0:0:0:
261,182,64467,1,0,0:0:0:0:
261,182,64542,1,8,0:0:0:0:
261,182,64690,1,8,0:0:0:0:
261,182,64764,1,8,0:0:0:0:
258,198,64839,1,0,0:0:0:0:
258,198,64913,1,8,0:0:0:0:
260,177,64987,1,8,0:0:0:0:
259,174,65136,1,0,0:0:0:0:
259,173,65210,1,0,0:0:0:0:
259,173,65284,1,8,0:0:0:0:
258,173,65358,1,8,0:0:0:0:
237,201,65433,1,8,0:0:0:0:
262,168,65581,1,0,0:0:0:0:
268,169,65730,1,8,0:0:0:0:
264,165,65878,1,8,0:0:0:0:
264,165,65953,1,8,0:0:0:0:
264,165,66027,1,0,0:0:0:0:
264,165,66175,1,0,0:0:0:0:
277,173,66250,1,0,0:0:0:0:
277,173,66324,1,0,0:0:0:0:
264,163,66472,1,0,0:0:0:0:
265,160,66621,1,0,0:0:0:0:
286,154,66695,1,0,0:0:0:0:
265,151,66769,1,0,0:0:0:0:
261,145,66918,1,8,0:0:0:0:
264,140,66992,1,0,0:0:0:0:
264,140,67066,1,8,0:0:0:0:
264,140,67141,1,8,0:0:0:0:
264,140,67215,1,0,0:0:0:0:
264,138,67289,1,0,0:0:0:0:
264,138,67363,1,8,0:0:0:0:
264,138,67438,1,8,0:0:0:0:
264,138,67512,1,0,0:0:0:0:
267,151,67660,1,0,0:0:0:0:
270,147,67735,1,0,0:0:0:0:
270,147,67809,1,0,0:0:0:0:
270,147,67957,1,0,0:0:0:0:
259,127,68106,1,8,0:0:0:0:
259,127,68254,1,8,0:0:0:0:
259,127,68329,1,8,0:0:0:0:
259,127,68403,1,8,0:0:0:0:
259,127,68552,1,8,0:0:0:0:
259,127,68700,1,0,0:0:0:0:
259,127,68774,1,8,0:0:0:0:
259,127,68849,1,8,0:0:0:0:
259,127,68923,1,8,0:0:0:0:
259,127,68997,1,8,0:0:0:0:
259,127,69146,1,0,0:0:0:0:
259,127,69220,1,0,0:0:0:0:
259,127,69294,1,8,0:0:0:0:
259,127,69443,1,0,0:0:0:0:
259,127,69591,1,8,0:0:0:0:
273,133,69888,1,4,0:0:0:0:
271,123,70037,1,8,0:0:0:0:
274,143,70111,1,8,0:0:0:0:
274,137,70185,1,8,0:0:0:0:
259,127,70334,1,0,0:0:0:0:
268,125,70482,1,12,0:0:0:0:
259,127,70631,1,0,0:0:0:0:
259,122,70705,1,0,0:0:0:0:
259,122,70779,1,0,0:0:0:0:
260,121,70928,1,12,0:0:0:0:
256,111,71225,1,12,0:0:0:0:
256,111,71373,1,12,0:0:0:0:
251,107,71522,1,0,0:0:0:0:
251,107,71596,1,0,0:0:0:0:
251,107,71670,1,8,0:0:0:0:
254,109,71819,1,8,0:0:0:0:
254,109,71967,1,8,0:0:0:0:
256,111,72116,1,8,0:0:0:0:
266,125,72264,1,0,0:0:0:0:
261,114,72710,1,0,0:0:0:0:
261,114,72784,1,0,0:0:0:0:
261,114,72858,1,8,0:0:0:0:
261,112,73007,1,8,0:0:0:0:
261,112,73081,1,8,0:0:0:0:
261,112,73155,1,8,0:0:0:0:
261,112,73304,1,8,0:0:0:0:
264,180,73453,1,0,0:0:0:0:
251,149,73527,1,0,0:0:0:0:
259,168,73601,1,8,0:0:0:0:
259,168,73675,1,8,0:0:0:0:
259,168,73750,1,8,0:0:0:0:
252,180,73898,1,0,0:0:0:0:
253,179,73972,1,0,0:0:0:0:
254,178,74047,1,8,0:0:0:0:
253,140,74195,1,8,0:0:0:0:
253,140,74344,1,8,0:0:0:0:
253,140,74418,1,8,0:0:0:0:
253,140,74492,1,8,0:0:0:0:
262,160,74641,1,0,0:0:0:0:
262,160,74715,1,8,0:0:0:0:
262,160,74789,1,0,0:0:0:0:
262,160,74863,1,0,0:0:0:0:
261,160,74938,1,8,0:0:0:0:
262,158,75086,1,0,0:0:0:0:
264,157,75235,1,8,0:0:0:0:
264,157,75383,1,8,0:0:0:0:
264,157,75457,1,8,0:0:0:0:
260,156,75532,1,8,0:0:0:0:
262,160,75680,1,0,0:0:0:0:
260,153,75754,1,0,0:0:0:0:
262,160,75829,1,0,0:0:0:0:
263,149,75977,1,0,0:0:0:0:
263,149,76126,1,0,0:0:0:0:
257,147,76200,1,0,0:0:0:0:
261,145,76274,1,0,0:0:0:0:
261,145,76423,1,8,0:0:0:0:
260,145,76497,1,8,0:0:0:0:
260,145,76571,1,0,0:0:0:0:
260,145,76646,1,8,0:0:0:0:
260,145,76720,1,8,0:0:0:0:
260,145,76794,1,0,0:0:0:0:
260,145,76868,1,0,0:0:0:0:
263,149,76943,1,8,0:0:0:0:
263,149,77017,1,0,0:0:0:0:
257,143,77165,1,0,0:0:0:0:
261,145,77240,1,0,0:0:0:0:
261,145,77314,1,0,0:0:0:0:
261,145,77462,1,0,0:0:0:0:
260,145,77611,1,8,0:0:0:0:
254,143,77759,1,8,0:0:0:0:
254,143,77834,1,8,0:0:0:0:
254,143,77908,1,8,0:0:0:0:
254,143,78056,1,8,0:0:0:0:
257,143,78205,1,0,0:0:0:0:
254,143,78279,1,8,0:0:0:0:
254,143,78354,1,8,0:0:0:0:
254,143,78428,1,8,0:0:0:0:
254,143,78502,1,8,0:0:0:0:
253,143,78651,1,0,0:0:0:0:
254,143,78725,1,0,0:0:0:0:
254,143,78799,1,8,0:0:0:0:
254,143,78948,1,8,0:0:0:0:
254,143,79096,1,8,0:0:0:0:
257,143,79170,1,8,0:0:0:0:
257,143,79245,1,8,0:0:0:0:
254,143,79393,1,0,0:0:0:0:
254,143,79542,1,0,0:0:0:0:
253,143,79616,1,0,0:0:0:0:
253,143,79690,1,8,0:0:0:0:
254,143,79839,1,0,0:0:0:0:
254,143,79987,1,0,0:0:0:0:
254,143,80061,1,0,0:0:0:0:
266,152,80136,1,8,0:0:0:0:
245,137,80284,1,0,0:0:0:0:
245,137,80358,1,8,0:0:0:0:
244,137,80433,1,0,0:0:0:0:
244,137,80507,1,0,0:0:0:0:
244,137,80581,1,8,0:0:0:0:
260,142,80730,1,0,0:0:0:0:
260,130,80878,1,0,0:0:0:0:
252,125,80953,1,0,0:0:0:0:
252,125,81027,1,8,0:0:0:0:
252,125,81175,1,0,0:0:0:0:
261,173,81250,1,0,0:0:0:0:
252,125,81324,1,0,0:0:0:0:
254,122,81472,1,8,0:0:0:0:
272,193,81621,1,8,0:0:0:0:
246,159,81769,1,4,0:0:0:0:
242,149,82066,1,0,0:0:0:0:
250,173,82215,1,8,0:0:0:0:
250,173,82289,1,8,0:0:0:0:
250,173,82363,1,0,0:0:0:0:
250,173,82512,1,8,0:0:0:0:
250,173,82586,1,8,0:0:0:0:
250,173,82660,1,0,0:0:0:0:
250,173,82809,1,8,0:0:0:0:
250,173,82883,1,8,0:0:0:0:
246,159,82957,1,0,0:0:0:0:
242,149,83254,1,0,0:0:0:0:
250,173,83403,1,8,0:0:0:0:
250,173,83477,1,8,0:0:0:0:
250,173,83552,1,0,0:0:0:0:
250,173,83700,1,8,0:0:0:0:
250,173,83774,1,8,0:0:0:0:
250,173,83849,1,0,0:0:0:0:
250,173,83997,1,8,0:0:0:0:
250,173,84071,1,8,0:0:0:0:
246,159,84146,1,0,0:0:0:0:
242,149,84443,1,0,0:0:0:0:
250,173,84591,1,8,0:0:0:0:
250,173,84665,1,8,0:0:0:0:
250,173,84740,1,0,0:0:0:0:
250,173,84888,1,8,0:0:0:0:
250,173,84962,1,8,0:0:0:0:
250,173,85037,1,0,0:0:0:0:
250,173,85185,1,8,0:0:0:0:
250,173,85259,1,8,0:0:0:0:
246,159,85334,1,0,0:0:0:0:
242,149,85631,1,0,0:0:0:0:
250,173,85779,1,8,0:0:0:0:
250,173,85854,1,8,0:0:0:0:
250,173,85928,1,0,0:0:0:0:
250,173,86076,1,0,0:0:0:0:
250,173,86225,1,8,0:0:0:0:
242,149,86522,1,0,0:0:0:0:
250,173,86671,1,8,0:0:0:0:
250,173,86745,1,8,0:0:0:0:
250,173,86819,1,0,0:0:0:0:
267,171,86967,1,8,0:0:0:0:
264,181,87116,1,0,0:0:0:0:
259,164,87190,1,0,0:0:0:0:
250,173,87265,1,8,0:0:0:0:
259,164,87339,1,8,0:0:0:0:
250,173,87414,1,0,0:0:0:0:
250,173,87562,1,8,0:0:0:0:
262,178,87710,1,0,0:0:0:0:
258,174,87858,1,8,0:0:0:0:
258,174,87933,1,0,0:0:0:0:
258,174,88007,1,0,0:0:0:0:
257,174,88155,1,8,0:0:0:0:
257,174,88304,1,0,0:0:0:0:
257,174,88378,1,8,0:0:0:0:
257,174,88453,1,8,0:0:0:0:
257,174,88527,1,0,0:0:0:0:
257,174,88601,1,8,0:0:0:0:
257,174,88750,1,8,0:0:0:0:
250,172,88898,1,0,0:0:0:0:
250,172,88972,1,0,0:0:0:0:
248,172,89047,1,8,0:0:0:0:
246,173,89121,1,0,0:0:0:0:
246,173,89195,1,0,0:0:0:0:
248,172,89269,1,8,0:0:0:0:
246,173,89344,1,0,0:0:0:0:
246,173,89418,1,0,0:0:0:0:
246,173,89492,1,8,0:0:0:0:
246,173,89566,1,0,0:0:0:0:
246,173,89641,1,0,0:0:0:0:
246,173,89715,1,8,0:0:0:0:
246,173,89789,1,0,0:0:0:0:
250,172,89863,1,0,0:0:0:0:
250,172,89938,1,8,0:0:0:0:
250,172,90012,1,0,0:0:0:0:
248,172,90086,1,0,0:0:0:0:
269,176,91274,1,0,0:0:0:0:
269,176,91349,1,0,0:0:0:0:
269,176,91423,1,8,0:0:0:0:
269,176,91497,1,0,0:0:0:0:
269,176,91571,1,8,0:0:0:0:
269,176,91720,1,0,0:0:0:0:
269,176,91868,1,8,0:0:0:0:
269,176,91943,1,8,0:0:0:0:
269,176,92017,1,0,0:0:0:0:
269,176,92091,1,0,0:0:0:0:
269,176,92165,1,8,0:0:0:0:
269,176,92314,1,0,0:0:0:0:
269,176,92462,1,8,0:0:0:0:
269,176,92537,1,0,0:0:0:0:
269,176,92611,1,0,0:0:0:0:
269,176,92685,1,0,0:0:0:0:
269,176,92759,1,8,0:0:0:0:
273,166,92908,1,0,0:0:0:0:
276,185,92982,1,0,0:0:0:0:
273,162,93056,1,8,0:0:0:0:
273,162,93131,1,8,0:0:0:0:
273,162,93205,1,0,0:0:0:0:
273,162,93279,1,8,0:0:0:0:
273,162,93354,1,8,0:0:0:0:
273,161,93502,1,8,0:0:0:0:
261,166,93651,1,0,0:0:0:0:
262,165,93725,1,0,0:0:0:0:
262,165,93799,1,0,0:0:0:0:
263,162,93873,1,0,0:0:0:0:
265,162,93948,1,8,0:0:0:0:
265,162,94096,1,0,0:0:0:0:
265,162,94170,1,0,0:0:0:0:
263,162,94245,1,8,0:0:0:0:
263,162,94393,1,8,0:0:0:0:
263,162,94542,1,0,0:0:0:0:
261,166,94690,1,0,0:0:0:0:
261,145,94764,1,0,0:0:0:0:
262,165,94839,1,8,0:0:0:0:
263,162,94913,1,8,0:0:0:0:
260,167,94987,1,8,0:0:0:0:
268,148,95136,1,8,0:0:0:0:
268,147,95284,1,0,0:0:0:0:
258,150,95358,1,0,0:0:0:0:
255,142,95507,1,8,0:0:0:0:
255,142,95581,1,0,0:0:0:0:
255,142,95655,1,0,0:0:0:0:
255,142,95730,1,8,0:0:0:0:
256,158,95878,1,8,0:0:0:0:
251,158,96027,1,0,0:0:0:0:
251,158,96101,1,0,0:0:0:0:
251,158,96175,1,0,0:0:0:0:
250,157,96324,1,8,0:0:0:0:
249,156,96472,1,0,0:0:0:0:
249,156,96621,1,8,0:0:0:0:
249,156,96695,1,8,0:0:0:0:
249,156,96769,1,0,0:0:0:0:
249,156,96844,1,0,0:0:0:0:
249,156,96918,1,8,0:0:0:0:
251,158,97066,1,0,0:0:0:0:
251,158,97215,1,8,0:0:0:0:
250,157,97289,1,0,0:0:0:0:
250,157,97363,1,0,0:0:0:0:
249,156,97438,1,0,0:0:0:0:
249,156,97512,1,8,0:0:0:0:
249,156,97660,1,0,0:0:0:0:
268,176,97735,1,0,0:0:0:0:
249,156,97809,1,8,0:0:0:0:
249,156,97883,1,8,0:0:0:0:
249,156,97957,1,0,0:0:0:0:
251,158,98032,1,8,0:0:0:0:
251,158,98106,1,8,0:0:0:0:
251,158,98254,1,8,0:0:0:0:
250,157,98403,1,4,0:0:0:0:
249,156,98552,1,8,0:0:0:0:
249,156,98626,1,8,0:0:0:0:
249,156,98700,1,8,0:0:0:0:
266,145,98849,1,0,0:0:0:0:
266,143,98997,1,12,0:0:0:0:
266,143,99146,1,0,0:0:0:0:
261,141,99220,1,0,0:0:0:0:
261,141,99294,1,0,0:0:0:0:
272,157,99443,1,12,0:0:0:0:
246,121,99591,1,0,0:0:0:0:
260,146,99740,1,0,0:0:0:0:
250,150,99814,1,0,0:0:0:0:
268,174,99888,1,8,0:0:0:0:
253,148,100037,1,8,0:0:0:0:
253,148,100111,1,0,0:0:0:0:
248,148,100259,1,8,0:0:0:0:
248,148,100334,1,0,0:0:0:0:
248,148,100408,1,0,0:0:0:0:
248,148,100482,1,8,0:0:0:0:
247,148,100631,1,8,0:0:0:0:
246,148,100779,1,0,0:0:0:0:
246,148,100854,1,0,0:0:0:0:
246,148,100928,1,8,0:0:0:0:
246,148,101002,1,0,0:0:0:0:
246,148,101076,1,8,0:0:0:0:
249,141,101225,1,0,0:0:0:0:
245,132,101373,1,8,0:0:0:0:
243,132,101448,1,8,0:0:0:0:
243,132,101522,1,0,0:0:0:0:
251,137,101596,1,0,0:0:0:0:
243,132,101670,1,8,0:0:0:0:
241,130,101819,1,0,0:0:0:0:
241,130,101893,1,8,0:0:0:0:
241,130,101967,1,8,0:0:0:0:
241,130,102042,1,8,0:0:0:0:
241,130,102116,1,0,0:0:0:0:
245,132,102264,1,8,0:0:0:0:
245,132,102413,1,0,0:0:0:0:
243,132,102487,1,0,0:0:0:0:
243,132,102561,1,8,0:0:0:0:
244,137,102636,1,8,0:0:0:0:
243,132,102710,1,0,0:0:0:0:
264,125,102784,1,8,0:0:0:0:
241,130,102858,1,8,0:0:0:0:
241,130,103007,1,8,0:0:0:0:
223,114,103155,1,0,0:0:0:0:
222,116,103230,1,0,0:0:0:0:
222,116,103304,1,0,0:0:0:0:
222,116,103453,1,8,0:0:0:0:
222,117,103601,1,0,0:0:0:0:
222,117,103675,1,8,0:0:0:0:
222,117,103750,1,8,0:0:0:0:
221,117,103898,1,8,0:0:0:0:
221,117,104047,1,0,0:0:0:0:
223,114,104195,1,0,0:0:0:0:
222,116,104269,1,0,0:0:0:0:
222,116,104344,1,8,0:0:0:0:
222,116,104418,1,8,0:0:0:0:
222,116,104492,1,0,0:0:0:0:
222,117,104641,1,8,0:0:0:0:
230,116,104789,1,8,0:0:0:0:
230,116,104863,1,0,0:0:0:0:
226,109,105012,1,8,0:0:0:0:
226,109,105086,1,0,0:0:0:0:
225,108,105160,1,0,0:0:0:0:
225,108,105235,1,8,0:0:0:0:
223,105,105383,1,8,0:0:0:0:
223,105,105532,1,4,0:0:0:0:
222,104,106126,1,8,0:0:0:0:
218,111,106274,1,8,0:0:0:0:
218,111,106349,1,0,0:0:0:0:
239,132,106423,1,8,0:0:0:0:
216,110,106646,1,0,0:0:0:0:
216,110,106720,1,8,0:0:0:0:
216,110,106868,1,8,0:0:0:0:
233,110,106943,1,0,0:0:0:0:
216,110,107017,1,8,0:0:0:0:
231,111,107240,1,0,0:0:0:0:
213,105,107314,1,8,0:0:0:0:
237,111,107834,1,0,0:0:0:0:
237,110,107908,1,8,0:0:0:0:
224,102,108056,1,0,0:0:0:0:
221,88,108131,1,0,0:0:0:0:
224,102,108205,1,8,0:0:0:0:
226,102,108354,1,0,0:0:0:0:
226,102,108502,1,8,0:0:0:0:
226,102,108651,1,0,0:0:0:0:
226,102,108725,1,8,0:0:0:0:
244,172,108799,1,0,0:0:0:0:
244,172,108873,1,0,0:0:0:0:
244,172,108948,1,8,0:0:0:0:
244,172,109245,1,0,0:0:0:0:
244,172,109393,1,0,0:0:0:0:
244,172,109542,1,0,0:0:0:0:
244,172,109690,1,8,0:0:0:0:
243,136,109839,1,0,0:0:0:0:
245,155,109913,1,8,0:0:0:0:
245,145,110136,1,8,0:0:0:0:
251,146,110284,1,0,0:0:0:0:
250,151,110358,1,0,0:0:0:0:
250,151,110433,1,0,0:0:0:0:
250,151,110507,1,0,0:0:0:0:
250,151,110581,1,8,0:0:0:0:
250,152,110730,1,0,0:0:0:0:
251,163,110878,1,8,0:0:0:0:
251,163,111027,1,0,0:0:0:0:
251,163,111101,1,0,0:0:0:0:
251,163,111175,1,8,0:0:0:0:
251,163,111324,1,8,0:0:0:0:
250,163,111472,1,0,0:0:0:0:
250,163,111621,1,8,0:0:0:0:
250,163,111695,1,0,0:0:0:0:
250,163,111769,1,8,0:0:0:0:
251,163,111918,1,0,0:0:0:0:
266,154,111992,1,8,0:0:0:0:
251,163,112066,1,8,0:0:0:0:
251,163,112141,1,8,0:0:0:0:
251,163,112215,1,0,0:0:0:0:
251,163,112363,1,8,0:0:0:0:
237,162,112438,1,0,0:0:0:0:
250,163,112512,1,8,0:0:0:0:
246,157,112586,1,8,0:0:0:0:
250,163,112660,1,0,0:0:0:0:
250,163,112809,1,0,0:0:0:0:
251,163,112883,1,0,0:0:0:0:
251,163,112957,1,8,0:0:0:0:
250,170,113106,1,0,0:0:0:0:
250,170,113180,1,8,0:0:0:0:
246,165,113254,1,0,0:0:0:0:
221,114,113329,1,8,0:0:0:0:
246,165,113403,1,0,0:0:0:0:
250,163,113552,1,8,0:0:0:0:
267,169,113626,1,0,0:0:0:0:
250,163,113700,1,0,0:0:0:0:
257,148,113774,1,8,0:0:0:0:
262,140,113849,1,8,0:0:0:0:
280,188,113923,1,8,0:0:0:0:
281,173,113997,1,0,0:0:0:0:
270,161,114146,1,8,0:0:0:0:
279,159,114220,1,0,0:0:0:0:
268,155,114294,1,8,0:0:0:0:
267,154,114368,1,0,0:0:0:0:
246,165,114443,1,8,0:0:0:0:
270,163,114517,1,8,0:0:0:0:
283,157,114591,1,0,0:0:0:0:
267,154,114740,1,8,0:0:0:0:
264,147,114814,1,0,0:0:0:0:
272,160,114888,1,8,0:0:0:0:
264,130,114962,1,8,0:0:0:0:
272,161,115037,1,0,0:0:0:0:
271,151,115185,1,0,0:0:0:0:
264,143,115259,1,0,0:0:0:0:
271,151,115334,1,8,0:0:0:0:
263,142,115482,1,0,0:0:0:0:
263,142,115631,1,8,0:0:0:0:
263,142,115779,1,8,0:0:0:0:
263,142,115854,1,0,0:0:0:0:
263,142,115928,1,8,0:0:0:0:
263,142,116076,1,8,0:0:0:0:
251,116,116225,1,0,0:0:0:0:
251,116,116373,1,8,0:0:0:0:
251,116,116448,1,0,0:0:0:0:
251,116,116522,1,8,0:0:0:0:
251,116,116670,1,8,0:0:0:0:
251,116,116745,1,0,0:0:0:0:
236,112,116819,1,8,0:0:0:0:
251,116,116893,1,8,0:0:0:0:
251,116,116967,1,0,0:0:0:0:
251,116,117116,1,8,0:0:0:0:
246,142,117190,1,8,0:0:0:0:
233,133,117264,1,0,0:0:0:0:
233,133,117339,1,8,0:0:0:0:
248,107,117413,1,0,0:0:0:0:
255,157,117561,1,0,0:0:0:0:
255,157,117636,1,0,0:0:0:0:
247,107,117710,1,8,0:0:0:0:
226,117,117858,1,0,0:0:0:0:
208,92,117933,1,8,0:0:0:0:
245,108,118007,1,0,0:0:0:0:
255,157,118081,1,8,0:0:0:0:
245,108,118155,1,0,0:0:0:0:
245,108,118304,1,8,0:0:0:0:
257,121,118378,1,0,0:0:0:0:
250,135,118453,1,0,0:0:0:0:
250,135,118527,1,0,0:0:0:0:
259,116,118601,1,8,0:0:0:0:
241,129,118675,1,8,0:0:0:0:
272,122,118750,1,0,0:0:0:0:
239,127,118898,1,8,0:0:0:0:
267,120,118972,1,0,0:0:0:0:
239,127,119047,1,8,0:0:0:0:
239,127,119121,1,0,0:0:0:0:
239,127,119195,1,8,0:0:0:0:
263,148,119269,1,8,0:0:0:0:
271,145,119344,1,0,0:0:0:0:
240,128,119492,1,8,0:0:0:0:
264,115,119566,1,8,0:0:0:0:
239,127,119641,1,0,0:0:0:0:
239,127,119789,1,0,0:0:0:0:
239,127,120086,1,8,0:0:0:0:
240,144,120235,1,8,0:0:0:0:
239,141,120309,1,0,0:0:0:0:
242,131,120383,1,8,0:0:0:0:
240,128,120532,1,8,0:0:0:0:
222,138,120606,1,0,0:0:0:0:
239,127,120680,1,8,0:0:0:0:
250,132,120754,1,8,0:0:0:0:
239,127,120829,1,0,0:0:0:0:
244,115,120903,1,8,0:0:0:0:
244,115,120977,1,0,0:0:0:0:
239,127,121126,1,0,0:0:0:0:
239,127,121274,1,8,0:0:0:0:
239,127,121423,1,8,0:0:0:0:
237,120,121497,1,0,0:0:0:0:
238,139,121571,1,8,0:0:0:0:
238,139,121646,1,8,0:0:0:0:
238,139,121720,1,0,0:0:0:0:
238,138,121868,1,8,0:0:0:0:
238,138,121943,1,8,0:0:0:0:
238,138,122017,1,8,0:0:0:0:
238,138,122091,1,8,0:0:0:0:
238,138,122165,1,0,0:0:0:0:
237,139,122314,1,0,0:0:0:0:
237,139,122388,1,0,0:0:0:0:
237,139,122462,1,8,0:0:0:0:
226,102,122611,1,0,0:0:0:0:
226,102,122685,1,8,0:0:0:0:
226,102,122759,1,0,0:0:0:0:
216,88,122834,1,8,0:0:0:0:
238,138,122908,1,0,0:0:0:0:
238,138,123056,1,8,0:0:0:0:
246,117,123131,1,0,0:0:0:0:
238,138,123205,1,0,0:0:0:0:
237,139,123279,1,0,0:0:0:0:
246,117,123354,1,8,0:0:0:0:
269,142,123428,1,8,0:0:0:0:
246,168,123502,1,0,0:0:0:0:
238,139,123651,1,8,0:0:0:0:
249,131,123725,1,0,0:0:0:0:
249,131,123799,1,8,0:0:0:0:
249,131,123873,1,0,0:0:0:0:
245,121,123948,1,8,0:0:0:0:
238,138,124022,1,8,0:0:0:0:
273,125,124096,1,0,0:0:0:0:
238,138,124245,1,8,0:0:0:0:
237,139,124319,1,8,0:0:0:0:
247,147,124393,1,0,0:0:0:0:
249,128,124467,1,8,0:0:0:0:
247,147,124542,1,0,0:0:0:0:
252,153,124690,1,0,0:0:0:0:
252,153,124764,1,0,0:0:0:0:
252,153,124839,1,8,0:0:0:0:
251,151,124987,1,0,0:0:0:0:
251,151,125136,1,0,0:0:0:0:
251,151,125210,1,8,0:0:0:0:
251,151,125284,1,8,0:0:0:0:
251,151,125358,1,0,0:0:0:0:
251,151,125433,1,8,0:0:0:0:
237,99,125581,1,8,0:0:0:0:
239,124,125730,1,0,0:0:0:0:
239,124,125878,1,0,0:0:0:0:
239,124,125953,1,8,0:0:0:0:
239,124,126027,1,8,0:0:0:0:
251,151,126175,1,0,0:0:0:0:
251,151,126250,1,8,0:0:0:0:
239,124,126324,1,8,0:0:0:0:
239,124,126398,1,8,0:0:0:0:
239,124,126472,1,0,0:0:0:0:
239,124,126547,1,0,0:0:0:0:
239,124,126621,1,8,0:0:0:0:
239,124,126769,1,0,0:0:0:0:
251,107,126844,1,8,0:0:0:0:
239,124,126918,1,0,0:0:0:0:
239,124,127066,1,0,0:0:0:0:
239,124,127141,1,0,0:0:0:0:
239,124,127215,1,8,0:0:0:0:
239,124,127363,1,0,0:0:0:0:
239,124,127512,1,8,0:0:0:0:
246,123,127586,1,8,0:0:0:0:
239,124,127660,1,0,0:0:0:0:
239,124,127735,1,0,0:0:0:0:
239,124,127809,1,8,0:0:0:0:
239,124,127957,1,0,0:0:0:0:
239,124,128106,1,0,0:0:0:0:
239,124,128180,1,0,0:0:0:0:
239,124,128254,1,0,0:0:0:0:
239,124,128329,1,0,0:0:0:0:
239,124,128403,1,8,0:0:0:0:
281,216,128552,1,0,0:0:0:0:
234,117,128626,1,8,0:0:0:0:
234,117,128700,1,0,0:0:0:0:
228,130,128774,1,0,0:0:0:0:
228,129,128849,1,8,0:0:0:0:
228,129,128923,1,0,0:0:0:0:
228,129,128997,1,0,0:0:0:0:
228,129,129071,1,8,0:0:0:0:
228,127,129146,1,8,0:0:0:0:
252,135,129220,1,0,0:0:0:0:
252,135,129294,1,0,0:0:0:0:
231,165,134047,1,0,0:0:0:0:
231,165,138799,1,8,0:0:0:0:
231,165,143552,1,8,0:0:0:0:
256,192,147116,12,0,148155,0:0:0:0:
271,173,148304,5,0,0:0:0:0:
290,188,148750,1,0,0:0:0:0:
258,189,148898,5,8,0:0:0:0:
270,193,149195,1,0,0:0:0:0:
258,189,149492,1,8,0:0:0:0:
286,173,149938,1,0,0:0:0:0:
258,189,150086,5,8,0:0:0:0:
258,189,150383,1,0,0:0:0:0:
258,189,150680,1,8,0:0:0:0:
286,173,151126,1,0,0:0:0:0:
258,189,151274,5,8,0:0:0:0:
258,189,151571,1,0,0:0:0:0:
258,189,151868,1,8,0:0:0:0:
281,172,152314,1,0,0:0:0:0:
258,189,152462,5,8,0:0:0:0:
266,188,152759,1,8,0:0:0:0:
258,189,153056,1,0,0:0:0:0:
277,168,153502,1,0,0:0:0:0:
258,189,153650,5,8,0:0:0:0:
258,189,153948,1,0,0:0:0:0:
258,189,154244,1,8,0:0:0:0:
277,168,154690,1,0,0:0:0:0:
258,189,154838,5,8,0:0:0:0:
266,188,155136,1,0,0:0:0:0:
258,189,155432,1,8,0:0:0:0:
277,168,155878,1,0,0:0:0:0:
258,189,156026,5,8,0:0:0:0:
266,188,156324,1,0,0:0:0:0:
258,189,156620,1,8,0:0:0:0:
277,168,157066,1,0,0:0:0:0:
266,188,157215,1,8,0:0:0:0:
265,179,157512,1,8,0:0:0:0:
258,189,157808,1,0,0:0:0:0:
269,165,158254,1,8,0:0:0:0:
271,190,158403,1,0,0:0:0:0:
272,183,158700,1,8,0:0:0:0:
272,183,158997,1,0,0:0:0:0:
273,168,159443,1,8,0:0:0:0:
271,190,159591,1,0,0:0:0:0:
272,183,159888,1,8,0:0:0:0:
272,183,160185,1,0,0:0:0:0:
271,178,160631,1,8,0:0:0:0:
271,190,160779,1,0,0:0:0:0:
272,183,161076,1,8,0:0:0:0:
272,183,161373,1,0,0:0:0:0:
272,173,161819,1,8,0:0:0:0:
283,173,161967,1,0,0:0:0:0:
272,176,162264,1,8,0:0:0:0:
272,183,162561,1,0,0:0:0:0:
260,185,162858,1,0,0:0:0:0:
260,185,163155,1,8,0:0:0:0:
260,185,163453,1,8,0:0:0:0:
260,185,163750,1,0,0:0:0:0:
260,185,163898,1,8,0:0:0:0:
260,185,164047,1,0,0:0:0:0:
260,185,164195,1,0,0:0:0:0:
260,185,164344,1,8,0:0:0:0:
260,185,164492,1,0,0:0:0:0:
260,185,164641,1,8,0:0:0:0:
260,185,164789,1,8,0:0:0:0:
260,185,164938,1,0,0:0:0:0:
260,185,165012,1,0,0:0:0:0:
260,185,165086,1,8,0:0:0:0:
260,185,165160,1,8,0:0:0:0:
260,185,165235,1,0,0:0:0:0:
260,185,165309,1,0,0:0:0:0:
260,185,165383,1,8,0:0:0:0:
260,185,165457,1,8,0:0:0:0:
260,185,165532,1,0,0:0:0:0:
264,188,165606,1,8,0:0:0:0:
264,188,165680,1,0,0:0:0:0:
264,188,165754,1,0,0:0:0:0:
264,188,165829,1,8,0:0:0:0:
264,188,165903,1,0,0:0:0:0:
264,188,165977,1,8,0:0:0:0:
264,188,166052,1,8,0:0:0:0:
264,188,166126,1,0,0:0:0:0:
261,178,167314,1,4,0:0:0:0:
261,178,167908,1,8,0:0:0:0:
286,175,168205,1,4,0:0:0:0:
286,175,168799,1,4,0:0:0:0:
271,175,169096,1,8,0:0:0:0:
271,175,169245,1,0,0:0:0:0:
271,175,169393,1,0,0:0:0:0:
271,175,169542,1,8,0:0:0:0:
278,168,169987,1,4,0:0:0:0:
278,168,170284,1,8,0:0:0:0:
278,167,170581,1,4,0:0:0:0:
278,168,171027,1,4,0:0:0:0:
273,169,171472,1,8,0:0:0:0:
271,163,171571,1,8,0:0:0:0:
269,160,171670,1,8,0:0:0:0:
269,160,171769,1,0,0:0:0:0:
308,153,171868,1,8,0:0:0:0:
308,153,171967,1,8,0:0:0:0:
265,153,172066,1,4,0:0:0:0:
288,163,172660,1,8,0:0:0:0:
286,134,172957,1,4,0:0:0:0:
286,134,173552,1,4,0:0:0:0:
300,140,173849,1,8,0:0:0:0:
300,140,173997,1,0,0:0:0:0:
299,140,174146,1,8,0:0:0:0:
299,140,174294,1,8,0:0:0:0:
291,143,174443,1,8,0:0:0:0:
300,140,174740,1,4,0:0:0:0:
300,140,175037,1,8,0:0:0:0:
299,140,175334,1,4,0:0:0:0:
300,140,175779,1,4,0:0:0:0:
299,140,176225,1,8,0:0:0:0:
282,183,176324,1,0,0:0:0:0:
282,183,176423,1,0,0:0:0:0:
282,183,176522,1,0,0:0:0:0:
306,183,176621,1,8,0:0:0:0:
306,183,176720,1,8,0:0:0:0:
293,189,176819,1,4,0:0:0:0:
294,184,177413,1,8,0:0:0:0:
293,189,177710,1,4,0:0:0:0:
294,184,178304,1,4,0:0:0:0:
293,189,178601,1,8,0:0:0:0:
293,189,178750,1,0,0:0:0:0:
294,184,178898,1,0,0:0:0:0:
294,184,179047,1,8,0:0:0:0:
293,189,179492,1,4,0:0:0:0:
293,189,179789,1,8,0:0:0:0:
294,184,180086,1,4,0:0:0:0:
293,189,180532,1,4,0:0:0:0:
294,184,180977,1,8,0:0:0:0:
305,178,181076,1,8,0:0:0:0:
305,178,181175,1,8,0:0:0:0:
305,178,181274,1,0,0:0:0:0:
305,189,181373,1,8,0:0:0:0:
305,188,181472,1,8,0:0:0:0:
313,193,181571,1,4,0:0:0:0:
319,198,182165,1,8,0:0:0:0:
319,198,182462,1,4,0:0:0:0:
319,198,183056,1,4,0:0:0:0:
326,173,183354,1,0,0:0:0:0:
326,173,183502,1,8,0:0:0:0:
326,173,183651,1,8,0:0:0:0:
326,173,183799,1,0,0:0:0:0:
313,194,184096,1,8,0:0:0:0:
313,193,184245,1,0,0:0:0:0:
312,187,184393,1,8,0:0:0:0:
312,187,184542,1,8,0:0:0:0:
312,187,184690,1,8,0:0:0:0:
312,187,184839,1,4,0:0:0:0:
311,187,185284,1,8,0:0:0:0:
312,187,185433,1,8,0:0:0:0:
312,187,185581,1,8,0:0:0:0:
312,187,185730,1,8,0:0:0:0:
312,187,185878,1,8,0:0:0:0:
311,187,186027,1,8,0:0:0:0:
311,187,186175,1,8,0:0:0:0:
311,187,186324,1,0,0:0:0:0:
312,187,186769,1,12,0:0:0:0:
311,187,187215,1,12,0:0:0:0:
312,187,187660,1,12,0:0:0:0:
311,187,188106,1,12,0:0:0:0:
312,187,188700,1,0,0:0:0:0:
311,187,189146,1,12,0:0:0:0:
312,187,189591,1,12,0:0:0:0:
311,187,190037,1,12,0:0:0:0:
312,187,190334,1,0,0:0:0:0:
312,187,190482,1,12,0:0:0:0:
311,187,190680,1,12,0:0:0:0:
311,187,190878,1,12,0:0:0:0:
311,187,191076,1,0,0:0:0:0:
313,194,191522,1,12,0:0:0:0:
313,194,191967,1,12,0:0:0:0:
313,194,192413,1,12,0:0:0:0:
313,194,192858,1,12,0:0:0:0:
313,194,193453,1,0,0:0:0:0:
313,194,193898,1,12,0:0:0:0:
313,194,194344,1,12,0:0:0:0:
313,194,194789,1,12,0:0:0:0:
313,194,195086,1,0,0:0:0:0:
313,194,195235,1,12,0:0:0:0:
313,194,195532,1,12,0:0:0:0:
313,194,195829,1,4,0:0:0:0:
282,191,198056,1,0,0:0:0:0:
48,224,198725,1,8,0:0:0:0:
272,155,199913,1,8,0:0:0:0:
272,155,200247,1,8,0:0:0:0:
257,157,200581,1,0,0:0:0:0:
257,146,202809,1,0,0:0:0:0:
272,153,203477,1,0,0:0:0:0:
265,164,204071,1,8,0:0:0:0:
256,192,204294,12,0,205185,0:0:0:0:
260,209,205334,5,12,0:0:0:0:
267,209,205779,1,12,0:0:0:0:
267,209,206522,1,12,0:0:0:0:
267,209,206967,1,12,0:0:0:0:
261,199,207264,1,4,0:0:0:0:
259,197,207710,1,12,0:0:0:0:
261,199,208155,1,12,0:0:0:0:
257,186,208601,1,0,0:0:0:0:
243,173,208750,1,8,0:0:0:0:
256,192,208898,12,0,209938,0:0:0:0:
260,198,210086,5,12,0:0:0:0:
286,151,210532,1,12,0:0:0:0:
286,151,211274,1,12,0:0:0:0:
286,151,211720,1,12,0:0:0:0:
286,151,212017,1,4,0:0:0:0:
286,151,212462,1,12,0:0:0:0:
286,151,212908,1,12,0:0:0:0:
236,165,213354,1,0,0:0:0:0:
236,165,213502,1,8,0:0:0:0:
256,192,213651,12,0,214690,0:0:0:0:
281,147,214839,5,4,0:0:0:0:
281,147,215136,1,0,0:0:0:0:
281,147,215284,1,8,0:0:0:0:
281,147,215358,1,8,0:0:0:0:
281,147,215433,1,0,0:0:0:0:
281,147,215581,1,8,0:0:0:0:
281,147,215655,1,8,0:0:0:0:
281,147,215730,1,0,0:0:0:0:
281,147,215878,1,8,0:0:0:0:
281,147,215953,1,8,0:0:0:0:
281,147,216027,1,0,0:0:0:0:
281,147,216324,1,0,0:0:0:0:
281,147,216472,1,8,0:0:0:0:
281,147,216547,1,8,0:0:0:0:
281,147,216621,1,0,0:0:0:0:
281,147,216769,1,8,0:0:0:0:
281,147,216844,1,8,0:0:0:0:
281,147,216918,1,0,0:0:0:0:
281,147,217066,1,8,0:0:0:0:
281,147,217141,1,8,0:0:0:0:
281,147,217215,1,0,0:0:0:0:
281,147,217512,1,0,0:0:0:0:
281,147,217660,1,8,0:0:0:0:
281,147,217735,1,8,0:0:0:0:
281,147,217809,1,0,0:0:0:0:
281,147,217957,1,8,0:0:0:0:
281,147,218032,1,8,0:0:0:0:
281,147,218106,1,0,0:0:0:0:
281,147,218254,1,8,0:0:0:0:
281,147,218329,1,8,0:0:0:0:
281,147,218403,1,0,0:0:0:0:
281,147,218700,1,0,0:0:0:0:
281,147,218849,1,8,0:0:0:0:
281,147,218923,1,8,0:0:0:0:
281,147,218997,1,0,0:0:0:0:
281,147,219146,1,8,0:0:0:0:
281,147,219591,1,8,0:0:0:0:
264,159,219740,1,0,0:0:0:0:
265,155,219814,1,0,0:0:0:0:
265,155,219888,1,8,0:0:0:0:
264,150,220037,1,0,0:0:0:0:
264,150,220185,1,8,0:0:0:0:
286,200,220259,1,8,0:0:0:0:
263,149,220334,1,0,0:0:0:0:
263,149,220408,1,0,0:0:0:0:
263,149,220482,1,8,0:0:0:0:
272,181,220631,1,0,0:0:0:0:
271,178,220779,1,8,0:0:0:0:
271,178,220928,1,0,0:0:0:0:
272,181,221002,1,0,0:0:0:0:
272,181,221076,1,8,0:0:0:0:
272,181,221225,1,0,0:0:0:0:
272,181,221373,1,8,0:0:0:0:
272,181,221448,1,0,0:0:0:0:
272,181,221522,1,0,0:0:0:0:
272,181,221596,1,0,0:0:0:0:
272,181,221670,1,8,0:0:0:0:
271,178,221819,1,8,0:0:0:0:
260,162,221967,1,0,0:0:0:0:
260,162,222042,1,0,0:0:0:0:
260,162,222116,1,8,0:0:0:0:
260,162,222190,1,8,0:0:0:0:
260,162,222264,1,0,0:0:0:0:
260,162,222339,1,0,0:0:0:0:
260,167,222413,1,8,0:0:0:0:
260,162,222487,1,8,0:0:0:0:
260,162,222561,1,0,0:0:0:0:
260,162,222636,1,8,0:0:0:0:
260,162,222710,1,0,0:0:0:0:
260,162,222784,1,0,0:0:0:0:
260,162,222858,1,8,0:0:0:0:
260,162,222933,1,0,0:0:0:0:
260,162,223007,1,8,0:0:0:0:
260,162,223081,1,8,0:0:0:0:
260,162,223155,1,0,0:0:0:0:
250,210,223601,1,0,0:0:0:0:
250,210,223750,1,0,0:0:0:0:
250,210,223898,1,8,0:0:0:0:
250,210,224047,1,0,0:0:0:0:
247,186,224344,1,0,0:0:0:0:
247,186,224492,1,0,0:0:0:0:
247,186,224566,1,8,0:0:0:0:
247,186,224641,1,8,0:0:0:0:
247,186,224789,1,8,0:0:0:0:
247,186,224938,1,0,0:0:0:0:
243,158,225086,1,0,0:0:0:0:
243,158,225160,1,8,0:0:0:0:
243,158,225235,1,0,0:0:0:0:
243,158,225309,1,8,0:0:0:0:
277,152,225383,1,8,0:0:0:0:
277,152,225457,1,0,0:0:0:0:
280,159,225532,1,8,0:0:0:0:
280,159,225680,1,8,0:0:0:0:
280,159,225754,1,8,0:0:0:0:
280,159,225829,1,0,0:0:0:0:
280,159,225977,1,0,0:0:0:0:
280,159,226126,1,8,0:0:0:0:
272,148,226274,1,8,0:0:0:0:
272,148,226349,1,8,0:0:0:0:
272,148,226423,1,0,0:0:0:0:
272,148,226497,1,8,0:0:0:0:
272,148,226571,1,8,0:0:0:0:
274,163,226646,1,0,0:0:0:0:
260,155,226720,1,8,0:0:0:0:
277,135,226868,1,8,0:0:0:0:
277,135,226943,1,8,0:0:0:0:
277,135,227017,1,0,0:0:0:0:
277,135,227165,1,8,0:0:0:0:
277,135,227314,1,0,0:0:0:0:
275,130,227462,1,8,0:0:0:0:
275,130,227537,1,0,0:0:0:0:
275,130,227611,1,8,0:0:0:0:
275,130,227685,1,8,0:0:0:0:
275,130,227759,1,0,0:0:0:0:
275,130,227834,1,0,0:0:0:0:
275,130,227908,1,8,0:0:0:0:
271,126,228056,1,0,0:0:0:0:
271,126,228131,1,8,0:0:0:0:
271,126,228205,1,8,0:0:0:0:
271,126,228354,1,0,0:0:0:0:
271,126,228502,1,8,0:0:0:0:
271,126,228651,1,8,0:0:0:0:
271,126,228725,1,8,0:0:0:0:
271,126,228799,1,0,0:0:0:0:
271,126,228873,1,8,0:0:0:0:
271,126,228948,1,8,0:0:0:0:
271,126,229096,1,8,0:0:0:0:
271,126,229245,1,8,0:0:0:0:
271,126,229319,1,8,0:0:0:0:
271,126,229393,1,0,0:0:0:0:
271,126,229542,1,0,0:0:0:0:
275,138,229616,1,8,0:0:0:0:
271,126,229690,1,8,0:0:0:0:
266,132,229764,1,0,0:0:0:0:
271,126,229839,1,8,0:0:0:0:
271,126,229987,1,8,0:0:0:0:
286,180,230136,1,0,0:0:0:0:
258,160,230210,1,0,0:0:0:0:
271,126,230284,1,8,0:0:0:0:
267,168,230433,1,8,0:0:0:0:
267,168,230507,1,8,0:0:0:0:
267,168,230581,1,0,0:0:0:0:
271,126,230730,1,8,0:0:0:0:
255,117,230804,1,0,0:0:0:0:
258,127,230878,1,8,0:0:0:0:
275,138,230953,1,8,0:0:0:0:
266,117,231027,1,0,0:0:0:0:
275,138,231175,1,8,0:0:0:0:
266,117,231324,1,0,0:0:0:0:
238,120,231398,1,0,0:0:0:0:
266,117,231472,1,8,0:0:0:0:
246,122,231547,1,0,0:0:0:0:
249,111,231621,1,8,0:0:0:0:
249,107,231695,1,8,0:0:0:0:
268,133,231769,1,0,0:0:0:0:
249,107,231918,1,8,0:0:0:0:
249,107,232066,1,8,0:0:0:0:
239,101,232141,1,0,0:0:0:0:
249,107,232215,1,8,0:0:0:0:
249,107,232289,1,8,0:0:0:0:
266,117,232363,1,0,0:0:0:0:
254,109,232512,1,8,0:0:0:0:
254,109,232660,1,0,0:0:0:0:
254,109,232809,1,8,0:0:0:0:
249,107,232883,1,0,0:0:0:0:
249,107,232957,1,8,0:0:0:0:
249,107,233106,1,0,0:0:0:0:
249,107,233254,1,8,0:0:0:0:
249,107,233329,1,0,0:0:0:0:
254,109,233403,1,0,0:0:0:0:
254,109,233477,1,8,0:0:0:0:
254,109,233552,1,0,0:0:0:0:
254,109,233626,1,0,0:0:0:0:
254,109,233700,1,8,0:0:0:0:
254,109,233774,1,0,0:0:0:0:
254,109,233849,1,8,0:0:0:0:
271,145,233997,1,0,0:0:0:0:
271,145,234071,1,8,0:0:0:0:
271,145,234146,1,8,0:0:0:0:
271,145,234294,1,8,0:0:0:0:
271,145,234443,1,0,0:0:0:0:
275,137,234591,1,0,0:0:0:0:
275,138,234665,1,8,0:0:0:0:
276,136,234740,1,0,0:0:0:0:
276,136,234814,1,8,0:0:0:0:
276,136,234888,1,8,0:0:0:0:
276,133,234962,1,0,0:0:0:0:
276,133,235037,1,8,0:0:0:0:
268,157,235185,1,8,0:0:0:0:
272,155,235259,1,8,0:0:0:0:
272,155,235334,1,0,0:0:0:0:
273,154,235482,1,0,0:0:0:0:
273,153,235631,1,8,0:0:0:0:
276,178,235779,1,8,0:0:0:0:
276,173,235854,1,8,0:0:0:0:
276,173,235928,1,0,0:0:0:0:
276,173,236002,1,8,0:0:0:0:
276,173,236076,1,8,0:0:0:0:
276,173,236151,1,0,0:0:0:0:
276,173,236225,1,8,0:0:0:0:
276,161,236373,1,0,0:0:0:0:
276,161,236448,1,8,0:0:0:0:
276,161,236522,1,8,0:0:0:0:
276,161,236670,1,8,0:0:0:0:
276,161,236819,1,0,0:0:0:0:
275,155,236967,1,0,0:0:0:0:
275,155,237042,1,8,0:0:0:0:
275,155,237116,1,0,0:0:0:0:
275,155,237190,1,8,0:0:0:0:
275,155,237264,1,0,0:0:0:0:
275,155,237339,1,0,0:0:0:0:
275,155,237413,1,8,0:0:0:0:
275,154,237561,1,8,0:0:0:0:
275,154,237636,1,8,0:0:0:0:
275,154,237710,1,0,0:0:0:0:
275,154,237858,1,0,0:0:0:0:
275,155,238007,1,8,0:0:0:0:
275,155,238155,1,0,0:0:0:0:
275,155,238230,1,8,0:0:0:0:
275,155,238304,1,8,0:0:0:0:
275,155,238453,1,0,0:0:0:0:
266,124,238898,1,8,0:0:0:0:
266,124,239047,1,0,0:0:0:0:
266,124,239195,1,8,0:0:0:0:
266,124,239344,1,0,0:0:0:0:
266,124,239418,1,0,0:0:0:0:
266,124,239492,1,8,0:0:0:0:
266,124,239641,1,0,0:0:0:0:
266,124,239789,1,8,0:0:0:0:
266,124,239863,1,8,0:0:0:0:
266,124,239938,1,0,0:0:0:0:
266,124,240012,1,0,0:0:0:0:
266,124,240086,1,8,0:0:0:0:
266,124,240235,1,0,0:0:0:0:
266,124,240309,1,8,0:0:0:0:
266,124,240383,1,8,0:0:0:0:
266,124,240457,1,8,0:0:0:0:
266,124,240532,1,0,0:0:0:0:
266,124,240606,1,0,0:0:0:0:
266,124,240680,1,8,0:0:0:0:
266,124,240829,1,0,0:0:0:0:
269,112,240977,1,0,0:0:0:0:
269,112,241052,1,8,0:0:0:0:
269,112,241126,1,0,0:0:0:0:
269,112,241200,1,0,0:0:0:0:
269,112,241274,1,8,0:0:0:0:
269,112,241349,1,0,0:0:0:0:
269,112,241423,1,8,0:0:0:0:
269,112,241497,1,8,0:0:0:0:
254,102,241571,1,0,0:0:0:0:
254,102,241646,1,8,0:0:0:0:
254,102,241720,1,0,0:0:0:0:
254,102,241794,1,0,0:0:0:0:
254,101,241868,1,8,0:0:0:0:
254,101,241943,1,0,0:0:0:0:
254,101,242017,1,8,0:0:0:0:
254,101,242091,1,8,0:0:0:0:
254,101,242165,1,0,0:0:0:0:
255,97,243354,1,4,0:0:0:0:
269,173,243948,1,0,0:0:0:0:
269,173,244096,1,8,0:0:0:0:
271,166,244170,1,8,0:0:0:0:
269,173,244245,1,0,0:0:0:0:
269,173,244393,1,8,0:0:0:0:
269,173,244542,1,0,0:0:0:0:
277,173,244616,1,8,0:0:0:0:
269,173,244690,1,8,0:0:0:0:
269,173,244839,1,0,0:0:0:0:
261,175,244987,1,8,0:0:0:0:
261,175,245061,1,8,0:0:0:0:
261,175,245136,1,0,0:0:0:0:
259,173,245284,1,8,0:0:0:0:
259,173,245433,1,0,0:0:0:0:
259,173,245507,1,8,0:0:0:0:
259,173,245581,1,8,0:0:0:0:
257,172,245730,1,0,0:0:0:0:
257,172,245878,1,8,0:0:0:0:
261,175,245953,1,8,0:0:0:0:
261,175,246027,1,0,0:0:0:0:
234,183,246175,1,8,0:0:0:0:
234,183,246324,1,0,0:0:0:0:
236,183,246472,1,8,0:0:0:0:
236,183,246547,1,0,0:0:0:0:
236,183,246621,1,8,0:0:0:0:
253,179,246769,1,0,0:0:0:0:
247,168,246844,1,0,0:0:0:0:
239,158,246918,1,0,0:0:0:0:
237,157,247066,1,8,0:0:0:0:
237,157,247141,1,0,0:0:0:0:
237,157,247215,1,8,0:0:0:0:
236,154,247363,1,8,0:0:0:0:
236,154,247438,1,8,0:0:0:0:
236,154,247512,1,0,0:0:0:0:
257,150,247660,1,8,0:0:0:0:
257,150,247735,1,0,0:0:0:0:
256,150,247809,1,8,0:0:0:0:
257,139,247957,1,8,0:0:0:0:
257,139,248032,1,0,0:0:0:0:
257,139,248106,1,0,0:0:0:0:
256,160,248254,1,8,0:0:0:0:
256,160,248403,1,0,0:0:0:0:
265,148,248477,1,0,0:0:0:0:
266,157,248552,1,8,0:0:0:0:
276,136,248700,1,0,0:0:0:0:
262,141,248849,1,8,0:0:0:0:
262,141,248923,1,8,0:0:0:0:
262,141,248997,1,0,0:0:0:0:
257,139,249146,1,8,0:0:0:0:
261,140,249294,1,0,0:0:0:0:
256,136,249368,1,8,0:0:0:0:
261,140,249443,1,8,0:0:0:0:
261,140,249591,1,0,0:0:0:0:
261,140,249740,1,8,0:0:0:0:
262,141,249814,1,8,0:0:0:0:
262,141,249888,1,0,0:0:0:0:
262,141,250037,1,8,0:0:0:0:
268,186,250482,1,0,0:0:0:0:
268,186,250631,1,8,0:0:0:0:
268,186,250705,1,0,0:0:0:0:
268,186,250779,1,8,0:0:0:0:
268,186,250928,1,0,0:0:0:0:
268,186,251002,1,8,0:0:0:0:
268,186,251076,1,0,0:0:0:0:
268,186,251225,1,0,0:0:0:0:
268,186,251373,1,8,0:0:0:0:
268,186,251522,1,0,0:0:0:0:
268,186,251596,1,0,0:0:0:0:
268,186,251670,1,0,0:0:0:0:
268,186,251819,1,8,0:0:0:0:
268,186,251893,1,0,0:0:0:0:
268,186,251967,1,8,0:0:0:0:
268,186,252116,1,0,0:0:0:0:
268,186,252190,1,0,0:0:0:0:
268,186,252264,1,0,0:0:0:0:
268,186,252413,1,8,0:0:0:0:
268,186,252487,1,0,0:0:0:0:
268,186,252561,1,8,0:0:0:0:
268,186,252710,1,8,0:0:0:0:
268,186,252784,1,8,0:0:0:0:
268,186,252858,1,0,0:0:0:0:
268,186,253007,1,8,0:0:0:0:
268,186,253155,1,0,0:0:0:0:
263,191,253230,1,0,0:0:0:0:
268,186,253304,1,8,0:0:0:0:
268,186,253453,1,0,0:0:0:0:
268,186,253601,1,8,0:0:0:0:
268,186,253675,1,8,0:0:0:0:
268,186,253750,1,0,0:0:0:0:
268,186,253898,1,8,0:0:0:0:
268,186,254047,1,0,0:0:0:0:
270,202,254121,1,8,0:0:0:0:
268,186,254195,1,8,0:0:0:0:
268,186,254344,1,0,0:0:0:0:
268,186,254492,1,8,0:0:0:0:
268,186,254566,1,8,0:0:0:0:
268,186,254641,1,0,0:0:0:0:
268,186,254789,1,8,0:0:0:0:
268,186,254938,1,0,0:0:0:0:
275,168,255012,1,8,0:0:0:0:
268,186,255086,1,8,0:0:0:0:
268,186,255235,1,0,0:0:0:0:
268,186,255383,1,8,0:0:0:0:
278,165,255457,1,8,0:0:0:0:
268,186,255532,1,0,0:0:0:0:
268,186,255680,1,8,0:0:0:0:
281,173,255754,1,0,0:0:0:0:
268,186,255829,1,8,0:0:0:0:
269,145,255977,1,8,0:0:0:0:
269,145,256052,1,8,0:0:0:0:
269,145,256126,1,8,0:0:0:0:
264,178,256274,1,8,0:0:0:0:
264,178,256349,1,8,0:0:0:0:
264,178,256423,1,0,0:0:0:0:
268,186,256571,1,0,0:0:0:0:
268,186,256646,1,0,0:0:0:0:
268,186,256720,1,8,0:0:0:0:
263,186,256868,1,8,0:0:0:0:
263,186,256943,1,0,0:0:0:0:
263,186,257017,1,8,0:0:0:0:
263,186,257165,1,0,0:0:0:0:
263,186,257240,1,8,0:0:0:0:
263,186,257314,1,8,0:0:0:0:
263,186,257462,1,8,0:0:0:0:
268,186,257537,1,8,0:0:0:0:
268,186,257611,1,0,0:0:0:0:
261,186,257759,1,8,0:0:0:0:
263,186,257908,1,0,0:0:0:0:
265,176,257982,1,0,0:0:0:0:
263,186,258056,1,8,0:0:0:0:
263,186,258205,1,0,0:0:0:0:
263,186,258354,1,8,0:0:0:0:
263,186,258428,1,8,0:0:0:0:
263,186,258502,1,0,0:0:0:0:
261,186,258651,1,8,0:0:0:0:
261,186,258799,1,0,0:0:0:0:
263,186,258873,1,8,0:0:0:0:
263,186,258948,1,8,0:0:0:0:
263,186,259096,1,0,0:0:0:0:
263,186,259245,1,8,0:0:0:0:
263,186,259319,1,8,0:0:0:0:
263,186,259393,1,0,0:0:0:0:
263,186,259542,1,8,0:0:0:0:
261,186,259690,1,0,0:0:0:0:
274,164,259764,1,8,0:0:0:0:
261,186,259839,1,8,0:0:0:0:
263,186,259987,1,0,0:0:0:0:
263,186,260136,1,8,0:0:0:0:
263,186,260284,1,0,0:0:0:0:
263,186,260358,1,0,0:0:0:0:
263,186,260433,1,8,0:0:0:0:
263,186,260581,1,0,0:0:0:0:
261,186,260730,1,8,0:0:0:0:
261,186,260804,1,0,0:0:0:0:
261,186,260878,1,8,0:0:0:0:
263,186,261027,1,8,0:0:0:0:
263,186,261175,1,8,0:0:0:0:
263,186,261250,1,0,0:0:0:0:
263,186,261324,1,0,0:0:0:0:
263,186,261398,1,8,0:0:0:0:
263,186,261472,1,0,0:0:0:0:
263,186,261547,1,0,0:0:0:0:
263,186,261621,1,8,0:0:0:0:
261,186,261695,1,0,0:0:0:0:
261,186,261769,1,8,0:0:0:0:
263,186,262363,1,4,0:0:0:0:
297,192,262660,1,8,0:0:0:0:
297,192,262957,1,0,0:0:0:0:
297,192,263106,1,8,0:0:0:0:
297,192,263403,1,0,0:0:0:0:
297,192,263552,1,8,0:0:0:0:
297,192,263849,1,0,0:0:0:0:
297,192,263997,1,8,0:0:0:0:
297,192,264294,1,0,0:0:0:0:
297,192,264443,1,0,0:0:0:0:
263,186,264740,1,0,0:0:0:0:
297,192,265037,1,8,0:0:0:0:
297,192,265334,1,8,0:0:0:0:
297,192,265482,1,0,0:0:0:0:
297,192,265779,1,8,0:0:0:0:
297,192,265928,1,0,0:0:0:0:
297,192,266225,1,8,0:0:0:0:
297,192,266373,1,0,0:0:0:0:
297,192,266670,1,8,0:0:0:0:
297,192,266819,1,8,0:0:0:0:
307,198,266967,1,0,0:0:0:0:
263,186,267116,1,0,0:0:0:0:
297,192,267413,1,8,0:0:0:0:
297,192,267710,1,0,0:0:0:0:
297,192,267858,1,8,0:0:0:0:
297,192,268155,1,0,0:0:0:0:
297,192,268304,1,8,0:0:0:0:
297,192,268601,1,0,0:0:0:0:
297,192,268750,1,8,0:0:0:0:
297,192,269047,1,0,0:0:0:0:
297,192,269195,1,0,0:0:0:0:
285,188,269641,1,0,0:0:0:0:
309,209,269789,1,8,0:0:0:0:
297,192,270086,1,8,0:0:0:0:
297,192,270235,1,0,0:0:0:0:
297,192,270532,1,8,0:0:0:0:
297,192,270680,1,0,0:0:0:0:
297,192,270977,1,8,0:0:0:0:
297,192,271126,1,0,0:0:0:0:
297,192,271423,1,8,0:0:0:0:
297,192,271571,1,0,0:0:0:0:
269,190,271720,1,0,0:0:0:0:
263,186,271868,1,0,0:0:0:0:
297,192,272165,1,8,0:0:0:0:
297,192,272462,1,0,0:0:0:0:
297,192,272611,1,8,0:0:0:0:
297,192,272908,1,0,0:0:0:0:
297,192,273056,1,8,0:0:0:0:
297,192,273354,1,0,0:0:0:0:
297,192,273502,1,8,0:0:0:0:
297,192,273799,1,0,0:0:0:0:
297,192,273948,1,0,0:0:0:0:
274,189,274393,1,0,0:0:0:0:
297,217,274542,1,8,0:0:0:0:
297,192,274839,1,8,0:0:0:0:
297,192,274987,1,0,0:0:0:0:
297,192,275284,1,8,0:0:0:0:
297,192,275433,1,0,0:0:0:0:
297,192,275730,1,8,0:0:0:0:
297,192,275878,1,0,0:0:0:0:
297,192,276175,1,8,0:0:0:0:
297,192,276324,1,0,0:0:0:0:
289,213,276472,1,0,0:0:0:0:
263,186,276621,1,0,0:0:0:0:
297,192,276918,1,8,0:0:0:0:
297,192,277215,1,0,0:0:0:0:
297,192,277363,1,8,0:0:0:0:
297,192,277660,1,0,0:0:0:0:
297,192,277809,1,8,0:0:0:0:
297,192,278106,1,0,0:0:0:0:
297,192,278254,1,8,0:0:0:0:
297,192,278552,1,0,0:0:0:0:
297,192,278700,1,8,0:0:0:0:
277,196,279146,1,0,0:0:0:0:
297,217,279294,1,0,0:0:0:0:
297,192,279591,1,8,0:0:0:0:
297,192,279740,1,0,0:0:0:0:
297,192,280037,1,8,0:0:0:0:
297,192,280185,1,0,0:0:0:0:
297,192,280482,1,8,0:0:0:0:
297,192,280631,1,0,0:0:0:0:
297,192,280928,1,0,0:0:0:0:
297,192,281076,1,0,0:0:0:0:
274,182,281522,1,8,0:0:0:0:
297,192,281967,1,8,0:0:0:0:
297,192,282413,1,8,0:0:0:0:
297,192,282858,1,8,0:0:0:0:
297,192,283304,1,8,0:0:0:0:
263,186,283898,1,0,0:0:0:0:
297,192,284344,1,0,0:0:0:0:
297,192,284789,1,0,0:0:0:0:
297,192,285235,1,0,0:0:0:0:
297,192,285680,1,0,0:0:0:0:
289,193,286274,1,8,0:0:0:0:
288,185,286720,1,8,0:0:0:0:
286,182,287165,1,8,0:0:0:0:
288,185,287611,1,8,0:0:0:0:
286,182,288056,1,8,0:0:0:0:
288,185,288651,1,0,0:0:0:0:
286,182,289096,1,0,0:0:0:0:
288,185,289542,1,0,0:0:0:0:
280,173,289987,1,0,0:0:0:0:
280,173,290433,1,0,0:0:0:0:
269,185,291027,1,8,0:0:0:0:
261,174,291918,1,8,0:0:0:0:
254,158,292809,1,8,0:0:0:0:
252,140,293700,1,8,0:0:0:0:
257,134,294591,1,8,0:0:0:0:
191,72,295482,1,8,0:0:0:0:
221,99,295928,1,0,0:0:0:0:
287,153,296373,1,0,0:0:0:0:
260,143,296819,1,0,0:0:0:0:
294,152,297264,1,0,0:0:0:0:
247,128,297710,1,0,0:0:0:0:
294,152,298155,1,0,0:0:0:0:
247,128,298601,1,0,0:0:0:0:
294,152,299047,1,0,0:0:0:0:
247,128,299492,1,0,0:0:0:0:
294,152,299938,1,0,0:0:0:0:
256,192,300235,12,0,306324,0:0:0:0:
