osu file format v14

[General]
AudioFilename: racemization.mp3
AudioLeadIn: 0
PreviewTime: 243258
Countdown: 0
SampleSet: Soft
StackLeniency: 0.7
Mode: 0
LetterboxInBreaks: 0
WidescreenStoryboard: 1

[Editor]
Bookmarks: 43802,53307,91327,148357,157862,195882,214892,230820
DistanceSpacing: 1
BeatDivisor: 2
GridSize: 4
TimelineZoom: 3.899998

[Metadata]
Title:Racemization
TitleUnicode:Racemization
Artist:Camellia
ArtistUnicode:かめりあ
Creator:Ciyus Miapah
Version:hyper
Source:osu!
Tags:Fort fa featured artist cametek cameltek planet//shaper planet shaper dubstep drumstep hardcore chillout
BeatmapID:2198935
BeatmapSetID:1052199

[Difficulty]
HPDrainRate:5
CircleSize:4
OverallDifficulty:6
ApproachRate:7.5
SliderMultiplier:1.1
SliderTickRate:1

[Events]
//Background and Video events
0,0,"extermination.jpg",0,0
//Break Periods
2,53507,57235
2,82022,85750
2,129547,147532
2,196081,204561
2,215091,218819
//Storyboard Layer 0 (Background)
//Storyboard Layer 1 (Fail)
//Storyboard Layer 2 (Pass)
//Storyboard Layer 3 (Foreground)
//Storyboard Layer 4 (Overlay)
//Storyboard Sound Samples

[TimingPoints]
5783,297.029702970297,4,2,1,40,1,0
43802,-100,4,2,1,80,0,0
110337,-100,4,2,1,100,0,1
124594,-100,4,2,1,80,0,0
148357,-111.111111111111,4,2,2,50,0,0
157862,-100,4,2,1,40,0,0
166179,-100,4,2,2,40,0,0
167367,-100,4,2,1,80,0,0
174495,-100,4,2,2,80,0,0
174792,-100,4,2,1,80,0,0
195881,-100,4,2,2,80,0,0
205386,-100,4,2,1,80,0,0
206278,-100,4,2,2,80,0,0
206575,-100,4,2,1,80,0,0
208654,-100,4,2,2,80,0,0
208951,-100,4,2,1,80,0,0
211030,-100,4,2,2,80,0,0
211327,-100,4,2,1,80,0,0
213406,-100,4,2,2,80,0,0
214891,-100,4,2,1,80,0,0
224396,-100,4,2,1,100,0,1
238653,-100,4,2,1,80,0,1
238654,-100,4,2,1,80,0,0
241030,-100,4,2,1,80,0,1
242218,-100,4,2,1,80,0,0
243406,-100,4,2,2,80,0,0
244000,-100,4,2,1,100,0,1
250238,-100,4,2,2,100,0,1
250535,-100,4,2,1,100,0,1
261822,-100,4,2,1,70,0,0
262119,-100,4,2,2,70,0,0
262416,-100,4,2,1,70,0,0

[Colours]
Combo1 : 215,0,107
Combo2 : 89,146,155
Combo3 : 160,220,220
Combo4 : 0,255,255
Combo5 : 21,180,255
Combo6 : 223,112,0
Combo7 : 187,0,0
Combo8 : 128,0,128

[HitObjects]
256,192,39050,12,0,42614,2:0:0:0:
377,293,43802,6,0,P|381:268|328:205,1,110,2|0,2:0|2:0,2:0:0:0:
254,206,44248,2,0,L|135:223,1,110,2|0,2:0|2:0,2:0:0:0:
73,193,44693,2,0,P|65:162|63:129,1,55,8|0,2:0|2:0,2:0:0:0:
92,67,44990,6,0,L|208:93,1,110,2|0,2:0|2:0,2:0:0:0:
269,122,45436,2,0,L|382:108,1,110,2|2,2:0|2:0,2:0:0:0:
414,336,46179,6,0,L|301:350,1,110,2|0,2:0|2:0,2:0:0:0:
253,292,46624,2,0,P|238:307|227:348,2,55,2|0|0,2:0|2:0|2:0,2:0:0:0:
324,261,47070,2,0,P|331:233|330:198,1,55,8|0,2:0|2:0,2:0:0:0:
406,189,47367,6,0,B|385:140|345:119|321:121|273:128|256:148|259:184|265:202|255:207|252:200|248:191|246:143|241:126|217:113|180:98|154:106,1,330,2|0,2:0|2:0,2:0:0:0:
73,228,48555,6,0,P|93:257|162:287,1,110,2|0,2:0|2:0,2:0:0:0:
235,273,49000,2,0,P|286:260|348:285,1,110,2|0,2:0|2:0,2:0:0:0:
386,338,49446,2,0,P|406:315|414:282,1,55,8|0,2:0|2:0,2:0:0:0:
401,215,49743,6,0,P|394:186|401:96,1,110,2|0,2:0|2:0,2:0:0:0:
370,35,50188,2,0,L|485:25,1,110,2|2,2:0|2:0,2:0:0:0:
261,102,50931,6,0,L|144:92,1,110,2|0,2:0|2:0,2:0:0:0:
88,136,51377,2,0,L|110:249,1,110,2|0,2:0|2:0,2:0:0:0:
170,290,51822,2,0,L|230:281,1,55,8|0,2:0|2:0,2:0:0:0:
256,192,52119,12,2,53307,2:0:0:0:
85,85,58060,6,0,P|77:120|106:191,1,110,2|8,2:0|2:0,2:0:0:0:
160,237,58505,1,2,2:0:0:0:
232,263,58654,2,0,L|345:247,1,110,2|8,2:0|2:0,2:0:0:0:
408,284,59099,1,2,2:0:0:0:
444,215,59248,6,0,L|432:101,1,110,2|8,2:0|2:0,2:0:0:0:
369,62,59693,1,2,2:0:0:0:
316,118,59842,2,0,L|307:149,3,27.5,2|2|2|2,2:0|2:0|2:0|2:0,2:0:0:0:
283,174,60139,2,0,P|264:173|250:170,3,27.5,8|2|2|2,2:0|2:0|2:0|2:0,2:0:0:0:
218,161,60436,1,2,2:0:0:0:
256,192,60510,12,4,61624,2:0:0:0:
406,88,62812,6,0,P|377:78|293:95,1,110,6|0,2:0|2:0,2:0:0:0:
265,159,63258,1,2,2:0:0:0:
200,117,63406,1,8,2:0:0:0:
122,123,63555,2,0,P|89:100|79:81,1,55,2|0,2:0|2:0,2:0:0:0:
151,51,63852,1,2,2:0:0:0:
200,117,64000,6,0,P|197:149|131:200,1,110,2|2,2:0|2:0,2:0:0:0:
65,207,64446,1,2,2:0:0:0:
109,269,64594,2,0,P|154:275|214:250,1,110,8|8,2:0|2:0,2:0:0:0:
326,147,65188,6,0,P|312:188|328:258,1,110,2|2,2:0|2:0,2:0:0:0:
400,263,65634,1,2,2:0:0:0:
444,199,65783,2,0,P|447:181|437:145,2,55,8|2|2,2:0|2:0|2:0,2:0:0:0:
400,263,66228,2,0,P|397:288|397:329,1,55,2|0,2:0|2:0,2:0:0:0:
337,367,66525,1,2,2:0:0:0:
267,333,66674,2,0,L|152:321,2,110,2|8|2,2:0|2:0|2:0,2:0:0:0:
176,208,67565,6,0,L|305:220,1,110,2|0,2:0|2:0,2:0:0:0:
358,195,68010,1,2,2:0:0:0:
322,126,68159,2,0,L|336:9,2,110,8|2|2,2:0|2:0|2:0,2:0:0:0:
358,195,68901,1,2,2:0:0:0:
405,255,69050,1,2,2:0:0:0:
343,300,69198,2,0,P|339:314|342:333,2,27.5,2|2|8,2:0|2:0|2:0,2:0:0:0:
444,183,69644,1,8,2:0:0:0:
367,49,69941,6,0,L|247:64,1,110,4|2,2:0|2:0,2:0:0:0:
105,84,70535,1,8,2:0:0:0:
242,153,70832,1,2,2:0:0:0:
242,153,70981,2,0,P|242:178|212:262,1,110,12|2,2:0|2:0,2:0:0:0:
181,326,71426,2,0,L|61:309,2,110,2|8|2,2:0|2:0|2:0,2:0:0:0:
334,319,72317,6,0,L|445:303,1,110,6|0,2:0|2:0,2:0:0:0:
499,251,72763,1,0,2:0:0:0:
426,229,72911,2,0,L|366:238,1,55,8|2,2:0|2:0,2:0:0:0:
393,152,73208,2,0,L|327:150,1,55,2|2,2:0|2:0,2:0:0:0:
436,77,73505,6,0,L|323:69,1,110,2|2,2:0|2:0,2:0:0:0:
260,109,73951,1,2,2:0:0:0:
198,155,74099,2,0,B|194:209|194:209|197:269,1,110,8|8,2:0|2:0,2:0:0:0:
252,318,74545,1,2,2:0:0:0:
327,329,74693,6,0,P|325:291|265:242,2,110,2|2|8,2:0|2:0|2:0,2:0:0:0:
261,370,75436,1,2,2:0:0:0:
190,339,75584,1,2,2:0:0:0:
174,263,75733,6,0,L|187:151,1,110,2|2,2:0|2:0,2:0:0:0:
198,77,76179,1,2,2:0:0:0:
351,87,76476,2,0,L|366:205,1,110,8|2,2:0|2:0,2:0:0:0:
369,274,76921,1,0,2:0:0:0:
320,334,77070,6,0,P|341:349|425:332,1,110,2|2,2:0|2:0,2:0:0:0:
454,187,77664,2,0,L|437:74,1,110,8|2,2:0|2:0,2:0:0:0:
366,105,78109,1,2,2:0:0:0:
315,46,78258,6,0,P|295:69|292:107,1,55,2|2,2:0|2:0,2:0:0:0:
286,169,78555,2,0,L|302:232,1,55,2|2,2:0|2:0,2:0:0:0:
299,222,78778,1,0,2:0:0:0:
299,222,78852,1,8,2:0:0:0:
210,347,79149,1,2,2:0:0:0:
256,192,79446,12,2,81822,2:0:0:0:
88,74,86575,6,0,P|95:106|166:140,1,110,2|8,2:0|2:0,2:0:0:0:
230,115,87020,1,2,2:0:0:0:
305,96,87169,2,0,L|415:109,1,110,2|8,2:0|2:0,2:0:0:0:
457,172,87614,1,2,2:0:0:0:
387,206,87763,2,0,P|368:234|361:263,1,55,2|2,2:0|2:0,2:0:0:0:
294,291,88060,2,0,L|234:284,1,55,8|2,2:0|2:0,2:0:0:0:
176,329,88357,1,2,2:0:0:0:
153,255,88505,1,2,2:0:0:0:
86,215,88654,1,10,2:0:0:0:
9,212,88802,1,2,2:0:0:0:
48,145,88951,6,0,P|52:126|50:109,16,27.5,2|2|10|0|2|10|2|2|10|2|2|10|2|2|10|2|4,2:0|2:0|2:0|2:0|2:0|2:0|2:0|2:0|2:0|2:0|2:0|2:0|2:0|2:0|2:0|2:0|2:0,2:0:0:0:
124,25,91327,6,0,P|136:62|201:97,1,110,6|8,2:0|2:0,2:0:0:0:
271,93,91773,1,2,2:0:0:0:
346,82,91921,2,0,P|388:93|419:160,2,110,2|8|0,2:0|2:0|2:0,2:0:0:0:
342,159,92664,1,2,2:0:0:0:
310,229,92812,2,0,L|246:248,1,55,8|2,2:0|2:0,2:0:0:0:
180,237,93109,2,0,L|124:229,1,55,2|2,2:0|2:0,2:0:0:0:
70,283,93406,1,8,2:0:0:0:
45,131,93703,6,0,L|30:17,2,110,6|8|2,2:0|2:0|2:0,2:0:0:0:
114,164,94446,1,0,2:0:0:0:
140,91,94594,1,8,2:0:0:0:
193,35,94743,2,0,P|211:58|201:142,1,110,6|2,2:0|2:0,2:0:0:0:
190,209,95188,2,0,L|210:298,2,82.5,8|2|2,2:0|2:0|2:0,2:0:0:0:
265,188,95783,1,8,2:0:0:0:
372,77,96080,6,0,P|375:93|453:138,1,110,2|8,2:0|2:0,2:0:0:0:
490,202,96525,1,2,2:0:0:0:
474,277,96674,2,0,L|460:342,1,55,2|2,2:0|2:0,2:0:0:0:
387,349,96971,2,0,L|327:358,1,55,8|2,2:0|2:0,2:0:0:0:
258,377,97268,2,0,P|259:329|308:286,1,110,2|8,2:0|2:0,2:0:0:0:
311,211,97713,2,0,L|319:98,1,110,2|2,2:0|2:0,2:0:0:0:
261,49,98159,2,0,P|245:66|239:98,1,55,8|0,2:0|2:0,2:0:0:0:
164,116,98456,6,0,L|50:104,2,110,6|8|2,2:0|2:0|2:0,2:0:0:0:
105,258,99347,2,0,L|119:324,1,55,8|2,2:0|2:0,2:0:0:0:
345,339,99941,2,0,L|428:328,2,82.5,8|2|2,2:0|2:0|2:0,2:0:0:0:
299,276,100535,2,0,L|286:213,1,55,8|2,2:0|2:0,2:0:0:0:
234,166,100832,6,0,P|255:151|341:163,1,110,2|8,2:0|2:0,2:0:0:0:
391,210,101278,1,2,2:0:0:0:
429,143,101426,2,0,L|450:26,1,110,2|8,2:0|2:0,2:0:0:0:
371,39,101872,1,2,2:0:0:0:
298,12,102020,2,0,P|291:44|299:73,1,55,2|2,2:0|2:0,2:0:0:0:
220,84,102317,2,0,P|230:110|199:193,1,110,8|2,2:0|2:0,2:0:0:0:
133,207,102763,1,2,2:0:0:0:
71,253,102911,2,0,P|70:277|78:316,1,55,8|2,2:0|2:0,2:0:0:0:
132,358,103208,6,0,L|251:346,1,110,2|8,2:0|2:0,2:0:0:0:
392,376,103802,1,2,2:0:0:0:
366,303,103951,1,2,2:0:0:0:
381,227,104099,1,8,2:0:0:0:
439,176,104248,2,0,P|458:230|432:283,1,110,2|2,2:0|2:0,2:0:0:0:
366,303,104693,2,0,L|276:295,1,82.5,8|2,2:0|2:0,2:0:0:0:
173,331,105139,1,2,2:0:0:0:
173,331,105287,2,0,L|108:315,1,55,8|0,2:0|2:0,2:0:0:0:
50,352,105584,6,0,P|68:318|60:240,1,110,2|0,2:0|2:0,2:0:0:0:
12,102,106179,1,8,2:0:0:0:
78,139,106327,2,0,P|80:154|83:168,2,27.5,2|2|2,2:0|2:0|2:0,2:0:0:0:
110,68,106624,1,2,2:0:0:0:
186,81,106773,6,0,P|195:102|197:192,1,110,8|2,2:0|2:0,2:0:0:0:
159,254,107218,1,2,2:0:0:0:
197,321,107367,2,0,L|317:338,1,110,8|8,2:0|2:0,2:0:0:0:
457,309,107961,6,0,P|419:291|379:123,2,220,8|8|0,2:0|2:0|2:0,2:0:0:0:
489,242,110337,6,0,P|461:236|424:242,1,55,6|0,2:0|2:0,2:0:0:0:
370,281,110634,2,0,P|345:291|313:291,1,55,8|2,2:0|2:0,2:0:0:0:
245,262,110931,2,0,P|235:236|247:152,1,110,2|8,2:0|2:0,2:0:0:0:
319,138,111377,1,2,2:0:0:0:
392,114,111525,6,0,P|404:94|403:54,1,55,2|2,2:0|2:0,2:0:0:0:
341,19,111822,1,8,2:0:0:0:
279,65,111971,2,0,L|282:97,2,27.5,2|0|2,2:0|2:0|2:0,2:0:0:0:
215,21,112268,1,2,2:0:0:0:
155,70,112416,2,0,P|145:120|145:134,1,55,8|2,2:0|2:0,2:0:0:0:
169,197,112713,6,0,L|205:311,1,110,2|8,2:0|2:0,2:0:0:0:
142,350,113159,1,2,2:0:0:0:
66,364,113307,2,0,P|41:344|29:263,1,110,2|8,2:0|2:0,2:0:0:0:
95,236,113753,1,2,2:0:0:0:
169,219,113901,6,0,L|288:196,1,110,2|8,2:0|2:0,2:0:0:0:
323,259,114347,1,2,2:0:0:0:
389,221,114495,2,0,L|405:111,1,110,2|8,2:0|2:0,2:0:0:0:
362,47,114941,1,2,2:0:0:0:
288,67,115089,6,0,L|168:81,1,110,6|8,2:0|2:0,2:0:0:0:
105,103,115535,1,0,2:0:0:0:
63,167,115683,2,0,P|56:190|73:279,1,110,2|8,2:0|2:0,2:0:0:0:
146,269,116129,1,2,2:0:0:0:
118,341,116278,6,0,P|99:351|9:343,2,110,2|8|2,2:0|2:0|2:0,2:0:0:0:
191,320,117020,1,2,2:0:0:0:
266,304,117169,2,0,P|304:308|326:320,1,55,8|0,2:0|2:0,2:0:0:0:
370,372,117466,6,0,P|388:342|378:269,1,110,2|8,2:0|2:0,2:0:0:0:
316,224,117911,1,0,2:0:0:0:
344,152,118060,2,0,L|457:145,2,110,2|8|2,2:0|2:0|2:0,2:0:0:0:
274,119,118802,1,2,2:0:0:0:
199,137,118951,2,0,L|89:160,1,110,8|2,2:0|2:0,2:0:0:0:
105,234,119396,1,2,2:0:0:0:
182,234,119545,2,0,L|199:296,1,55,8|2,2:0|2:0,2:0:0:0:
156,353,119842,6,0,L|266:330,1,110,6|8,2:0|2:0,2:0:0:0:
411,337,120436,2,0,P|415:315|366:240,1,110,2|8,2:0|2:0,2:0:0:0:
297,229,120882,1,2,2:0:0:0:
236,181,121030,2,0,P|222:155|210:71,2,110,2|8|2,2:0|2:0|2:0,2:0:0:0:
387,150,121921,2,0,P|391:117|390:85,1,55,8|2,2:0|2:0,2:0:0:0:
451,47,122218,6,0,B|464:71|470:104|468:128|461:163,1,110,2|8,2:0|2:0,2:0:0:0:
422,220,122664,1,0,2:0:0:0:
345,222,122812,2,0,L|277:216,1,55,2|0,2:0|2:0,2:0:0:0:
229,264,123109,1,8,2:0:0:0:
207,189,123258,1,0,0:0:0:0:
269,143,123406,6,0,L|245:20,1,110,2|8,2:0|2:0,2:0:0:0:
171,48,123852,1,2,0:0:0:0:
98,73,124000,1,2,0:0:0:0:
88,225,124297,2,0,P|58:196|31:189,1,55,8|2,0:0|0:0,0:0:0:0:
22,270,124594,6,0,L|47:382,1,110,6|8,2:0|2:0,2:0:0:0:
158,272,125188,2,0,L|183:384,1,110,2|8,2:0|2:0,2:0:0:0:
295,274,125783,2,0,L|320:386,1,110,2|8,2:0|2:0,2:0:0:0:
451,302,126377,1,2,2:0:0:0:
415,152,126674,1,8,2:0:0:0:
262,133,126971,5,2,2:0:0:0:
377,235,127268,1,10,2:0:0:0:
477,118,127565,1,2,2:0:0:0:
360,17,127862,1,10,2:0:0:0:
215,69,128159,6,0,P|188:104|206:187,1,110,2|10,2:0|2:0,2:0:0:0:
250,216,128604,1,2,2:0:0:0:
316,255,128753,2,0,P|327:288|324:317,1,55,2|10,2:0|2:0,2:0:0:0:
277,368,129050,2,0,P|234:379|211:375,1,55,10|10,2:0|2:0,2:0:0:0:
155,342,129347,5,4,2:0:0:0:
456,51,148357,6,0,P|429:77|246:57,1,197.99999395752,6|2,2:0|2:0,2:0:0:0:
80,102,149545,2,0,P|65:128|142:255,1,197.99999395752,2|2,2:0|2:0,2:0:0:0:
324,322,150733,2,0,P|356:292|492:332,2,197.99999395752,6|2|2,2:0|2:0|2:0,2:0:0:0:
129,357,152515,1,2,2:0:0:0:
234,189,153109,6,0,L|222:84,1,98.9999969787599,6|0,2:0|2:0,2:0:0:0:
304,35,153703,1,2,2:0:0:0:
334,230,154297,1,2,2:0:0:0:
137,255,154891,1,2,2:0:0:0:
120,57,155485,6,0,L|347:44,1,197.99999395752,2|2,2:0|2:0,2:0:0:0:
373,235,156674,2,0,L|150:249,1,197.99999395752,2|2,2:0|2:0,2:0:0:0:
21,76,157862,6,0,B|48:113|117:122|96:106|176:89|246:126,1,220,2|8,2:0|2:0,2:0:0:0:
357,297,159050,6,0,B|330:260|261:251|282:267|202:284|132:247,2,220,2|8|2,2:0|2:0|2:0,2:0:0:0:
490,122,160832,1,8,2:0:0:0:
273,83,161426,6,0,B|242:52|167:69|148:108|159:153|227:186|259:173,1,220,2|8,2:0|2:0,2:0:0:0:
445,251,162614,2,0,B|417:284|350:304|371:279|287:283|246:340,2,220,2|8|2,2:0|2:0|2:0,2:0:0:0:
433,141,164099,1,2,2:0:0:0:
334,92,164396,1,8,2:0:0:0:
230,129,164693,1,2,2:0:0:0:
256,192,164990,12,4,166179,2:0:0:0:
459,66,167367,6,0,P|474:98|348:156,1,220,2|8,2:0|2:0,2:0:0:0:
260,98,168258,2,0,P|228:88|63:172,1,220,2|2,2:0|2:0,2:0:0:0:
80,269,169149,2,0,L|99:326,3,55,8|0|0|0,2:0|2:0|2:0|2:0,2:0:0:0:
203,351,169891,1,2,2:0:0:0:
203,351,170040,2,0,P|209:311|270:260,1,110,2|8,2:0|2:0,2:0:0:0:
348,202,170634,2,0,L|514:231,2,165,2|2|8,2:0|2:0|2:0,2:0:0:0:
168,75,172119,6,0,B|97:61|39:116|39:116|22:193,1,220,2|8,2:0|2:0,2:0:0:0:
67,293,173010,2,0,P|100:307|223:199,1,220,2|2,2:0|2:0,2:0:0:0:
298,125,173901,2,0,L|287:60,1,55,8|0,2:0|2:0,2:0:0:0:
390,164,174198,2,0,L|401:95,2,55,0|0|4,2:0|2:0|2:0,2:0:0:0:
480,266,174792,6,0,L|465:382,1,110,2|8,2:0|2:0,2:0:0:0:
367,327,175386,2,0,L|392:148,2,165,2|2|8,2:0|2:0|2:0,2:0:0:0:
148,354,176872,6,0,L|18:334,1,110,2|0,2:0|2:0,2:0:0:0:
32,227,177466,1,8,2:0:0:0:
99,140,177763,2,0,L|326:169,1,220,2|2,2:0|2:0,2:0:0:0:
382,256,178654,2,0,L|396:328,3,55,8|0|0|0,2:0|2:0|2:0|2:0,2:0:0:0:
500,291,179396,1,2,2:0:0:0:
500,291,179545,6,0,L|476:167,1,110,2|8,2:0|2:0,2:0:0:0:
430,84,180139,2,0,L|251:119,2,165,2|2|8,2:0|2:0|2:0,2:0:0:0:
309,267,181624,6,0,L|82:258,1,220,2|8,2:0|2:0,2:0:0:0:
22,171,182515,2,0,P|18:124|155:95,1,220,2|2,2:0|2:0,2:0:0:0:
206,188,183406,2,0,L|201:368,1,165,8|2,2:0|2:0,2:0:0:0:
311,350,184149,1,2,2:0:0:0:
311,350,184297,5,2,2:0:0:0:
392,276,184594,2,0,L|374:209,2,55,8|8|2,2:0|2:0|2:0,2:0:0:0:
256,192,184966,12,2,186377,2:0:0:0:
419,73,186822,6,0,P|394:95|257:77,2,165,12|8|8,2:0|2:0|2:0,2:0:0:0:
482,225,188159,2,0,P|420:222|301:329,1,220,8|2,2:0|2:0,2:0:0:0:
193,196,189198,2,0,L|19:182,2,165,12|8|8,2:0|2:0|2:0,2:0:0:0:
259,108,190386,1,2,2:0:0:0:
259,108,190535,2,0,P|252:73|223:30,2,82.5,8|8|8,2:0|2:0|2:0,2:0:0:0:
314,186,191129,6,0,P|306:214|313:300,1,110,2|0,2:0|2:0,2:0:0:0:
341,339,191575,2,0,L|510:323,2,165,12|8|8,2:0|2:0|2:0,2:0:0:0:
177,355,192911,2,0,P|160:313|39:260,1,165,8|0,2:0|2:0,2:0:0:0:
28,178,193505,6,0,L|20:55,1,110,2|0,2:0|2:0,2:0:0:0:
67,97,193951,2,0,L|250:95,1,165,12|8,2:0|2:0,2:0:0:0:
181,252,194842,2,0,L|308:246,1,110,8|2,2:0|2:0,2:0:0:0:
334,280,195287,2,0,L|342:153,2,110,8|8|4,2:0|2:0|2:0,2:0:0:0:
447,215,205386,6,0,P|433:242|345:241,1,110,2|0,2:0|2:0,2:0:0:0:
294,214,205832,2,0,P|246:199|166:222,1,110,2|0,2:0|2:0,2:0:0:0:
136,266,206278,1,4,2:0:0:0:
25,158,206575,6,0,P|57:150|102:71,1,110,2|0,2:0|2:0,2:0:0:0:
154,35,207020,2,0,L|283:44,1,110,2|2,2:0|2:0,2:0:0:0:
494,62,207763,6,0,P|457:78|410:148,1,110,2|0,2:0|2:0,2:0:0:0:
409,208,208208,2,0,L|426:322,1,110,2|0,2:0|2:0,2:0:0:0:
485,365,208654,1,4,2:0:0:0:
331,352,208951,6,0,B|303:135|303:135|186:109,1,330,2|0,2:0|2:0,2:0:0:0:
40,118,210139,6,0,P|32:161|50:237,1,110,2|0,2:0|2:0,2:0:0:0:
101,276,210584,2,0,L|222:266,1,110,2|0,2:0|2:0,2:0:0:0:
287,261,211030,1,4,2:0:0:0:
425,327,211327,6,0,L|435:199,1,110,2|0,2:0|2:0,2:0:0:0:
463,146,211773,2,0,L|339:131,1,110,2|2,2:0|2:0,2:0:0:0:
140,45,212515,6,0,L|148:164,1,110,2|0,2:0|2:0,2:0:0:0:
204,206,212961,2,0,L|205:331,1,110,2|0,2:0|2:0,2:0:0:0:
143,361,213406,1,4,2:0:0:0:
256,192,213703,12,2,214891,2:0:0:0:
256,192,219644,12,2,223208,2:0:0:0:
115,296,224396,6,0,P|89:272|75:240,1,55,6|0,2:0|2:0,2:0:0:0:
91,178,224693,2,0,L|106:59,2,110,8|2|8,2:0|2:0|2:0,2:0:0:0:
153,223,225436,1,2,2:0:0:0:
229,218,225584,2,0,P|264:201|354:204,1,110,2|8,2:0|2:0,2:0:0:0:
404,229,226030,1,2,2:0:0:0:
461,177,226179,2,0,L|446:67,1,110,2|8,2:0|2:0,2:0:0:0:
377,33,226624,1,2,2:0:0:0:
303,57,226773,6,0,L|295:134,1,55,2|0,2:0|2:0,2:0:0:0:
227,145,227070,2,0,L|247:265,2,110,8|2|8,2:0|2:0|2:0,2:0:0:0:
180,83,227812,1,2,2:0:0:0:
103,74,227961,6,0,L|78:193,1,110,2|8,2:0|2:0,2:0:0:0:
27,326,228555,2,0,L|160:318,1,110,2|8,2:0|2:0,2:0:0:0:
197,272,229000,1,2,2:0:0:0:
249,215,229149,6,0,L|378:209,2,110,2|8|2,2:0|2:0|2:0,2:0:0:0:
178,183,229891,1,0,2:0:0:0:
147,112,230040,2,0,L|159:37,1,55,8|2,2:0|2:0,2:0:0:0:
226,27,230337,6,0,L|354:39,1,110,2|8,2:0|2:0,2:0:0:0:
403,73,230783,1,2,2:0:0:0:
426,146,230931,2,0,L|401:264,1,110,2|8,2:0|2:0,2:0:0:0:
263,317,231525,6,0,L|245:214,2,82.5,2|2|2,2:0|2:0|2:0,2:0:0:0:
197,358,232119,2,0,L|77:347,1,110,2|8,2:0|2:0,2:0:0:0:
76,194,232713,2,0,L|59:109,2,82.5,8|2|2,2:0|2:0|2:0,2:0:0:0:
140,235,233307,2,0,L|255:223,1,110,10|10,2:0|2:0,2:0:0:0:
326,231,233753,1,2,2:0:0:0:
395,263,233901,6,0,P|403:231|357:162,1,110,6|8,2:0|2:0,2:0:0:0:
291,32,234495,2,0,L|170:42,1,110,2|8,2:0|2:0,2:0:0:0:
204,114,234941,1,2,2:0:0:0:
227,187,235089,6,0,L|265:309,2,110,2|8|2,2:0|2:0|2:0,2:0:0:0:
107,164,235981,1,10,2:0:0:0:
86,237,236129,1,2,2:0:0:0:
61,310,236278,6,0,L|115:327,1,55,2|0,2:0|2:0,2:0:0:0:
190,316,236575,2,0,L|303:302,1,110,8|2,2:0|2:0,2:0:0:0:
360,348,237020,1,2,2:0:0:0:
414,292,237169,2,0,L|419:235,1,55,8|0,2:0|2:0,2:0:0:0:
493,216,237466,6,0,P|475:184|402:162,1,110,2|8,2:0|2:0,2:0:0:0:
338,192,237911,1,2,2:0:0:0:
267,223,238060,2,0,L|150:213,1,110,2|8,2:0|2:0,2:0:0:0:
104,157,238505,2,0,B|98:131|98:131|102:97,1,55,2|0,2:0|2:0,2:0:0:0:
238,30,238951,5,8,2:0:0:0:
283,91,239099,1,2,2:0:0:0:
296,166,239248,1,10,2:0:0:0:
277,240,239396,1,0,2:0:0:0:
218,290,239545,2,0,L|162:283,1,55,8|2,2:0|2:0,2:0:0:0:
108,337,239842,6,0,P|89:308|105:233,1,110,12|8,2:0|2:0,2:0:0:0:
166,197,240287,1,2,2:0:0:0:
243,193,240436,2,0,L|361:220,1,110,10|8,2:0|2:0,2:0:0:0:
400,276,240882,1,2,2:0:0:0:
256,192,241030,12,4,243406,2:0:0:0:
330,342,244000,6,0,P|344:318|367:300,1,55,2|2,2:0|2:0,2:0:0:0:
451,285,244297,1,8,2:0:0:0:
393,218,244446,1,2,2:0:0:0:
364,134,244594,6,0,L|381:20,2,110,2|8|2,2:0|2:0|2:0,2:0:0:0:
282,167,245337,1,2,2:0:0:0:
218,106,245485,2,0,P|186:95|160:94,1,55,8|0,2:0|2:0,2:0:0:0:
87,137,245783,6,0,P|65:170|65:245,1,110,2|8,2:0|2:0,2:0:0:0:
131,293,246228,2,0,L|251:275,1,110,2|2,2:0|2:0,2:0:0:0:
294,345,246674,1,8,2:0:0:0:
346,274,246822,1,0,2:0:0:0:
333,186,246971,6,0,L|306:77,1,110,2|8,2:0|2:0,2:0:0:0:
386,42,247416,1,2,2:0:0:0:
465,81,247565,2,0,L|449:194,1,110,2|8,2:0|2:0,2:0:0:0:
361,333,248159,6,0,L|241:315,1,110,2|8,2:0|2:0,2:0:0:0:
77,336,248753,1,2,2:0:0:0:
105,253,248901,1,2,2:0:0:0:
67,173,249050,2,0,P|50:148|41:114,2,55,8|2|2,2:0|2:0|2:0,2:0:0:0:
154,176,249495,1,0,2:0:0:0:
242,182,249644,2,0,P|279:191|323:255,2,110,10|2|4,2:0|2:0|2:0,2:0:0:0:
242,182,250535,6,0,L|230:71,1,110,6|8,2:0|2:0,2:0:0:0:
302,22,250981,1,2,2:0:0:0:
380,60,251129,2,0,L|375:175,1,110,2|8,2:0|2:0,2:0:0:0:
473,315,251723,2,0,L|354:294,1,110,2|8,2:0|2:0,2:0:0:0:
281,324,252169,1,0,2:0:0:0:
199,292,252317,2,0,L|133:304,2,55,2|2|10,2:0|2:0|2:0,2:0:0:0:
349,200,252911,6,0,L|235:189,1,110,6|8,2:0|2:0,2:0:0:0:
153,209,253357,1,2,2:0:0:0:
90,147,253505,2,0,L|81:29,2,110,2|8|2,2:0|2:0|2:0,2:0:0:0:
54,319,254396,1,8,2:0:0:0:
115,255,254545,1,2,2:0:0:0:
188,303,254693,2,0,P|211:317|295:313,1,110,2|8,2:0|2:0,2:0:0:0:
328,142,255287,6,0,P|297:134|216:145,1,110,2|8,2:0|2:0,2:0:0:0:
276,211,255733,2,0,P|328:224|391:209,1,110,0|2,2:0|2:0,2:0:0:0:
420,133,256179,2,0,L|410:74,1,55,8|2,2:0|2:0,2:0:0:0:
331,40,256476,5,2,2:0:0:0:
499,92,256773,1,8,2:0:0:0:
469,265,257070,1,2,2:0:0:0:
301,211,257367,1,8,2:0:0:0:
139,280,257664,6,0,P|105:285|31:249,1,110,6|8,2:0|2:0,2:0:0:0:
105,200,258109,1,2,2:0:0:0:
192,211,258258,2,0,P|221:262|211:319,1,110,2|8,2:0|2:0,2:0:0:0:
256,139,258852,2,0,P|226:87|236:30,2,110,2|8|2,2:0|2:0|2:0,2:0:0:0:
318,201,259594,1,2,2:0:0:0:
402,226,259743,2,0,P|428:227|464:220,1,55,8|0,2:0|2:0,2:0:0:0:
424,140,260040,6,0,P|460:114|483:55,2,110,2|8|2,2:0|2:0|2:0,2:0:0:0:
258,78,260931,1,8,2:0:0:0:
113,178,261228,2,0,L|101:262,2,82.5,10|10|10,2:0|2:0|2:0,2:0:0:0:
149,97,261822,2,0,L|368:63,1,220,8|4,2:0|2:0,2:0:0:0:
256,192,262490,12,0,267169,0:0:0:0:
