osu file format v14

[General]
AudioFilename: racemization.mp3
AudioLeadIn: 0
PreviewTime: 243258
Countdown: 0
SampleSet: Soft
StackLeniency: 0.7
Mode: 0
LetterboxInBreaks: 0
WidescreenStoryboard: 1

[Editor]
Bookmarks: 43802,53307,91327,148357,157862,195882,214892
DistanceSpacing: 1
BeatDivisor: 2
GridSize: 4
TimelineZoom: 2.3

[Metadata]
Title:Racemization
TitleUnicode:Racemization
Artist:Camellia
ArtistUnicode:かめりあ
Creator:Ciyus Miapah
Version:extreme
Source:osu!
Tags:Fort fa featured artist cametek cameltek planet//shaper planet shaper dubstep drumstep hardcore chillout
BeatmapID:2198934
BeatmapSetID:1052199

[Difficulty]
HPDrainRate:6
CircleSize:4
OverallDifficulty:8.3
ApproachRate:9.3
SliderMultiplier:1.4
SliderTickRate:1

[Events]
//Background and Video events
0,0,"extermination.jpg",0,0
//Break Periods
2,79646,80971
2,129547,145427
2,196082,204832
//Storyboard Layer 0 (Background)
//Storyboard Layer 1 (Fail)
//Storyboard Layer 2 (Pass)
//Storyboard Layer 3 (Foreground)
//Storyboard Layer 4 (Overlay)
//Storyboard Sound Samples

[TimingPoints]
5783,297.029702970297,4,2,1,40,1,0
43802,-100,4,2,1,80,0,0
63406,-90.9090909090909,4,2,1,80,0,0
66228,-100,4,2,1,80,0,0
67565,-90.9090909090909,4,2,1,80,0,0
69644,-100,4,2,1,80,0,0
91030,-100,4,2,2,80,0,0
91104,-100,4,2,1,80,0,0
91327,-76.9230769230769,4,2,1,80,0,0
98456,-200,4,2,1,80,0,0
98753,-100,4,2,1,80,0,0
100832,-90.9090909090909,4,2,1,80,0,0
103208,-100,4,2,1,80,0,0
110337,-83.3333333333333,4,2,1,100,0,1
124594,-100,4,2,1,80,0,0
148357,-142.857142857143,4,2,2,50,0,0
157862,-166.666666666667,4,2,1,40,0,0
166179,-200,4,2,2,40,0,0
167367,-100,4,2,1,80,0,0
174495,-100,4,2,2,80,0,0
174792,-100,4,2,1,80,0,0
195882,-100,4,2,2,80,0,0
205386,-100,4,2,1,80,0,0
206278,-100,4,2,2,80,0,0
206575,-100,4,2,1,80,0,0
208654,-100,4,2,2,80,0,0
209842,-100,4,2,1,80,0,0
211030,-100,4,2,2,80,0,0
211327,-100,4,2,1,80,0,0
213406,-100,4,2,2,80,0,0
214594,-100,4,2,1,80,0,0
224396,-83.3333333333333,4,2,1,100,0,1
238654,-83.3333333333333,4,2,1,100,0,0
238951,-83.3333333333333,4,2,1,80,0,0
239545,-100,4,2,1,80,0,0
241030,-100,4,2,1,100,0,1
242218,-100,4,2,1,80,0,0
243406,-100,4,2,2,80,0,0
244000,-83.3333333333333,4,2,1,100,0,1
250238,-83.3333333333333,4,2,2,100,0,1
250535,-100,4,2,1,100,0,1
261822,-100,4,2,1,70,0,0

[Colours]
Combo1 : 215,0,107
Combo2 : 89,146,155
Combo3 : 160,220,220
Combo4 : 0,255,255
Combo5 : 21,180,255
Combo6 : 223,112,0
Combo7 : 187,0,0
Combo8 : 128,0,128

[HitObjects]
256,192,39050,12,0,42614,2:0:0:0:
296,268,43802,6,0,B|196:252|196:252|152:264,1,140,2|0,2:0|2:0,2:0:0:0:
264,172,44248,2,0,P|272:136|268:92,2,70,2|0|0,2:0|2:0|2:0,2:0:0:0:
200,352,44693,2,0,L|280:368,1,70,8|0,2:0|2:0,2:0:0:0:
400,320,44990,6,0,B|420:268|420:268|400:172,1,140,2|0,2:0|2:0,2:0:0:0:
444,48,45436,2,0,P|424:64|380:72,1,70,2|0,2:0|2:0,2:0:0:0:
264,144,45733,2,0,L|184:132,1,70,2|8,2:0|2:0,2:0:0:0:
168,152,46179,6,0,B|160:64|160:64|168:0,1,140,2|0,2:0|2:0,2:0:0:0:
104,236,46624,2,0,B|84:188|84:188|64:96,1,140,2|0,2:0|2:0,2:0:0:0:
200,232,47070,2,0,P|200:264|192:312,1,70,8|0,2:0|2:0,2:0:0:0:
256,192,47367,12,8,48258,2:0:0:0:
396,152,48555,6,0,B|408:196|408:196|404:304,1,140,2|0,2:0|2:0,2:0:0:0:
292,344,49000,2,0,L|212:352,2,70,2|0|0,2:0|2:0|2:0,2:0:0:0:
496,276,49446,2,0,L|496:200,1,70,8|0,2:0|2:0,2:0:0:0:
324,208,49743,6,0,P|308:164|336:76,1,140,2|0,2:0|2:0,2:0:0:0:
416,56,50188,2,0,L|264:32,1,140,2|2,2:0|2:0,2:0:0:0:
152,128,50634,1,8,2:0:0:0:
168,144,50931,6,0,L|160:288,1,140,2|0,2:0|2:0,2:0:0:0:
72,84,51377,2,0,L|80:232,1,140,2|0,2:0|2:0,2:0:0:0:
188,48,51822,2,0,L|272:36,1,70,8|0,2:0|2:0,2:0:0:0:
256,192,52119,12,8,53010,2:0:0:0:
152,332,53307,6,0,P|156:304|144:264,1,70,2|0,2:0|2:0,2:0:0:0:
156,180,53604,2,0,L|84:168,1,70,2|0,2:0|2:0,2:0:0:0:
124,92,53901,2,0,L|196:104,1,70,2|0,2:0|2:0,2:0:0:0:
272,248,54198,2,0,L|260:176,1,70,2|0,2:0|2:0,2:0:0:0:
324,36,54495,6,0,L|340:112,1,70,2|0,2:0|2:0,2:0:0:0:
420,124,54792,2,0,L|404:200,1,70,2|8,2:0|2:0,2:0:0:0:
484,224,55089,2,0,L|456:372,1,140,2|2,2:0|2:0,2:0:0:0:
428,284,55535,1,8,2:0:0:0:
292,356,55683,6,0,P|256:352|220:340,1,70,2|0,2:0|2:0,2:0:0:0:
300,208,55981,2,0,P|292:240|280:276,1,70,2|0,2:0|2:0,2:0:0:0:
204,136,56278,2,0,P|192:108|184:64,1,70,2|0,2:0|2:0,2:0:0:0:
168,236,56575,2,0,P|136:240|96:236,1,70,2|0,2:0|2:0,2:0:0:0:
304,64,56872,6,0,L|444:44,1,140,2|2,2:0|2:0,2:0:0:0:
424,124,57317,1,8,2:0:0:0:
492,176,57466,2,0,B|496:212|496:212|484:256,2,70,2|0|2,2:0|2:0|2:0,2:0:0:0:
424,348,58060,5,2,2:0:0:0:
356,300,58208,1,2,2:0:0:0:
272,304,58357,1,10,2:0:0:0:
204,352,58505,1,2,2:0:0:0:
204,116,58654,5,2,2:0:0:0:
228,196,58802,1,2,2:0:0:0:
92,256,58951,1,10,2:0:0:0:
176,268,59099,1,2,2:0:0:0:
120,140,59248,6,0,P|116:112|116:64,1,70,2|2,2:0|2:0,2:0:0:0:
296,68,59545,2,0,P|300:96|300:144,1,70,10|2,2:0|2:0,2:0:0:0:
368,232,59842,6,0,L|364:272,3,35,2|2|2|2,2:0|2:0|2:0|2:0,2:0:0:0:
440,168,60139,2,0,L|432:120,3,35,10|2|2|2,2:0|2:0|2:0|2:0,2:0:0:0:
484,248,60436,6,0,L|468:328,1,70,2|0,2:0|2:0,2:0:0:0:
264,220,60733,2,0,L|256:184,3,35,10|2|2|2,2:0|2:0|2:0|2:0,2:0:0:0:
268,144,61030,1,2,2:0:0:0:
232,120,61104,1,2,2:0:0:0:
188,124,61179,1,2,2:0:0:0:
148,120,61253,1,2,2:0:0:0:
116,92,61327,2,0,L|108:56,1,35,10|2,2:0|2:0,2:0:0:0:
196,44,61476,2,0,P|216:32|240:28,1,35,2|0,2:0|2:0,2:0:0:0:
156,208,61624,6,0,L|72:204,1,70,4|0,2:0|2:0,2:0:0:0:
208,304,61921,1,2,2:0:0:0:
356,176,62070,2,0,L|364:104,1,70,8|0,2:0|2:0,2:0:0:0:
392,252,62367,1,2,2:0:0:0:
448,192,62515,2,0,B|500:184|500:184|476:176,1,70,8|0,2:0|2:0,2:0:0:0:
332,324,62812,5,6,2:0:0:0:
488,280,62961,1,0,2:0:0:0:
288,236,63109,1,0,2:0:0:0:
288,236,63258,1,2,2:0:0:0:
364,64,63406,2,0,L|456:72,1,77.0000023498536,8|2,2:0|2:0,2:0:0:0:
436,80,63629,1,2,2:0:0:0:
432,88,63703,1,2,2:0:0:0:
252,136,63852,1,2,2:0:0:0:
476,176,64000,6,0,L|464:256,1,77.0000023498536,2|2,2:0|2:0,2:0:0:0:
316,216,64297,2,0,L|328:304,1,77.0000023498536,2|2,2:0|2:0,2:0:0:0:
324,200,64520,1,2,2:0:0:0:
332,188,64594,2,0,B|288:180|288:180|248:188,1,77.0000023498536,8|2,2:0|2:0,2:0:0:0:
298,67,64891,2,0,P|304:53|294:19,2,38.5000011749268,8|2|2,0:0|0:0|0:0,0:0:0:0:
51,105,65188,6,0,L|208:88,1,154.000004699707,2|2,2:0|2:0,2:0:0:0:
136,200,65634,2,0,P|132:236|144:280,1,77.0000023498536,2|8,2:0|2:0,2:0:0:0:
188,356,65931,1,2,2:0:0:0:
188,356,66080,1,2,2:0:0:0:
280,232,66228,6,0,L|360:240,1,70,2|0,2:0|2:0,2:0:0:0:
492,180,66525,1,2,2:0:0:0:
352,124,66674,2,0,L|272:132,1,70,2|0,2:0|2:0,2:0:0:0:
344,340,66971,2,0,L|488:316,1,140,8|2,2:0|2:0,2:0:0:0:
188,264,67565,6,0,P|176:228|184:180,1,77.0000023498536,2|0,2:0|2:0,2:0:0:0:
204,100,67862,1,0,2:0:0:0:
252,328,68010,1,2,2:0:0:0:
88,272,68159,2,0,L|8:260,1,77.0000023498536,8|2,2:0|2:0,2:0:0:0:
16,268,68382,1,2,2:0:0:0:
20,276,68456,1,2,2:0:0:0:
260,196,68604,1,2,2:0:0:0:
92,148,68753,6,0,L|68:56,1,77.0000023498536,2|2,2:0|2:0,2:0:0:0:
224,88,69050,2,0,L|220:0,1,77.0000023498536,2|2,2:0|2:0,2:0:0:0:
216,16,69273,1,2,2:0:0:0:
212,20,69347,2,0,B|252:28|252:28|300:20,1,77.0000023498536,8|2,2:0|2:0,2:0:0:0:
488,140,69644,2,0,B|452:133|452:133|407:141,1,70,8|0,2:0|2:0,2:0:0:0:
356,272,69941,6,0,L|368:352,1,70,4|0,2:0|2:0,2:0:0:0:
464,232,70238,1,2,2:0:0:0:
476,244,70535,2,0,L|464:320,1,70,8|0,2:0|2:0,2:0:0:0:
272,140,70832,1,2,2:0:0:0:
448,56,70981,2,0,L|460:128,1,70,12|0,2:0|2:0,2:0:0:0:
256,120,71278,2,0,L|244:192,1,70,2|2,2:0|2:0,2:0:0:0:
360,240,71575,1,0,2:0:0:0:
324,32,71723,5,8,2:0:0:0:
364,104,71872,1,2,2:0:0:0:
352,188,72020,1,8,2:0:0:0:
284,236,72169,1,2,2:0:0:0:
368,340,72317,6,0,L|444:328,1,70,6|0,2:0|2:0,2:0:0:0:
208,288,72614,1,0,2:0:0:0:
216,304,72911,5,8,2:0:0:0:
244,112,73060,1,2,2:0:0:0:
244,112,73134,1,2,2:0:0:0:
244,112,73208,1,2,2:0:0:0:
136,188,73357,1,2,2:0:0:0:
264,216,73505,6,0,L|340:208,1,70,2|2,2:0|2:0,2:0:0:0:
120,80,73802,2,0,L|44:68,1,70,2|2,2:0|2:0,2:0:0:0:
124,88,74025,1,2,2:0:0:0:
128,96,74099,2,0,L|116:20,1,70,8|2,2:0|2:0,2:0:0:0:
112,276,74396,2,0,L|104:316,2,35,8|0|2,2:0|2:0|2:0,2:0:0:0:
224,132,74693,6,0,L|364:116,1,140,2|2,2:0|2:0,2:0:0:0:
360,256,75139,1,2,2:0:0:0:
468,148,75287,2,0,L|476:72,1,70,8|2,2:0|2:0,2:0:0:0:
344,276,75584,1,2,2:0:0:0:
424,336,75733,6,0,L|496:328,1,70,2|0,2:0|2:0,2:0:0:0:
212,264,76030,1,2,2:0:0:0:
328,296,76179,2,0,L|336:380,1,70,2|0,2:0|2:0,2:0:0:0:
264,192,76476,2,0,P|252:148|260:40,1,140,8|2,2:0|2:0,2:0:0:0:
255,54,76921,1,0,2:0:0:0:
492,199,77070,6,0,L|333:220,1,140,2|0,2:0|2:0,2:0:0:0:
343,121,77515,1,2,2:0:0:0:
188,284,77664,2,0,P|192:316|204:368,1,70,8|2,2:0|2:0,2:0:0:0:
208,360,77886,1,2,2:0:0:0:
216,364,77961,1,2,2:0:0:0:
104,224,78109,1,2,2:0:0:0:
292,204,78258,6,0,L|280:288,1,70,2|2,2:0|2:0,2:0:0:0:
224,88,78555,1,2,2:0:0:0:
340,76,78703,1,2,2:0:0:0:
344,68,78778,1,2,2:0:0:0:
348,60,78852,2,0,L|432:52,1,70,8|2,2:0|2:0,2:0:0:0:
136,128,79149,1,2,2:0:0:0:
127,125,79223,1,2,2:0:0:0:
119,123,79297,1,2,2:0:0:0:
110,121,79371,1,2,2:0:0:0:
102,119,79446,1,6,2:0:0:0:
128,136,81525,6,0,P|128:164|120:212,1,70,2|0,2:0|2:0,2:0:0:0:
64,348,81822,6,0,L|48:280,1,70,2|0,2:0|2:0,2:0:0:0:
152,296,82119,2,0,L|144:224,1,70,10|0,2:0|2:0,2:0:0:0:
248,272,82416,2,0,L|248:200,1,70,2|0,2:0|2:0,2:0:0:0:
336,304,82713,2,0,L|352:228,1,70,10|0,2:0|2:0,2:0:0:0:
480,136,83010,6,0,P|448:140|356:88,1,140,2|10,2:0|2:0,2:0:0:0:
308,24,83456,1,2,2:0:0:0:
236,100,83604,2,0,L|152:92,1,70,2|2,2:0|2:0,2:0:0:0:
308,196,83901,2,0,L|384:192,1,70,10|2,2:0|2:0,2:0:0:0:
180,196,84198,6,0,P|164:244|164:344,1,140,2|10,2:0|2:0,2:0:0:0:
80,324,84644,1,2,2:0:0:0:
264,296,84792,2,0,P|272:328|268:372,1,70,2|0,2:0|2:0,2:0:0:0:
72,232,85089,2,0,P|64:264|68:308,1,70,10|0,2:0|2:0,2:0:0:0:
280,168,85386,6,0,L|360:152,1,70,2|0,2:0|2:0,2:0:0:0:
112,128,85683,1,10,2:0:0:0:
96,44,85832,1,2,2:0:0:0:
96,44,85906,1,2,2:0:0:0:
96,44,85981,2,0,L|244:36,1,140,2|10,2:0|2:0,2:0:0:0:
388,40,86575,6,0,L|404:120,1,70,2|2,2:0|2:0,2:0:0:0:
280,132,86872,2,0,L|268:204,1,70,8|2,2:0|2:0,2:0:0:0:
336,320,87169,1,2,2:0:0:0:
384,204,87317,1,2,2:0:0:0:
208,296,87466,1,8,2:0:0:0:
180,144,87614,1,2,2:0:0:0:
280,216,87763,6,0,P|296:236|312:288,1,70,2|2,2:0|2:0,2:0:0:0:
96,312,88060,2,0,P|80:292|64:240,1,70,8|2,2:0|2:0,2:0:0:0:
112,128,88357,2,0,L|196:124,1,70,2|2,2:0|2:0,2:0:0:0:
252,376,88654,2,0,L|182:372,1,70,8|2,2:0|2:0,2:0:0:0:
384,344,88951,5,2,2:0:0:0:
395,320,89025,1,2,2:0:0:0:
401,294,89099,1,10,2:0:0:0:
404,268,89173,1,0,2:0:0:0:
401,242,89248,1,2,2:0:0:0:
395,217,89322,1,10,2:0:0:0:
384,193,89396,1,2,2:0:0:0:
369,172,89470,1,2,2:0:0:0:
350,153,89545,2,0,L|312:160,3,35,10|2|2|10,2:0|2:0|2:0|2:0,2:0:0:0:
328,56,89842,2,0,L|312:12,1,35,2|2,2:0|2:0,2:0:0:0:
456,64,89990,2,0,L|448:112,1,35,10|2,2:0|2:0,2:0:0:0:
484,192,90139,5,4,2:0:0:0:
292,256,91030,6,0,L|208:244,1,70,4|0,2:0|2:0,2:0:0:0:
140,320,91327,6,0,B|132:212|132:212|120:180,1,136.499993751526,6|0,2:0|2:0,2:0:0:0:
104,172,91624,2,0,L|200:152,1,90.9999958343508,8|2,2:0|2:0,2:0:0:0:
344,104,91921,1,2,2:0:0:0:
200,48,92070,1,2,2:0:0:0:
304,228,92218,1,8,2:0:0:0:
460,104,92367,2,0,L|448:8,1,90.9999958343508,2|0,2:0|2:0,2:0:0:0:
404,200,92664,1,2,2:0:0:0:
476,280,92812,2,0,P|484:316|488:376,1,90.9999958343508,8|2,2:0|2:0,2:0:0:0:
300,252,93109,6,0,L|248:272,2,45.4999979171754,2|2|2,2:0|2:0|2:0,2:0:0:0:
328,128,93406,1,8,2:0:0:0:
336,328,93555,1,2,2:0:0:0:
232,176,93703,6,0,L|136:160,1,90.9999958343508,6|0,2:0|2:0,2:0:0:0:
212,76,94000,1,8,2:0:0:0:
60,188,94149,1,2,2:0:0:0:
124,256,94297,6,0,L|128:356,1,90.9999958343508,2|0,2:0|2:0,2:0:0:0:
64,160,94594,1,8,2:0:0:0:
264,152,94743,2,0,P|296:120|276:-12,1,181.999991668702,6|2,2:0|2:0,2:0:0:0:
124,40,95188,2,0,B|120:104|120:104|160:168,2,136.499993751526,8|2|2,2:0|2:0|2:0,2:0:0:0:
240,240,95783,2,0,L|224:332,1,90.9999958343508,8|2,2:0|2:0,2:0:0:0:
344,144,96080,6,0,L|360:252,1,90.9999958343508,2|0,2:0|2:0,2:0:0:0:
392,48,96377,2,0,L|488:32,1,90.9999958343508,8|2,2:0|2:0,2:0:0:0:
248,80,96674,1,2,2:0:0:0:
460,132,96822,1,2,2:0:0:0:
460,132,96896,1,2,2:0:0:0:
460,132,96971,1,8,2:0:0:0:
232,60,97119,1,2,2:0:0:0:
404,224,97268,6,0,L|384:316,1,90.9999958343508,2|2,2:0|2:0,2:0:0:0:
236,168,97565,2,0,L|248:264,1,90.9999958343508,8|2,2:0|2:0,2:0:0:0:
244,268,97787,1,0,2:0:0:0:
240,280,97862,2,0,L|248:328,2,45.4999979171754,2|2|2,2:0|2:0|2:0,2:0:0:0:
136,152,98159,2,0,P|124:120|120:48,1,90.9999958343508,8|0,2:0|2:0,2:0:0:0:
84,253,98456,6,0,P|68:246|52:240,1,35,6|0,2:0|2:0,2:0:0:0:
208,84,98753,2,0,L|292:72,1,70,8|2,2:0|2:0,2:0:0:0:
352,168,99050,5,2,2:0:0:0:
396,16,99198,1,0,2:0:0:0:
364,180,99347,1,8,2:0:0:0:
472,84,99495,2,0,P|480:108|476:160,1,70,2|0,2:0|2:0,2:0:0:0:
284,224,99792,1,2,2:0:0:0:
400,268,99941,2,0,B|472:264|472:264|512:272,2,105,8|2|2,2:0|2:0|2:0,2:0:0:0:
256,336,100535,2,0,L|184:328,1,70,8|2,2:0|2:0,2:0:0:0:
352,168,100832,6,0,P|356:132|344:80,1,77.0000023498536,2|0,2:0|2:0,2:0:0:0:
260,200,101129,1,8,2:0:0:0:
236,112,101278,1,2,2:0:0:0:
412,236,101426,2,0,L|496:228,1,77.0000023498536,2|2,2:0|2:0,2:0:0:0:
484,224,101649,1,2,2:0:0:0:
477,219,101723,1,8,2:0:0:0:
448,336,101872,1,2,2:0:0:0:
468,136,102020,6,0,P|468:104|460:56,1,77.0000023498536,2|2,2:0|2:0,2:0:0:0:
348,308,102317,2,0,L|260:296,1,77.0000023498536,8|2,2:0|2:0,2:0:0:0:
352,168,102614,2,0,P|336:192|332:212,2,38.5000011749268,2|2|2,2:0|2:0|2:0,2:0:0:0:
240,96,102911,1,8,2:0:0:0:
448,112,103060,1,2,2:0:0:0:
220,80,103208,6,0,B|196:192|196:192|208:232,1,140,2|8,2:0|2:0,2:0:0:0:
256,280,103654,1,2,2:0:0:0:
124,112,103802,1,2,2:0:0:0:
192,64,103951,1,2,2:0:0:0:
120,220,104099,1,8,2:0:0:0:
32,104,104248,6,0,L|20:28,1,70,2|0,2:0|2:0,2:0:0:0:
112,236,104545,1,2,2:0:0:0:
276,168,104693,2,0,B|370:157|370:157|392:168,2,105,8|2|2,2:0|2:0|2:0,2:0:0:0:
104,252,105287,2,0,L|32:240,1,70,8|0,2:0|2:0,2:0:0:0:
184,344,105584,6,0,L|328:320,1,140,2|0,2:0|2:0,2:0:0:0:
400,352,106030,1,0,2:0:0:0:
460,296,106179,2,0,P|472:264|472:228,1,70,8|2,2:0|2:0,2:0:0:0:
448,196,106401,1,2,2:0:0:0:
420,164,106476,2,0,L|432:92,1,70,2|2,2:0|2:0,2:0:0:0:
160,108,106773,6,0,L|168:188,1,70,8|2,2:0|2:0,2:0:0:0:
184,304,107070,1,2,2:0:0:0:
64,132,107218,1,2,2:0:0:0:
64,132,107292,1,2,2:0:0:0:
64,132,107367,2,0,L|76:52,1,70,8|2,2:0|2:0,2:0:0:0:
252,120,107664,2,0,L|240:48,1,70,8|8,2:0|2:0,2:0:0:0:
248,40,107886,1,0,2:0:0:0:
256,32,107961,6,0,B|292:40|292:40|336:32,1,70,8|2,2:0|2:0,2:0:0:0:
344,224,108258,2,0,B|308:216|308:216|264:224,1,70,8|2,2:0|2:0,2:0:0:0:
380,136,108555,1,8,2:0:0:0:
300,312,108703,2,0,P|300:340|296:360,2,35,2|8|2,2:0|2:0|2:0,2:0:0:0:
176,168,109000,1,8,2:0:0:0:
436,212,109149,6,0,L|424:296,1,70,0|0,2:0|2:0,2:0:0:0:
276,96,109446,2,0,L|260:16,1,70,0|0,2:0|2:0,2:0:0:0:
392,120,109743,1,0,2:0:0:0:
384,104,110337,6,0,L|480:88,1,83.9999974365235,6|0,2:0|2:0,2:0:0:0:
300,244,110634,2,0,L|208:236,1,83.9999974365235,8|2,2:0|2:0,2:0:0:0:
116,224,110931,1,2,2:0:0:0:
400,216,111080,1,2,2:0:0:0:
256,352,111228,1,8,2:0:0:0:
292,128,111377,1,2,2:0:0:0:
372,320,111525,6,0,L|464:308,1,83.9999974365235,2|2,2:0|2:0,2:0:0:0:
276,104,111822,2,0,L|184:116,1,83.9999974365235,8|2,2:0|2:0,2:0:0:0:
188,128,112045,1,2,2:0:0:0:
184,140,112119,2,0,L|168:88,1,41.9999987182618,2|0,2:0|2:0,2:0:0:0:
68,80,112268,2,0,L|80:28,1,41.9999987182618,2|0,2:0|2:0,2:0:0:0:
96,208,112416,2,0,L|84:296,1,83.9999974365235,8|2,2:0|2:0,2:0:0:0:
272,208,112713,6,0,B|368:192|368:192|408:200,1,125.999996154785,2|0,2:0|2:0,2:0:0:0:
408,208,113010,1,8,2:0:0:0:
388,108,113159,1,2,2:0:0:0:
352,280,113307,2,0,L|368:368,1,83.9999974365235,2|2,2:0|2:0,2:0:0:0:
464,144,113604,2,0,P|476:108|456:52,1,83.9999974365235,8|2,2:0|2:0,2:0:0:0:
272,120,113901,6,0,B|216:136|216:136|104:116,1,167.999994873047,2|8,2:0|2:0,2:0:0:0:
200,232,114347,1,2,2:0:0:0:
272,20,114495,1,2,2:0:0:0:
320,196,114644,1,2,2:0:0:0:
184,52,114792,1,8,2:0:0:0:
364,116,114941,1,2,2:0:0:0:
184,252,115089,6,0,P|180:288|184:340,1,83.9999974365235,6|0,2:0|2:0,2:0:0:0:
100,172,115386,2,0,B|104:136|104:136|88:92,1,83.9999974365235,8|0,2:0|2:0,2:0:0:0:
264,304,115683,2,0,L|364:296,1,83.9999974365235,2|2,2:0|2:0,2:0:0:0:
212,148,115981,1,8,2:0:0:0:
288,216,116129,1,2,2:0:0:0:
288,88,116278,6,0,L|296:4,1,83.9999974365235,2|0,2:0|2:0,2:0:0:0:
444,260,116575,2,0,L|436:344,1,83.9999974365235,8|2,2:0|2:0,2:0:0:0:
436,343,116797,1,2,2:0:0:0:
436,343,116872,1,2,2:0:0:0:
496,176,117020,1,2,2:0:0:0:
408,96,117169,2,0,L|396:12,1,83.9999974365235,8|0,2:0|2:0,2:0:0:0:
328,232,117466,6,0,B|244:240|244:240|192:260,1,125.999996154785,2|0,2:0|2:0,2:0:0:0:
196,268,117763,1,8,2:0:0:0:
276,328,117911,1,0,2:0:0:0:
296,144,118060,2,0,L|276:44,1,83.9999974365235,2|2,2:0|2:0,2:0:0:0:
164,184,118357,1,8,2:0:0:0:
392,172,118505,1,0,2:0:0:0:
144,168,118654,6,0,B|128:136|128:136|120:80,1,83.9999974365235,2|2,2:0|2:0,2:0:0:0:
184,288,118951,2,0,L|172:376,1,83.9999974365235,8|2,2:0|2:0,2:0:0:0:
100,256,119248,1,2,2:0:0:0:
280,292,119396,1,2,2:0:0:0:
84,260,119545,1,8,2:0:0:0:
260,168,119693,1,2,2:0:0:0:
264,176,119768,1,0,2:0:0:0:
268,184,119842,6,0,L|272:88,1,83.9999974365235,6|0,2:0|2:0,2:0:0:0:
368,320,120139,1,8,2:0:0:0:
384,220,120287,1,0,2:0:0:0:
456,332,120436,1,2,2:0:0:0:
276,272,120584,1,2,2:0:0:0:
460,176,120733,2,0,P|460:144|448:88,1,83.9999974365235,8|2,2:0|2:0,2:0:0:0:
216,64,121030,6,0,P|268:88|368:56,1,167.999994873047,2|8,2:0|2:0,2:0:0:0:
456,4,121476,1,2,2:0:0:0:
456,4,121550,1,2,2:0:0:0:
456,4,121624,1,2,2:0:0:0:
292,8,121773,1,2,2:0:0:0:
356,168,121921,2,0,L|364:256,1,83.9999974365235,8|2,2:0|2:0,2:0:0:0:
144,224,122218,6,0,B|136:128|136:128|112:96,1,125.999996154785,2|0,2:0|2:0,2:0:0:0:
108,96,122515,1,8,2:0:0:0:
92,296,122664,1,0,2:0:0:0:
228,176,122812,2,0,L|236:264,1,83.9999974365235,2|2,2:0|2:0,2:0:0:0:
60,168,123109,2,0,P|32:144|20:96,1,83.9999974365235,8|2,2:0|2:0,2:0:0:0:
220,72,123406,6,0,L|312:60,1,83.9999974365235,2|2,2:0|2:0,2:0:0:0:
328,284,123703,1,8,2:0:0:0:
392,120,123852,1,2,2:0:0:0:
452,200,124000,2,0,P|460:244|464:296,1,83.9999974365235,2|2,2:0|2:0,2:0:0:0:
472,72,124297,1,8,2:0:0:0:
468,62,124371,1,8,2:0:0:0:
465,52,124445,1,8,2:0:0:0:
462,41,124519,1,8,2:0:0:0:
460,31,124594,6,0,B|425:39|425:39|381:37,1,70,6|0,2:0|2:0,2:0:0:0:
260,88,124891,1,8,2:0:0:0:
376,144,125040,1,0,2:0:0:0:
180,244,125188,2,0,P|180:268|188:324,1,70,2|2,2:0|2:0,2:0:0:0:
192,324,125411,1,2,2:0:0:0:
200,332,125485,1,8,2:0:0:0:
340,256,125634,1,2,2:0:0:0:
192,144,125783,6,0,P|180:116|176:68,1,70,2|0,2:0|2:0,2:0:0:0:
96,192,126080,2,0,P|68:188|24:168,1,70,8|2,2:0|2:0,2:0:0:0:
316,240,126377,2,0,L|396:228,1,70,2|0,2:0|2:0,2:0:0:0:
288,352,126674,1,8,2:0:0:0:
284,156,126822,1,0,2:0:0:0:
452,140,126971,5,2,2:0:0:0:
432,60,127119,1,2,2:0:0:0:
412,248,127268,1,10,2:0:0:0:
372,176,127416,1,2,2:0:0:0:
400,356,127565,1,2,2:0:0:0:
324,324,127713,1,2,2:0:0:0:
484,308,127862,1,10,2:0:0:0:
280,248,128010,1,2,2:0:0:0:
132,312,128159,6,0,L|124:264,3,35,2|2|2|2,2:0|2:0|2:0|2:0,2:0:0:0:
112,268,128456,1,10,2:0:0:0:
113,259,128530,1,2,2:0:0:0:
114,250,128604,1,2,2:0:0:0:
116,242,128678,1,10,2:0:0:0:
117,233,128753,1,2,2:0:0:0:
118,224,128827,1,2,2:0:0:0:
120,216,128901,1,10,2:0:0:0:
121,207,128975,1,2,2:0:0:0:
122,198,129050,2,0,L|112:164,3,35,10|2|10|2,2:0|2:0|2:0|2:0,2:0:0:0:
128,80,129347,5,4,2:0:0:0:
256,192,145981,12,0,147763,2:0:0:0:
176,312,148357,6,0,P|180:288|232:236,1,97.9999970092774,6|0,2:0|2:0,2:0:0:0:
336,192,148951,2,0,L|320:92,1,97.9999970092774,2|0,2:0|2:0,2:0:0:0:
432,252,149545,6,0,L|420:352,1,97.9999970092774,2|0,2:0|2:0,2:0:0:0:
420,349,149990,1,2,2:0:0:0:
420,349,150139,1,2,2:0:0:0:
484,168,150436,1,2,2:0:0:0:
304,184,150733,6,0,L|316:288,1,97.9999970092774,6|0,2:0|2:0,2:0:0:0:
260,344,151179,1,0,2:0:0:0:
260,344,151327,1,2,2:0:0:0:
264,96,151624,1,2,2:0:0:0:
180,180,151921,6,0,L|76:168,1,97.9999970092774,2|0,2:0|2:0,2:0:0:0:
244,80,152515,2,0,L|348:68,1,97.9999970092774,2|0,2:0|2:0,2:0:0:0:
456,52,153109,5,6,2:0:0:0:
428,168,153406,1,0,2:0:0:0:
276,200,153703,1,2,2:0:0:0:
300,316,154000,1,0,2:0:0:0:
152,192,154297,6,0,L|168:92,1,97.9999970092774,2|0,2:0|2:0,2:0:0:0:
167,95,154743,1,2,2:0:0:0:
167,95,154891,1,2,2:0:0:0:
80,256,155188,1,0,2:0:0:0:
272,292,155485,6,0,L|260:188,1,97.9999970092774,6|0,2:0|2:0,2:0:0:0:
312,124,155931,1,2,2:0:0:0:
312,124,156080,1,2,2:0:0:0:
328,368,156377,1,0,2:0:0:0:
392,192,156674,6,0,L|492:172,1,97.9999970092774,2|0,2:0|2:0,2:0:0:0:
167,95,157268,2,0,L|67:75,1,97.9999970092774,2|2,2:0|2:0,2:0:0:0:
104,256,157862,6,0,L|120:344,1,83.9999974365235,2|0,2:0|2:0,2:0:0:0:
196,224,158456,2,0,L|280:232,1,83.9999974365235,8|0,2:0|2:0,2:0:0:0:
332,320,159050,5,2,2:0:0:0:
396,240,159347,1,0,2:0:0:0:
400,140,159644,1,8,2:0:0:0:
360,48,159941,1,0,2:0:0:0:
264,20,160238,6,0,L|172:32,1,83.9999974365235,2|0,2:0|2:0,2:0:0:0:
176,44,160683,1,2,2:0:0:0:
288,148,160832,2,0,P|292:168|292:232,1,83.9999974365235,8|2,2:0|2:0,2:0:0:0:
220,300,161426,6,0,L|132:288,1,83.9999974365235,2|0,2:0|2:0,2:0:0:0:
128,272,161872,1,2,2:0:0:0:
320,348,162020,2,0,L|405:328,1,83.9999974365235,8|0,2:0|2:0,2:0:0:0:
208,176,162614,5,2,2:0:0:0:
204,168,162911,1,10,2:0:0:0:
200,160,163208,1,2,2:0:0:0:
192,152,163505,1,8,2:0:0:0:
284,32,163802,6,0,L|276:80,1,41.9999987182618,2|2,2:0|2:0,2:0:0:0:
356,100,164099,2,0,L|332:144,1,41.9999987182618,8|2,2:0|2:0,2:0:0:0:
408,184,164396,2,0,L|376:220,1,41.9999987182618,8|2,2:0|2:0,2:0:0:0:
424,284,164693,2,0,L|384:300,1,41.9999987182618,8|2,2:0|2:0,2:0:0:0:
248,348,164990,6,0,L|220:344,3,20.9999993591309,8|2|10|2,2:0|2:0|2:0|2:0,2:0:0:0:
200,344,165287,1,10,2:0:0:0:
176,352,165362,1,2,2:0:0:0:
152,352,165436,1,10,2:0:0:0:
128,344,165510,1,2,2:0:0:0:
108,328,165584,2,0,L|104:300,3,20.9999993591309,10|2|10|2,2:0|2:0|2:0|2:0,2:0:0:0:
116,284,165882,1,10,2:0:0:0:
124,260,165956,1,2,2:0:0:0:
124,236,166030,1,10,2:0:0:0:
116,212,166104,1,2,2:0:0:0:
100,188,166179,6,0,B|96:152|96:152|112:48,1,140,4|0,2:0|2:0,2:0:0:0:
100,36,167367,6,0,P|120:64|220:60,1,140,2|0,2:0|2:0,2:0:0:0:
264,132,167812,1,2,2:0:0:0:
332,84,167961,2,0,L|412:72,1,70,8|0,2:0|2:0,2:0:0:0:
344,264,168258,2,0,P|340:232|408:148,1,140,2|0,2:0|2:0,2:0:0:0:
424,232,168703,1,2,2:0:0:0:
408,316,168852,2,0,L|256:312,1,140,2|8,2:0|2:0,2:0:0:0:
196,352,169297,5,0,2:0:0:0:
192,152,169446,1,0,2:0:0:0:
76,264,169594,1,0,2:0:0:0:
84,272,169891,1,2,2:0:0:0:
180,168,170040,6,0,L|168:88,1,70,2|0,2:0|2:0,2:0:0:0:
208,248,170337,1,8,2:0:0:0:
208,248,170485,1,0,2:0:0:0:
284,144,170634,2,0,B|268:48|268:48|240:8,1,140,2|0,2:0|2:0,2:0:0:0:
356,216,171080,2,0,B|447:250|447:250|495:245,1,140,2|2,2:0|2:0,2:0:0:0:
288,332,171525,2,0,L|364:324,1,70,8|0,2:0|2:0,2:0:0:0:
116,252,171822,2,0,L|196:264,1,70,0|0,2:0|2:0,2:0:0:0:
376,208,172119,6,0,P|384:140|364:60,1,140,2|0,2:0|2:0,2:0:0:0:
304,20,172565,1,2,2:0:0:0:
236,68,172713,2,0,P|236:96|240:148,1,70,8|0,2:0|2:0,2:0:0:0:
320,316,173010,6,0,B|284:336|284:336|232:328|232:328|180:340,1,140,2|0,2:0|2:0,2:0:0:0:
268,248,173456,1,2,2:0:0:0:
416,248,173604,2,0,L|432:328,1,70,2|0,2:0|2:0,2:0:0:0:
444,64,173901,5,8,2:0:0:0:
428,148,174050,1,0,2:0:0:0:
280,52,174198,1,0,2:0:0:0:
300,132,174347,1,0,2:0:0:0:
153,112,174495,5,4,2:0:0:0:
164,128,174792,2,0,L|180:200,1,70,2|0,2:0|2:0,2:0:0:0:
212,328,175089,1,8,2:0:0:0:
128,248,175386,6,0,P|164:224|260:240,1,140,2|2,2:0|2:0,2:0:0:0:
320,120,175832,2,0,P|356:144|452:128,1,140,2|2,2:0|2:0,2:0:0:0:
348,232,176278,2,0,P|312:268|304:300,1,70,8|0,2:0|2:0,2:0:0:0:
392,72,176575,2,0,L|376:0,1,70,0|0,2:0|2:0,2:0:0:0:
260,176,176872,6,0,L|272:28,1,140,2|0,2:0|2:0,2:0:0:0:
344,148,177317,1,2,2:0:0:0:
160,156,177466,2,0,L|168:236,1,70,8|0,2:0|2:0,2:0:0:0:
120,360,177763,6,0,P|140:336|244:348,1,140,2|0,2:0|2:0,2:0:0:0:
72,212,178357,2,0,L|64:136,1,70,2|0,2:0|2:0,2:0:0:0:
257,274,178654,6,0,L|237:346,1,70,8|0,2:0|2:0,2:0:0:0:
340,200,178951,2,0,L|328:128,1,70,0|0,2:0|2:0,2:0:0:0:
336,112,179396,1,2,2:0:0:0:
448,160,179545,6,0,L|432:240,1,70,2|0,2:0|2:0,2:0:0:0:
420,64,179842,2,0,L|496:48,1,70,8|0,2:0|2:0,2:0:0:0:
224,152,180139,2,0,L|80:136,1,140,2|2,2:0|2:0,2:0:0:0:
176,276,180584,2,0,L|320:292,1,140,2|2,2:0|2:0,2:0:0:0:
320,124,181030,6,0,L|308:40,1,70,8|0,2:0|2:0,2:0:0:0:
416,272,181327,2,0,L|404:356,1,70,0|0,2:0|2:0,2:0:0:0:
328,216,181624,6,0,L|452:136,1,140,2|0,2:0|2:0,2:0:0:0:
492,212,182070,1,2,2:0:0:0:
304,104,182218,2,0,L|220:96,1,70,8|0,2:0|2:0,2:0:0:0:
212,332,182515,2,0,P|220:292|184:192,1,140,2|0,2:0|2:0,2:0:0:0:
116,160,182961,1,2,2:0:0:0:
40,192,183109,2,0,P|32:228|32:264,1,70,2|0,2:0|2:0,2:0:0:0:
124,64,183406,2,0,L|200:56,1,70,8|0,2:0|2:0,2:0:0:0:
296,128,183703,2,0,L|372:120,1,70,0|2,2:0|2:0,2:0:0:0:
388,104,184149,1,2,2:0:0:0:
380,212,184297,6,0,P|368:248|384:352,1,140,2|8,2:0|2:0,2:0:0:0:
472,160,184743,1,8,2:0:0:0:
272,104,184891,1,2,2:0:0:0:
256,192,185040,12,0,186080,2:0:0:0:
144,112,186377,6,0,L|160:256,1,140,2|0,2:0|2:0,2:0:0:0:
176,120,186822,2,0,L|168:44,1,70,12|0,2:0|2:0,2:0:0:0:
64,164,187119,1,2,2:0:0:0:
256,184,187268,2,0,L|332:176,1,70,8|0,2:0|2:0,2:0:0:0:
300,80,187565,1,2,2:0:0:0:
296,264,187713,2,0,L|304:344,1,70,8|0,2:0|2:0,2:0:0:0:
388,244,188010,1,2,2:0:0:0:
192,308,188159,2,0,L|52:296,2,140,8|0|2,2:0|2:0|2:0,2:0:0:0:
184,328,189198,6,0,L|168:248,1,70,12|0,2:0|2:0,2:0:0:0:
264,152,189495,1,2,2:0:0:0:
156,44,189644,2,0,L|80:36,1,70,8|0,2:0|2:0,2:0:0:0:
152,160,189941,1,2,2:0:0:0:
320,68,190089,2,0,L|404:60,1,70,8|0,2:0|2:0,2:0:0:0:
276,168,190386,1,2,2:0:0:0:
364,260,190535,2,0,B|368:300|368:300|360:372,2,105,8|8|8,2:0|2:0|2:0,2:0:0:0:
284,180,191129,6,0,L|132:192,1,140,2|0,2:0|2:0,2:0:0:0:
88,252,191575,2,0,P|88:284|92:328,1,70,12|0,2:0|2:0,2:0:0:0:
183,286,191872,1,2,2:0:0:0:
56,160,192020,2,0,P|44:128|32:84,1,70,8|0,2:0|2:0,2:0:0:0:
180,48,192317,1,2,2:0:0:0:
256,156,192466,2,0,L|248:232,1,70,8|0,2:0|2:0,2:0:0:0:
320,88,192763,1,2,2:0:0:0:
376,188,192911,2,0,L|384:332,2,140,8|0|2,2:0|2:0|2:0,2:0:0:0:
396,172,193951,6,0,P|372:160|344:128,1,70,12|0,2:0|2:0,2:0:0:0:
312,52,194248,1,2,2:0:0:0:
260,216,194396,2,0,B|256:248|256:248|256:296,1,70,8|0,2:0|2:0,2:0:0:0:
344,256,194693,1,2,2:0:0:0:
228,124,194842,2,0,B|196:128|196:128|160:148,1,70,8|0,2:0|2:0,2:0:0:0:
320,140,195139,1,2,2:0:0:0:
120,80,195287,2,0,P|112:52|112:8,1,70,8|2,2:0|2:0,2:0:0:0:
240,232,195584,2,0,P|248:264|248:308,1,70,8|2,2:0|2:0,2:0:0:0:
344,108,195882,1,4,2:0:0:0:
148,304,205386,6,0,B|144:276|144:276|152:152,1,140,2|0,2:0|2:0,2:0:0:0:
188,88,205832,1,2,2:0:0:0:
204,72,206278,2,0,L|196:0,1,70,4|0,2:0|2:0,2:0:0:0:
248,244,206575,6,0,B|268:140|268:140|284:104,1,140,2|0,2:0|2:0,2:0:0:0:
356,72,207020,1,2,2:0:0:0:
364,84,207317,1,2,2:0:0:0:
428,268,207466,2,0,L|420:348,1,70,4|0,2:0|2:0,2:0:0:0:
480,184,207763,6,0,B|472:156|472:156|456:40,1,140,2|0,2:0|2:0,2:0:0:0:
384,8,208208,1,2,2:0:0:0:
372,24,208654,2,0,L|296:28,1,70,4|0,2:0|2:0,2:0:0:0:
256,192,208951,12,0,209842,2:0:0:0:
212,332,210139,6,0,B|328:320|328:320|360:328,1,140,2|0,2:0|2:0,2:0:0:0:
428,356,210584,1,2,2:0:0:0:
448,344,211030,2,0,B|452:320|452:320|444:264,1,70,4|0,2:0|2:0,2:0:0:0:
456,128,211327,6,0,P|416:160|324:152,1,140,2|0,2:0|2:0,2:0:0:0:
256,116,211773,2,0,L|248:40,1,70,2|0,2:0|2:0,2:0:0:0:
172,204,212070,2,0,L|148:132,1,70,2|0,2:0|2:0,2:0:0:0:
140,124,212515,6,0,B|124:228|124:228|128:272,1,140,2|0,2:0|2:0,2:0:0:0:
84,336,212961,2,0,P|108:312|208:348,1,140,2|0,2:0|2:0,2:0:0:0:
36,264,213406,2,0,L|16:184,1,70,4|0,2:0|2:0,2:0:0:0:
256,192,213703,12,0,214594,2:0:0:0:
104,144,214891,6,0,P|136:172|232:148,1,140,2|2,2:0|2:0,2:0:0:0:
348,40,215485,1,2,2:0:0:0:
436,184,215783,1,2,2:0:0:0:
456,104,215931,1,0,2:0:0:0:
320,200,216080,6,0,B|332:264|332:264|368:332,1,140,2|2,2:0|2:0,2:0:0:0:
192,176,216674,2,0,B|184:236|184:236|212:320,1,140,2|2,2:0|2:0,2:0:0:0:
272,364,217119,1,0,2:0:0:0:
272,112,217268,6,0,P|272:80|260:28,1,70,2|0,2:0|2:0,2:0:0:0:
356,188,217565,2,0,P|376:160|384:120,1,70,2|0,2:0|2:0,2:0:0:0:
352,312,217862,2,0,L|500:284,1,140,2|2,2:0|2:0,2:0:0:0:
480,204,218307,1,0,2:0:0:0:
240,224,218456,6,0,L|260:368,1,140,2|2,2:0|2:0,2:0:0:0:
100,316,219050,1,2,2:0:0:0:
120,236,219198,1,2,2:0:0:0:
136,152,219347,1,2,2:0:0:0:
128,136,219644,5,2,2:0:0:0:
248,196,219792,1,2,2:0:0:0:
40,184,219941,1,10,2:0:0:0:
224,96,220089,1,2,2:0:0:0:
160,252,220238,1,2,2:0:0:0:
136,48,220386,1,2,2:0:0:0:
280,224,220535,2,0,L|272:300,1,70,10|2,2:0|2:0,2:0:0:0:
340,132,220832,5,2,2:0:0:0:
384,204,220981,1,2,2:0:0:0:
392,40,221129,1,10,2:0:0:0:
240,112,221278,1,2,2:0:0:0:
456,124,221426,1,2,2:0:0:0:
368,296,221575,1,2,2:0:0:0:
216,132,221723,2,0,L|208:60,1,70,10|2,2:0|2:0,2:0:0:0:
260,244,222020,6,0,L|252:284,3,35,2|2|2|2,2:0|2:0|2:0|2:0,2:0:0:0:
156,304,222317,2,0,L|168:348,3,35,10|2|2|2,2:0|2:0|2:0|2:0,2:0:0:0:
68,284,222614,2,0,L|60:320,3,35,2|2|2|2,2:0|2:0|2:0|2:0,2:0:0:0:
44,192,222911,2,0,L|12:216,3,35,10|2|2|2,2:0|2:0|2:0|2:0,2:0:0:0:
40,100,223208,6,0,L|124:112,1,70,2|0,2:0|2:0,2:0:0:0:
168,172,223505,1,8,2:0:0:0:
248,144,223654,2,0,L|320:136,1,70,2|0,2:0|2:0,2:0:0:0:
388,288,223951,1,2,2:0:0:0:
456,236,224099,2,0,L|460:160,1,70,8|0,2:0|2:0,2:0:0:0:
400,320,224396,6,0,L|308:312,1,83.9999974365235,6|2,2:0|2:0,2:0:0:0:
216,304,224693,1,8,2:0:0:0:
340,188,224842,1,2,2:0:0:0:
200,312,224990,2,0,P|147:328|102:316,1,83.9999974365235,0|0,0:0|0:0,0:0:0:0:
220,146,225287,1,8,2:0:0:0:
326,283,225436,1,2,2:0:0:0:
96,176,225584,6,0,P|96:128|104:80,1,83.9999974365235,2|2,2:0|2:0,2:0:0:0:
304,32,225882,2,0,P|312:68|312:128,1,83.9999974365235,8|2,2:0|2:0,2:0:0:0:
376,304,226179,2,0,L|464:288,1,83.9999974365235,2|0,2:0|2:0,2:0:0:0:
188,232,226476,1,8,2:0:0:0:
396,192,226624,1,2,2:0:0:0:
284,356,226773,6,0,L|200:348,1,83.9999974365235,2|2,2:0|2:0,2:0:0:0:
200,120,227070,1,8,2:0:0:0:
276,244,227218,1,2,2:0:0:0:
96,216,227367,1,2,2:0:0:0:
312,144,227515,1,2,2:0:0:0:
128,48,227664,2,0,L|36:68,1,83.9999974365235,8|2,2:0|2:0,2:0:0:0:
264,272,227961,6,0,L|448:240,1,167.999994873047,2|8,2:0|2:0,2:0:0:0:
424,144,228406,1,2,2:0:0:0:
400,340,228555,2,0,L|484:324,1,83.9999974365235,2|2,2:0|2:0,2:0:0:0:
224,192,228852,2,0,L|132:184,1,83.9999974365235,8|2,2:0|2:0,2:0:0:0:
176,328,229149,5,2,2:0:0:0:
236,100,229297,1,2,2:0:0:0:
288,292,229446,1,8,2:0:0:0:
104,212,229594,1,2,2:0:0:0:
340,144,229743,2,0,L|340:236,1,83.9999974365235,2|0,2:0|2:0,2:0:0:0:
216,88,230040,1,8,2:0:0:0:
408,56,230188,1,2,2:0:0:0:
224,216,230337,6,0,L|240:308,1,83.9999974365235,2|0,2:0|2:0,2:0:0:0:
440,264,230634,2,0,L|424:356,1,83.9999974365235,8|2,2:0|2:0,2:0:0:0:
116,144,230931,2,0,L|120:236,1,83.9999974365235,2|0,2:0|2:0,2:0:0:0:
140,328,231228,1,8,2:0:0:0:
248,188,231377,1,2,2:0:0:0:
24,172,231525,6,0,P|16:116|24:36,1,125.999996154785,2|2,2:0|2:0,2:0:0:0:
32,36,231822,2,0,L|128:52,1,83.9999974365235,8|2,2:0|2:0,2:0:0:0:
232,220,232119,2,0,P|264:152|268:96,1,125.999996154785,2|2,2:0|2:0,2:0:0:0:
280,88,232416,2,0,P|272:48|272:-12,1,83.9999974365235,8|2,2:0|2:0,2:0:0:0:
388,204,232713,2,0,P|384:252|360:336,1,125.999996154785,8|2,2:0|2:0,2:0:0:0:
352,336,233010,1,10,2:0:0:0:
472,280,233159,1,2,2:0:0:0:
260,296,233307,2,0,P|256:336|264:384,1,83.9999974365235,10|2,2:0|2:0,2:0:0:0:
480,160,233604,1,10,2:0:0:0:
476,136,233678,1,2,2:0:0:0:
464,112,233753,1,2,2:0:0:0:
448,92,233827,1,2,2:0:0:0:
428,80,233901,6,0,B|392:88|392:88|296:84|296:84|252:96,1,167.999994873047,6|8,2:0|2:0,2:0:0:0:
172,48,234347,1,2,2:0:0:0:
324,184,234495,2,0,L|336:280,1,83.9999974365235,2|2,2:0|2:0,2:0:0:0:
128,132,234792,2,0,L|144:40,1,83.9999974365235,8|2,2:0|2:0,2:0:0:0:
184,248,235089,5,2,2:0:0:0:
84,244,235238,1,2,2:0:0:0:
240,352,235386,2,0,L|336:340,1,83.9999974365235,8|2,2:0|2:0,2:0:0:0:
56,256,235683,2,0,L|80:352,1,83.9999974365235,2|0,2:0|2:0,2:0:0:0:
224,160,235981,1,10,2:0:0:0:
32,152,236129,1,2,2:0:0:0:
264,180,236278,6,0,P|272:208|276:272,1,83.9999974365235,2|0,2:0|2:0,2:0:0:0:
132,120,236575,1,8,2:0:0:0:
288,96,236723,1,2,2:0:0:0:
168,240,236872,1,2,2:0:0:0:
200,48,237020,1,2,2:0:0:0:
376,172,237169,2,0,L|472:176,1,83.9999974365235,8|0,2:0|2:0,2:0:0:0:
288,336,237466,6,0,L|104:332,1,167.999994873047,2|8,2:0|2:0,2:0:0:0:
40,272,237911,1,2,2:0:0:0:
244,176,238060,2,0,B|264:212|264:212|268:272,1,83.9999974365235,2|0,2:0|2:0,2:0:0:0:
100,148,238357,2,0,B|104:104|104:104|120:56,1,83.9999974365235,8|2,2:0|2:0,2:0:0:0:
124,48,238951,5,8,2:0:0:0:
196,92,239099,1,2,2:0:0:0:
280,92,239248,1,10,2:0:0:0:
356,48,239396,1,2,2:0:0:0:
436,72,239545,2,0,L|444:144,1,70,8|2,2:0|2:0,2:0:0:0:
384,336,239842,5,12,2:0:0:0:
368,216,239990,1,2,2:0:0:0:
284,348,240139,5,8,2:0:0:0:
284,220,240287,1,2,2:0:0:0:
196,340,240436,5,10,2:0:0:0:
204,220,240584,1,2,2:0:0:0:
104,332,240733,5,8,2:0:0:0:
128,200,240882,1,2,2:0:0:0:
104,68,241030,6,0,L|152:56,3,35,2|2|2|2,2:0|2:0|2:0|2:0,2:0:0:0:
232,52,241327,2,0,L|280:56,3,35,8|2|2|2,2:0|2:0|2:0|2:0,2:0:0:0:
360,96,241624,2,0,L|404:88,3,35,2|0|2|2,2:0|2:0|2:0|2:0,2:0:0:0:
488,124,241921,2,0,L|500:168,1,35,10|2,2:0|2:0,2:0:0:0:
360,204,242070,2,0,L|360:248,1,35,2|2,2:0|2:0,2:0:0:0:
236,160,242218,6,0,L|88:176,2,140,2|0|2,2:0|2:0|2:0,2:0:0:0:
265,245,242961,1,2,2:0:0:0:
265,245,243035,1,2,2:0:0:0:
265,245,243109,1,2,2:0:0:0:
334,73,243258,1,2,2:0:0:0:
360,324,243406,1,4,2:0:0:0:
356,288,244000,6,0,L|444:272,1,83.9999974365235,2|2,2:0|2:0,2:0:0:0:
438,272,244223,1,2,2:0:0:0:
438,272,244297,1,8,2:0:0:0:
348,80,244446,1,2,2:0:0:0:
504,180,244594,1,2,2:0:0:0:
260,184,244743,1,0,2:0:0:0:
444,24,244891,2,0,L|456:112,1,83.9999974365235,8|2,2:0|2:0,2:0:0:0:
160,96,245188,1,2,2:0:0:0:
372,176,245337,1,2,2:0:0:0:
204,296,245485,2,0,L|112:284,1,83.9999974365235,8|0,2:0|2:0,2:0:0:0:
80,176,245783,5,2,2:0:0:0:
256,64,245931,1,0,2:0:0:0:
316,276,246080,1,8,2:0:0:0:
352,88,246228,1,2,2:0:0:0:
216,192,246377,1,2,2:0:0:0:
416,184,246525,2,0,P|432:216|448:276,1,83.9999974365235,2|8,2:0|2:0,2:0:0:0:
472,88,246822,1,2,2:0:0:0:
232,172,246971,6,0,L|136:160,1,83.9999974365235,2|0,2:0|2:0,2:0:0:0:
344,360,247268,2,0,L|440:348,1,83.9999974365235,8|2,2:0|2:0,2:0:0:0:
224,292,247565,1,2,2:0:0:0:
324,100,247713,1,2,2:0:0:0:
344,256,247862,1,8,2:0:0:0:
196,68,248010,1,2,2:0:0:0:
432,200,248159,6,0,B|448:240|448:240|448:296,1,83.9999974365235,2|0,2:0|2:0,2:0:0:0:
140,240,248456,2,0,B|124:280|124:280|124:336,1,83.9999974365235,8|2,2:0|2:0,2:0:0:0:
256,188,248753,1,2,2:0:0:0:
104,128,248901,1,2,2:0:0:0:
104,128,248976,1,2,2:0:0:0:
104,128,249050,2,0,P|92:88|96:36,1,83.9999974365235,8|2,2:0|2:0,2:0:0:0:
392,52,249347,6,0,P|408:92|332:188,1,167.999994873047,2|10,2:0|2:0,2:0:0:0:
196,100,249792,1,2,2:0:0:0:
196,100,249867,1,2,2:0:0:0:
196,100,249941,1,2,2:0:0:0:
248,276,250089,1,0,2:0:0:0:
324,104,250238,1,4,2:0:0:0:
312,112,250535,6,0,L|304:28,1,70,6|0,2:0|2:0,2:0:0:0:
376,288,250832,1,8,2:0:0:0:
160,212,250981,1,2,2:0:0:0:
312,216,251129,1,2,2:0:0:0:
144,316,251278,1,2,2:0:0:0:
408,200,251426,2,0,P|416:160|424:116,1,70,8|2,2:0|2:0,2:0:0:0:
64,160,251723,6,0,P|56:200|60:240,1,70,2|2,2:0|2:0,2:0:0:0:
62,237,251946,1,0,2:0:0:0:
69,243,252020,1,8,2:0:0:0:
260,320,252169,1,2,2:0:0:0:
244,120,252317,2,0,L|236:40,1,70,2|2,2:0|2:0,2:0:0:0:
308,244,252614,2,0,P|340:272|348:304,1,70,10|2,2:0|2:0,2:0:0:0:
140,76,252911,6,0,L|-8:52,1,140,6|8,2:0|2:0,2:0:0:0:
184,204,253357,1,2,2:0:0:0:
364,136,253505,1,2,2:0:0:0:
328,256,253654,1,2,2:0:0:0:
328,256,253728,1,2,2:0:0:0:
328,256,253802,1,8,2:0:0:0:
288,52,253951,1,2,2:0:0:0:
424,216,254099,5,2,2:0:0:0:
268,160,254248,1,0,2:0:0:0:
444,60,254396,2,0,L|512:72,1,70,8|2,2:0|2:0,2:0:0:0:
512,72,254619,1,2,2:0:0:0:
512,72,254693,1,2,2:0:0:0:
440,308,254842,1,2,2:0:0:0:
364,144,254990,1,8,2:0:0:0:
504,196,255139,1,2,2:0:0:0:
316,272,255287,6,0,B|224:260|224:260|200:268,1,105,2|0,2:0|2:0,2:0:0:0:
196,272,255584,2,0,L|188:192,1,70,8|0,2:0|2:0,2:0:0:0:
168,60,255882,1,2,2:0:0:0:
272,176,256030,1,2,2:0:0:0:
96,144,256179,1,8,2:0:0:0:
356,112,256327,1,2,2:0:0:0:
196,40,256476,6,0,L|84:32,1,105,2|0,2:0|2:0,2:0:0:0:
72,32,256773,2,0,L|92:116,1,70,8|2,2:0|2:0,2:0:0:0:
296,184,257070,2,0,L|276:268,1,70,2|0,2:0|2:0,2:0:0:0:
244,360,257367,1,8,2:0:0:0:
184,176,257515,1,2,2:0:0:0:
376,320,257664,6,0,L|460:304,1,70,6|2,2:0|2:0,2:0:0:0:
124,268,257961,2,0,L|40:252,1,70,8|2,2:0|2:0,2:0:0:0:
136,364,258258,1,2,2:0:0:0:
236,104,258406,1,2,2:0:0:0:
236,104,258481,1,2,2:0:0:0:
236,104,258555,1,8,2:0:0:0:
228,264,258703,1,0,2:0:0:0:
149,118,258852,6,0,L|120:40,1,70,2|0,2:0|2:0,2:0:0:0:
340,144,259149,2,0,L|371:66,1,70,8|2,2:0|2:0,2:0:0:0:
100,207,259446,2,0,L|31:172,1,70,2|2,2:0|2:0,2:0:0:0:
358,230,259743,2,0,L|444:218,1,70,8|0,2:0|2:0,2:0:0:0:
88,297,260040,5,2,2:0:0:0:
248,366,260188,1,2,2:0:0:0:
248,366,260263,1,2,2:0:0:0:
248,366,260337,1,8,2:0:0:0:
215,133,260485,1,2,2:0:0:0:
334,314,260634,1,2,2:0:0:0:
316,105,260783,1,2,2:0:0:0:
424,298,260931,1,8,2:0:0:0:
133,198,261080,1,2,2:0:0:0:
412,144,261228,5,10,2:0:0:0:
416,151,261302,1,2,2:0:0:0:
419,159,261376,1,2,2:0:0:0:
422,167,261450,1,10,2:0:0:0:
425,176,261525,1,2,2:0:0:0:
426,184,261599,1,2,2:0:0:0:
427,193,261673,1,10,2:0:0:0:
428,202,261747,1,0,2:0:0:0:
428,211,261822,1,8,2:0:0:0:
254,235,262416,5,4,2:0:0:0:
256,192,262490,12,0,267169,0:0:0:0:
