osu file format v14

[General]
AudioFilename: audio.mp3
AudioLeadIn: 0
PreviewTime: 223523
Countdown: 0
SampleSet: None
StackLeniency: 0.7
Mode: 3
LetterboxInBreaks: 0
SpecialStyle: 0
WidescreenStoryboard: 0

[Editor]
DistanceSpacing: 1
BeatDivisor: 4
GridSize: 8
TimelineZoom: 2.1

[Metadata]
Title:Racemization
TitleUnicode:Racemization
Artist:Camellia
ArtistUnicode:かめりあ
Creator:[OSC]Amagai
Version:W a k e u p t o t h e R e a l i t y
Source:osu!
Tags:PLANET SHAPPER camel cametek camellia かめりあ かめるかめりあ
BeatmapID:2532576
BeatmapSetID:1217193

[Difficulty]
HPDrainRate:8
CircleSize:4
OverallDifficulty:7
ApproachRate:5
SliderMultiplier:1.4
SliderTickRate:1

[Events]
//Background and Video events
0,0,"this is bg.jpg",0,0
//Break Periods
//Storyboard Layer 0 (Background)
//Storyboard Layer 1 (Fail)
//Storyboard Layer 2 (Pass)
//Storyboard Layer 3 (Foreground)
//Storyboard Layer 4 (Overlay)
//Storyboard Sound Samples

[TimingPoints]
3350,297.029702970297,4,2,0,21,1,0

[HitObjects]
192,192,5874,5,0,0:0:0:0:
320,192,6171,1,0,0:0:0:0:
64,192,6320,1,0,0:0:0:0:
192,192,6765,1,0,0:0:0:0:
64,192,6765,1,0,0:0:0:0:
64,192,7062,1,0,0:0:0:0:
192,192,7211,1,0,0:0:0:0:
64,192,7211,1,0,0:0:0:0:
320,192,7508,1,0,0:0:0:0:
192,192,7656,1,0,0:0:0:0:
64,192,7656,1,0,0:0:0:0:
448,192,7953,1,0,0:0:0:0:
192,192,8102,1,0,0:0:0:0:
64,192,8102,1,0,0:0:0:0:
192,192,8399,1,0,0:0:0:0:
448,192,8548,1,0,0:0:0:0:
64,192,8845,1,0,0:0:0:0:
320,192,8993,1,0,0:0:0:0:
448,192,9142,1,0,0:0:0:0:
64,192,9142,1,0,0:0:0:0:
320,192,9439,1,0,0:0:0:0:
448,192,9587,1,0,0:0:0:0:
64,192,9587,1,0,0:0:0:0:
320,192,9736,1,0,0:0:0:0:
64,192,9884,1,0,0:0:0:0:
448,192,10033,1,0,0:0:0:0:
64,192,10033,1,0,0:0:0:0:
192,192,10330,1,0,0:0:0:0:
448,192,10627,1,0,0:0:0:0:
192,192,10775,1,0,0:0:0:0:
320,192,11072,1,0,0:0:0:0:
64,192,11221,1,0,0:0:0:0:
320,192,11518,1,0,0:0:0:0:
192,192,11518,1,0,0:0:0:0:
448,192,11666,1,0,0:0:0:0:
192,192,11963,1,0,0:0:0:0:
320,192,11963,1,0,0:0:0:0:
320,192,12112,1,0,0:0:0:0:
192,192,12409,1,0,0:0:0:0:
320,192,12409,1,0,0:0:0:0:
64,192,12557,1,0,0:0:0:0:
448,192,12854,1,0,0:0:0:0:
192,192,13003,1,0,0:0:0:0:
320,192,13300,1,0,0:0:0:0:
64,192,13449,1,0,0:0:0:0:
320,192,13894,1,0,0:0:0:0:
448,192,13894,1,0,0:0:0:0:
192,192,14191,1,0,0:0:0:0:
320,192,14340,1,0,0:0:0:0:
448,192,14340,1,0,0:0:0:0:
64,192,14637,1,0,0:0:0:0:
320,192,14785,1,0,0:0:0:0:
448,192,14785,1,0,0:0:0:0:
320,192,15082,1,0,0:0:0:0:
320,192,15231,1,0,0:0:0:0:
448,192,15231,1,0,0:0:0:0:
448,192,15379,1,0,0:0:0:0:
192,192,15676,1,0,0:0:0:0:
64,192,15825,1,0,0:0:0:0:
320,192,16122,1,0,0:0:0:0:
192,192,16270,1,0,0:0:0:0:
448,192,16270,1,0,0:0:0:0:
64,192,16567,1,0,0:0:0:0:
192,192,16716,1,0,0:0:0:0:
448,192,16716,1,0,0:0:0:0:
192,192,17013,1,0,0:0:0:0:
192,192,17161,1,0,0:0:0:0:
448,192,17161,1,0,0:0:0:0:
448,192,17458,1,0,0:0:0:0:
448,192,17607,1,0,0:0:0:0:
192,192,17607,1,0,0:0:0:0:
320,192,17904,1,0,0:0:0:0:
64,192,18052,1,0,0:0:0:0:
448,192,18350,1,0,0:0:0:0:
192,192,18498,1,0,0:0:0:0:
320,192,18647,1,0,0:0:0:0:
64,192,18647,1,0,0:0:0:0:
192,192,18944,1,0,0:0:0:0:
64,192,19092,1,0,0:0:0:0:
320,192,19092,1,0,0:0:0:0:
192,192,19241,1,0,0:0:0:0:
320,192,19389,1,0,0:0:0:0:
320,192,19538,1,0,0:0:0:0:
64,192,19538,1,0,0:0:0:0:
192,192,19686,1,0,0:0:0:0:
64,192,19835,1,0,0:0:0:0:
64,192,19983,1,0,0:0:0:0:
320,192,19983,1,0,0:0:0:0:
448,192,20132,1,0,0:0:0:0:
192,192,20280,1,0,0:0:0:0:
320,192,20429,1,0,0:0:0:0:
64,192,20577,1,0,0:0:0:0:
320,192,20726,1,0,0:0:0:0:
192,192,20874,1,0,0:0:0:0:
320,192,21023,1,0,0:0:0:0:
64,192,21023,1,0,0:0:0:0:
448,192,21171,1,0,0:0:0:0:
192,192,21320,1,0,0:0:0:0:
320,192,21468,1,0,0:0:0:0:
448,192,21468,1,0,0:0:0:0:
192,192,21617,1,0,0:0:0:0:
320,192,21765,1,0,0:0:0:0:
192,192,21914,1,0,0:0:0:0:
64,192,21914,1,0,0:0:0:0:
64,192,22062,1,0,0:0:0:0:
320,192,22211,1,0,0:0:0:0:
448,192,22359,1,0,0:0:0:0:
192,192,22359,1,0,0:0:0:0:
192,192,22508,1,0,0:0:0:0:
320,192,22656,1,0,0:0:0:0:
448,192,22656,1,0,0:0:0:0:
192,192,22805,1,0,0:0:0:0:
64,192,22953,1,0,0:0:0:0:
64,192,23102,1,0,0:0:0:0:
320,192,23250,1,0,0:0:0:0:
448,192,23399,1,0,0:0:0:0:
192,192,23399,1,0,0:0:0:0:
320,192,23548,1,0,0:0:0:0:
192,192,23696,1,0,0:0:0:0:
192,192,23845,1,0,0:0:0:0:
64,192,23845,1,0,0:0:0:0:
448,192,23993,1,0,0:0:0:0:
320,192,24142,1,0,0:0:0:0:
448,192,24290,1,0,0:0:0:0:
192,192,24290,1,0,0:0:0:0:
320,192,24439,1,0,0:0:0:0:
320,192,24587,1,0,0:0:0:0:
192,192,24736,1,0,0:0:0:0:
64,192,24736,1,0,0:0:0:0:
320,192,24785,1,0,0:0:0:0:
448,192,24835,1,0,0:0:0:0:
64,192,24884,1,0,0:0:0:0:
192,192,24934,1,0,0:0:0:0:
320,192,24983,1,0,0:0:0:0:
64,192,25033,1,0,0:0:0:0:
448,192,25033,1,0,0:0:0:0:
192,192,25181,1,0,0:0:0:0:
320,192,25330,1,0,0:0:0:0:
448,192,25330,1,0,0:0:0:0:
192,192,25478,1,0,0:0:0:0:
448,192,25627,1,0,0:0:0:0:
320,192,25775,1,0,0:0:0:0:
64,192,25775,1,0,0:0:0:0:
320,192,25924,1,0,0:0:0:0:
64,192,25924,1,0,0:0:0:0:
192,192,26072,1,0,0:0:0:0:
448,192,26221,1,0,0:0:0:0:
320,192,26221,1,0,0:0:0:0:
192,192,26369,1,0,0:0:0:0:
320,192,26518,1,0,0:0:0:0:
64,192,26518,1,0,0:0:0:0:
320,192,26666,1,0,0:0:0:0:
64,192,26666,1,0,0:0:0:0:
448,192,26815,1,0,0:0:0:0:
320,192,26864,1,0,0:0:0:0:
192,192,26963,1,0,0:0:0:0:
64,192,27013,1,0,0:0:0:0:
320,192,27112,1,0,0:0:0:0:
448,192,27112,1,0,0:0:0:0:
192,192,27260,1,0,0:0:0:0:
320,192,27310,1,0,0:0:0:0:
448,192,27359,1,0,0:0:0:0:
320,192,27557,1,0,0:0:0:0:
64,192,27632,1,0,0:0:0:0:
192,192,27706,1,0,0:0:0:0:
448,192,27706,1,0,0:0:0:0:
320,192,27854,1,0,0:0:0:0:
192,192,28003,1,0,0:0:0:0:
320,192,28151,1,0,0:0:0:0:
448,192,28151,1,0,0:0:0:0:
320,192,28300,1,0,0:0:0:0:
448,192,28300,1,0,0:0:0:0:
192,192,28449,1,0,0:0:0:0:
448,192,28597,1,0,0:0:0:0:
320,192,28597,1,0,0:0:0:0:
448,192,28746,1,0,0:0:0:0:
64,192,28894,1,0,0:0:0:0:
192,192,28894,1,0,0:0:0:0:
320,192,29043,1,0,0:0:0:0:
448,192,29043,1,0,0:0:0:0:
192,192,29191,1,0,0:0:0:0:
64,192,29340,1,0,0:0:0:0:
192,192,29488,1,0,0:0:0:0:
320,192,29488,1,0,0:0:0:0:
448,192,29637,1,0,0:0:0:0:
192,192,29785,1,0,0:0:0:0:
320,192,29934,1,0,0:0:0:0:
448,192,30082,1,0,0:0:0:0:
192,192,30082,1,0,0:0:0:0:
320,192,30231,1,0,0:0:0:0:
448,192,30379,1,0,0:0:0:0:
64,192,30528,1,0,0:0:0:0:
320,192,30528,1,0,0:0:0:0:
320,192,30676,1,0,0:0:0:0:
192,192,30676,1,0,0:0:0:0:
64,192,30825,1,0,0:0:0:0:
320,192,30973,1,0,0:0:0:0:
192,192,30973,1,0,0:0:0:0:
192,192,31122,1,0,0:0:0:0:
64,192,31270,1,0,0:0:0:0:
320,192,31270,1,0,0:0:0:0:
192,192,31419,1,0,0:0:0:0:
64,192,31419,1,0,0:0:0:0:
448,192,31567,1,0,0:0:0:0:
320,192,31716,1,0,0:0:0:0:
448,192,31864,1,0,0:0:0:0:
64,192,31864,1,0,0:0:0:0:
320,192,32013,1,0,0:0:0:0:
192,192,32161,1,0,0:0:0:0:
320,192,32310,1,0,0:0:0:0:
64,192,32384,1,0,0:0:0:0:
448,192,32384,1,0,0:0:0:0:
192,192,32458,1,0,0:0:0:0:
320,192,32458,1,0,0:0:0:0:
320,192,32607,1,0,0:0:0:0:
192,192,32755,1,0,0:0:0:0:
320,192,32904,1,0,0:0:0:0:
64,192,32904,1,0,0:0:0:0:
192,192,32978,1,0,0:0:0:0:
448,192,32978,1,0,0:0:0:0:
64,192,33052,1,0,0:0:0:0:
320,192,33201,1,0,0:0:0:0:
192,192,33350,1,0,0:0:0:0:
448,192,33350,1,0,0:0:0:0:
64,192,33498,1,0,0:0:0:0:
448,192,33572,1,0,0:0:0:0:
192,192,33572,1,0,0:0:0:0:
320,192,33647,1,0,0:0:0:0:
448,192,33795,1,0,0:0:0:0:
192,192,33795,1,0,0:0:0:0:
192,192,33944,1,0,0:0:0:0:
320,192,34092,1,0,0:0:0:0:
192,192,34241,1,0,0:0:0:0:
64,192,34241,1,0,0:0:0:0:
448,192,34389,1,0,0:0:0:0:
320,192,34439,1,0,0:0:0:0:
192,192,34488,1,0,0:0:0:0:
64,192,34538,1,0,0:0:0:0:
448,192,34538,1,0,0:0:0:0:
320,192,34686,1,0,0:0:0:0:
192,192,34835,1,0,0:0:0:0:
320,192,34983,1,0,0:0:0:0:
192,192,35132,1,0,0:0:0:0:
448,192,35280,1,0,0:0:0:0:
64,192,35280,1,0,0:0:0:0:
320,192,35429,1,0,0:0:0:0:
192,192,35577,1,0,0:0:0:0:
448,192,35726,1,0,0:0:0:0:
64,192,35726,1,0,0:0:0:0:
320,192,35874,1,0,0:0:0:0:
192,192,36023,1,0,0:0:0:0:
64,192,36171,1,0,0:0:0:0:
448,192,36171,1,0,0:0:0:0:
192,192,36320,1,0,0:0:0:0:
320,192,36468,1,0,0:0:0:0:
64,192,36617,1,0,0:0:0:0:
192,192,36765,1,0,0:0:0:0:
320,192,36914,1,0,0:0:0:0:
64,192,37062,1,0,0:0:0:0:
192,192,37137,1,0,0:0:0:0:
320,192,37137,1,0,0:0:0:0:
448,192,37211,1,0,0:0:0:0:
64,192,37211,1,0,0:0:0:0:
320,192,37359,1,0,0:0:0:0:
192,192,37508,1,0,0:0:0:0:
448,192,37656,1,0,0:0:0:0:
64,192,37656,1,0,0:0:0:0:
320,192,37805,1,0,0:0:0:0:
448,192,37953,1,0,0:0:0:0:
64,192,38102,1,0,0:0:0:0:
448,192,38102,1,0,0:0:0:0:
192,192,38250,1,0,0:0:0:0:
320,192,38325,1,0,0:0:0:0:
448,192,38325,1,0,0:0:0:0:
64,192,38399,1,0,0:0:0:0:
192,192,38399,1,0,0:0:0:0:
448,192,38548,1,0,0:0:0:0:
64,192,38548,1,0,0:0:0:0:
192,192,38696,1,0,0:0:0:0:
320,192,38845,1,0,0:0:0:0:
448,192,38993,1,0,0:0:0:0:
64,192,38993,1,0,0:0:0:0:
192,192,39142,1,0,0:0:0:0:
320,192,39290,1,0,0:0:0:0:
192,192,39439,1,0,0:0:0:0:
64,192,39587,1,0,0:0:0:0:
320,192,39736,1,0,0:0:0:0:
192,192,39884,1,0,0:0:0:0:
320,192,40033,1,0,0:0:0:0:
64,192,40033,1,0,0:0:0:0:
448,192,40181,1,0,0:0:0:0:
192,192,40330,1,0,0:0:0:0:
320,192,40478,1,0,0:0:0:0:
64,192,40478,1,0,0:0:0:0:
448,192,40627,1,0,0:0:0:0:
192,192,40701,1,0,0:0:0:0:
320,192,40775,1,0,0:0:0:0:
64,192,40849,1,0,0:0:0:0:
192,192,40924,1,0,0:0:0:0:
448,192,40924,1,0,0:0:0:0:
320,192,40998,1,0,0:0:0:0:
64,192,41072,1,0,0:0:0:0:
448,192,41147,1,0,0:0:0:0:
192,192,41221,1,0,0:0:0:0:
320,192,41295,1,0,0:0:0:0:
64,192,41369,1,0,0:0:0:0:
448,192,41369,1,0,0:0:0:0:
192,192,41518,1,0,0:0:0:0:
320,192,41666,1,0,0:0:0:0:
448,192,41666,1,0,0:0:0:0:
192,192,41815,1,0,0:0:0:0:
320,192,41963,1,0,0:0:0:0:
448,192,42112,1,0,0:0:0:0:
192,192,42260,1,0,0:0:0:0:
320,192,42409,1,0,0:0:0:0:
448,192,42557,128,0,43671:0:0:0:0:
64,192,42557,1,0,0:0:0:0:
192,192,42557,1,0,0:0:0:0:
192,192,42706,1,0,0:0:0:0:
192,192,42854,1,0,0:0:0:0:
320,192,43003,1,0,0:0:0:0:
192,192,43003,1,0,0:0:0:0:
320,192,43151,1,0,0:0:0:0:
64,192,43300,1,0,0:0:0:0:
64,192,43449,1,0,0:0:0:0:
192,192,43597,1,0,0:0:0:0:
320,192,43746,128,0,44092:0:0:0:0:
448,192,43746,128,0,44117:0:0:0:0:
192,192,43746,128,0,44067:0:0:0:0:
64,192,43746,128,0,44043:0:0:0:0:
320,192,44191,128,0,44439:0:0:0:0:
64,192,44191,128,0,44488:0:0:0:0:
192,192,44191,128,0,44463:0:0:0:0:
448,192,44191,128,0,44414:0:0:0:0:
448,192,44488,128,0,44637:0:0:0:0:
320,192,44637,128,0,44859:0:0:0:0:
192,192,44637,128,0,44859:0:0:0:0:
448,192,44785,128,0,44859:0:0:0:0:
64,192,44785,128,0,44859:0:0:0:0:
64,192,44934,128,0,45305:0:0:0:0:
192,192,44934,128,0,45280:0:0:0:0:
320,192,44934,128,0,45255:0:0:0:0:
448,192,44934,128,0,45231:0:0:0:0:
320,192,45379,128,0,45577:0:0:0:0:
192,192,45379,128,0,45552:0:0:0:0:
448,192,45379,128,0,45602:0:0:0:0:
64,192,45379,128,0,45528:0:0:0:0:
448,192,45676,128,0,45750:0:0:0:0:
64,192,45676,128,0,45874:0:0:0:0:
320,192,45676,128,0,45825:0:0:0:0:
192,192,45676,128,0,45850:0:0:0:0:
448,192,45825,128,0,46048:0:0:0:0:
320,192,45899,128,0,46048:0:0:0:0:
192,192,45924,128,0,46048:0:0:0:0:
64,192,45949,128,0,46048:0:0:0:0:
320,192,46122,128,0,46468:0:0:0:0:
448,192,46122,128,0,46493:0:0:0:0:
192,192,46122,128,0,46444:0:0:0:0:
64,192,46122,128,0,46419:0:0:0:0:
320,192,46567,128,0,46815:0:0:0:0:
64,192,46567,128,0,46864:0:0:0:0:
192,192,46567,128,0,46840:0:0:0:0:
448,192,46567,128,0,46790:0:0:0:0:
448,192,46864,128,0,47013:0:0:0:0:
64,192,47013,128,0,47236:0:0:0:0:
192,192,47013,128,0,47236:0:0:0:0:
448,192,47161,128,0,47236:0:0:0:0:
320,192,47161,128,0,47236:0:0:0:0:
64,192,47310,128,0,47607:0:0:0:0:
192,192,47310,128,0,47582:0:0:0:0:
320,192,47310,128,0,47557:0:0:0:0:
448,192,47310,128,0,47533:0:0:0:0:
448,192,47607,128,0,47755:0:0:0:0:
320,192,47656,128,0,47706:0:0:0:0:
64,192,47706,128,0,47854:0:0:0:0:
192,192,47755,128,0,47805:0:0:0:0:
320,192,47805,128,0,47953:0:0:0:0:
448,192,47854,128,0,47904:0:0:0:0:
64,192,47904,128,0,48052:0:0:0:0:
192,192,47953,128,0,48003:0:0:0:0:
448,192,48003,128,0,48151:0:0:0:0:
320,192,48052,128,0,48102:0:0:0:0:
192,192,48102,128,0,48250:0:0:0:0:
64,192,48151,128,0,48201:0:0:0:0:
448,192,48201,128,0,48350:0:0:0:0:
320,192,48250,128,0,48300:0:0:0:0:
64,192,48300,128,0,48449:0:0:0:0:
192,192,48350,128,0,48399:0:0:0:0:
320,192,48399,128,0,48449:0:0:0:0:
448,192,48449,1,0,0:0:0:0:
320,192,48498,128,0,48845:0:0:0:0:
448,192,48498,128,0,48869:0:0:0:0:
192,192,48498,128,0,48820:0:0:0:0:
64,192,48498,128,0,48795:0:0:0:0:
320,192,48944,128,0,49191:0:0:0:0:
64,192,48944,128,0,49241:0:0:0:0:
192,192,48944,128,0,49216:0:0:0:0:
448,192,48944,128,0,49166:0:0:0:0:
448,192,49241,128,0,49389:0:0:0:0:
320,192,49389,128,0,49612:0:0:0:0:
192,192,49389,128,0,49612:0:0:0:0:
448,192,49538,128,0,49612:0:0:0:0:
64,192,49538,128,0,49612:0:0:0:0:
64,192,49686,128,0,50057:0:0:0:0:
192,192,49686,128,0,50033:0:0:0:0:
320,192,49686,128,0,50008:0:0:0:0:
448,192,49686,128,0,49983:0:0:0:0:
320,192,50132,128,0,50330:0:0:0:0:
192,192,50132,128,0,50305:0:0:0:0:
448,192,50132,128,0,50354:0:0:0:0:
64,192,50132,128,0,50280:0:0:0:0:
448,192,50429,128,0,50503:0:0:0:0:
64,192,50429,128,0,50627:0:0:0:0:
320,192,50429,128,0,50577:0:0:0:0:
192,192,50429,128,0,50602:0:0:0:0:
448,192,50577,128,0,50800:0:0:0:0:
320,192,50651,128,0,50800:0:0:0:0:
192,192,50676,128,0,50800:0:0:0:0:
64,192,50701,128,0,50800:0:0:0:0:
320,192,50874,128,0,51221:0:0:0:0:
448,192,50874,128,0,51246:0:0:0:0:
192,192,50874,128,0,51196:0:0:0:0:
64,192,50874,128,0,51171:0:0:0:0:
320,192,51320,128,0,51567:0:0:0:0:
64,192,51320,128,0,51617:0:0:0:0:
192,192,51320,128,0,51592:0:0:0:0:
448,192,51320,128,0,51543:0:0:0:0:
448,192,51617,128,0,51765:0:0:0:0:
64,192,51765,128,0,51988:0:0:0:0:
192,192,51765,128,0,51988:0:0:0:0:
448,192,51914,128,0,51988:0:0:0:0:
320,192,51914,128,0,51988:0:0:0:0:
64,192,52062,128,0,52359:0:0:0:0:
192,192,52062,128,0,52335:0:0:0:0:
320,192,52062,128,0,52310:0:0:0:0:
448,192,52062,128,0,52285:0:0:0:0:
448,192,52359,128,0,52508:0:0:0:0:
320,192,52409,128,0,52458:0:0:0:0:
64,192,52458,128,0,52607:0:0:0:0:
192,192,52508,128,0,52557:0:0:0:0:
64,192,52656,128,0,52805:0:0:0:0:
192,192,52706,128,0,52755:0:0:0:0:
448,192,52755,128,0,52904:0:0:0:0:
320,192,52805,128,0,52854:0:0:0:0:
448,192,52953,128,0,53102:0:0:0:0:
320,192,53003,128,0,53052:0:0:0:0:
64,192,53052,128,0,53201:0:0:0:0:
192,192,53102,128,0,53151:0:0:0:0:
64,192,53250,1,0,0:0:0:0:
192,192,53250,1,0,0:0:0:0:
320,192,53250,1,0,0:0:0:0:
448,192,53250,1,0,0:0:0:0:
320,192,53548,1,0,0:0:0:0:
64,192,53548,1,0,0:0:0:0:
192,192,53548,1,0,0:0:0:0:
64,192,53845,1,0,0:0:0:0:
320,192,53845,1,0,0:0:0:0:
192,192,53845,1,0,0:0:0:0:
192,192,54142,1,0,0:0:0:0:
448,192,54142,1,0,0:0:0:0:
320,192,54142,1,0,0:0:0:0:
192,192,54439,1,0,0:0:0:0:
448,192,54439,1,0,0:0:0:0:
320,192,54439,1,0,0:0:0:0:
192,192,54736,1,0,0:0:0:0:
64,192,54736,1,0,0:0:0:0:
448,192,54736,1,0,0:0:0:0:
64,192,55033,1,0,0:0:0:0:
192,192,55033,1,0,0:0:0:0:
448,192,55033,1,0,0:0:0:0:
320,192,55330,1,0,0:0:0:0:
448,192,55330,1,0,0:0:0:0:
64,192,55330,1,0,0:0:0:0:
320,192,55627,1,0,0:0:0:0:
448,192,55627,1,0,0:0:0:0:
64,192,55627,1,0,0:0:0:0:
448,192,55924,1,0,0:0:0:0:
64,192,55924,1,0,0:0:0:0:
192,192,55924,1,0,0:0:0:0:
64,192,56221,1,0,0:0:0:0:
448,192,56221,1,0,0:0:0:0:
192,192,56221,1,0,0:0:0:0:
320,192,56518,1,0,0:0:0:0:
192,192,56518,1,0,0:0:0:0:
448,192,56518,1,0,0:0:0:0:
192,192,56815,1,0,0:0:0:0:
320,192,56815,1,0,0:0:0:0:
448,192,56815,1,0,0:0:0:0:
192,192,57112,1,0,0:0:0:0:
448,192,57112,1,0,0:0:0:0:
64,192,57112,1,0,0:0:0:0:
192,192,57409,128,0,57929:0:0:0:0:
448,192,57409,128,0,57929:0:0:0:0:
64,192,57409,1,0,0:0:0:0:
320,192,57706,128,0,57929:0:0:0:0:
64,192,57706,128,0,57929:0:0:0:0:
192,192,58003,1,0,0:0:0:0:
64,192,58003,1,0,0:0:0:0:
448,192,58003,1,0,0:0:0:0:
64,192,58151,1,0,0:0:0:0:
192,192,58151,1,0,0:0:0:0:
448,192,58151,1,0,0:0:0:0:
320,192,58300,1,0,0:0:0:0:
448,192,58300,1,0,0:0:0:0:
64,192,58300,1,0,0:0:0:0:
320,192,58449,1,0,0:0:0:0:
448,192,58449,1,0,0:0:0:0:
64,192,58449,1,0,0:0:0:0:
192,192,58597,1,0,0:0:0:0:
320,192,58597,1,0,0:0:0:0:
448,192,58597,1,0,0:0:0:0:
192,192,58746,1,0,0:0:0:0:
320,192,58746,1,0,0:0:0:0:
448,192,58746,1,0,0:0:0:0:
64,192,58894,1,0,0:0:0:0:
448,192,58894,1,0,0:0:0:0:
192,192,58894,1,0,0:0:0:0:
64,192,59043,1,0,0:0:0:0:
448,192,59043,1,0,0:0:0:0:
192,192,59043,1,0,0:0:0:0:
64,192,59191,1,0,0:0:0:0:
320,192,59191,1,0,0:0:0:0:
192,192,59191,1,0,0:0:0:0:
64,192,59340,1,0,0:0:0:0:
320,192,59340,1,0,0:0:0:0:
192,192,59340,1,0,0:0:0:0:
192,192,59488,1,0,0:0:0:0:
448,192,59488,1,0,0:0:0:0:
320,192,59488,1,0,0:0:0:0:
192,192,59637,1,0,0:0:0:0:
448,192,59637,1,0,0:0:0:0:
320,192,59637,1,0,0:0:0:0:
320,192,59785,1,0,0:0:0:0:
448,192,59785,1,0,0:0:0:0:
192,192,59859,1,0,0:0:0:0:
64,192,59859,1,0,0:0:0:0:
320,192,59934,1,0,0:0:0:0:
448,192,59934,1,0,0:0:0:0:
192,192,60008,1,0,0:0:0:0:
64,192,60008,1,0,0:0:0:0:
320,192,60082,1,0,0:0:0:0:
448,192,60082,1,0,0:0:0:0:
192,192,60156,1,0,0:0:0:0:
64,192,60156,1,0,0:0:0:0:
320,192,60231,1,0,0:0:0:0:
448,192,60231,1,0,0:0:0:0:
192,192,60305,1,0,0:0:0:0:
64,192,60305,1,0,0:0:0:0:
448,192,60379,128,0,60602:0:0:0:0:
320,192,60416,128,0,60565:0:0:0:0:
192,192,60453,128,0,60528:0:0:0:0:
64,192,60491,1,0,0:0:0:0:
64,192,60602,1,0,0:0:0:0:
192,192,60639,1,0,0:0:0:0:
320,192,60676,1,0,0:0:0:0:
448,192,60676,1,0,0:0:0:0:
64,192,60726,1,0,0:0:0:0:
448,192,60750,1,0,0:0:0:0:
192,192,60825,1,0,0:0:0:0:
64,192,60874,1,0,0:0:0:0:
320,192,60899,1,0,0:0:0:0:
448,192,60949,1,0,0:0:0:0:
192,192,60973,1,0,0:0:0:0:
64,192,61023,1,0,0:0:0:0:
320,192,61048,1,0,0:0:0:0:
448,192,61097,1,0,0:0:0:0:
192,192,61122,1,0,0:0:0:0:
64,192,61122,1,0,0:0:0:0:
320,192,61270,1,0,0:0:0:0:
448,192,61270,1,0,0:0:0:0:
448,192,61419,128,0,61567:0:0:0:0:
320,192,61419,128,0,61567:0:0:0:0:
192,192,61567,128,0,61864:0:0:0:0:
64,192,61567,128,0,61716:0:0:0:0:
320,192,61642,128,0,61864:0:0:0:0:
448,192,61716,128,0,61864:0:0:0:0:
64,192,61790,128,0,61864:0:0:0:0:
448,192,62013,128,0,62112:0:0:0:0:
320,192,62062,128,0,62161:0:0:0:0:
192,192,62112,128,0,62211:0:0:0:0:
64,192,62161,128,0,62260:0:0:0:0:
448,192,62211,128,0,62310:0:0:0:0:
320,192,62260,128,0,62359:0:0:0:0:
192,192,62310,128,0,62458:0:0:0:0:
64,192,62310,128,0,62458:0:0:0:0:
448,192,62458,128,0,62508:0:0:0:0:
320,192,62483,128,0,62533:0:0:0:0:
192,192,62508,128,0,62557:0:0:0:0:
64,192,62533,128,0,62582:0:0:0:0:
448,192,62557,128,0,62607:0:0:0:0:
320,192,62582,128,0,62632:0:0:0:0:
192,192,62607,128,0,62656:0:0:0:0:
64,192,62632,128,0,62681:0:0:0:0:
448,192,62656,128,0,62706:0:0:0:0:
320,192,62681,128,0,62731:0:0:0:0:
192,192,62706,128,0,62755:0:0:0:0:
64,192,62731,128,0,62780:0:0:0:0:
320,192,62755,128,0,62978:0:0:0:0:
448,192,62755,128,0,62904:0:0:0:0:
192,192,62830,128,0,62978:0:0:0:0:
64,192,62904,128,0,62978:0:0:0:0:
448,192,62978,128,0,63052:0:0:0:0:
192,192,63052,128,0,63201:0:0:0:0:
64,192,63052,128,0,63127:0:0:0:0:
320,192,63052,128,0,63275:0:0:0:0:
448,192,63127,128,0,63275:0:0:0:0:
64,192,63201,128,0,63275:0:0:0:0:
192,192,63275,128,0,63349:0:0:0:0:
64,192,63349,1,0,0:0:0:0:
320,192,63349,1,0,0:0:0:0:
448,192,63349,1,0,0:0:0:0:
192,192,63498,1,0,0:0:0:0:
64,192,63498,128,0,63721:0:0:0:0:
448,192,63498,128,0,63572:0:0:0:0:
320,192,63572,1,0,0:0:0:0:
192,192,63572,128,0,63721:0:0:0:0:
448,192,63647,128,0,63721:0:0:0:0:
320,192,63647,128,0,63721:0:0:0:0:
320,192,63795,128,0,63869:0:0:0:0:
448,192,63795,128,0,64018:0:0:0:0:
64,192,63795,128,0,63869:0:0:0:0:
192,192,63795,128,0,63869:0:0:0:0:
320,192,63944,128,0,64018:0:0:0:0:
192,192,63944,128,0,64166:0:0:0:0:
64,192,63944,128,0,64018:0:0:0:0:
320,192,64092,128,0,64166:0:0:0:0:
448,192,64092,128,0,64389:0:0:0:0:
64,192,64092,128,0,64166:0:0:0:0:
192,192,64241,128,0,64315:0:0:0:0:
64,192,64241,128,0,64315:0:0:0:0:
320,192,64241,128,0,64389:0:0:0:0:
192,192,64389,128,0,64463:0:0:0:0:
64,192,64389,128,0,64463:0:0:0:0:
320,192,64463,1,0,0:0:0:0:
448,192,64463,1,0,0:0:0:0:
448,192,64538,128,0,64760:0:0:0:0:
320,192,64538,128,0,64612:0:0:0:0:
192,192,64538,128,0,64612:0:0:0:0:
64,192,64538,128,0,64612:0:0:0:0:
320,192,64686,128,0,64760:0:0:0:0:
192,192,64686,128,0,64760:0:0:0:0:
64,192,64686,128,0,64760:0:0:0:0:
320,192,64835,1,0,0:0:0:0:
448,192,64835,128,0,65057:0:0:0:0:
64,192,64835,128,0,64909:0:0:0:0:
192,192,64909,1,0,0:0:0:0:
320,192,64909,128,0,65057:0:0:0:0:
192,192,64983,128,0,65057:0:0:0:0:
64,192,64983,128,0,65057:0:0:0:0:
320,192,65132,128,0,65206:0:0:0:0:
448,192,65132,128,0,65169:0:0:0:0:
64,192,65169,128,0,65243:0:0:0:0:
192,192,65206,128,0,65243:0:0:0:0:
448,192,65243,128,0,65317:0:0:0:0:
320,192,65280,128,0,65317:0:0:0:0:
64,192,65317,128,0,65392:0:0:0:0:
192,192,65354,128,0,65392:0:0:0:0:
448,192,65392,128,0,65466:0:0:0:0:
320,192,65429,128,0,65466:0:0:0:0:
64,192,65466,128,0,65540:0:0:0:0:
192,192,65503,128,0,65540:0:0:0:0:
448,192,65540,128,0,65614:0:0:0:0:
320,192,65577,128,0,65614:0:0:0:0:
64,192,65614,128,0,65689:0:0:0:0:
192,192,65651,128,0,65689:0:0:0:0:
320,192,65689,128,0,65763:0:0:0:0:
448,192,65726,128,0,65763:0:0:0:0:
192,192,65726,128,0,65825:0:0:0:0:
64,192,65726,128,0,65825:0:0:0:0:
192,192,65874,128,0,65973:0:0:0:0:
64,192,65874,128,0,65973:0:0:0:0:
320,192,66023,128,0,66122:0:0:0:0:
448,192,66023,128,0,66122:0:0:0:0:
448,192,66171,128,0,66270:0:0:0:0:
320,192,66171,128,0,66221:0:0:0:0:
192,192,66221,128,0,66320:0:0:0:0:
64,192,66270,128,0,66369:0:0:0:0:
320,192,66270,128,0,66369:0:0:0:0:
448,192,66320,128,0,66419:0:0:0:0:
192,192,66369,128,0,66468:0:0:0:0:
64,192,66419,128,0,66518:0:0:0:0:
320,192,66468,128,0,66567:0:0:0:0:
448,192,66468,128,0,66567:0:0:0:0:
192,192,66518,128,0,66617:0:0:0:0:
64,192,66567,128,0,66666:0:0:0:0:
448,192,66617,128,0,66716:0:0:0:0:
320,192,66617,128,0,66716:0:0:0:0:
192,192,66666,128,0,66765:0:0:0:0:
64,192,66716,128,0,66815:0:0:0:0:
320,192,66765,128,0,66864:0:0:0:0:
448,192,66815,128,0,66864:0:0:0:0:
192,192,66815,128,0,66914:0:0:0:0:
64,192,66864,128,0,66914:0:0:0:0:
320,192,66914,128,0,66951:0:0:0:0:
448,192,66914,128,0,66988:0:0:0:0:
192,192,66951,128,0,66988:0:0:0:0:
64,192,66988,128,0,67025:0:0:0:0:
320,192,67025,128,0,67062:0:0:0:0:
448,192,67062,128,0,67100:0:0:0:0:
192,192,67062,128,0,67137:0:0:0:0:
64,192,67100,128,0,67174:0:0:0:0:
320,192,67137,128,0,67211:0:0:0:0:
448,192,67174,128,0,67248:0:0:0:0:
192,192,67211,128,0,67285:0:0:0:0:
64,192,67248,128,0,67322:0:0:0:0:
320,192,67285,128,0,67359:0:0:0:0:
448,192,67322,128,0,67359:0:0:0:0:
192,192,67359,128,0,67434:0:0:0:0:
64,192,67397,128,0,67434:0:0:0:0:
448,192,67434,128,0,67508:0:0:0:0:
320,192,67471,128,0,67508:0:0:0:0:
192,192,67508,128,0,67607:0:0:0:0:
64,192,67508,128,0,67656:0:0:0:0:
320,192,67557,128,0,67656:0:0:0:0:
448,192,67607,128,0,67706:0:0:0:0:
192,192,67656,128,0,67755:0:0:0:0:
64,192,67706,128,0,67805:0:0:0:0:
320,192,67706,128,0,67805:0:0:0:0:
448,192,67755,128,0,67854:0:0:0:0:
192,192,67805,128,0,67904:0:0:0:0:
64,192,67854,128,0,67953:0:0:0:0:
320,192,67854,128,0,67953:0:0:0:0:
448,192,67904,128,0,68003:0:0:0:0:
192,192,67953,128,0,68052:0:0:0:0:
64,192,68003,128,0,68052:0:0:0:0:
320,192,68003,128,0,68052:0:0:0:0:
448,192,68052,128,0,68102:0:0:0:0:
320,192,68102,128,0,68250:0:0:0:0:
192,192,68102,128,0,68250:0:0:0:0:
64,192,68102,128,0,68176:0:0:0:0:
64,192,68250,128,0,68325:0:0:0:0:
448,192,68250,128,0,68325:0:0:0:0:
320,192,68325,128,0,68473:0:0:0:0:
192,192,68325,128,0,68473:0:0:0:0:
64,192,68399,128,0,68473:0:0:0:0:
448,192,68399,128,0,68473:0:0:0:0:
192,192,68548,128,0,68622:0:0:0:0:
64,192,68548,128,0,68770:0:0:0:0:
448,192,68548,128,0,68622:0:0:0:0:
320,192,68548,128,0,68622:0:0:0:0:
192,192,68696,128,0,68770:0:0:0:0:
320,192,68696,128,0,68919:0:0:0:0:
448,192,68696,128,0,68770:0:0:0:0:
192,192,68845,128,0,68919:0:0:0:0:
64,192,68845,128,0,69142:0:0:0:0:
448,192,68845,128,0,68919:0:0:0:0:
320,192,68993,128,0,69067:0:0:0:0:
448,192,68993,128,0,69067:0:0:0:0:
192,192,68993,128,0,69142:0:0:0:0:
320,192,69142,128,0,69216:0:0:0:0:
448,192,69142,128,0,69216:0:0:0:0:
192,192,69216,1,0,0:0:0:0:
64,192,69216,1,0,0:0:0:0:
64,192,69290,128,0,69513:0:0:0:0:
192,192,69290,128,0,69364:0:0:0:0:
320,192,69290,128,0,69364:0:0:0:0:
448,192,69290,128,0,69364:0:0:0:0:
192,192,69439,128,0,69513:0:0:0:0:
320,192,69439,128,0,69513:0:0:0:0:
448,192,69439,128,0,69513:0:0:0:0:
448,192,69587,128,0,69661:0:0:0:0:
64,192,69587,128,0,69810:0:0:0:0:
192,192,69587,128,0,69661:0:0:0:0:
320,192,69587,1,0,0:0:0:0:
320,192,69661,128,0,69810:0:0:0:0:
448,192,69736,128,0,69810:0:0:0:0:
192,192,69736,128,0,69810:0:0:0:0:
448,192,69884,128,0,69983:0:0:0:0:
192,192,69884,1,0,0:0:0:0:
320,192,69934,128,0,69983:0:0:0:0:
64,192,69983,128,0,70082:0:0:0:0:
192,192,70033,128,0,70082:0:0:0:0:
448,192,70082,128,0,70181:0:0:0:0:
320,192,70132,128,0,70181:0:0:0:0:
192,192,70181,128,0,70330:0:0:0:0:
64,192,70181,128,0,70255:0:0:0:0:
320,192,70255,1,0,0:0:0:0:
64,192,70330,1,0,0:0:0:0:
448,192,70330,1,0,0:0:0:0:
192,192,70404,1,0,0:0:0:0:
448,192,70478,1,0,0:0:0:0:
320,192,70478,1,0,0:0:0:0:
64,192,70478,128,0,70577:0:0:0:0:
192,192,70528,128,0,70577:0:0:0:0:
448,192,70577,128,0,70676:0:0:0:0:
320,192,70627,128,0,70676:0:0:0:0:
64,192,70676,128,0,70775:0:0:0:0:
192,192,70726,128,0,70775:0:0:0:0:
320,192,70775,128,0,70874:0:0:0:0:
448,192,70775,128,0,70874:0:0:0:0:
64,192,70924,128,0,71023:0:0:0:0:
448,192,70924,128,0,70973:0:0:0:0:
320,192,70924,1,0,0:0:0:0:
192,192,70973,128,0,71072:0:0:0:0:
320,192,71023,128,0,71122:0:0:0:0:
448,192,71072,128,0,71171:0:0:0:0:
64,192,71122,128,0,71270:0:0:0:0:
192,192,71171,128,0,71221:0:0:0:0:
320,192,71221,128,0,71320:0:0:0:0:
448,192,71221,128,0,71320:0:0:0:0:
448,192,71369,128,0,71468:0:0:0:0:
192,192,71369,1,0,0:0:0:0:
64,192,71369,128,0,71419:0:0:0:0:
320,192,71419,128,0,71518:0:0:0:0:
192,192,71468,128,0,71567:0:0:0:0:
64,192,71518,128,0,71617:0:0:0:0:
448,192,71567,128,0,71716:0:0:0:0:
320,192,71617,128,0,71666:0:0:0:0:
192,192,71666,128,0,71765:0:0:0:0:
64,192,71666,128,0,71765:0:0:0:0:
192,192,71815,128,0,71914:0:0:0:0:
64,192,71815,128,0,71914:0:0:0:0:
192,192,71963,128,0,72062:0:0:0:0:
64,192,71963,128,0,72062:0:0:0:0:
192,192,72112,128,0,72211:0:0:0:0:
64,192,72112,128,0,72211:0:0:0:0:
192,192,72260,128,0,72409:0:0:0:0:
64,192,72260,128,0,72335:0:0:0:0:
320,192,72310,128,0,72458:0:0:0:0:
448,192,72359,128,0,72508:0:0:0:0:
64,192,72409,128,0,72557:0:0:0:0:
192,192,72458,128,0,72607:0:0:0:0:
320,192,72508,128,0,72656:0:0:0:0:
448,192,72557,128,0,72706:0:0:0:0:
64,192,72607,128,0,72706:0:0:0:0:
192,192,72656,128,0,72755:0:0:0:0:
320,192,72706,128,0,72805:0:0:0:0:
448,192,72755,1,0,0:0:0:0:
64,192,72805,1,0,0:0:0:0:
192,192,72854,1,0,0:0:0:0:
320,192,72854,1,0,0:0:0:0:
448,192,72854,1,0,0:0:0:0:
320,192,73003,128,0,73077:0:0:0:0:
64,192,73003,128,0,73077:0:0:0:0:
448,192,73077,128,0,73226:0:0:0:0:
192,192,73077,128,0,73226:0:0:0:0:
320,192,73151,128,0,73226:0:0:0:0:
64,192,73151,128,0,73374:0:0:0:0:
192,192,73300,128,0,73374:0:0:0:0:
320,192,73300,128,0,73523:0:0:0:0:
448,192,73300,128,0,73374:0:0:0:0:
448,192,73449,128,0,73523:0:0:0:0:
192,192,73449,128,0,73671:0:0:0:0:
64,192,73449,128,0,73523:0:0:0:0:
64,192,73597,128,0,73671:0:0:0:0:
320,192,73597,128,0,73671:0:0:0:0:
448,192,73597,128,0,73820:0:0:0:0:
320,192,73746,128,0,73820:0:0:0:0:
192,192,73746,128,0,73894:0:0:0:0:
64,192,73746,128,0,73894:0:0:0:0:
320,192,73894,128,0,73968:0:0:0:0:
448,192,73894,128,0,73968:0:0:0:0:
192,192,73968,1,0,0:0:0:0:
64,192,73968,1,0,0:0:0:0:
448,192,74043,128,0,74265:0:0:0:0:
320,192,74043,128,0,74117:0:0:0:0:
192,192,74043,128,0,74117:0:0:0:0:
64,192,74043,128,0,74117:0:0:0:0:
320,192,74191,128,0,74340:0:0:0:0:
192,192,74191,128,0,74265:0:0:0:0:
64,192,74191,128,0,74340:0:0:0:0:
192,192,74340,128,0,74414:0:0:0:0:
448,192,74340,128,0,74414:0:0:0:0:
320,192,74414,128,0,74637:0:0:0:0:
64,192,74414,128,0,74562:0:0:0:0:
448,192,74488,128,0,74562:0:0:0:0:
192,192,74488,128,0,74637:0:0:0:0:
64,192,74637,1,0,0:0:0:0:
448,192,74637,128,0,74736:0:0:0:0:
320,192,74686,128,0,74785:0:0:0:0:
64,192,74736,128,0,74835:0:0:0:0:
192,192,74785,128,0,74884:0:0:0:0:
448,192,74835,128,0,74934:0:0:0:0:
320,192,74884,128,0,74934:0:0:0:0:
64,192,74934,128,0,75008:0:0:0:0:
192,192,74971,128,0,75045:0:0:0:0:
448,192,75008,128,0,75082:0:0:0:0:
320,192,75045,128,0,75119:0:0:0:0:
64,192,75082,128,0,75156:0:0:0:0:
192,192,75119,128,0,75194:0:0:0:0:
448,192,75156,128,0,75194:0:0:0:0:
320,192,75194,128,0,75231:0:0:0:0:
448,192,75231,1,0,0:0:0:0:
192,192,75231,128,0,75342:0:0:0:0:
64,192,75231,128,0,75379:0:0:0:0:
192,192,75379,128,0,75528:0:0:0:0:
320,192,75379,128,0,75491:0:0:0:0:
320,192,75528,128,0,75676:0:0:0:0:
448,192,75528,128,0,75676:0:0:0:0:
64,192,75676,128,0,75750:0:0:0:0:
192,192,75713,128,0,75788:0:0:0:0:
320,192,75750,128,0,75862:0:0:0:0:
448,192,75788,128,0,75899:0:0:0:0:
64,192,75825,128,0,75899:0:0:0:0:
192,192,75862,128,0,75899:0:0:0:0:
448,192,75973,128,0,76048:0:0:0:0:
320,192,75973,128,0,76085:0:0:0:0:
192,192,75973,128,0,76122:0:0:0:0:
64,192,75973,128,0,76159:0:0:0:0:
448,192,76122,128,0,76196:0:0:0:0:
320,192,76159,128,0,76233:0:0:0:0:
192,192,76196,128,0,76307:0:0:0:0:
64,192,76233,128,0,76345:0:0:0:0:
448,192,76270,128,0,76345:0:0:0:0:
320,192,76307,128,0,76345:0:0:0:0:
64,192,76419,128,0,76493:0:0:0:0:
192,192,76419,128,0,76530:0:0:0:0:
320,192,76419,128,0,76604:0:0:0:0:
448,192,76419,128,0,76567:0:0:0:0:
64,192,76567,128,0,76642:0:0:0:0:
192,192,76604,128,0,76679:0:0:0:0:
448,192,76642,128,0,76716:0:0:0:0:
320,192,76679,128,0,76716:0:0:0:0:
64,192,76716,128,0,76790:0:0:0:0:
192,192,76753,128,0,76827:0:0:0:0:
320,192,76790,128,0,76864:0:0:0:0:
448,192,76827,128,0,76901:0:0:0:0:
192,192,76864,128,0,76939:0:0:0:0:
64,192,76901,128,0,76976:0:0:0:0:
320,192,76939,128,0,77013:0:0:0:0:
448,192,76976,128,0,77013:0:0:0:0:
192,192,77013,128,0,77062:0:0:0:0:
64,192,77038,128,0,77087:0:0:0:0:
320,192,77062,128,0,77112:0:0:0:0:
448,192,77087,128,0,77137:0:0:0:0:
192,192,77112,128,0,77161:0:0:0:0:
64,192,77137,128,0,77186:0:0:0:0:
320,192,77161,128,0,77211:0:0:0:0:
448,192,77186,128,0,77236:0:0:0:0:
192,192,77211,128,0,77260:0:0:0:0:
64,192,77236,128,0,77285:0:0:0:0:
320,192,77260,128,0,77310:0:0:0:0:
448,192,77285,128,0,77335:0:0:0:0:
192,192,77310,128,0,77359:0:0:0:0:
64,192,77335,128,0,77384:0:0:0:0:
320,192,77359,128,0,77409:0:0:0:0:
448,192,77384,128,0,77434:0:0:0:0:
192,192,77409,128,0,77458:0:0:0:0:
64,192,77434,128,0,77483:0:0:0:0:
320,192,77458,128,0,77508:0:0:0:0:
448,192,77483,128,0,77533:0:0:0:0:
192,192,77508,128,0,77557:0:0:0:0:
64,192,77533,128,0,77582:0:0:0:0:
320,192,77557,128,0,77607:0:0:0:0:
448,192,77582,128,0,77607:0:0:0:0:
192,192,77607,1,0,0:0:0:0:
64,192,77607,1,0,0:0:0:0:
64,192,77755,128,0,77830:0:0:0:0:
192,192,77755,128,0,77830:0:0:0:0:
320,192,77830,128,0,77978:0:0:0:0:
448,192,77830,128,0,77978:0:0:0:0:
192,192,77904,128,0,77978:0:0:0:0:
64,192,77904,128,0,78127:0:0:0:0:
192,192,78052,128,0,78127:0:0:0:0:
320,192,78052,128,0,78127:0:0:0:0:
448,192,78052,128,0,78127:0:0:0:0:
448,192,78201,128,0,78424:0:0:0:0:
320,192,78201,128,0,78275:0:0:0:0:
192,192,78201,128,0,78275:0:0:0:0:
64,192,78201,128,0,78275:0:0:0:0:
192,192,78350,128,0,78572:0:0:0:0:
64,192,78350,128,0,78424:0:0:0:0:
320,192,78350,128,0,78424:0:0:0:0:
320,192,78498,128,0,78647:0:0:0:0:
448,192,78498,128,0,78647:0:0:0:0:
64,192,78498,128,0,78572:0:0:0:0:
192,192,78647,128,0,78721:0:0:0:0:
64,192,78647,128,0,78721:0:0:0:0:
320,192,78721,1,0,0:0:0:0:
448,192,78721,1,0,0:0:0:0:
320,192,78795,128,0,78869:0:0:0:0:
448,192,78795,128,0,79018:0:0:0:0:
192,192,78795,128,0,78869:0:0:0:0:
64,192,78795,128,0,78869:0:0:0:0:
64,192,78944,128,0,79092:0:0:0:0:
192,192,78944,128,0,79018:0:0:0:0:
320,192,78944,128,0,79018:0:0:0:0:
320,192,79092,128,0,79241:0:0:0:0:
448,192,79092,128,0,79166:0:0:0:0:
192,192,79092,128,0,79166:0:0:0:0:
64,192,79166,128,0,79315:0:0:0:0:
192,192,79241,128,0,79315:0:0:0:0:
448,192,79241,128,0,79315:0:0:0:0:
320,192,79315,128,0,79389:0:0:0:0:
448,192,79389,1,0,0:0:0:0:
192,192,79389,1,0,0:0:0:0:
64,192,79389,128,0,79612:0:0:0:0:
64,192,79686,128,0,79760:0:0:0:0:
64,192,79835,128,0,80057:0:0:0:0:
448,192,79835,1,0,0:0:0:0:
64,192,80132,128,0,80354:0:0:0:0:
448,192,80280,1,0,0:0:0:0:
64,192,80429,128,0,80503:0:0:0:0:
64,192,80577,128,0,80800:0:0:0:0:
448,192,80726,1,0,0:0:0:0:
64,192,80874,128,0,80949:0:0:0:0:
64,192,81023,128,0,81097:0:0:0:0:
64,192,81171,128,0,81246:0:0:0:0:
448,192,81171,1,0,0:0:0:0:
64,192,81320,128,0,81394:0:0:0:0:
64,192,81468,128,0,81543:0:0:0:0:
192,192,81505,128,0,81580:0:0:0:0:
320,192,81543,128,0,81617:0:0:0:0:
448,192,81580,128,0,81654:0:0:0:0:
64,192,81617,128,0,81691:0:0:0:0:
192,192,81654,128,0,81728:0:0:0:0:
320,192,81691,128,0,81765:0:0:0:0:
448,192,81728,128,0,81802:0:0:0:0:
192,192,81765,1,0,0:0:0:0:
64,192,81765,1,0,0:0:0:0:
192,192,82062,1,0,0:0:0:0:
64,192,82062,1,0,0:0:0:0:
320,192,82062,1,0,0:0:0:0:
320,192,82359,1,0,0:0:0:0:
192,192,82359,1,0,0:0:0:0:
64,192,82359,1,0,0:0:0:0:
192,192,82656,1,0,0:0:0:0:
320,192,82656,1,0,0:0:0:0:
448,192,82656,1,0,0:0:0:0:
192,192,82953,1,0,0:0:0:0:
320,192,82953,1,0,0:0:0:0:
448,192,82953,1,0,0:0:0:0:
448,192,83250,1,0,0:0:0:0:
192,192,83250,1,0,0:0:0:0:
64,192,83250,1,0,0:0:0:0:
320,192,83548,1,0,0:0:0:0:
448,192,83548,1,0,0:0:0:0:
64,192,83548,1,0,0:0:0:0:
192,192,83845,1,0,0:0:0:0:
64,192,83845,1,0,0:0:0:0:
320,192,83845,1,0,0:0:0:0:
320,192,84142,1,0,0:0:0:0:
448,192,84142,1,0,0:0:0:0:
64,192,84142,1,0,0:0:0:0:
320,192,84439,1,0,0:0:0:0:
192,192,84439,1,0,0:0:0:0:
64,192,84439,1,0,0:0:0:0:
192,192,84736,1,0,0:0:0:0:
320,192,84736,1,0,0:0:0:0:
448,192,84736,1,0,0:0:0:0:
448,192,85033,1,0,0:0:0:0:
192,192,85033,1,0,0:0:0:0:
64,192,85033,1,0,0:0:0:0:
320,192,85330,1,0,0:0:0:0:
448,192,85330,1,0,0:0:0:0:
192,192,85330,1,0,0:0:0:0:
64,192,85627,1,0,0:0:0:0:
192,192,85627,1,0,0:0:0:0:
448,192,85627,1,0,0:0:0:0:
192,192,85924,1,0,0:0:0:0:
320,192,85924,1,0,0:0:0:0:
64,192,85924,1,0,0:0:0:0:
192,192,86221,1,0,0:0:0:0:
320,192,86221,1,0,0:0:0:0:
448,192,86221,1,0,0:0:0:0:
320,192,86518,1,0,0:0:0:0:
192,192,86518,1,0,0:0:0:0:
64,192,86518,1,0,0:0:0:0:
320,192,86666,1,0,0:0:0:0:
192,192,86666,1,0,0:0:0:0:
64,192,86666,1,0,0:0:0:0:
192,192,86815,1,0,0:0:0:0:
64,192,86815,1,0,0:0:0:0:
448,192,86815,1,0,0:0:0:0:
448,192,86963,1,0,0:0:0:0:
192,192,86963,1,0,0:0:0:0:
64,192,86963,1,0,0:0:0:0:
320,192,87038,1,0,0:0:0:0:
192,192,87112,1,0,0:0:0:0:
320,192,87112,1,0,0:0:0:0:
448,192,87112,1,0,0:0:0:0:
192,192,87260,1,0,0:0:0:0:
320,192,87260,1,0,0:0:0:0:
448,192,87260,1,0,0:0:0:0:
448,192,87409,1,0,0:0:0:0:
320,192,87409,1,0,0:0:0:0:
64,192,87409,1,0,0:0:0:0:
320,192,87557,1,0,0:0:0:0:
448,192,87557,1,0,0:0:0:0:
64,192,87557,1,0,0:0:0:0:
192,192,87632,1,0,0:0:0:0:
320,192,87706,1,0,0:0:0:0:
192,192,87706,1,0,0:0:0:0:
64,192,87706,1,0,0:0:0:0:
64,192,87854,1,0,0:0:0:0:
192,192,87854,1,0,0:0:0:0:
320,192,87854,1,0,0:0:0:0:
448,192,87929,1,0,0:0:0:0:
320,192,88003,1,0,0:0:0:0:
192,192,88003,1,0,0:0:0:0:
448,192,88003,1,0,0:0:0:0:
192,192,88151,1,0,0:0:0:0:
320,192,88151,1,0,0:0:0:0:
448,192,88151,1,0,0:0:0:0:
64,192,88226,1,0,0:0:0:0:
64,192,88300,1,0,0:0:0:0:
320,192,88300,1,0,0:0:0:0:
448,192,88300,1,0,0:0:0:0:
320,192,88449,1,0,0:0:0:0:
448,192,88449,1,0,0:0:0:0:
64,192,88449,1,0,0:0:0:0:
192,192,88523,1,0,0:0:0:0:
64,192,88597,1,0,0:0:0:0:
192,192,88597,1,0,0:0:0:0:
448,192,88597,1,0,0:0:0:0:
448,192,88746,1,0,0:0:0:0:
192,192,88746,1,0,0:0:0:0:
64,192,88746,1,0,0:0:0:0:
320,192,88894,1,0,0:0:0:0:
448,192,88894,1,0,0:0:0:0:
192,192,88968,1,0,0:0:0:0:
64,192,88968,1,0,0:0:0:0:
320,192,89043,1,0,0:0:0:0:
448,192,89043,1,0,0:0:0:0:
64,192,89043,1,0,0:0:0:0:
192,192,89117,1,0,0:0:0:0:
320,192,89191,1,0,0:0:0:0:
448,192,89191,1,0,0:0:0:0:
448,192,89265,1,0,0:0:0:0:
64,192,89265,1,0,0:0:0:0:
192,192,89265,1,0,0:0:0:0:
320,192,89340,1,0,0:0:0:0:
192,192,89414,1,0,0:0:0:0:
64,192,89414,1,0,0:0:0:0:
64,192,89488,1,0,0:0:0:0:
320,192,89488,1,0,0:0:0:0:
448,192,89488,1,0,0:0:0:0:
192,192,89562,1,0,0:0:0:0:
448,192,89637,1,0,0:0:0:0:
320,192,89637,1,0,0:0:0:0:
448,192,89711,1,0,0:0:0:0:
64,192,89711,1,0,0:0:0:0:
192,192,89711,1,0,0:0:0:0:
320,192,89785,1,0,0:0:0:0:
192,192,89859,1,0,0:0:0:0:
64,192,89859,1,0,0:0:0:0:
64,192,89934,1,0,0:0:0:0:
320,192,89934,1,0,0:0:0:0:
448,192,89934,1,0,0:0:0:0:
192,192,90008,1,0,0:0:0:0:
448,192,90082,128,0,90156:0:0:0:0:
448,192,90231,128,0,90453:0:0:0:0:
64,192,90379,128,0,90503:0:0:0:0:
192,192,90429,128,0,90552:0:0:0:0:
320,192,90478,128,0,90602:0:0:0:0:
448,192,90528,128,0,90602:0:0:0:0:
64,192,90528,128,0,90651:0:0:0:0:
192,192,90577,128,0,90701:0:0:0:0:
320,192,90627,128,0,90750:0:0:0:0:
448,192,90676,128,0,90750:0:0:0:0:
64,192,90676,128,0,90800:0:0:0:0:
192,192,90726,128,0,90850:0:0:0:0:
320,192,90775,128,0,90899:0:0:0:0:
448,192,90825,128,0,91196:0:0:0:0:
64,192,90825,128,0,90949:0:0:0:0:
192,192,90874,128,0,90998:0:0:0:0:
320,192,90924,128,0,91048:0:0:0:0:
64,192,90973,128,0,91097:0:0:0:0:
192,192,91023,128,0,91147:0:0:0:0:
320,192,91072,128,0,91196:0:0:0:0:
64,192,91122,128,0,91246:0:0:0:0:
192,192,91171,128,0,91246:0:0:0:0:
320,192,91221,128,0,91246:0:0:0:0:
64,192,91270,128,0,91493:0:0:0:0:
192,192,91270,128,0,91493:0:0:0:0:
448,192,91270,128,0,91493:0:0:0:0:
320,192,91567,128,0,91642:0:0:0:0:
448,192,91567,128,0,91642:0:0:0:0:
64,192,91567,128,0,91642:0:0:0:0:
320,192,91716,128,0,91790:0:0:0:0:
192,192,91716,128,0,91790:0:0:0:0:
64,192,91716,128,0,91790:0:0:0:0:
320,192,91864,128,0,91939:0:0:0:0:
448,192,91864,128,0,91939:0:0:0:0:
192,192,91939,128,0,92013:0:0:0:0:
64,192,91939,128,0,92013:0:0:0:0:
320,192,92013,128,0,92087:0:0:0:0:
448,192,92013,128,0,92087:0:0:0:0:
64,192,92087,1,0,0:0:0:0:
192,192,92087,128,0,92161:0:0:0:0:
320,192,92161,1,0,0:0:0:0:
448,192,92161,1,0,0:0:0:0:
64,192,92161,1,0,0:0:0:0:
192,192,92310,1,0,0:0:0:0:
64,192,92310,1,0,0:0:0:0:
320,192,92310,1,0,0:0:0:0:
64,192,92458,128,0,92533:0:0:0:0:
448,192,92458,128,0,92533:0:0:0:0:
320,192,92533,128,0,92607:0:0:0:0:
192,192,92533,128,0,92607:0:0:0:0:
448,192,92607,128,0,92681:0:0:0:0:
64,192,92607,128,0,92681:0:0:0:0:
320,192,92681,1,0,0:0:0:0:
192,192,92681,128,0,92755:0:0:0:0:
448,192,92755,1,0,0:0:0:0:
64,192,92755,1,0,0:0:0:0:
320,192,92755,1,0,0:0:0:0:
192,192,92904,1,0,0:0:0:0:
64,192,92904,1,0,0:0:0:0:
448,192,92904,1,0,0:0:0:0:
192,192,93052,128,0,93127:0:0:0:0:
64,192,93052,128,0,93127:0:0:0:0:
320,192,93127,128,0,93201:0:0:0:0:
448,192,93127,128,0,93201:0:0:0:0:
192,192,93201,128,0,93275:0:0:0:0:
64,192,93201,128,0,93275:0:0:0:0:
448,192,93275,1,0,0:0:0:0:
320,192,93275,128,0,93350:0:0:0:0:
192,192,93350,1,0,0:0:0:0:
64,192,93350,1,0,0:0:0:0:
448,192,93350,1,0,0:0:0:0:
320,192,93424,128,0,93498:0:0:0:0:
448,192,93498,128,0,93572:0:0:0:0:
192,192,93498,128,0,93572:0:0:0:0:
64,192,93572,128,0,93647:0:0:0:0:
320,192,93647,128,0,93746:0:0:0:0:
448,192,93647,128,0,93696:0:0:0:0:
192,192,93647,128,0,93696:0:0:0:0:
64,192,93696,128,0,93795:0:0:0:0:
192,192,93746,128,0,93845:0:0:0:0:
448,192,93795,128,0,93894:0:0:0:0:
320,192,93845,128,0,93894:0:0:0:0:
64,192,93894,128,0,93944:0:0:0:0:
192,192,93944,1,0,0:0:0:0:
448,192,93944,1,0,0:0:0:0:
320,192,93944,1,0,0:0:0:0:
320,192,94092,1,0,0:0:0:0:
448,192,94092,1,0,0:0:0:0:
192,192,94092,1,0,0:0:0:0:
192,192,94241,128,0,94340:0:0:0:0:
320,192,94241,128,0,94340:0:0:0:0:
64,192,94241,128,0,94340:0:0:0:0:
192,192,94389,128,0,94488:0:0:0:0:
320,192,94389,128,0,94488:0:0:0:0:
448,192,94389,128,0,94488:0:0:0:0:
64,192,94538,128,0,94637:0:0:0:0:
320,192,94538,128,0,94637:0:0:0:0:
448,192,94538,128,0,94637:0:0:0:0:
64,192,94686,128,0,94785:0:0:0:0:
192,192,94686,128,0,94785:0:0:0:0:
320,192,94736,128,0,94835:0:0:0:0:
448,192,94785,128,0,94884:0:0:0:0:
192,192,94835,128,0,94909:0:0:0:0:
64,192,94872,128,0,94946:0:0:0:0:
320,192,94909,128,0,94983:0:0:0:0:
448,192,94946,128,0,95020:0:0:0:0:
192,192,94983,128,0,95057:0:0:0:0:
64,192,95020,128,0,95095:0:0:0:0:
320,192,95057,1,0,0:0:0:0:
448,192,95095,1,0,0:0:0:0:
320,192,95132,128,0,95231:0:0:0:0:
192,192,95132,128,0,95181:0:0:0:0:
64,192,95132,128,0,95181:0:0:0:0:
448,192,95181,128,0,95231:0:0:0:0:
64,192,95231,128,0,95330:0:0:0:0:
192,192,95280,128,0,95379:0:0:0:0:
448,192,95280,128,0,95379:0:0:0:0:
320,192,95330,128,0,95379:0:0:0:0:
64,192,95379,128,0,95429:0:0:0:0:
320,192,95429,128,0,95503:0:0:0:0:
448,192,95429,128,0,95503:0:0:0:0:
192,192,95466,128,0,95540:0:0:0:0:
64,192,95503,128,0,95540:0:0:0:0:
320,192,95540,1,0,0:0:0:0:
448,192,95577,1,0,0:0:0:0:
192,192,95577,1,0,0:0:0:0:
64,192,95577,1,0,0:0:0:0:
320,192,95726,128,0,95800:0:0:0:0:
448,192,95726,128,0,95800:0:0:0:0:
192,192,95763,128,0,95837:0:0:0:0:
64,192,95800,128,0,95874:0:0:0:0:
448,192,95837,128,0,95911:0:0:0:0:
320,192,95874,128,0,95949:0:0:0:0:
192,192,95911,128,0,95986:0:0:0:0:
64,192,95949,128,0,95986:0:0:0:0:
448,192,95986,1,0,0:0:0:0:
64,192,96023,128,0,96072:0:0:0:0:
192,192,96023,128,0,96097:0:0:0:0:
320,192,96023,128,0,96122:0:0:0:0:
448,192,96072,128,0,96122:0:0:0:0:
64,192,96122,128,0,96221:0:0:0:0:
192,192,96171,128,0,96270:0:0:0:0:
448,192,96171,128,0,96270:0:0:0:0:
320,192,96221,128,0,96270:0:0:0:0:
64,192,96270,128,0,96320:0:0:0:0:
192,192,96320,1,0,0:0:0:0:
448,192,96320,1,0,0:0:0:0:
320,192,96320,1,0,0:0:0:0:
320,192,96468,1,0,0:0:0:0:
192,192,96468,1,0,0:0:0:0:
64,192,96468,1,0,0:0:0:0:
64,192,96617,128,0,96691:0:0:0:0:
448,192,96617,128,0,96691:0:0:0:0:
192,192,96691,128,0,96765:0:0:0:0:
320,192,96691,128,0,96765:0:0:0:0:
64,192,96765,128,0,96840:0:0:0:0:
448,192,96765,128,0,96840:0:0:0:0:
192,192,96840,1,0,0:0:0:0:
320,192,96840,128,0,96914:0:0:0:0:
192,192,96914,1,0,0:0:0:0:
64,192,96914,1,0,0:0:0:0:
448,192,96914,1,0,0:0:0:0:
320,192,97062,1,0,0:0:0:0:
448,192,97062,1,0,0:0:0:0:
64,192,97062,1,0,0:0:0:0:
192,192,97211,128,0,97285:0:0:0:0:
64,192,97211,128,0,97285:0:0:0:0:
320,192,97285,128,0,97359:0:0:0:0:
448,192,97285,128,0,97359:0:0:0:0:
192,192,97359,128,0,97434:0:0:0:0:
64,192,97359,128,0,97434:0:0:0:0:
448,192,97434,1,0,0:0:0:0:
320,192,97434,128,0,97508:0:0:0:0:
192,192,97508,1,0,0:0:0:0:
64,192,97508,1,0,0:0:0:0:
448,192,97508,1,0,0:0:0:0:
320,192,97656,1,0,0:0:0:0:
448,192,97656,1,0,0:0:0:0:
64,192,97656,1,0,0:0:0:0:
448,192,97805,128,0,97879:0:0:0:0:
192,192,97805,128,0,97879:0:0:0:0:
320,192,97879,128,0,97953:0:0:0:0:
64,192,97879,128,0,97953:0:0:0:0:
448,192,97953,128,0,98028:0:0:0:0:
192,192,97953,128,0,98028:0:0:0:0:
64,192,98028,1,0,0:0:0:0:
320,192,98028,128,0,98102:0:0:0:0:
192,192,98102,128,0,98139:0:0:0:0:
64,192,98102,128,0,98176:0:0:0:0:
320,192,98139,128,0,98213:0:0:0:0:
448,192,98176,128,0,98250:0:0:0:0:
192,192,98213,128,0,98250:0:0:0:0:
64,192,98250,128,0,98288:0:0:0:0:
320,192,98288,128,0,98362:0:0:0:0:
448,192,98325,1,0,0:0:0:0:
192,192,98325,1,0,0:0:0:0:
64,192,98362,128,0,98399:0:0:0:0:
192,192,98399,128,0,98622:0:0:0:0:
320,192,98399,128,0,98622:0:0:0:0:
448,192,98399,128,0,98622:0:0:0:0:
64,192,98696,1,0,0:0:0:0:
192,192,98696,1,0,0:0:0:0:
320,192,98696,1,0,0:0:0:0:
448,192,98696,1,0,0:0:0:0:
320,192,98993,128,0,99216:0:0:0:0:
64,192,98993,128,0,99216:0:0:0:0:
192,192,98993,128,0,99216:0:0:0:0:
64,192,99290,1,0,0:0:0:0:
192,192,99290,1,0,0:0:0:0:
320,192,99290,1,0,0:0:0:0:
448,192,99290,1,0,0:0:0:0:
192,192,99439,128,0,99810:0:0:0:0:
320,192,99439,128,0,99810:0:0:0:0:
448,192,99439,128,0,99810:0:0:0:0:
192,192,99884,128,0,100033:0:0:0:0:
320,192,99884,128,0,100033:0:0:0:0:
448,192,99884,128,0,100033:0:0:0:0:
64,192,100107,128,0,100255:0:0:0:0:
192,192,100107,128,0,100255:0:0:0:0:
320,192,100107,128,0,100255:0:0:0:0:
320,192,100330,128,0,100404:0:0:0:0:
64,192,100330,128,0,100404:0:0:0:0:
192,192,100330,128,0,100404:0:0:0:0:
64,192,100478,128,0,100701:0:0:0:0:
192,192,100478,128,0,100701:0:0:0:0:
320,192,100478,128,0,100701:0:0:0:0:
448,192,100478,128,0,100701:0:0:0:0:
64,192,100775,128,0,100998:0:0:0:0:
320,192,100775,128,0,100998:0:0:0:0:
448,192,100775,128,0,100998:0:0:0:0:
64,192,101072,128,0,101147:0:0:0:0:
320,192,101072,128,0,101147:0:0:0:0:
448,192,101072,128,0,101147:0:0:0:0:
192,192,101221,128,0,101295:0:0:0:0:
64,192,101221,128,0,101295:0:0:0:0:
448,192,101221,128,0,101295:0:0:0:0:
320,192,101221,128,0,101295:0:0:0:0:
64,192,101369,128,0,101444:0:0:0:0:
320,192,101369,128,0,101444:0:0:0:0:
192,192,101444,128,0,101518:0:0:0:0:
448,192,101444,128,0,101518:0:0:0:0:
320,192,101518,128,0,101592:0:0:0:0:
64,192,101518,128,0,101592:0:0:0:0:
448,192,101592,128,0,101666:0:0:0:0:
192,192,101592,1,0,0:0:0:0:
320,192,101666,1,0,0:0:0:0:
192,192,101666,1,0,0:0:0:0:
64,192,101666,1,0,0:0:0:0:
192,192,101815,1,0,0:0:0:0:
320,192,101815,1,0,0:0:0:0:
448,192,101815,1,0,0:0:0:0:
448,192,101963,128,0,102038:0:0:0:0:
64,192,101963,128,0,102038:0:0:0:0:
192,192,102038,128,0,102112:0:0:0:0:
320,192,102038,128,0,102112:0:0:0:0:
448,192,102112,128,0,102186:0:0:0:0:
64,192,102112,128,0,102186:0:0:0:0:
320,192,102186,128,0,102260:0:0:0:0:
192,192,102186,1,0,0:0:0:0:
448,192,102260,1,0,0:0:0:0:
64,192,102260,1,0,0:0:0:0:
192,192,102260,1,0,0:0:0:0:
320,192,102409,1,0,0:0:0:0:
448,192,102409,1,0,0:0:0:0:
64,192,102409,1,0,0:0:0:0:
192,192,102557,128,0,102632:0:0:0:0:
64,192,102557,128,0,102632:0:0:0:0:
320,192,102632,128,0,102706:0:0:0:0:
448,192,102632,128,0,102706:0:0:0:0:
192,192,102706,128,0,102780:0:0:0:0:
64,192,102706,128,0,102780:0:0:0:0:
320,192,102780,128,0,102854:0:0:0:0:
448,192,102780,1,0,0:0:0:0:
448,192,102854,1,0,0:0:0:0:
192,192,102854,1,0,0:0:0:0:
64,192,102854,1,0,0:0:0:0:
320,192,102929,128,0,103003:0:0:0:0:
448,192,103003,128,0,103077:0:0:0:0:
192,192,103003,128,0,103077:0:0:0:0:
64,192,103077,128,0,103151:0:0:0:0:
320,192,103151,128,0,103250:0:0:0:0:
448,192,103151,128,0,103201:0:0:0:0:
192,192,103151,128,0,103201:0:0:0:0:
64,192,103201,128,0,103300:0:0:0:0:
192,192,103250,128,0,103350:0:0:0:0:
448,192,103300,128,0,103399:0:0:0:0:
320,192,103350,128,0,103399:0:0:0:0:
64,192,103399,128,0,103449:0:0:0:0:
192,192,103449,1,0,0:0:0:0:
448,192,103449,1,0,0:0:0:0:
320,192,103449,1,0,0:0:0:0:
320,192,103597,1,0,0:0:0:0:
448,192,103597,1,0,0:0:0:0:
192,192,103597,1,0,0:0:0:0:
192,192,103746,128,0,103845:0:0:0:0:
320,192,103746,128,0,103845:0:0:0:0:
64,192,103746,128,0,103845:0:0:0:0:
192,192,103894,128,0,103993:0:0:0:0:
320,192,103894,128,0,103993:0:0:0:0:
448,192,103894,128,0,103993:0:0:0:0:
64,192,104043,128,0,104142:0:0:0:0:
320,192,104043,128,0,104142:0:0:0:0:
448,192,104043,128,0,104142:0:0:0:0:
64,192,104191,128,0,104290:0:0:0:0:
192,192,104191,128,0,104290:0:0:0:0:
320,192,104241,128,0,104340:0:0:0:0:
448,192,104290,128,0,104389:0:0:0:0:
192,192,104340,128,0,104414:0:0:0:0:
64,192,104377,128,0,104451:0:0:0:0:
320,192,104414,128,0,104488:0:0:0:0:
448,192,104451,128,0,104525:0:0:0:0:
192,192,104488,128,0,104562:0:0:0:0:
64,192,104525,128,0,104600:0:0:0:0:
320,192,104562,1,0,0:0:0:0:
448,192,104600,1,0,0:0:0:0:
320,192,104637,128,0,104736:0:0:0:0:
192,192,104637,128,0,104686:0:0:0:0:
64,192,104637,128,0,104686:0:0:0:0:
448,192,104686,128,0,104736:0:0:0:0:
64,192,104736,128,0,104835:0:0:0:0:
192,192,104785,128,0,104884:0:0:0:0:
448,192,104785,128,0,104884:0:0:0:0:
320,192,104835,128,0,104884:0:0:0:0:
64,192,104884,128,0,104934:0:0:0:0:
320,192,104934,128,0,105008:0:0:0:0:
448,192,104934,128,0,105008:0:0:0:0:
192,192,104971,128,0,105045:0:0:0:0:
64,192,105008,128,0,105045:0:0:0:0:
320,192,105045,1,0,0:0:0:0:
448,192,105082,1,0,0:0:0:0:
192,192,105082,1,0,0:0:0:0:
64,192,105082,1,0,0:0:0:0:
320,192,105231,128,0,105305:0:0:0:0:
448,192,105231,128,0,105305:0:0:0:0:
192,192,105268,128,0,105342:0:0:0:0:
64,192,105305,128,0,105379:0:0:0:0:
448,192,105342,128,0,105416:0:0:0:0:
320,192,105379,128,0,105453:0:0:0:0:
192,192,105416,128,0,105491:0:0:0:0:
64,192,105453,128,0,105491:0:0:0:0:
448,192,105491,1,0,0:0:0:0:
64,192,105528,128,0,105577:0:0:0:0:
192,192,105528,128,0,105602:0:0:0:0:
320,192,105528,128,0,105627:0:0:0:0:
448,192,105577,128,0,105627:0:0:0:0:
64,192,105627,128,0,105726:0:0:0:0:
192,192,105676,128,0,105775:0:0:0:0:
448,192,105676,128,0,105775:0:0:0:0:
320,192,105726,128,0,105825:0:0:0:0:
64,192,105775,128,0,105825:0:0:0:0:
192,192,105825,128,0,105874:0:0:0:0:
448,192,105825,128,0,105973:0:0:0:0:
320,192,105874,128,0,105973:0:0:0:0:
192,192,105924,128,0,106023:0:0:0:0:
64,192,105973,128,0,106072:0:0:0:0:
448,192,106023,128,0,106072:0:0:0:0:
320,192,106072,128,0,106122:0:0:0:0:
448,192,106122,1,0,0:0:0:0:
64,192,106122,1,0,0:0:0:0:
192,192,106122,1,0,0:0:0:0:
192,192,106270,128,0,106345:0:0:0:0:
64,192,106270,128,0,106345:0:0:0:0:
320,192,106345,128,0,106493:0:0:0:0:
448,192,106345,128,0,106493:0:0:0:0:
192,192,106419,128,0,106493:0:0:0:0:
64,192,106419,128,0,106493:0:0:0:0:
192,192,106567,128,0,106642:0:0:0:0:
64,192,106567,128,0,106642:0:0:0:0:
320,192,106642,1,0,0:0:0:0:
448,192,106642,1,0,0:0:0:0:
448,192,106716,1,0,0:0:0:0:
192,192,106716,1,0,0:0:0:0:
64,192,106716,1,0,0:0:0:0:
320,192,106864,128,0,106939:0:0:0:0:
448,192,106864,128,0,106939:0:0:0:0:
192,192,106939,128,0,107087:0:0:0:0:
64,192,106939,128,0,107087:0:0:0:0:
320,192,107013,128,0,107087:0:0:0:0:
448,192,107013,128,0,107087:0:0:0:0:
448,192,107161,128,0,107236:0:0:0:0:
320,192,107161,128,0,107236:0:0:0:0:
192,192,107236,1,0,0:0:0:0:
64,192,107236,1,0,0:0:0:0:
64,192,107310,1,0,0:0:0:0:
320,192,107310,1,0,0:0:0:0:
448,192,107310,1,0,0:0:0:0:
448,192,107458,128,0,107533:0:0:0:0:
64,192,107458,128,0,107533:0:0:0:0:
192,192,107533,128,0,107681:0:0:0:0:
320,192,107533,128,0,107681:0:0:0:0:
448,192,107607,128,0,107681:0:0:0:0:
64,192,107607,128,0,107681:0:0:0:0:
64,192,107755,128,0,107830:0:0:0:0:
448,192,107755,128,0,107830:0:0:0:0:
320,192,107830,1,0,0:0:0:0:
192,192,107830,1,0,0:0:0:0:
192,192,107904,1,0,0:0:0:0:
64,192,107904,1,0,0:0:0:0:
448,192,107904,1,0,0:0:0:0:
320,192,108052,1,0,0:0:0:0:
64,192,108052,1,0,0:0:0:0:
192,192,108201,1,0,0:0:0:0:
448,192,108201,1,0,0:0:0:0:
320,192,108201,1,0,0:0:0:0:
448,192,108350,1,0,0:0:0:0:
64,192,108350,1,0,0:0:0:0:
320,192,108498,1,0,0:0:0:0:
448,192,108498,1,0,0:0:0:0:
64,192,108498,1,0,0:0:0:0:
192,192,108647,1,0,0:0:0:0:
320,192,108647,1,0,0:0:0:0:
64,192,108721,1,0,0:0:0:0:
320,192,108721,1,0,0:0:0:0:
448,192,108721,1,0,0:0:0:0:
192,192,108795,1,0,0:0:0:0:
64,192,108869,1,0,0:0:0:0:
448,192,108869,1,0,0:0:0:0:
320,192,108944,1,0,0:0:0:0:
448,192,108944,1,0,0:0:0:0:
192,192,108944,1,0,0:0:0:0:
64,192,109018,1,0,0:0:0:0:
192,192,109092,1,0,0:0:0:0:
448,192,109092,1,0,0:0:0:0:
320,192,109166,1,0,0:0:0:0:
448,192,109241,1,0,0:0:0:0:
192,192,109241,1,0,0:0:0:0:
64,192,109315,1,0,0:0:0:0:
448,192,109389,128,0,109463:0:0:0:0:
320,192,109426,128,0,109500:0:0:0:0:
192,192,109463,128,0,109538:0:0:0:0:
64,192,109500,128,0,109575:0:0:0:0:
448,192,109538,128,0,109612:0:0:0:0:
320,192,109575,128,0,109649:0:0:0:0:
192,192,109612,128,0,109686:0:0:0:0:
64,192,109649,128,0,109723:0:0:0:0:
448,192,109835,1,0,0:0:0:0:
320,192,109909,1,0,0:0:0:0:
320,192,110132,1,0,0:0:0:0:
448,192,110280,128,0,110503:0:0:0:0:
192,192,110280,128,0,110354:0:0:0:0:
64,192,110280,128,0,110354:0:0:0:0:
320,192,110354,128,0,110429:0:0:0:0:
192,192,110429,128,0,110503:0:0:0:0:
64,192,110429,128,0,110503:0:0:0:0:
320,192,110503,128,0,110577:0:0:0:0:
448,192,110577,128,0,110651:0:0:0:0:
192,192,110577,128,0,110726:0:0:0:0:
64,192,110577,128,0,110874:0:0:0:0:
320,192,110651,128,0,110800:0:0:0:0:
448,192,110726,128,0,110800:0:0:0:0:
192,192,110800,128,0,110874:0:0:0:0:
448,192,110874,128,0,110949:0:0:0:0:
320,192,110874,128,0,110949:0:0:0:0:
192,192,110924,128,0,111023:0:0:0:0:
64,192,110973,128,0,111072:0:0:0:0:
320,192,111023,128,0,111097:0:0:0:0:
448,192,111023,128,0,111097:0:0:0:0:
192,192,111097,128,0,111171:0:0:0:0:
64,192,111171,128,0,111246:0:0:0:0:
320,192,111171,128,0,111320:0:0:0:0:
448,192,111171,128,0,111246:0:0:0:0:
192,192,111246,128,0,111468:0:0:0:0:
64,192,111320,128,0,111394:0:0:0:0:
448,192,111320,128,0,111394:0:0:0:0:
320,192,111394,128,0,111543:0:0:0:0:
448,192,111468,128,0,111543:0:0:0:0:
64,192,111468,128,0,111617:0:0:0:0:
192,192,111543,128,0,111617:0:0:0:0:
320,192,111617,128,0,111691:0:0:0:0:
448,192,111617,128,0,111691:0:0:0:0:
192,192,111666,128,0,111716:0:0:0:0:
64,192,111716,128,0,111765:0:0:0:0:
192,192,111765,128,0,111815:0:0:0:0:
320,192,111765,128,0,111840:0:0:0:0:
448,192,111765,128,0,111840:0:0:0:0:
64,192,111815,128,0,111914:0:0:0:0:
192,192,111864,128,0,111914:0:0:0:0:
320,192,111914,128,0,111988:0:0:0:0:
448,192,111914,128,0,111988:0:0:0:0:
192,192,111988,128,0,112062:0:0:0:0:
64,192,111988,128,0,112062:0:0:0:0:
320,192,112062,128,0,112137:0:0:0:0:
448,192,112062,128,0,112137:0:0:0:0:
64,192,112112,128,0,112260:0:0:0:0:
192,192,112161,128,0,112260:0:0:0:0:
448,192,112211,128,0,112285:0:0:0:0:
320,192,112211,128,0,112285:0:0:0:0:
448,192,112359,1,0,0:0:0:0:
192,192,112359,1,0,0:0:0:0:
64,192,112359,1,0,0:0:0:0:
192,192,112434,1,0,0:0:0:0:
64,192,112434,1,0,0:0:0:0:
320,192,112508,1,0,0:0:0:0:
448,192,112508,1,0,0:0:0:0:
320,192,112582,1,0,0:0:0:0:
448,192,112582,1,0,0:0:0:0:
448,192,112656,1,0,0:0:0:0:
192,192,112656,128,0,112731:0:0:0:0:
64,192,112656,128,0,112731:0:0:0:0:
320,192,112706,128,0,112805:0:0:0:0:
448,192,112755,128,0,112854:0:0:0:0:
192,192,112805,128,0,112879:0:0:0:0:
64,192,112805,128,0,112879:0:0:0:0:
320,192,112854,128,0,112953:0:0:0:0:
448,192,112904,128,0,113003:0:0:0:0:
64,192,112953,128,0,113028:0:0:0:0:
192,192,112991,128,0,113065:0:0:0:0:
320,192,113028,128,0,113102:0:0:0:0:
448,192,113065,128,0,113139:0:0:0:0:
192,192,113102,128,0,113176:0:0:0:0:
64,192,113139,128,0,113213:0:0:0:0:
320,192,113176,128,0,113250:0:0:0:0:
192,192,113213,128,0,113288:0:0:0:0:
64,192,113250,128,0,113325:0:0:0:0:
448,192,113250,128,0,113325:0:0:0:0:
320,192,113288,128,0,113362:0:0:0:0:
192,192,113325,128,0,113399:0:0:0:0:
64,192,113362,128,0,113436:0:0:0:0:
448,192,113399,128,0,113473:0:0:0:0:
320,192,113436,128,0,113510:0:0:0:0:
192,192,113473,128,0,113510:0:0:0:0:
448,192,113510,1,0,0:0:0:0:
320,192,113548,128,0,113659:0:0:0:0:
192,192,113548,128,0,113696:0:0:0:0:
64,192,113548,128,0,113659:0:0:0:0:
448,192,113696,128,0,113733:0:0:0:0:
320,192,113733,128,0,113770:0:0:0:0:
64,192,113733,128,0,113770:0:0:0:0:
192,192,113770,128,0,113807:0:0:0:0:
448,192,113807,128,0,113845:0:0:0:0:
320,192,113845,128,0,113882:0:0:0:0:
64,192,113845,128,0,113882:0:0:0:0:
192,192,113882,128,0,113919:0:0:0:0:
448,192,113919,128,0,113956:0:0:0:0:
64,192,113956,128,0,113993:0:0:0:0:
320,192,113956,128,0,113993:0:0:0:0:
192,192,113993,128,0,114030:0:0:0:0:
64,192,114142,1,0,0:0:0:0:
448,192,114142,128,0,114216:0:0:0:0:
320,192,114179,128,0,114253:0:0:0:0:
192,192,114216,128,0,114290:0:0:0:0:
320,192,114290,128,0,114439:0:0:0:0:
192,192,114327,128,0,114476:0:0:0:0:
64,192,114364,128,0,114513:0:0:0:0:
448,192,114439,128,0,114513:0:0:0:0:
320,192,114476,128,0,114550:0:0:0:0:
192,192,114513,128,0,114587:0:0:0:0:
320,192,114587,128,0,114661:0:0:0:0:
192,192,114624,128,0,114699:0:0:0:0:
64,192,114661,128,0,114736:0:0:0:0:
192,192,114736,1,0,0:0:0:0:
448,192,114736,1,0,0:0:0:0:
320,192,114736,1,0,0:0:0:0:
448,192,114884,1,0,0:0:0:0:
320,192,114884,1,0,0:0:0:0:
192,192,114884,1,0,0:0:0:0:
64,192,115033,128,0,115107:0:0:0:0:
192,192,115070,128,0,115144:0:0:0:0:
320,192,115107,128,0,115181:0:0:0:0:
448,192,115144,128,0,115218:0:0:0:0:
64,192,115181,128,0,115255:0:0:0:0:
192,192,115218,128,0,115293:0:0:0:0:
320,192,115255,128,0,115330:0:0:0:0:
448,192,115293,128,0,115367:0:0:0:0:
64,192,115330,128,0,115404:0:0:0:0:
192,192,115367,128,0,115441:0:0:0:0:
320,192,115404,128,0,115478:0:0:0:0:
448,192,115441,128,0,115515:0:0:0:0:
64,192,115478,128,0,115552:0:0:0:0:
192,192,115515,128,0,115590:0:0:0:0:
320,192,115552,128,0,115627:0:0:0:0:
448,192,115590,128,0,115664:0:0:0:0:
64,192,115627,128,0,115701:0:0:0:0:
192,192,115627,128,0,115701:0:0:0:0:
320,192,115676,128,0,115775:0:0:0:0:
448,192,115726,128,0,115825:0:0:0:0:
192,192,115775,128,0,115850:0:0:0:0:
64,192,115775,128,0,115850:0:0:0:0:
320,192,115850,128,0,115924:0:0:0:0:
448,192,115850,1,0,0:0:0:0:
192,192,115924,128,0,116072:0:0:0:0:
64,192,115924,128,0,115998:0:0:0:0:
448,192,115924,128,0,115998:0:0:0:0:
320,192,115998,128,0,116221:0:0:0:0:
448,192,116072,128,0,116147:0:0:0:0:
64,192,116072,128,0,116147:0:0:0:0:
192,192,116147,128,0,116295:0:0:0:0:
64,192,116221,128,0,116295:0:0:0:0:
448,192,116221,128,0,116369:0:0:0:0:
320,192,116295,128,0,116369:0:0:0:0:
192,192,116369,128,0,116444:0:0:0:0:
64,192,116369,128,0,116444:0:0:0:0:
320,192,116419,128,0,116468:0:0:0:0:
448,192,116468,128,0,116518:0:0:0:0:
320,192,116518,128,0,116567:0:0:0:0:
192,192,116518,128,0,116592:0:0:0:0:
64,192,116518,128,0,116592:0:0:0:0:
448,192,116567,128,0,116666:0:0:0:0:
320,192,116617,128,0,116666:0:0:0:0:
192,192,116666,128,0,116741:0:0:0:0:
64,192,116666,128,0,116741:0:0:0:0:
320,192,116741,128,0,116815:0:0:0:0:
448,192,116741,128,0,116815:0:0:0:0:
192,192,116815,128,0,116889:0:0:0:0:
64,192,116815,128,0,116889:0:0:0:0:
448,192,116864,128,0,117013:0:0:0:0:
320,192,116914,128,0,117013:0:0:0:0:
64,192,116963,128,0,117038:0:0:0:0:
192,192,116963,128,0,117038:0:0:0:0:
64,192,117112,1,0,0:0:0:0:
320,192,117112,1,0,0:0:0:0:
448,192,117112,1,0,0:0:0:0:
320,192,117186,1,0,0:0:0:0:
448,192,117186,1,0,0:0:0:0:
192,192,117260,1,0,0:0:0:0:
64,192,117260,1,0,0:0:0:0:
192,192,117335,1,0,0:0:0:0:
64,192,117335,1,0,0:0:0:0:
64,192,117409,1,0,0:0:0:0:
320,192,117409,128,0,117483:0:0:0:0:
448,192,117409,128,0,117483:0:0:0:0:
192,192,117458,128,0,117557:0:0:0:0:
64,192,117508,128,0,117607:0:0:0:0:
320,192,117557,128,0,117632:0:0:0:0:
448,192,117557,128,0,117632:0:0:0:0:
192,192,117607,128,0,117706:0:0:0:0:
64,192,117656,128,0,117755:0:0:0:0:
448,192,117706,128,0,117780:0:0:0:0:
320,192,117743,128,0,117817:0:0:0:0:
192,192,117780,128,0,117854:0:0:0:0:
64,192,117817,128,0,117892:0:0:0:0:
320,192,117854,128,0,117929:0:0:0:0:
448,192,117892,128,0,117966:0:0:0:0:
192,192,117929,128,0,118003:0:0:0:0:
320,192,117966,128,0,118040:0:0:0:0:
448,192,118003,128,0,118077:0:0:0:0:
64,192,118003,128,0,118077:0:0:0:0:
192,192,118040,128,0,118114:0:0:0:0:
320,192,118077,128,0,118151:0:0:0:0:
448,192,118114,128,0,118189:0:0:0:0:
64,192,118151,128,0,118226:0:0:0:0:
192,192,118189,128,0,118263:0:0:0:0:
320,192,118226,128,0,118263:0:0:0:0:
64,192,118263,1,0,0:0:0:0:
192,192,118300,128,0,118411:0:0:0:0:
320,192,118300,128,0,118449:0:0:0:0:
448,192,118300,128,0,118411:0:0:0:0:
64,192,118449,128,0,118486:0:0:0:0:
192,192,118486,128,0,118523:0:0:0:0:
448,192,118486,128,0,118523:0:0:0:0:
320,192,118523,128,0,118560:0:0:0:0:
64,192,118560,128,0,118597:0:0:0:0:
192,192,118597,128,0,118634:0:0:0:0:
448,192,118597,128,0,118634:0:0:0:0:
320,192,118634,128,0,118671:0:0:0:0:
64,192,118671,128,0,118708:0:0:0:0:
448,192,118708,128,0,118746:0:0:0:0:
192,192,118708,128,0,118746:0:0:0:0:
320,192,118746,128,0,118783:0:0:0:0:
448,192,118894,1,0,0:0:0:0:
64,192,118894,128,0,118968:0:0:0:0:
192,192,118931,128,0,119005:0:0:0:0:
320,192,118968,128,0,119043:0:0:0:0:
192,192,119043,128,0,119191:0:0:0:0:
320,192,119080,128,0,119228:0:0:0:0:
448,192,119117,128,0,119265:0:0:0:0:
64,192,119191,128,0,119265:0:0:0:0:
192,192,119228,128,0,119302:0:0:0:0:
320,192,119265,128,0,119340:0:0:0:0:
192,192,119340,128,0,119414:0:0:0:0:
320,192,119377,128,0,119451:0:0:0:0:
448,192,119414,128,0,119488:0:0:0:0:
320,192,119488,1,0,0:0:0:0:
64,192,119488,1,0,0:0:0:0:
192,192,119488,1,0,0:0:0:0:
64,192,119637,1,0,0:0:0:0:
192,192,119637,1,0,0:0:0:0:
320,192,119637,1,0,0:0:0:0:
64,192,119785,128,0,119884:0:0:0:0:
192,192,119835,128,0,119934:0:0:0:0:
320,192,119884,128,0,119983:0:0:0:0:
448,192,119934,128,0,120033:0:0:0:0:
64,192,119983,1,0,0:0:0:0:
64,192,120082,128,0,120156:0:0:0:0:
192,192,120082,128,0,120231:0:0:0:0:
320,192,120082,128,0,120231:0:0:0:0:
448,192,120082,128,0,120156:0:0:0:0:
64,192,120231,128,0,120305:0:0:0:0:
448,192,120231,128,0,120379:0:0:0:0:
320,192,120305,128,0,120379:0:0:0:0:
192,192,120379,128,0,120453:0:0:0:0:
64,192,120379,128,0,120453:0:0:0:0:
320,192,120429,128,0,120478:0:0:0:0:
448,192,120478,128,0,120577:0:0:0:0:
320,192,120528,128,0,120602:0:0:0:0:
192,192,120528,128,0,120602:0:0:0:0:
64,192,120528,128,0,120602:0:0:0:0:
192,192,120676,128,0,120750:0:0:0:0:
320,192,120676,128,0,120750:0:0:0:0:
448,192,120676,128,0,120750:0:0:0:0:
64,192,120726,128,0,120874:0:0:0:0:
192,192,120775,128,0,120825:0:0:0:0:
320,192,120825,128,0,120899:0:0:0:0:
448,192,120825,128,0,120899:0:0:0:0:
192,192,120899,128,0,120973:0:0:0:0:
64,192,120973,128,0,121048:0:0:0:0:
320,192,120973,128,0,121048:0:0:0:0:
448,192,120973,128,0,121122:0:0:0:0:
192,192,121048,128,0,121196:0:0:0:0:
64,192,121122,128,0,121196:0:0:0:0:
320,192,121122,128,0,121196:0:0:0:0:
448,192,121196,128,0,121270:0:0:0:0:
320,192,121270,128,0,121345:0:0:0:0:
64,192,121270,128,0,121345:0:0:0:0:
192,192,121270,128,0,121419:0:0:0:0:
448,192,121345,128,0,121419:0:0:0:0:
320,192,121419,128,0,121493:0:0:0:0:
64,192,121419,128,0,121493:0:0:0:0:
448,192,121493,128,0,121567:0:0:0:0:
192,192,121493,128,0,121567:0:0:0:0:
320,192,121567,128,0,121642:0:0:0:0:
64,192,121567,128,0,121642:0:0:0:0:
192,192,121642,1,0,0:0:0:0:
448,192,121642,128,0,121864:0:0:0:0:
320,192,121716,128,0,121790:0:0:0:0:
192,192,121716,128,0,121790:0:0:0:0:
64,192,121716,128,0,121790:0:0:0:0:
320,192,121864,1,0,0:0:0:0:
192,192,121864,128,0,121939:0:0:0:0:
64,192,121864,128,0,121939:0:0:0:0:
320,192,121939,128,0,122013:0:0:0:0:
448,192,121939,128,0,122013:0:0:0:0:
192,192,122013,128,0,122087:0:0:0:0:
64,192,122013,128,0,122087:0:0:0:0:
320,192,122062,128,0,122112:0:0:0:0:
448,192,122112,128,0,122161:0:0:0:0:
320,192,122161,128,0,122236:0:0:0:0:
192,192,122161,128,0,122310:0:0:0:0:
64,192,122161,128,0,122236:0:0:0:0:
448,192,122236,128,0,122384:0:0:0:0:
320,192,122310,128,0,122384:0:0:0:0:
64,192,122310,128,0,122384:0:0:0:0:
192,192,122384,128,0,122458:0:0:0:0:
320,192,122458,128,0,122533:0:0:0:0:
448,192,122458,128,0,122607:0:0:0:0:
64,192,122458,128,0,122533:0:0:0:0:
192,192,122533,128,0,122755:0:0:0:0:
320,192,122607,128,0,122681:0:0:0:0:
64,192,122607,128,0,122681:0:0:0:0:
448,192,122681,128,0,122830:0:0:0:0:
320,192,122755,128,0,122830:0:0:0:0:
64,192,122755,128,0,122830:0:0:0:0:
192,192,122830,128,0,122904:0:0:0:0:
320,192,122904,128,0,122978:0:0:0:0:
448,192,122904,128,0,122978:0:0:0:0:
64,192,122904,128,0,122978:0:0:0:0:
192,192,122978,1,0,0:0:0:0:
320,192,123052,1,0,0:0:0:0:
64,192,123052,1,0,0:0:0:0:
448,192,123052,1,0,0:0:0:0:
448,192,123201,128,0,123275:0:0:0:0:
320,192,123238,128,0,123312:0:0:0:0:
192,192,123275,128,0,123350:0:0:0:0:
64,192,123312,128,0,123387:0:0:0:0:
448,192,123350,128,0,123424:0:0:0:0:
320,192,123387,128,0,123461:0:0:0:0:
192,192,123424,128,0,123498:0:0:0:0:
64,192,123461,128,0,123535:0:0:0:0:
448,192,123498,128,0,123721:0:0:0:0:
320,192,123535,128,0,123684:0:0:0:0:
192,192,123572,128,0,123647:0:0:0:0:
64,192,123647,128,0,123721:0:0:0:0:
192,192,123684,128,0,123758:0:0:0:0:
320,192,123721,128,0,123795:0:0:0:0:
64,192,123795,128,0,124018:0:0:0:0:
192,192,123832,128,0,123981:0:0:0:0:
320,192,123869,128,0,123944:0:0:0:0:
448,192,123944,128,0,124018:0:0:0:0:
320,192,123981,128,0,124055:0:0:0:0:
192,192,124018,128,0,124092:0:0:0:0:
448,192,124092,128,0,124166:0:0:0:0:
320,192,124129,128,0,124203:0:0:0:0:
192,192,124166,128,0,124241:0:0:0:0:
64,192,124241,1,0,0:0:0:0:
320,192,124241,1,0,0:0:0:0:
448,192,124241,1,0,0:0:0:0:
192,192,124389,1,0,0:0:0:0:
64,192,124389,1,0,0:0:0:0:
64,192,124538,1,0,0:0:0:0:
192,192,124538,1,0,0:0:0:0:
320,192,124538,1,0,0:0:0:0:
448,192,124538,1,0,0:0:0:0:
448,192,124686,1,0,0:0:0:0:
64,192,124835,1,0,0:0:0:0:
192,192,124835,1,0,0:0:0:0:
320,192,124835,1,0,0:0:0:0:
448,192,124835,1,0,0:0:0:0:
320,192,124983,1,0,0:0:0:0:
64,192,125132,1,0,0:0:0:0:
192,192,125132,1,0,0:0:0:0:
320,192,125132,1,0,0:0:0:0:
448,192,125132,1,0,0:0:0:0:
192,192,125280,1,0,0:0:0:0:
64,192,125354,1,0,0:0:0:0:
64,192,125429,1,0,0:0:0:0:
192,192,125429,1,0,0:0:0:0:
320,192,125429,1,0,0:0:0:0:
448,192,125429,1,0,0:0:0:0:
448,192,125503,1,0,0:0:0:0:
320,192,125577,1,0,0:0:0:0:
320,192,125726,1,0,0:0:0:0:
448,192,125726,1,0,0:0:0:0:
192,192,125726,1,0,0:0:0:0:
64,192,125726,1,0,0:0:0:0:
192,192,125874,1,0,0:0:0:0:
64,192,126023,1,0,0:0:0:0:
192,192,126023,1,0,0:0:0:0:
320,192,126023,1,0,0:0:0:0:
448,192,126023,1,0,0:0:0:0:
320,192,126171,1,0,0:0:0:0:
448,192,126246,1,0,0:0:0:0:
448,192,126320,1,0,0:0:0:0:
320,192,126320,1,0,0:0:0:0:
192,192,126320,1,0,0:0:0:0:
64,192,126320,1,0,0:0:0:0:
64,192,126394,1,0,0:0:0:0:
192,192,126468,1,0,0:0:0:0:
320,192,126617,1,0,0:0:0:0:
448,192,126617,1,0,0:0:0:0:
64,192,126617,1,0,0:0:0:0:
192,192,126617,1,0,0:0:0:0:
64,192,126765,1,0,0:0:0:0:
192,192,126914,1,0,0:0:0:0:
320,192,126914,1,0,0:0:0:0:
448,192,126914,1,0,0:0:0:0:
192,192,127062,1,0,0:0:0:0:
320,192,127062,1,0,0:0:0:0:
448,192,127062,1,0,0:0:0:0:
64,192,127211,1,0,0:0:0:0:
192,192,127211,1,0,0:0:0:0:
320,192,127211,1,0,0:0:0:0:
448,192,127211,1,0,0:0:0:0:
320,192,127359,1,0,0:0:0:0:
192,192,127359,1,0,0:0:0:0:
64,192,127359,1,0,0:0:0:0:
64,192,127508,1,0,0:0:0:0:
192,192,127508,1,0,0:0:0:0:
320,192,127508,1,0,0:0:0:0:
192,192,127656,1,0,0:0:0:0:
64,192,127656,1,0,0:0:0:0:
320,192,127656,1,0,0:0:0:0:
64,192,127805,1,0,0:0:0:0:
192,192,127805,1,0,0:0:0:0:
448,192,127805,1,0,0:0:0:0:
320,192,127805,1,0,0:0:0:0:
320,192,127953,1,0,0:0:0:0:
448,192,127953,1,0,0:0:0:0:
64,192,127953,1,0,0:0:0:0:
320,192,128102,1,0,0:0:0:0:
448,192,128102,1,0,0:0:0:0:
192,192,128176,1,0,0:0:0:0:
64,192,128176,1,0,0:0:0:0:
320,192,128250,1,0,0:0:0:0:
448,192,128250,1,0,0:0:0:0:
192,192,128325,1,0,0:0:0:0:
64,192,128325,1,0,0:0:0:0:
320,192,128399,1,0,0:0:0:0:
448,192,128399,1,0,0:0:0:0:
192,192,128399,1,0,0:0:0:0:
64,192,128399,1,0,0:0:0:0:
64,192,128548,1,0,0:0:0:0:
192,192,128548,1,0,0:0:0:0:
64,192,128622,1,0,0:0:0:0:
192,192,128622,1,0,0:0:0:0:
320,192,128622,1,0,0:0:0:0:
448,192,128622,1,0,0:0:0:0:
320,192,128770,1,0,0:0:0:0:
448,192,128770,1,0,0:0:0:0:
448,192,128845,1,0,0:0:0:0:
320,192,128845,1,0,0:0:0:0:
192,192,128845,1,0,0:0:0:0:
64,192,128845,1,0,0:0:0:0:
192,192,128993,1,0,0:0:0:0:
64,192,128993,1,0,0:0:0:0:
64,192,129067,1,0,0:0:0:0:
192,192,129067,1,0,0:0:0:0:
320,192,129067,1,0,0:0:0:0:
448,192,129067,1,0,0:0:0:0:
320,192,129142,1,0,0:0:0:0:
448,192,129142,1,0,0:0:0:0:
192,192,129216,1,0,0:0:0:0:
64,192,129216,1,0,0:0:0:0:
320,192,129290,1,0,0:0:0:0:
448,192,129290,1,0,0:0:0:0:
192,192,129290,1,0,0:0:0:0:
64,192,129290,1,0,0:0:0:0:
448,192,130033,128,0,130181:0:0:0:0:
64,192,130478,128,0,130552:0:0:0:0:
192,192,130924,128,0,130998:0:0:0:0:
320,192,131666,128,0,131741:0:0:0:0:
192,192,132112,128,0,132186:0:0:0:0:
320,192,132854,128,0,132929:0:0:0:0:
64,192,133300,128,0,134043:0:0:0:0:
448,192,134043,128,0,134117:0:0:0:0:
320,192,134080,128,0,134154:0:0:0:0:
192,192,134142,128,0,134241:0:0:0:0:
64,192,134191,128,0,134290:0:0:0:0:
448,192,134265,128,0,134340:0:0:0:0:
320,192,134340,128,0,134414:0:0:0:0:
448,192,134637,128,0,134711:0:0:0:0:
192,192,135231,128,0,135305:0:0:0:0:
320,192,135676,128,0,135750:0:0:0:0:
64,192,136419,128,0,136493:0:0:0:0:
448,192,136864,128,0,136939:0:0:0:0:
192,192,137607,128,0,137681:0:0:0:0:
320,192,138052,128,0,138795:0:0:0:0:
64,192,138795,128,0,138869:0:0:0:0:
192,192,138832,128,0,138906:0:0:0:0:
320,192,138894,128,0,138993:0:0:0:0:
448,192,138944,128,0,139043:0:0:0:0:
64,192,139018,128,0,139092:0:0:0:0:
192,192,139092,128,0,139166:0:0:0:0:
320,192,139389,128,0,139463:0:0:0:0:
448,192,139983,128,0,140057:0:0:0:0:
192,192,140429,128,0,140503:0:0:0:0:
320,192,141171,128,0,141246:0:0:0:0:
64,192,141617,128,0,141691:0:0:0:0:
192,192,142359,128,0,142434:0:0:0:0:
448,192,142805,128,0,143548:0:0:0:0:
192,192,143548,128,0,143622:0:0:0:0:
64,192,143585,128,0,143659:0:0:0:0:
448,192,143647,128,0,143746:0:0:0:0:
320,192,143696,128,0,143795:0:0:0:0:
192,192,143770,128,0,143845:0:0:0:0:
64,192,143845,128,0,143919:0:0:0:0:
320,192,144142,128,0,144216:0:0:0:0:
192,192,144736,128,0,144810:0:0:0:0:
448,192,145181,128,0,145255:0:0:0:0:
320,192,145627,128,0,145701:0:0:0:0:
192,192,146221,128,0,146295:0:0:0:0:
64,192,146815,128,0,146889:0:0:0:0:
448,192,147112,128,0,147211:0:0:0:0:
320,192,147161,128,0,147260:0:0:0:0:
192,192,147211,128,0,147310:0:0:0:0:
64,192,147260,128,0,147359:0:0:0:0:
320,192,147310,128,0,147409:0:0:0:0:
192,192,147359,128,0,147458:0:0:0:0:
448,192,147409,128,0,147508:0:0:0:0:
320,192,147458,128,0,147557:0:0:0:0:
192,192,147508,128,0,147607:0:0:0:0:
64,192,147557,128,0,147656:0:0:0:0:
320,192,147607,128,0,147706:0:0:0:0:
192,192,147656,128,0,147755:0:0:0:0:
448,192,147706,128,0,147805:0:0:0:0:
320,192,147755,128,0,147854:0:0:0:0:
192,192,147805,128,0,147904:0:0:0:0:
64,192,147854,128,0,147953:0:0:0:0:
320,192,147904,128,0,148003:0:0:0:0:
192,192,147953,128,0,148052:0:0:0:0:
448,192,148003,128,0,148102:0:0:0:0:
320,192,148052,128,0,148151:0:0:0:0:
192,192,148102,128,0,148201:0:0:0:0:
64,192,148151,128,0,148250:0:0:0:0:
320,192,148201,128,0,148350:0:0:0:0:
192,192,148250,128,0,148350:0:0:0:0:
64,192,148300,128,0,148350:0:0:0:0:
448,192,148300,128,0,148350:0:0:0:0:
320,192,148894,128,0,148968:0:0:0:0:
64,192,149488,128,0,149562:0:0:0:0:
64,192,149934,128,0,150008:0:0:0:0:
448,192,150676,128,0,150750:0:0:0:0:
192,192,151122,128,0,151196:0:0:0:0:
320,192,151864,128,0,151939:0:0:0:0:
64,192,152310,128,0,153052:0:0:0:0:
320,192,153052,128,0,153275:0:0:0:0:
448,192,153052,128,0,153275:0:0:0:0:
320,192,153350,128,0,153647:0:0:0:0:
448,192,153350,128,0,153647:0:0:0:0:
192,192,153647,128,0,153721:0:0:0:0:
320,192,154241,128,0,154315:0:0:0:0:
192,192,154686,128,0,154760:0:0:0:0:
448,192,155429,128,0,155503:0:0:0:0:
64,192,155874,128,0,155949:0:0:0:0:
192,192,156617,128,0,156691:0:0:0:0:
320,192,157062,128,0,157137:0:0:0:0:
192,192,157805,1,0,0:0:0:0:
64,192,157805,1,0,0:0:0:0:
320,192,158399,128,0,158473:0:0:0:0:
64,192,158399,1,0,0:0:0:0:
192,192,158399,1,0,0:0:0:0:
448,192,158993,128,0,159067:0:0:0:0:
192,192,158993,1,0,0:0:0:0:
64,192,158993,1,0,0:0:0:0:
320,192,159439,128,0,159513:0:0:0:0:
192,192,159587,1,0,0:0:0:0:
64,192,159587,1,0,0:0:0:0:
320,192,160181,128,0,160255:0:0:0:0:
192,192,160181,1,0,0:0:0:0:
64,192,160181,1,0,0:0:0:0:
448,192,160627,128,0,160701:0:0:0:0:
192,192,160775,1,0,0:0:0:0:
64,192,160775,1,0,0:0:0:0:
192,192,161369,1,0,0:0:0:0:
64,192,161369,1,0,0:0:0:0:
320,192,161369,128,0,161444:0:0:0:0:
448,192,161815,128,0,161889:0:0:0:0:
192,192,161963,1,0,0:0:0:0:
64,192,161963,1,0,0:0:0:0:
192,192,162557,1,0,0:0:0:0:
64,192,162557,1,0,0:0:0:0:
64,192,162854,1,0,0:0:0:0:
192,192,162854,1,0,0:0:0:0:
320,192,163151,1,0,0:0:0:0:
448,192,163151,1,0,0:0:0:0:
320,192,163449,1,0,0:0:0:0:
448,192,163449,1,0,0:0:0:0:
448,192,163746,1,0,0:0:0:0:
64,192,163746,1,0,0:0:0:0:
192,192,163894,1,0,0:0:0:0:
320,192,163894,1,0,0:0:0:0:
64,192,164043,1,0,0:0:0:0:
448,192,164043,1,0,0:0:0:0:
64,192,164191,1,0,0:0:0:0:
448,192,164191,1,0,0:0:0:0:
320,192,164340,1,0,0:0:0:0:
192,192,164340,1,0,0:0:0:0:
320,192,164488,1,0,0:0:0:0:
192,192,164488,1,0,0:0:0:0:
64,192,164637,1,0,0:0:0:0:
192,192,164637,1,0,0:0:0:0:
64,192,164785,1,0,0:0:0:0:
192,192,164785,1,0,0:0:0:0:
320,192,164934,1,0,0:0:0:0:
448,192,164934,1,0,0:0:0:0:
192,192,165008,1,0,0:0:0:0:
64,192,165008,1,0,0:0:0:0:
320,192,165082,1,0,0:0:0:0:
448,192,165082,1,0,0:0:0:0:
64,192,165156,1,0,0:0:0:0:
192,192,165156,1,0,0:0:0:0:
320,192,165231,1,0,0:0:0:0:
448,192,165231,1,0,0:0:0:0:
192,192,165305,1,0,0:0:0:0:
64,192,165305,1,0,0:0:0:0:
320,192,165379,1,0,0:0:0:0:
448,192,165379,1,0,0:0:0:0:
192,192,165453,1,0,0:0:0:0:
64,192,165453,1,0,0:0:0:0:
320,192,165528,1,0,0:0:0:0:
448,192,165528,1,0,0:0:0:0:
192,192,165602,1,0,0:0:0:0:
64,192,165602,1,0,0:0:0:0:
320,192,165676,1,0,0:0:0:0:
448,192,165676,1,0,0:0:0:0:
192,192,165750,1,0,0:0:0:0:
64,192,165750,1,0,0:0:0:0:
320,192,165825,1,0,0:0:0:0:
448,192,165825,1,0,0:0:0:0:
192,192,165899,1,0,0:0:0:0:
64,192,165899,1,0,0:0:0:0:
320,192,165973,1,0,0:0:0:0:
448,192,165973,1,0,0:0:0:0:
192,192,166048,1,0,0:0:0:0:
64,192,166048,1,0,0:0:0:0:
448,192,166122,1,0,0:0:0:0:
320,192,166122,1,0,0:0:0:0:
192,192,166171,1,0,0:0:0:0:
64,192,166221,1,0,0:0:0:0:
320,192,166270,1,0,0:0:0:0:
192,192,166320,1,0,0:0:0:0:
448,192,166369,1,0,0:0:0:0:
320,192,166419,128,0,166567:0:0:0:0:
64,192,166567,1,0,0:0:0:0:
192,192,166617,1,0,0:0:0:0:
320,192,166666,1,0,0:0:0:0:
448,192,166716,1,0,0:0:0:0:
192,192,166765,1,0,0:0:0:0:
320,192,166815,1,0,0:0:0:0:
64,192,166864,1,0,0:0:0:0:
192,192,166914,1,0,0:0:0:0:
320,192,166963,1,0,0:0:0:0:
448,192,167013,1,0,0:0:0:0:
192,192,167062,1,0,0:0:0:0:
320,192,167112,1,0,0:0:0:0:
448,192,167161,1,0,0:0:0:0:
64,192,167211,1,0,0:0:0:0:
192,192,167260,1,0,0:0:0:0:
64,192,167310,128,0,167830:0:0:0:0:
320,192,167310,128,0,167830:0:0:0:0:
448,192,167310,128,0,167830:0:0:0:0:
64,192,167904,1,0,0:0:0:0:
192,192,167904,1,0,0:0:0:0:
320,192,167904,1,0,0:0:0:0:
448,192,167904,1,0,0:0:0:0:
320,192,168201,128,0,168721:0:0:0:0:
192,192,168201,128,0,168721:0:0:0:0:
64,192,168201,128,0,168721:0:0:0:0:
320,192,168795,128,0,169018:0:0:0:0:
192,192,168795,128,0,169018:0:0:0:0:
64,192,168795,128,0,169018:0:0:0:0:
320,192,169092,1,0,0:0:0:0:
448,192,169092,1,0,0:0:0:0:
64,192,169092,128,0,169166:0:0:0:0:
192,192,169129,128,0,169203:0:0:0:0:
320,192,169166,128,0,169241:0:0:0:0:
448,192,169203,128,0,169278:0:0:0:0:
64,192,169241,128,0,169315:0:0:0:0:
192,192,169278,128,0,169352:0:0:0:0:
320,192,169315,128,0,169389:0:0:0:0:
448,192,169352,128,0,169426:0:0:0:0:
64,192,169389,128,0,169463:0:0:0:0:
192,192,169426,128,0,169500:0:0:0:0:
320,192,169463,128,0,169538:0:0:0:0:
448,192,169500,128,0,169575:0:0:0:0:
64,192,169538,128,0,169612:0:0:0:0:
192,192,169575,128,0,169649:0:0:0:0:
320,192,169612,128,0,169686:0:0:0:0:
448,192,169649,128,0,169723:0:0:0:0:
192,192,169983,128,0,170206:0:0:0:0:
320,192,169983,128,0,170206:0:0:0:0:
448,192,169983,128,0,170206:0:0:0:0:
64,192,170280,128,0,170354:0:0:0:0:
192,192,170280,128,0,170354:0:0:0:0:
320,192,170280,128,0,170354:0:0:0:0:
448,192,170280,128,0,170354:0:0:0:0:
320,192,170429,128,0,170503:0:0:0:0:
192,192,170429,128,0,170503:0:0:0:0:
64,192,170429,128,0,170503:0:0:0:0:
320,192,170577,128,0,170949:0:0:0:0:
448,192,170577,128,0,170949:0:0:0:0:
64,192,170577,128,0,170949:0:0:0:0:
192,192,171023,128,0,171394:0:0:0:0:
64,192,171023,128,0,171394:0:0:0:0:
448,192,171023,128,0,171394:0:0:0:0:
192,192,171468,1,0,0:0:0:0:
64,192,171468,1,0,0:0:0:0:
448,192,171468,128,0,171543:0:0:0:0:
320,192,171505,128,0,171580:0:0:0:0:
192,192,171543,128,0,171617:0:0:0:0:
64,192,171580,128,0,171654:0:0:0:0:
448,192,171617,128,0,171691:0:0:0:0:
320,192,171654,128,0,171728:0:0:0:0:
192,192,171691,128,0,171765:0:0:0:0:
64,192,171728,128,0,171802:0:0:0:0:
448,192,171765,128,0,171840:0:0:0:0:
320,192,171802,128,0,171877:0:0:0:0:
192,192,171840,128,0,171914:0:0:0:0:
64,192,171877,128,0,171951:0:0:0:0:
448,192,171914,128,0,171988:0:0:0:0:
320,192,171951,128,0,172025:0:0:0:0:
192,192,171988,128,0,172062:0:0:0:0:
64,192,172062,128,0,172582:0:0:0:0:
320,192,172062,128,0,172582:0:0:0:0:
448,192,172062,128,0,172582:0:0:0:0:
64,192,172656,1,0,0:0:0:0:
192,192,172656,1,0,0:0:0:0:
320,192,172656,1,0,0:0:0:0:
448,192,172656,1,0,0:0:0:0:
320,192,172953,128,0,173473:0:0:0:0:
192,192,172953,128,0,173473:0:0:0:0:
64,192,172953,128,0,173473:0:0:0:0:
320,192,173548,128,0,173770:0:0:0:0:
192,192,173548,128,0,173770:0:0:0:0:
64,192,173548,128,0,173770:0:0:0:0:
320,192,173845,128,0,173919:0:0:0:0:
64,192,173845,128,0,173919:0:0:0:0:
448,192,173845,128,0,174067:0:0:0:0:
192,192,173845,128,0,174216:0:0:0:0:
320,192,173993,128,0,174067:0:0:0:0:
64,192,173993,128,0,174216:0:0:0:0:
320,192,174142,128,0,174364:0:0:0:0:
448,192,174142,128,0,174364:0:0:0:0:
192,192,174290,128,0,174364:0:0:0:0:
64,192,174290,128,0,174661:0:0:0:0:
192,192,174439,128,0,174661:0:0:0:0:
320,192,174439,128,0,174661:0:0:0:0:
448,192,174439,128,0,174661:0:0:0:0:
448,192,174736,128,0,174958:0:0:0:0:
192,192,174736,128,0,174958:0:0:0:0:
64,192,174736,128,0,174958:0:0:0:0:
64,192,175033,1,0,0:0:0:0:
192,192,175033,1,0,0:0:0:0:
448,192,175033,128,0,175107:0:0:0:0:
320,192,175070,128,0,175144:0:0:0:0:
192,192,175107,128,0,175181:0:0:0:0:
64,192,175144,128,0,175218:0:0:0:0:
448,192,175181,128,0,175255:0:0:0:0:
320,192,175218,128,0,175293:0:0:0:0:
192,192,175255,128,0,175330:0:0:0:0:
64,192,175330,128,0,175701:0:0:0:0:
320,192,175330,128,0,175701:0:0:0:0:
448,192,175330,128,0,175701:0:0:0:0:
448,192,175775,128,0,176147:0:0:0:0:
320,192,175775,128,0,176147:0:0:0:0:
64,192,175775,128,0,176147:0:0:0:0:
320,192,176221,1,0,0:0:0:0:
448,192,176221,1,0,0:0:0:0:
64,192,176221,128,0,176295:0:0:0:0:
192,192,176258,128,0,176332:0:0:0:0:
320,192,176295,128,0,176369:0:0:0:0:
448,192,176332,128,0,176406:0:0:0:0:
64,192,176369,128,0,176444:0:0:0:0:
192,192,176406,128,0,176481:0:0:0:0:
320,192,176444,128,0,176518:0:0:0:0:
448,192,176481,128,0,176555:0:0:0:0:
64,192,176518,128,0,176592:0:0:0:0:
192,192,176555,128,0,176629:0:0:0:0:
320,192,176592,128,0,176666:0:0:0:0:
448,192,176629,128,0,176703:0:0:0:0:
64,192,176666,128,0,176741:0:0:0:0:
192,192,176703,128,0,176778:0:0:0:0:
320,192,176741,128,0,176815:0:0:0:0:
448,192,176815,128,0,177335:0:0:0:0:
192,192,176815,128,0,177335:0:0:0:0:
64,192,176815,128,0,177335:0:0:0:0:
448,192,177409,1,0,0:0:0:0:
320,192,177409,1,0,0:0:0:0:
192,192,177409,1,0,0:0:0:0:
64,192,177409,1,0,0:0:0:0:
192,192,177706,128,0,178226:0:0:0:0:
320,192,177706,128,0,178226:0:0:0:0:
448,192,177706,128,0,178226:0:0:0:0:
192,192,178300,128,0,178523:0:0:0:0:
320,192,178300,128,0,178523:0:0:0:0:
448,192,178300,128,0,178523:0:0:0:0:
192,192,178597,1,0,0:0:0:0:
64,192,178597,1,0,0:0:0:0:
448,192,178597,128,0,178671:0:0:0:0:
320,192,178634,128,0,178708:0:0:0:0:
192,192,178671,128,0,178746:0:0:0:0:
64,192,178708,128,0,178783:0:0:0:0:
448,192,178746,128,0,178820:0:0:0:0:
320,192,178783,128,0,178857:0:0:0:0:
192,192,178820,128,0,178894:0:0:0:0:
64,192,178857,128,0,178931:0:0:0:0:
448,192,178894,128,0,178968:0:0:0:0:
320,192,178931,128,0,179005:0:0:0:0:
192,192,178968,128,0,179043:0:0:0:0:
64,192,179005,128,0,179080:0:0:0:0:
448,192,179043,128,0,179117:0:0:0:0:
320,192,179080,128,0,179154:0:0:0:0:
192,192,179117,128,0,179191:0:0:0:0:
64,192,179154,128,0,179228:0:0:0:0:
320,192,179488,128,0,179711:0:0:0:0:
192,192,179488,128,0,179711:0:0:0:0:
64,192,179488,128,0,179711:0:0:0:0:
448,192,179785,128,0,179859:0:0:0:0:
320,192,179785,128,0,179859:0:0:0:0:
192,192,179785,128,0,179859:0:0:0:0:
64,192,179785,128,0,179859:0:0:0:0:
192,192,179934,128,0,180008:0:0:0:0:
320,192,179934,128,0,180008:0:0:0:0:
448,192,179934,128,0,180008:0:0:0:0:
192,192,180082,128,0,180453:0:0:0:0:
64,192,180082,128,0,180453:0:0:0:0:
448,192,180082,128,0,180453:0:0:0:0:
320,192,180528,128,0,180899:0:0:0:0:
448,192,180528,128,0,180899:0:0:0:0:
64,192,180528,128,0,180899:0:0:0:0:
320,192,180973,1,0,0:0:0:0:
448,192,180973,1,0,0:0:0:0:
64,192,180973,128,0,181048:0:0:0:0:
192,192,181010,128,0,181085:0:0:0:0:
320,192,181048,128,0,181122:0:0:0:0:
448,192,181085,128,0,181159:0:0:0:0:
64,192,181122,128,0,181196:0:0:0:0:
192,192,181159,128,0,181233:0:0:0:0:
320,192,181196,128,0,181270:0:0:0:0:
448,192,181233,128,0,181307:0:0:0:0:
64,192,181270,128,0,181345:0:0:0:0:
192,192,181307,128,0,181382:0:0:0:0:
320,192,181345,128,0,181419:0:0:0:0:
448,192,181382,128,0,181456:0:0:0:0:
64,192,181419,128,0,181493:0:0:0:0:
192,192,181456,128,0,181530:0:0:0:0:
320,192,181493,128,0,181567:0:0:0:0:
448,192,181567,128,0,182087:0:0:0:0:
192,192,181567,128,0,182087:0:0:0:0:
64,192,181567,128,0,182087:0:0:0:0:
448,192,182161,1,0,0:0:0:0:
320,192,182161,1,0,0:0:0:0:
192,192,182161,1,0,0:0:0:0:
64,192,182161,1,0,0:0:0:0:
192,192,182458,128,0,182978:0:0:0:0:
320,192,182458,128,0,182978:0:0:0:0:
448,192,182458,128,0,182978:0:0:0:0:
192,192,183052,128,0,183275:0:0:0:0:
320,192,183052,128,0,183275:0:0:0:0:
448,192,183052,128,0,183275:0:0:0:0:
64,192,183350,128,0,183399:0:0:0:0:
192,192,183374,128,0,183424:0:0:0:0:
320,192,183399,128,0,183449:0:0:0:0:
448,192,183424,128,0,183473:0:0:0:0:
64,192,183449,128,0,183498:0:0:0:0:
192,192,183473,128,0,183523:0:0:0:0:
320,192,183498,128,0,183548:0:0:0:0:
448,192,183523,128,0,183572:0:0:0:0:
64,192,183548,128,0,183597:0:0:0:0:
192,192,183572,128,0,183622:0:0:0:0:
320,192,183597,128,0,183647:0:0:0:0:
448,192,183622,128,0,183671:0:0:0:0:
64,192,183647,128,0,183696:0:0:0:0:
192,192,183671,128,0,183721:0:0:0:0:
320,192,183696,128,0,183746:0:0:0:0:
448,192,183721,128,0,183770:0:0:0:0:
64,192,183746,128,0,183795:0:0:0:0:
192,192,183770,128,0,183820:0:0:0:0:
320,192,183795,128,0,183845:0:0:0:0:
448,192,183820,128,0,183869:0:0:0:0:
64,192,183845,128,0,183894:0:0:0:0:
192,192,183869,128,0,183919:0:0:0:0:
320,192,183894,128,0,183944:0:0:0:0:
448,192,183919,128,0,183968:0:0:0:0:
192,192,184092,128,0,184241:0:0:0:0:
320,192,184092,128,0,184166:0:0:0:0:
448,192,184092,128,0,184166:0:0:0:0:
64,192,184092,128,0,184166:0:0:0:0:
64,192,184241,1,0,0:0:0:0:
320,192,184241,1,0,0:0:0:0:
448,192,184241,1,0,0:0:0:0:
448,192,184389,1,0,0:0:0:0:
320,192,184389,1,0,0:0:0:0:
64,192,184389,1,0,0:0:0:0:
448,192,184538,1,0,0:0:0:0:
320,192,184538,1,0,0:0:0:0:
64,192,184538,1,0,0:0:0:0:
448,192,184686,1,0,0:0:0:0:
320,192,184686,1,0,0:0:0:0:
64,192,184686,1,0,0:0:0:0:
448,192,184835,128,0,185206:0:0:0:0:
192,192,184835,128,0,185206:0:0:0:0:
64,192,184835,128,0,185206:0:0:0:0:
192,192,185280,1,0,0:0:0:0:
64,192,185280,1,0,0:0:0:0:
448,192,185280,1,0,0:0:0:0:
448,192,185429,1,0,0:0:0:0:
192,192,185429,1,0,0:0:0:0:
64,192,185429,1,0,0:0:0:0:
64,192,185577,1,0,0:0:0:0:
192,192,185577,1,0,0:0:0:0:
448,192,185577,1,0,0:0:0:0:
448,192,185726,1,0,0:0:0:0:
64,192,185726,1,0,0:0:0:0:
192,192,185726,1,0,0:0:0:0:
64,192,185874,1,0,0:0:0:0:
192,192,185874,1,0,0:0:0:0:
448,192,185874,1,0,0:0:0:0:
448,192,186023,1,0,0:0:0:0:
192,192,186023,1,0,0:0:0:0:
64,192,186023,1,0,0:0:0:0:
64,192,186171,1,0,0:0:0:0:
192,192,186171,1,0,0:0:0:0:
448,192,186171,1,0,0:0:0:0:
64,192,186320,128,0,186691:0:0:0:0:
320,192,186320,128,0,186691:0:0:0:0:
448,192,186320,128,0,186691:0:0:0:0:
64,192,186765,128,0,187137:0:0:0:0:
320,192,186765,128,0,187137:0:0:0:0:
448,192,186765,128,0,187137:0:0:0:0:
192,192,186765,128,0,187137:0:0:0:0:
320,192,187211,128,0,187582:0:0:0:0:
448,192,187211,128,0,187582:0:0:0:0:
192,192,187211,128,0,187582:0:0:0:0:
64,192,187211,128,0,187582:0:0:0:0:
64,192,187656,128,0,188028:0:0:0:0:
192,192,187656,128,0,188028:0:0:0:0:
320,192,187656,128,0,188028:0:0:0:0:
448,192,187656,128,0,188028:0:0:0:0:
448,192,188102,128,0,188622:0:0:0:0:
320,192,188102,128,0,188622:0:0:0:0:
192,192,188102,128,0,188622:0:0:0:0:
64,192,188102,128,0,188622:0:0:0:0:
64,192,188696,1,0,0:0:0:0:
320,192,188696,1,0,0:0:0:0:
448,192,188696,1,0,0:0:0:0:
192,192,188770,1,0,0:0:0:0:
320,192,188845,1,0,0:0:0:0:
448,192,188919,1,0,0:0:0:0:
320,192,188993,1,0,0:0:0:0:
192,192,189067,1,0,0:0:0:0:
64,192,189142,128,0,189513:0:0:0:0:
320,192,189142,128,0,189513:0:0:0:0:
448,192,189142,128,0,189513:0:0:0:0:
192,192,189142,128,0,189513:0:0:0:0:
320,192,189587,128,0,189958:0:0:0:0:
448,192,189587,128,0,189958:0:0:0:0:
192,192,189587,128,0,189958:0:0:0:0:
64,192,189587,128,0,189958:0:0:0:0:
64,192,190033,128,0,190255:0:0:0:0:
192,192,190033,128,0,190255:0:0:0:0:
320,192,190033,128,0,190255:0:0:0:0:
448,192,190033,128,0,190255:0:0:0:0:
64,192,190330,128,0,190404:0:0:0:0:
192,192,190330,128,0,190404:0:0:0:0:
320,192,190330,128,0,190404:0:0:0:0:
448,192,190330,128,0,190404:0:0:0:0:
64,192,190478,128,0,190627:0:0:0:0:
192,192,190478,128,0,190627:0:0:0:0:
320,192,190478,128,0,190627:0:0:0:0:
448,192,190478,128,0,190627:0:0:0:0:
448,192,190701,128,0,190850:0:0:0:0:
320,192,190701,128,0,190850:0:0:0:0:
192,192,190701,128,0,190850:0:0:0:0:
64,192,190701,128,0,190850:0:0:0:0:
448,192,190924,128,0,190998:0:0:0:0:
320,192,190924,128,0,190998:0:0:0:0:
192,192,190924,128,0,190998:0:0:0:0:
64,192,190924,128,0,190998:0:0:0:0:
64,192,191072,1,0,0:0:0:0:
320,192,191072,1,0,0:0:0:0:
448,192,191072,1,0,0:0:0:0:
192,192,191147,1,0,0:0:0:0:
320,192,191221,1,0,0:0:0:0:
448,192,191295,1,0,0:0:0:0:
320,192,191369,1,0,0:0:0:0:
192,192,191444,1,0,0:0:0:0:
448,192,191518,128,0,191889:0:0:0:0:
192,192,191518,128,0,191889:0:0:0:0:
64,192,191518,128,0,191889:0:0:0:0:
320,192,191518,128,0,191889:0:0:0:0:
192,192,191963,128,0,192335:0:0:0:0:
64,192,191963,128,0,192335:0:0:0:0:
320,192,191963,128,0,192335:0:0:0:0:
448,192,191963,128,0,192335:0:0:0:0:
320,192,192409,128,0,192780:0:0:0:0:
448,192,192409,128,0,192780:0:0:0:0:
64,192,192409,128,0,192780:0:0:0:0:
192,192,192409,128,0,192780:0:0:0:0:
192,192,192854,128,0,193374:0:0:0:0:
64,192,192854,128,0,193374:0:0:0:0:
448,192,192854,128,0,193374:0:0:0:0:
320,192,192854,128,0,193374:0:0:0:0:
448,192,193449,1,0,0:0:0:0:
320,192,193449,1,0,0:0:0:0:
64,192,193449,1,0,0:0:0:0:
192,192,193523,1,0,0:0:0:0:
320,192,193597,1,0,0:0:0:0:
448,192,193671,1,0,0:0:0:0:
320,192,193746,1,0,0:0:0:0:
192,192,193820,1,0,0:0:0:0:
448,192,193894,128,0,194265:0:0:0:0:
192,192,193894,128,0,194265:0:0:0:0:
64,192,193894,128,0,194265:0:0:0:0:
320,192,193894,128,0,194265:0:0:0:0:
192,192,194340,128,0,194711:0:0:0:0:
64,192,194340,128,0,194711:0:0:0:0:
320,192,194340,128,0,194711:0:0:0:0:
448,192,194340,128,0,194711:0:0:0:0:
320,192,194785,128,0,195008:0:0:0:0:
448,192,194785,128,0,195008:0:0:0:0:
64,192,194785,128,0,195008:0:0:0:0:
192,192,194785,128,0,195008:0:0:0:0:
320,192,195082,128,0,195156:0:0:0:0:
448,192,195082,128,0,195156:0:0:0:0:
64,192,195082,128,0,195156:0:0:0:0:
192,192,195082,128,0,195156:0:0:0:0:
320,192,195231,128,0,195453:0:0:0:0:
64,192,195231,128,0,195453:0:0:0:0:
192,192,195231,128,0,195453:0:0:0:0:
448,192,195231,128,0,195453:0:0:0:0:
64,192,195528,128,0,195750:0:0:0:0:
448,192,195528,128,0,195750:0:0:0:0:
320,192,195528,128,0,195750:0:0:0:0:
192,192,195528,128,0,195750:0:0:0:0:
192,192,195825,1,0,0:0:0:0:
320,192,195825,1,0,0:0:0:0:
448,192,195825,1,0,0:0:0:0:
64,192,195899,1,0,0:0:0:0:
192,192,195949,1,0,0:0:0:0:
320,192,195998,1,0,0:0:0:0:
448,192,196048,1,0,0:0:0:0:
192,192,196122,1,0,0:0:0:0:
320,192,196270,1,0,0:0:0:0:
64,192,196419,1,0,0:0:0:0:
192,192,196567,1,0,0:0:0:0:
320,192,196716,1,0,0:0:0:0:
64,192,196864,1,0,0:0:0:0:
448,192,196864,1,0,0:0:0:0:
192,192,197013,1,0,0:0:0:0:
320,192,197161,1,0,0:0:0:0:
64,192,197310,1,0,0:0:0:0:
448,192,197310,1,0,0:0:0:0:
192,192,197458,1,0,0:0:0:0:
320,192,197607,1,0,0:0:0:0:
448,192,197755,1,0,0:0:0:0:
64,192,197755,1,0,0:0:0:0:
320,192,197904,1,0,0:0:0:0:
192,192,198052,1,0,0:0:0:0:
448,192,198201,1,0,0:0:0:0:
320,192,198350,1,0,0:0:0:0:
192,192,198498,1,0,0:0:0:0:
448,192,198647,1,0,0:0:0:0:
320,192,198721,1,0,0:0:0:0:
192,192,198721,1,0,0:0:0:0:
64,192,198795,1,0,0:0:0:0:
448,192,198795,1,0,0:0:0:0:
192,192,198944,1,0,0:0:0:0:
320,192,199092,1,0,0:0:0:0:
64,192,199241,1,0,0:0:0:0:
448,192,199241,1,0,0:0:0:0:
192,192,199389,1,0,0:0:0:0:
64,192,199538,1,0,0:0:0:0:
448,192,199686,1,0,0:0:0:0:
64,192,199686,1,0,0:0:0:0:
320,192,199835,1,0,0:0:0:0:
192,192,199909,1,0,0:0:0:0:
64,192,199909,1,0,0:0:0:0:
448,192,199983,1,0,0:0:0:0:
320,192,199983,1,0,0:0:0:0:
64,192,200132,1,0,0:0:0:0:
448,192,200132,1,0,0:0:0:0:
320,192,200280,1,0,0:0:0:0:
192,192,200429,1,0,0:0:0:0:
64,192,200577,1,0,0:0:0:0:
448,192,200577,1,0,0:0:0:0:
320,192,200726,1,0,0:0:0:0:
192,192,200874,1,0,0:0:0:0:
320,192,201023,1,0,0:0:0:0:
448,192,201171,1,0,0:0:0:0:
192,192,201320,1,0,0:0:0:0:
320,192,201468,1,0,0:0:0:0:
192,192,201617,1,0,0:0:0:0:
448,192,201617,1,0,0:0:0:0:
64,192,201765,1,0,0:0:0:0:
320,192,201914,1,0,0:0:0:0:
192,192,202062,1,0,0:0:0:0:
448,192,202062,1,0,0:0:0:0:
64,192,202211,1,0,0:0:0:0:
192,192,202359,1,0,0:0:0:0:
320,192,202508,1,0,0:0:0:0:
64,192,202508,1,0,0:0:0:0:
448,192,202656,1,0,0:0:0:0:
64,192,202731,1,0,0:0:0:0:
320,192,202805,1,0,0:0:0:0:
192,192,202879,1,0,0:0:0:0:
448,192,202953,1,0,0:0:0:0:
64,192,202953,1,0,0:0:0:0:
320,192,203102,1,0,0:0:0:0:
192,192,203250,1,0,0:0:0:0:
64,192,203250,1,0,0:0:0:0:
320,192,203399,1,0,0:0:0:0:
192,192,203548,1,0,0:0:0:0:
64,192,203696,1,0,0:0:0:0:
320,192,203845,1,0,0:0:0:0:
192,192,203993,1,0,0:0:0:0:
64,192,204142,128,0,205255:0:0:0:0:
448,192,204142,1,0,0:0:0:0:
320,192,204142,1,0,0:0:0:0:
320,192,204290,1,0,0:0:0:0:
320,192,204439,1,0,0:0:0:0:
192,192,204587,1,0,0:0:0:0:
320,192,204587,1,0,0:0:0:0:
192,192,204736,1,0,0:0:0:0:
448,192,204884,1,0,0:0:0:0:
448,192,205033,1,0,0:0:0:0:
320,192,205181,1,0,0:0:0:0:
192,192,205330,128,0,205676:0:0:0:0:
64,192,205330,128,0,205701:0:0:0:0:
320,192,205330,128,0,205651:0:0:0:0:
448,192,205330,128,0,205627:0:0:0:0:
192,192,205775,128,0,206023:0:0:0:0:
448,192,205775,128,0,206072:0:0:0:0:
320,192,205775,128,0,206048:0:0:0:0:
64,192,205775,128,0,205998:0:0:0:0:
64,192,206072,128,0,206221:0:0:0:0:
192,192,206221,128,0,206444:0:0:0:0:
320,192,206221,128,0,206444:0:0:0:0:
64,192,206369,128,0,206444:0:0:0:0:
448,192,206369,128,0,206444:0:0:0:0:
448,192,206518,128,0,206889:0:0:0:0:
320,192,206518,128,0,206864:0:0:0:0:
192,192,206518,128,0,206840:0:0:0:0:
64,192,206518,128,0,206815:0:0:0:0:
192,192,206963,128,0,207161:0:0:0:0:
320,192,206963,128,0,207137:0:0:0:0:
64,192,206963,128,0,207186:0:0:0:0:
448,192,206963,128,0,207112:0:0:0:0:
64,192,207260,128,0,207335:0:0:0:0:
448,192,207260,128,0,207458:0:0:0:0:
192,192,207260,128,0,207409:0:0:0:0:
320,192,207260,128,0,207434:0:0:0:0:
64,192,207409,128,0,207632:0:0:0:0:
192,192,207483,128,0,207632:0:0:0:0:
320,192,207508,128,0,207632:0:0:0:0:
448,192,207533,128,0,207632:0:0:0:0:
192,192,207706,128,0,208052:0:0:0:0:
64,192,207706,128,0,208077:0:0:0:0:
320,192,207706,128,0,208028:0:0:0:0:
448,192,207706,128,0,208003:0:0:0:0:
192,192,208151,128,0,208399:0:0:0:0:
448,192,208151,128,0,208449:0:0:0:0:
320,192,208151,128,0,208424:0:0:0:0:
64,192,208151,128,0,208374:0:0:0:0:
64,192,208449,128,0,208597:0:0:0:0:
448,192,208597,128,0,208820:0:0:0:0:
320,192,208597,128,0,208820:0:0:0:0:
64,192,208746,128,0,208820:0:0:0:0:
192,192,208746,128,0,208820:0:0:0:0:
448,192,208894,128,0,209191:0:0:0:0:
320,192,208894,128,0,209166:0:0:0:0:
192,192,208894,128,0,209142:0:0:0:0:
64,192,208894,128,0,209117:0:0:0:0:
64,192,209191,128,0,209340:0:0:0:0:
192,192,209241,128,0,209290:0:0:0:0:
448,192,209290,128,0,209439:0:0:0:0:
320,192,209340,128,0,209389:0:0:0:0:
192,192,209389,128,0,209538:0:0:0:0:
64,192,209439,128,0,209488:0:0:0:0:
448,192,209488,128,0,209637:0:0:0:0:
320,192,209538,128,0,209587:0:0:0:0:
64,192,209587,128,0,209736:0:0:0:0:
192,192,209637,128,0,209686:0:0:0:0:
320,192,209686,128,0,209835:0:0:0:0:
448,192,209736,128,0,209785:0:0:0:0:
64,192,209785,128,0,209934:0:0:0:0:
192,192,209835,128,0,209884:0:0:0:0:
448,192,209884,128,0,210033:0:0:0:0:
320,192,209934,128,0,209983:0:0:0:0:
192,192,209983,128,0,210033:0:0:0:0:
64,192,210033,1,0,0:0:0:0:
192,192,210082,128,0,210429:0:0:0:0:
64,192,210082,128,0,210453:0:0:0:0:
320,192,210082,128,0,210404:0:0:0:0:
448,192,210082,128,0,210379:0:0:0:0:
192,192,210528,128,0,210775:0:0:0:0:
448,192,210528,128,0,210825:0:0:0:0:
320,192,210528,128,0,210800:0:0:0:0:
64,192,210528,128,0,210750:0:0:0:0:
64,192,210825,128,0,210973:0:0:0:0:
192,192,210973,128,0,211196:0:0:0:0:
320,192,210973,128,0,211196:0:0:0:0:
64,192,211122,128,0,211196:0:0:0:0:
448,192,211122,128,0,211196:0:0:0:0:
448,192,211270,128,0,211642:0:0:0:0:
320,192,211270,128,0,211617:0:0:0:0:
192,192,211270,128,0,211592:0:0:0:0:
64,192,211270,128,0,211567:0:0:0:0:
192,192,211716,128,0,211914:0:0:0:0:
320,192,211716,128,0,211889:0:0:0:0:
64,192,211716,128,0,211939:0:0:0:0:
448,192,211716,128,0,211864:0:0:0:0:
64,192,212013,128,0,212087:0:0:0:0:
448,192,212013,128,0,212211:0:0:0:0:
192,192,212013,128,0,212161:0:0:0:0:
320,192,212013,128,0,212186:0:0:0:0:
64,192,212161,128,0,212384:0:0:0:0:
192,192,212236,128,0,212384:0:0:0:0:
320,192,212260,128,0,212384:0:0:0:0:
448,192,212285,128,0,212384:0:0:0:0:
192,192,212458,128,0,212805:0:0:0:0:
64,192,212458,128,0,212830:0:0:0:0:
320,192,212458,128,0,212780:0:0:0:0:
448,192,212458,128,0,212755:0:0:0:0:
192,192,212904,128,0,213151:0:0:0:0:
448,192,212904,128,0,213201:0:0:0:0:
320,192,212904,128,0,213176:0:0:0:0:
64,192,212904,128,0,213127:0:0:0:0:
64,192,213201,128,0,213350:0:0:0:0:
448,192,213350,128,0,213572:0:0:0:0:
320,192,213350,128,0,213572:0:0:0:0:
64,192,213498,128,0,213572:0:0:0:0:
192,192,213498,128,0,213572:0:0:0:0:
448,192,213647,128,0,213944:0:0:0:0:
320,192,213647,128,0,213919:0:0:0:0:
192,192,213647,128,0,213894:0:0:0:0:
64,192,213647,128,0,213869:0:0:0:0:
64,192,213944,128,0,214092:0:0:0:0:
192,192,213993,128,0,214043:0:0:0:0:
448,192,214043,128,0,214191:0:0:0:0:
320,192,214092,128,0,214142:0:0:0:0:
448,192,214241,128,0,214389:0:0:0:0:
320,192,214290,128,0,214340:0:0:0:0:
64,192,214340,128,0,214488:0:0:0:0:
192,192,214389,128,0,214439:0:0:0:0:
64,192,214538,128,0,214686:0:0:0:0:
192,192,214587,128,0,214637:0:0:0:0:
448,192,214637,128,0,214785:0:0:0:0:
320,192,214686,128,0,214736:0:0:0:0:
448,192,214835,1,0,0:0:0:0:
320,192,214835,1,0,0:0:0:0:
192,192,214835,1,0,0:0:0:0:
64,192,214835,1,0,0:0:0:0:
192,192,215132,1,0,0:0:0:0:
448,192,215132,1,0,0:0:0:0:
320,192,215132,1,0,0:0:0:0:
448,192,215429,1,0,0:0:0:0:
192,192,215429,1,0,0:0:0:0:
320,192,215429,1,0,0:0:0:0:
320,192,215726,1,0,0:0:0:0:
64,192,215726,1,0,0:0:0:0:
192,192,215726,1,0,0:0:0:0:
320,192,216023,1,0,0:0:0:0:
64,192,216023,1,0,0:0:0:0:
192,192,216023,1,0,0:0:0:0:
320,192,216320,1,0,0:0:0:0:
448,192,216320,1,0,0:0:0:0:
64,192,216320,1,0,0:0:0:0:
448,192,216617,1,0,0:0:0:0:
320,192,216617,1,0,0:0:0:0:
64,192,216617,1,0,0:0:0:0:
192,192,216914,1,0,0:0:0:0:
64,192,216914,1,0,0:0:0:0:
448,192,216914,1,0,0:0:0:0:
192,192,217211,1,0,0:0:0:0:
64,192,217211,1,0,0:0:0:0:
448,192,217211,1,0,0:0:0:0:
64,192,217508,1,0,0:0:0:0:
448,192,217508,1,0,0:0:0:0:
320,192,217508,1,0,0:0:0:0:
448,192,217805,1,0,0:0:0:0:
64,192,217805,1,0,0:0:0:0:
320,192,217805,1,0,0:0:0:0:
192,192,218102,1,0,0:0:0:0:
320,192,218102,1,0,0:0:0:0:
64,192,218102,1,0,0:0:0:0:
320,192,218399,1,0,0:0:0:0:
192,192,218399,1,0,0:0:0:0:
64,192,218399,1,0,0:0:0:0:
320,192,218696,1,0,0:0:0:0:
64,192,218696,1,0,0:0:0:0:
448,192,218696,1,0,0:0:0:0:
320,192,218993,128,0,219513:0:0:0:0:
64,192,218993,128,0,219513:0:0:0:0:
448,192,218993,1,0,0:0:0:0:
192,192,219290,128,0,219513:0:0:0:0:
448,192,219290,128,0,219513:0:0:0:0:
64,192,219587,128,0,219661:0:0:0:0:
448,192,219587,128,0,219661:0:0:0:0:
320,192,219587,128,0,219661:0:0:0:0:
448,192,219736,128,0,219810:0:0:0:0:
320,192,219736,128,0,219810:0:0:0:0:
64,192,219736,128,0,219810:0:0:0:0:
192,192,219884,128,0,219958:0:0:0:0:
64,192,219884,128,0,219958:0:0:0:0:
448,192,219884,128,0,219958:0:0:0:0:
448,192,220033,128,0,220404:0:0:0:0:
192,192,220033,128,0,220107:0:0:0:0:
64,192,220033,128,0,220107:0:0:0:0:
320,192,220181,128,0,220255:0:0:0:0:
192,192,220181,128,0,220255:0:0:0:0:
64,192,220181,128,0,220255:0:0:0:0:
64,192,220330,128,0,220404:0:0:0:0:
192,192,220330,128,0,220701:0:0:0:0:
320,192,220330,128,0,220404:0:0:0:0:
320,192,220478,128,0,220552:0:0:0:0:
448,192,220478,128,0,220552:0:0:0:0:
64,192,220478,128,0,220552:0:0:0:0:
448,192,220627,128,0,220701:0:0:0:0:
320,192,220627,128,0,220701:0:0:0:0:
64,192,220627,128,0,220998:0:0:0:0:
192,192,220775,128,0,220850:0:0:0:0:
320,192,220775,128,0,220850:0:0:0:0:
448,192,220775,128,0,220850:0:0:0:0:
448,192,220924,128,0,221295:0:0:0:0:
320,192,220924,128,0,220998:0:0:0:0:
192,192,220924,128,0,220998:0:0:0:0:
320,192,221072,128,0,221147:0:0:0:0:
64,192,221072,128,0,221147:0:0:0:0:
192,192,221072,128,0,221147:0:0:0:0:
320,192,221221,128,0,221592:0:0:0:0:
192,192,221221,128,0,221295:0:0:0:0:
64,192,221221,128,0,221295:0:0:0:0:
448,192,221369,128,0,221444:0:0:0:0:
192,192,221369,128,0,221444:0:0:0:0:
64,192,221369,128,0,221444:0:0:0:0:
192,192,221518,128,0,221889:0:0:0:0:
448,192,221518,128,0,221592:0:0:0:0:
64,192,221518,128,0,221592:0:0:0:0:
64,192,221666,128,0,221741:0:0:0:0:
320,192,221666,128,0,221741:0:0:0:0:
448,192,221666,128,0,221741:0:0:0:0:
448,192,221815,128,0,221963:0:0:0:0:
320,192,221815,128,0,221963:0:0:0:0:
64,192,221815,128,0,221889:0:0:0:0:
192,192,221963,128,0,222075:0:0:0:0:
64,192,221963,128,0,222075:0:0:0:0:
320,192,222038,128,0,222149:0:0:0:0:
448,192,222038,128,0,222149:0:0:0:0:
192,192,222112,128,0,222223:0:0:0:0:
64,192,222112,128,0,222223:0:0:0:0:
320,192,222186,128,0,222298:0:0:0:0:
448,192,222186,128,0,222298:0:0:0:0:
192,192,222260,128,0,222372:0:0:0:0:
64,192,222260,128,0,222372:0:0:0:0:
320,192,222335,128,0,222446:0:0:0:0:
448,192,222335,128,0,222446:0:0:0:0:
192,192,222409,128,0,222520:0:0:0:0:
64,192,222409,128,0,222520:0:0:0:0:
320,192,222483,128,0,222595:0:0:0:0:
448,192,222483,128,0,222595:0:0:0:0:
192,192,222557,128,0,222669:0:0:0:0:
64,192,222557,128,0,222669:0:0:0:0:
320,192,222632,128,0,222743:0:0:0:0:
448,192,222632,128,0,222743:0:0:0:0:
192,192,222706,128,0,222817:0:0:0:0:
64,192,222706,128,0,222817:0:0:0:0:
320,192,222780,128,0,222892:0:0:0:0:
448,192,222780,128,0,222892:0:0:0:0:
192,192,222854,128,0,222966:0:0:0:0:
64,192,222854,128,0,222966:0:0:0:0:
320,192,222929,128,0,223040:0:0:0:0:
448,192,222929,128,0,223040:0:0:0:0:
192,192,223003,128,0,223151:0:0:0:0:
64,192,223003,128,0,223114:0:0:0:0:
320,192,223077,128,0,223189:0:0:0:0:
448,192,223077,128,0,223226:0:0:0:0:
64,192,223151,128,0,223226:0:0:0:0:
192,192,223189,128,0,223263:0:0:0:0:
320,192,223226,128,0,223300:0:0:0:0:
448,192,223263,128,0,223337:0:0:0:0:
64,192,223300,128,0,223374:0:0:0:0:
192,192,223337,128,0,223411:0:0:0:0:
320,192,223374,128,0,223449:0:0:0:0:
448,192,223411,128,0,223486:0:0:0:0:
448,192,223597,128,0,223671:0:0:0:0:
320,192,223634,128,0,223708:0:0:0:0:
192,192,223671,128,0,223746:0:0:0:0:
64,192,223708,128,0,223783:0:0:0:0:
448,192,223746,1,0,0:0:0:0:
320,192,223783,1,0,0:0:0:0:
192,192,223820,1,0,0:0:0:0:
64,192,223857,1,0,0:0:0:0:
320,192,223894,128,0,224043:0:0:0:0:
448,192,223894,128,0,224043:0:0:0:0:
64,192,224043,128,0,224092:0:0:0:0:
192,192,224067,128,0,224117:0:0:0:0:
320,192,224092,128,0,224142:0:0:0:0:
448,192,224117,128,0,224166:0:0:0:0:
64,192,224142,128,0,224191:0:0:0:0:
192,192,224166,128,0,224216:0:0:0:0:
320,192,224191,128,0,224241:0:0:0:0:
448,192,224216,128,0,224265:0:0:0:0:
64,192,224241,128,0,224290:0:0:0:0:
192,192,224265,128,0,224315:0:0:0:0:
320,192,224290,128,0,224340:0:0:0:0:
448,192,224315,128,0,224364:0:0:0:0:
192,192,224340,128,0,224414:0:0:0:0:
64,192,224340,128,0,224451:0:0:0:0:
320,192,224377,128,0,224488:0:0:0:0:
448,192,224414,128,0,224562:0:0:0:0:
192,192,224488,128,0,224562:0:0:0:0:
64,192,224525,128,0,224785:0:0:0:0:
320,192,224562,128,0,224711:0:0:0:0:
448,192,224637,128,0,224711:0:0:0:0:
192,192,224637,128,0,224748:0:0:0:0:
320,192,224785,128,0,224859:0:0:0:0:
448,192,224785,128,0,224859:0:0:0:0:
192,192,224822,128,0,224971:0:0:0:0:
64,192,224859,128,0,224934:0:0:0:0:
320,192,224934,128,0,225008:0:0:0:0:
448,192,224934,128,0,225008:0:0:0:0:
64,192,225008,128,0,225082:0:0:0:0:
192,192,225045,128,0,225194:0:0:0:0:
320,192,225082,128,0,225156:0:0:0:0:
448,192,225082,128,0,225156:0:0:0:0:
64,192,225156,128,0,225231:0:0:0:0:
320,192,225231,128,0,225268:0:0:0:0:
448,192,225231,128,0,225305:0:0:0:0:
192,192,225268,128,0,225305:0:0:0:0:
64,192,225305,128,0,225342:0:0:0:0:
320,192,225342,128,0,225379:0:0:0:0:
448,192,225379,128,0,225528:0:0:0:0:
192,192,225379,128,0,225453:0:0:0:0:
64,192,225416,128,0,225453:0:0:0:0:
320,192,225453,128,0,225491:0:0:0:0:
192,192,225528,128,0,225602:0:0:0:0:
64,192,225528,128,0,225602:0:0:0:0:
320,192,225565,128,0,225676:0:0:0:0:
448,192,225602,128,0,225750:0:0:0:0:
192,192,225676,128,0,225750:0:0:0:0:
64,192,225676,128,0,225825:0:0:0:0:
320,192,225750,128,0,225899:0:0:0:0:
448,192,225825,128,0,225899:0:0:0:0:
192,192,225825,128,0,225936:0:0:0:0:
64,192,225899,128,0,225973:0:0:0:0:
320,192,225973,128,0,226048:0:0:0:0:
448,192,225973,128,0,226085:0:0:0:0:
192,192,226010,128,0,226048:0:0:0:0:
64,192,226048,128,0,226122:0:0:0:0:
320,192,226122,128,0,226196:0:0:0:0:
192,192,226122,128,0,226159:0:0:0:0:
448,192,226159,128,0,226196:0:0:0:0:
64,192,226196,128,0,226270:0:0:0:0:
192,192,226233,128,0,226437:0:0:0:0:
320,192,226270,128,0,226345:0:0:0:0:
448,192,226270,128,0,226363:0:0:0:0:
64,192,226345,128,0,226419:0:0:0:0:
320,192,226419,128,0,226512:0:0:0:0:
448,192,226437,128,0,226493:0:0:0:0:
64,192,226493,128,0,226586:0:0:0:0:
192,192,226512,128,0,226567:0:0:0:0:
448,192,226567,128,0,226642:0:0:0:0:
320,192,226586,128,0,226642:0:0:0:0:
192,192,226642,128,0,226679:0:0:0:0:
64,192,226660,128,0,226716:0:0:0:0:
320,192,226716,128,0,226790:0:0:0:0:
448,192,226716,128,0,226790:0:0:0:0:
192,192,226753,128,0,226864:0:0:0:0:
64,192,226790,128,0,226939:0:0:0:0:
320,192,226864,128,0,226939:0:0:0:0:
448,192,226864,128,0,226976:0:0:0:0:
192,192,226939,128,0,227013:0:0:0:0:
64,192,227013,128,0,227161:0:0:0:0:
320,192,227013,128,0,227087:0:0:0:0:
448,192,227050,128,0,227087:0:0:0:0:
192,192,227087,128,0,227124:0:0:0:0:
320,192,227161,128,0,227236:0:0:0:0:
448,192,227161,128,0,227273:0:0:0:0:
192,192,227199,128,0,227236:0:0:0:0:
64,192,227236,128,0,227310:0:0:0:0:
192,192,227310,128,0,227347:0:0:0:0:
320,192,227310,128,0,227384:0:0:0:0:
448,192,227347,128,0,227384:0:0:0:0:
64,192,227384,128,0,227607:0:0:0:0:
192,192,227421,128,0,227458:0:0:0:0:
320,192,227458,128,0,227533:0:0:0:0:
448,192,227458,128,0,227533:0:0:0:0:
192,192,227533,128,0,227570:0:0:0:0:
320,192,227607,128,0,227681:0:0:0:0:
448,192,227607,128,0,227644:0:0:0:0:
192,192,227644,128,0,227755:0:0:0:0:
64,192,227681,128,0,227718:0:0:0:0:
448,192,227718,128,0,227830:0:0:0:0:
320,192,227755,128,0,227793:0:0:0:0:
64,192,227793,128,0,227830:0:0:0:0:
192,192,227830,128,0,227867:0:0:0:0:
320,192,227867,128,0,227904:0:0:0:0:
448,192,227904,128,0,227941:0:0:0:0:
64,192,227904,128,0,227978:0:0:0:0:
192,192,227941,128,0,227978:0:0:0:0:
320,192,227978,128,0,228052:0:0:0:0:
448,192,228015,128,0,228127:0:0:0:0:
192,192,228052,128,0,228127:0:0:0:0:
64,192,228052,128,0,228164:0:0:0:0:
320,192,228127,128,0,228201:0:0:0:0:
448,192,228201,128,0,228238:0:0:0:0:
192,192,228201,128,0,228275:0:0:0:0:
64,192,228238,128,0,228275:0:0:0:0:
320,192,228275,128,0,228350:0:0:0:0:
448,192,228312,128,0,228424:0:0:0:0:
192,192,228350,128,0,228424:0:0:0:0:
64,192,228350,128,0,228461:0:0:0:0:
320,192,228424,128,0,228498:0:0:0:0:
448,192,228498,128,0,228535:0:0:0:0:
192,192,228498,128,0,228572:0:0:0:0:
64,192,228535,128,0,228684:0:0:0:0:
320,192,228572,128,0,228609:0:0:0:0:
448,192,228609,128,0,228647:0:0:0:0:
192,192,228647,128,0,228721:0:0:0:0:
320,192,228684,128,0,228721:0:0:0:0:
448,192,228721,128,0,228795:0:0:0:0:
64,192,228758,128,0,228869:0:0:0:0:
192,192,228795,128,0,228944:0:0:0:0:
320,192,228795,128,0,228869:0:0:0:0:
448,192,228869,128,0,229018:0:0:0:0:
320,192,228944,128,0,229018:0:0:0:0:
64,192,228944,128,0,229092:0:0:0:0:
192,192,229018,128,0,229055:0:0:0:0:
320,192,229092,128,0,229129:0:0:0:0:
448,192,229092,128,0,229166:0:0:0:0:
192,192,229129,128,0,229166:0:0:0:0:
64,192,229166,128,0,229241:0:0:0:0:
320,192,229203,128,0,229315:0:0:0:0:
448,192,229241,128,0,229315:0:0:0:0:
192,192,229241,128,0,229389:0:0:0:0:
64,192,229315,128,0,229463:0:0:0:0:
320,192,229389,128,0,229538:0:0:0:0:
448,192,229389,128,0,229463:0:0:0:0:
192,192,229463,128,0,229612:0:0:0:0:
448,192,229538,128,0,229686:0:0:0:0:
64,192,229538,128,0,229612:0:0:0:0:
320,192,229612,128,0,229649:0:0:0:0:
192,192,229686,128,0,229760:0:0:0:0:
64,192,229686,128,0,229723:0:0:0:0:
320,192,229723,128,0,229760:0:0:0:0:
448,192,229760,128,0,229835:0:0:0:0:
64,192,229798,128,0,229909:0:0:0:0:
192,192,229835,128,0,229909:0:0:0:0:
320,192,229835,128,0,229946:0:0:0:0:
448,192,229909,128,0,229983:0:0:0:0:
192,192,229983,128,0,230020:0:0:0:0:
64,192,229983,128,0,230057:0:0:0:0:
320,192,230020,128,0,230057:0:0:0:0:
448,192,230057,128,0,230132:0:0:0:0:
192,192,230095,128,0,230206:0:0:0:0:
320,192,230132,128,0,230206:0:0:0:0:
64,192,230132,128,0,230243:0:0:0:0:
448,192,230206,128,0,230280:0:0:0:0:
320,192,230280,128,0,230317:0:0:0:0:
192,192,230280,128,0,230354:0:0:0:0:
64,192,230317,128,0,230354:0:0:0:0:
448,192,230354,128,0,230429:0:0:0:0:
320,192,230392,128,0,230503:0:0:0:0:
192,192,230429,128,0,230503:0:0:0:0:
64,192,230429,128,0,230503:0:0:0:0:
448,192,230503,128,0,230577:0:0:0:0:
320,192,230577,128,0,230651:0:0:0:0:
192,192,230577,128,0,230726:0:0:0:0:
64,192,230577,128,0,230651:0:0:0:0:
448,192,230651,128,0,230800:0:0:0:0:
320,192,230726,128,0,230800:0:0:0:0:
64,192,230726,128,0,230837:0:0:0:0:
192,192,230800,128,0,230874:0:0:0:0:
320,192,230874,128,0,230911:0:0:0:0:
448,192,230874,128,0,230949:0:0:0:0:
64,192,230911,128,0,230949:0:0:0:0:
192,192,230949,128,0,231023:0:0:0:0:
320,192,230986,128,0,231097:0:0:0:0:
448,192,231023,128,0,231097:0:0:0:0:
64,192,231023,128,0,231097:0:0:0:0:
192,192,231097,128,0,231171:0:0:0:0:
320,192,231171,128,0,231320:0:0:0:0:
448,192,231171,128,0,231246:0:0:0:0:
64,192,231171,128,0,231246:0:0:0:0:
192,192,231246,128,0,231283:0:0:0:0:
448,192,231320,128,0,231357:0:0:0:0:
64,192,231320,128,0,231394:0:0:0:0:
192,192,231357,128,0,231394:0:0:0:0:
320,192,231394,128,0,231431:0:0:0:0:
448,192,231431,128,0,231468:0:0:0:0:
192,192,231468,128,0,231505:0:0:0:0:
64,192,231468,128,0,231543:0:0:0:0:
320,192,231505,128,0,231543:0:0:0:0:
448,192,231543,128,0,231617:0:0:0:0:
192,192,231580,128,0,231765:0:0:0:0:
64,192,231617,128,0,231691:0:0:0:0:
320,192,231617,128,0,231691:0:0:0:0:
448,192,231691,128,0,231840:0:0:0:0:
320,192,231765,128,0,231840:0:0:0:0:
64,192,231765,128,0,231914:0:0:0:0:
192,192,231840,128,0,231988:0:0:0:0:
320,192,231914,128,0,231988:0:0:0:0:
448,192,231914,128,0,232025:0:0:0:0:
64,192,231988,128,0,232062:0:0:0:0:
192,192,232062,128,0,232100:0:0:0:0:
320,192,232062,128,0,232137:0:0:0:0:
448,192,232100,128,0,232137:0:0:0:0:
64,192,232137,128,0,232285:0:0:0:0:
192,192,232174,128,0,232211:0:0:0:0:
320,192,232211,128,0,232285:0:0:0:0:
448,192,232211,128,0,232285:0:0:0:0:
192,192,232285,128,0,232359:0:0:0:0:
64,192,232359,128,0,232434:0:0:0:0:
320,192,232359,128,0,232434:0:0:0:0:
448,192,232359,128,0,232508:0:0:0:0:
192,192,232434,128,0,232582:0:0:0:0:
64,192,232508,128,0,232582:0:0:0:0:
320,192,232508,128,0,232619:0:0:0:0:
448,192,232582,128,0,232656:0:0:0:0:
192,192,232656,128,0,232805:0:0:0:0:
64,192,232656,128,0,232805:0:0:0:0:
320,192,232694,128,0,232731:0:0:0:0:
448,192,232731,128,0,232879:0:0:0:0:
320,192,232805,128,0,232953:0:0:0:0:
64,192,232879,1,0,0:0:0:0:
192,192,232879,1,0,0:0:0:0:
448,192,232953,128,0,233028:0:0:0:0:
192,192,232953,128,0,233102:0:0:0:0:
64,192,232953,128,0,233028:0:0:0:0:
320,192,233028,128,0,233176:0:0:0:0:
448,192,233102,128,0,233176:0:0:0:0:
64,192,233102,128,0,233176:0:0:0:0:
192,192,233176,128,0,233250:0:0:0:0:
320,192,233250,128,0,233325:0:0:0:0:
448,192,233250,128,0,233325:0:0:0:0:
64,192,233250,128,0,233473:0:0:0:0:
192,192,233325,128,0,233399:0:0:0:0:
320,192,233399,1,0,0:0:0:0:
448,192,233399,1,0,0:0:0:0:
192,192,233473,1,0,0:0:0:0:
320,192,233473,128,0,233548:0:0:0:0:
448,192,233473,128,0,233548:0:0:0:0:
192,192,233548,128,0,233622:0:0:0:0:
64,192,233548,128,0,233622:0:0:0:0:
448,192,233622,128,0,233696:0:0:0:0:
320,192,233622,128,0,233770:0:0:0:0:
64,192,233696,1,0,0:0:0:0:
192,192,233696,1,0,0:0:0:0:
448,192,233770,1,0,0:0:0:0:
192,192,233770,128,0,233807:0:0:0:0:
64,192,233770,128,0,233845:0:0:0:0:
320,192,233845,128,0,233882:0:0:0:0:
448,192,233845,128,0,233919:0:0:0:0:
192,192,233882,128,0,233919:0:0:0:0:
64,192,233919,128,0,233993:0:0:0:0:
320,192,233956,128,0,234067:0:0:0:0:
192,192,233993,128,0,234067:0:0:0:0:
448,192,233993,128,0,234142:0:0:0:0:
64,192,234067,128,0,234104:0:0:0:0:
192,192,234142,128,0,234216:0:0:0:0:
320,192,234142,128,0,234253:0:0:0:0:
64,192,234179,128,0,234216:0:0:0:0:
448,192,234216,128,0,234290:0:0:0:0:
64,192,234290,128,0,234439:0:0:0:0:
192,192,234290,128,0,234401:0:0:0:0:
320,192,234327,128,0,234364:0:0:0:0:
448,192,234364,1,0,0:0:0:0:
448,192,234439,128,0,234513:0:0:0:0:
320,192,234439,128,0,234513:0:0:0:0:
192,192,234476,128,0,234587:0:0:0:0:
64,192,234513,128,0,234661:0:0:0:0:
320,192,234587,128,0,234661:0:0:0:0:
448,192,234587,128,0,234736:0:0:0:0:
192,192,234661,128,0,234699:0:0:0:0:
320,192,234736,128,0,234773:0:0:0:0:
64,192,234736,128,0,234810:0:0:0:0:
192,192,234773,128,0,234810:0:0:0:0:
448,192,234810,128,0,234847:0:0:0:0:
320,192,234847,128,0,234884:0:0:0:0:
192,192,234884,128,0,234921:0:0:0:0:
64,192,234884,128,0,234958:0:0:0:0:
448,192,234921,128,0,234958:0:0:0:0:
320,192,234958,128,0,234996:0:0:0:0:
192,192,234996,128,0,235033:0:0:0:0:
64,192,235033,128,0,235070:0:0:0:0:
448,192,235033,128,0,235107:0:0:0:0:
320,192,235070,128,0,235107:0:0:0:0:
192,192,235107,128,0,235181:0:0:0:0:
64,192,235144,128,0,235255:0:0:0:0:
320,192,235181,128,0,235255:0:0:0:0:
448,192,235181,128,0,235330:0:0:0:0:
192,192,235255,128,0,235404:0:0:0:0:
64,192,235330,128,0,235404:0:0:0:0:
320,192,235330,128,0,235441:0:0:0:0:
448,192,235404,128,0,235478:0:0:0:0:
192,192,235478,128,0,235552:0:0:0:0:
64,192,235478,128,0,235590:0:0:0:0:
320,192,235515,128,0,235552:0:0:0:0:
448,192,235552,128,0,235627:0:0:0:0:
320,192,235627,128,0,235664:0:0:0:0:
192,192,235627,128,0,235701:0:0:0:0:
64,192,235664,128,0,235701:0:0:0:0:
448,192,235701,128,0,235775:0:0:0:0:
320,192,235738,128,0,235868:0:0:0:0:
192,192,235775,128,0,235942:0:0:0:0:
64,192,235775,128,0,235850:0:0:0:0:
448,192,235850,128,0,235924:0:0:0:0:
64,192,235924,128,0,236017:0:0:0:0:
320,192,235942,128,0,235998:0:0:0:0:
448,192,235998,128,0,236091:0:0:0:0:
192,192,236017,128,0,236072:0:0:0:0:
320,192,236072,128,0,236147:0:0:0:0:
64,192,236091,128,0,236147:0:0:0:0:
192,192,236147,128,0,236221:0:0:0:0:
448,192,236165,128,0,236202:0:0:0:0:
320,192,236221,128,0,236258:0:0:0:0:
64,192,236221,128,0,236295:0:0:0:0:
448,192,236258,128,0,236295:0:0:0:0:
192,192,236295,128,0,236369:0:0:0:0:
320,192,236332,128,0,236444:0:0:0:0:
448,192,236369,128,0,236444:0:0:0:0:
64,192,236369,128,0,236518:0:0:0:0:
192,192,236444,128,0,236481:0:0:0:0:
320,192,236518,128,0,236592:0:0:0:0:
448,192,236518,128,0,236629:0:0:0:0:
192,192,236555,128,0,236592:0:0:0:0:
64,192,236592,128,0,236666:0:0:0:0:
320,192,236666,128,0,236741:0:0:0:0:
192,192,236666,128,0,236778:0:0:0:0:
448,192,236703,128,0,236741:0:0:0:0:
64,192,236741,128,0,236815:0:0:0:0:
320,192,236815,128,0,236889:0:0:0:0:
448,192,236815,128,0,236889:0:0:0:0:
192,192,236852,128,0,236963:0:0:0:0:
64,192,236889,128,0,236926:0:0:0:0:
320,192,236963,128,0,237038:0:0:0:0:
448,192,236963,128,0,237038:0:0:0:0:
64,192,237000,128,0,237075:0:0:0:0:
192,192,237038,128,0,237112:0:0:0:0:
320,192,237112,128,0,237186:0:0:0:0:
448,192,237112,128,0,237260:0:0:0:0:
64,192,237149,128,0,237186:0:0:0:0:
192,192,237186,128,0,237223:0:0:0:0:
320,192,237260,128,0,237298:0:0:0:0:
64,192,237260,128,0,237335:0:0:0:0:
192,192,237298,128,0,237335:0:0:0:0:
448,192,237335,128,0,237372:0:0:0:0:
320,192,237372,128,0,237409:0:0:0:0:
192,192,237409,128,0,237483:0:0:0:0:
64,192,237409,128,0,237557:0:0:0:0:
448,192,237446,128,0,237483:0:0:0:0:
320,192,237483,128,0,237632:0:0:0:0:
448,192,237557,128,0,237632:0:0:0:0:
192,192,237557,128,0,237780:0:0:0:0:
64,192,237632,128,0,237706:0:0:0:0:
320,192,237706,128,0,237817:0:0:0:0:
448,192,237706,128,0,237780:0:0:0:0:
64,192,237780,128,0,237854:0:0:0:0:
192,192,237854,128,0,237966:0:0:0:0:
448,192,237854,128,0,237929:0:0:0:0:
320,192,237892,128,0,237929:0:0:0:0:
64,192,237929,128,0,238003:0:0:0:0:
320,192,238003,128,0,238077:0:0:0:0:
448,192,238003,128,0,238040:0:0:0:0:
192,192,238040,128,0,238077:0:0:0:0:
64,192,238077,128,0,238114:0:0:0:0:
448,192,238114,128,0,238151:0:0:0:0:
320,192,238151,128,0,238226:0:0:0:0:
192,192,238151,128,0,238263:0:0:0:0:
64,192,238189,128,0,238300:0:0:0:0:
448,192,238226,128,0,238300:0:0:0:0:
320,192,238300,128,0,238374:0:0:0:0:
192,192,238337,128,0,238411:0:0:0:0:
64,192,238374,128,0,238449:0:0:0:0:
448,192,238374,128,0,238523:0:0:0:0:
320,192,238449,128,0,238523:0:0:0:0:
192,192,238486,128,0,238560:0:0:0:0:
64,192,238523,128,0,238597:0:0:0:0:
320,192,238597,128,0,238746:0:0:0:0:
448,192,238597,128,0,238746:0:0:0:0:
64,192,238746,128,0,238783:0:0:0:0:
192,192,238820,128,0,238857:0:0:0:0:
64,192,238894,128,0,238968:0:0:0:0:
320,192,238894,128,0,239117:0:0:0:0:
448,192,238919,128,0,238993:0:0:0:0:
64,192,239043,128,0,239117:0:0:0:0:
448,192,239067,128,0,239142:0:0:0:0:
64,192,239191,128,0,239265:0:0:0:0:
320,192,239216,128,0,239290:0:0:0:0:
448,192,239241,128,0,239315:0:0:0:0:
64,192,239340,128,0,239414:0:0:0:0:
320,192,239364,128,0,239439:0:0:0:0:
448,192,239389,128,0,239463:0:0:0:0:
64,192,239488,128,0,239711:0:0:0:0:
192,192,239488,128,0,239562:0:0:0:0:
320,192,239513,128,0,239587:0:0:0:0:
448,192,239538,128,0,239612:0:0:0:0:
320,192,239637,128,0,240008:0:0:0:0:
192,192,239661,128,0,239736:0:0:0:0:
448,192,239661,128,0,239736:0:0:0:0:
448,192,239785,128,0,239859:0:0:0:0:
192,192,239810,128,0,239884:0:0:0:0:
64,192,239835,128,0,239909:0:0:0:0:
448,192,239934,128,0,240008:0:0:0:0:
192,192,239958,128,0,240033:0:0:0:0:
64,192,239983,128,0,240057:0:0:0:0:
448,192,240082,128,0,240305:0:0:0:0:
320,192,240082,128,0,240156:0:0:0:0:
192,192,240107,128,0,240181:0:0:0:0:
64,192,240132,128,0,240206:0:0:0:0:
64,192,240231,128,0,240602:0:0:0:0:
192,192,240255,128,0,240330:0:0:0:0:
320,192,240280,128,0,240354:0:0:0:0:
192,192,240379,128,0,240453:0:0:0:0:
320,192,240404,128,0,240478:0:0:0:0:
448,192,240429,128,0,240503:0:0:0:0:
192,192,240528,128,0,240602:0:0:0:0:
320,192,240552,128,0,240627:0:0:0:0:
448,192,240577,128,0,240651:0:0:0:0:
320,192,240676,128,0,240899:0:0:0:0:
448,192,240676,128,0,240750:0:0:0:0:
192,192,240701,128,0,240775:0:0:0:0:
64,192,240726,128,0,240800:0:0:0:0:
192,192,240825,128,0,240936:0:0:0:0:
64,192,240825,128,0,240973:0:0:0:0:
448,192,240825,128,0,240862:0:0:0:0:
320,192,240973,128,0,241085:0:0:0:0:
448,192,240973,128,0,241085:0:0:0:0:
192,192,241048,128,0,241159:0:0:0:0:
64,192,241048,128,0,241159:0:0:0:0:
320,192,241122,128,0,241233:0:0:0:0:
448,192,241122,128,0,241233:0:0:0:0:
192,192,241196,128,0,241233:0:0:0:0:
64,192,241196,128,0,241233:0:0:0:0:
320,192,241270,128,0,241307:0:0:0:0:
448,192,241270,128,0,241307:0:0:0:0:
192,192,241270,128,0,241382:0:0:0:0:
64,192,241270,128,0,241382:0:0:0:0:
320,192,241345,128,0,241456:0:0:0:0:
448,192,241345,128,0,241456:0:0:0:0:
192,192,241419,128,0,241530:0:0:0:0:
64,192,241419,128,0,241530:0:0:0:0:
320,192,241493,128,0,241604:0:0:0:0:
448,192,241493,128,0,241604:0:0:0:0:
192,192,241567,128,0,241679:0:0:0:0:
64,192,241567,128,0,241679:0:0:0:0:
320,192,241642,128,0,241753:0:0:0:0:
448,192,241642,128,0,241753:0:0:0:0:
192,192,241716,128,0,241827:0:0:0:0:
64,192,241716,128,0,241827:0:0:0:0:
320,192,241790,128,0,241827:0:0:0:0:
448,192,241790,128,0,241827:0:0:0:0:
320,192,241864,128,0,241976:0:0:0:0:
448,192,241864,128,0,241976:0:0:0:0:
192,192,241864,128,0,241901:0:0:0:0:
64,192,241864,128,0,241901:0:0:0:0:
192,192,241939,128,0,242050:0:0:0:0:
64,192,241939,128,0,242050:0:0:0:0:
320,192,242013,128,0,242199:0:0:0:0:
448,192,242013,128,0,242087:0:0:0:0:
192,192,242087,128,0,242310:0:0:0:0:
64,192,242087,128,0,242384:0:0:0:0:
448,192,242161,128,0,242755:0:0:0:0:
320,192,242273,128,0,242681:0:0:0:0:
192,192,242384,128,0,242533:0:0:0:0:
64,192,242458,128,0,242830:0:0:0:0:
192,192,242607,128,0,242904:0:0:0:0:
320,192,242755,128,0,243015:0:0:0:0:
448,192,242830,128,0,243052:0:0:0:0:
64,192,242904,128,0,243052:0:0:0:0:
192,192,242978,128,0,243052:0:0:0:0:
320,192,243052,1,0,0:0:0:0:
448,192,243127,1,0,0:0:0:0:
320,192,243201,1,0,0:0:0:0:
192,192,243275,1,0,0:0:0:0:
448,192,243350,128,0,243399:0:0:0:0:
320,192,243374,128,0,243424:0:0:0:0:
192,192,243399,128,0,243449:0:0:0:0:
64,192,243424,128,0,243473:0:0:0:0:
448,192,243449,128,0,243498:0:0:0:0:
320,192,243473,128,0,243523:0:0:0:0:
192,192,243498,128,0,243548:0:0:0:0:
64,192,243523,128,0,243572:0:0:0:0:
448,192,243548,128,0,243597:0:0:0:0:
320,192,243572,128,0,243622:0:0:0:0:
192,192,243597,128,0,243647:0:0:0:0:
64,192,243622,128,0,243671:0:0:0:0:
448,192,243647,128,0,243696:0:0:0:0:
320,192,243671,128,0,243721:0:0:0:0:
192,192,243696,128,0,243746:0:0:0:0:
64,192,243721,128,0,243770:0:0:0:0:
448,192,243746,128,0,243795:0:0:0:0:
320,192,243770,128,0,243820:0:0:0:0:
192,192,243795,128,0,243845:0:0:0:0:
64,192,243820,128,0,243869:0:0:0:0:
448,192,243845,128,0,243894:0:0:0:0:
320,192,243869,128,0,243919:0:0:0:0:
192,192,243894,128,0,243944:0:0:0:0:
64,192,243944,128,0,244092:0:0:0:0:
448,192,243944,128,0,244092:0:0:0:0:
320,192,243944,128,0,244092:0:0:0:0:
64,192,244166,1,0,0:0:0:0:
448,192,244166,1,0,0:0:0:0:
448,192,244241,1,0,0:0:0:0:
320,192,244241,1,0,0:0:0:0:
64,192,244241,1,0,0:0:0:0:
192,192,244241,1,0,0:0:0:0:
448,192,244389,128,0,244463:0:0:0:0:
320,192,244414,128,0,244488:0:0:0:0:
192,192,244439,128,0,244513:0:0:0:0:
64,192,244463,128,0,244538:0:0:0:0:
320,192,244538,128,0,244637:0:0:0:0:
448,192,244538,128,0,244686:0:0:0:0:
192,192,244612,128,0,244637:0:0:0:0:
64,192,244686,128,0,244760:0:0:0:0:
192,192,244711,128,0,244785:0:0:0:0:
320,192,244736,128,0,244810:0:0:0:0:
448,192,244760,128,0,244835:0:0:0:0:
192,192,244835,128,0,244934:0:0:0:0:
320,192,244835,128,0,244934:0:0:0:0:
64,192,244835,128,0,244909:0:0:0:0:
448,192,244909,128,0,244983:0:0:0:0:
192,192,244983,128,0,245057:0:0:0:0:
64,192,245008,128,0,245082:0:0:0:0:
320,192,245057,128,0,245132:0:0:0:0:
448,192,245082,128,0,245156:0:0:0:0:
64,192,245132,128,0,245206:0:0:0:0:
192,192,245156,128,0,245231:0:0:0:0:
448,192,245206,128,0,245280:0:0:0:0:
320,192,245231,128,0,245305:0:0:0:0:
64,192,245280,128,0,245354:0:0:0:0:
192,192,245305,128,0,245379:0:0:0:0:
320,192,245330,128,0,245404:0:0:0:0:
448,192,245354,128,0,245429:0:0:0:0:
320,192,245429,128,0,245503:0:0:0:0:
192,192,245429,128,0,245528:0:0:0:0:
64,192,245429,128,0,245552:0:0:0:0:
448,192,245577,128,0,245651:0:0:0:0:
320,192,245602,128,0,245676:0:0:0:0:
192,192,245627,128,0,245701:0:0:0:0:
64,192,245651,128,0,245726:0:0:0:0:
320,192,245726,128,0,245775:0:0:0:0:
448,192,245726,128,0,245850:0:0:0:0:
192,192,245800,128,0,245924:0:0:0:0:
64,192,245874,128,0,245973:0:0:0:0:
320,192,245874,128,0,245949:0:0:0:0:
448,192,245949,128,0,246048:0:0:0:0:
320,192,246023,128,0,246097:0:0:0:0:
192,192,246023,128,0,246122:0:0:0:0:
64,192,246023,128,0,246147:0:0:0:0:
448,192,246097,128,0,246295:0:0:0:0:
320,192,246171,128,0,246246:0:0:0:0:
192,192,246196,128,0,246270:0:0:0:0:
64,192,246221,128,0,246295:0:0:0:0:
320,192,246320,128,0,246394:0:0:0:0:
192,192,246345,128,0,246419:0:0:0:0:
64,192,246369,128,0,246444:0:0:0:0:
448,192,246468,128,0,246543:0:0:0:0:
320,192,246493,128,0,246567:0:0:0:0:
192,192,246518,128,0,246592:0:0:0:0:
64,192,246592,1,0,0:0:0:0:
448,192,246617,128,0,246691:0:0:0:0:
320,192,246642,128,0,246716:0:0:0:0:
192,192,246666,128,0,246741:0:0:0:0:
64,192,246765,128,0,246840:0:0:0:0:
192,192,246802,128,0,246877:0:0:0:0:
320,192,246840,128,0,246914:0:0:0:0:
448,192,246877,128,0,246951:0:0:0:0:
64,192,246914,128,0,247062:0:0:0:0:
192,192,246914,128,0,247062:0:0:0:0:
448,192,247062,128,0,247112:0:0:0:0:
320,192,247087,128,0,247137:0:0:0:0:
192,192,247112,128,0,247161:0:0:0:0:
64,192,247137,128,0,247186:0:0:0:0:
448,192,247161,128,0,247211:0:0:0:0:
192,192,247211,128,0,247260:0:0:0:0:
64,192,247211,128,0,247260:0:0:0:0:
320,192,247211,128,0,247260:0:0:0:0:
448,192,247285,1,0,0:0:0:0:
448,192,247359,128,0,247434:0:0:0:0:
320,192,247384,128,0,247458:0:0:0:0:
192,192,247409,128,0,247483:0:0:0:0:
64,192,247434,128,0,247508:0:0:0:0:
448,192,247508,128,0,247557:0:0:0:0:
320,192,247533,128,0,247582:0:0:0:0:
192,192,247557,128,0,247607:0:0:0:0:
64,192,247582,128,0,247632:0:0:0:0:
448,192,247607,128,0,247656:0:0:0:0:
320,192,247632,128,0,247681:0:0:0:0:
192,192,247656,128,0,247706:0:0:0:0:
64,192,247681,128,0,247731:0:0:0:0:
448,192,247706,128,0,247755:0:0:0:0:
320,192,247731,128,0,247780:0:0:0:0:
192,192,247755,128,0,247805:0:0:0:0:
64,192,247780,128,0,247830:0:0:0:0:
320,192,247805,128,0,247854:0:0:0:0:
448,192,247830,128,0,247879:0:0:0:0:
64,192,247854,128,0,247904:0:0:0:0:
192,192,247879,128,0,247929:0:0:0:0:
320,192,247904,128,0,247953:0:0:0:0:
448,192,247929,128,0,247978:0:0:0:0:
64,192,247953,128,0,248003:0:0:0:0:
192,192,247978,128,0,248028:0:0:0:0:
320,192,248003,128,0,248052:0:0:0:0:
448,192,248028,128,0,248077:0:0:0:0:
64,192,248052,128,0,248102:0:0:0:0:
192,192,248077,128,0,248127:0:0:0:0:
320,192,248102,128,0,248176:0:0:0:0:
448,192,248139,128,0,248213:0:0:0:0:
192,192,248176,128,0,248250:0:0:0:0:
64,192,248213,128,0,248288:0:0:0:0:
320,192,248250,128,0,248325:0:0:0:0:
448,192,248288,128,0,248362:0:0:0:0:
192,192,248325,128,0,248399:0:0:0:0:
64,192,248362,128,0,248436:0:0:0:0:
320,192,248399,128,0,248473:0:0:0:0:
448,192,248436,128,0,248510:0:0:0:0:
192,192,248473,128,0,248548:0:0:0:0:
64,192,248510,128,0,248585:0:0:0:0:
320,192,248548,128,0,248622:0:0:0:0:
448,192,248585,128,0,248659:0:0:0:0:
192,192,248622,128,0,248696:0:0:0:0:
64,192,248659,128,0,248733:0:0:0:0:
320,192,248696,128,0,248770:0:0:0:0:
448,192,248696,128,0,248795:0:0:0:0:
192,192,248770,128,0,248845:0:0:0:0:
320,192,248845,128,0,248919:0:0:0:0:
448,192,248845,128,0,248919:0:0:0:0:
64,192,248919,1,0,0:0:0:0:
192,192,248919,128,0,248993:0:0:0:0:
64,192,248993,128,0,249092:0:0:0:0:
320,192,248993,128,0,249067:0:0:0:0:
448,192,248993,128,0,249067:0:0:0:0:
192,192,249067,128,0,249117:0:0:0:0:
448,192,249142,128,0,249216:0:0:0:0:
320,192,249166,128,0,249241:0:0:0:0:
192,192,249191,128,0,249265:0:0:0:0:
64,192,249216,128,0,249290:0:0:0:0:
320,192,249290,128,0,249364:0:0:0:0:
448,192,249290,128,0,249414:0:0:0:0:
192,192,249364,128,0,249389:0:0:0:0:
64,192,249439,128,0,249513:0:0:0:0:
192,192,249463,128,0,249538:0:0:0:0:
320,192,249488,128,0,249562:0:0:0:0:
448,192,249513,128,0,249587:0:0:0:0:
320,192,249587,128,0,249686:0:0:0:0:
192,192,249587,128,0,249661:0:0:0:0:
64,192,249587,128,0,249661:0:0:0:0:
448,192,249661,128,0,249736:0:0:0:0:
64,192,249736,128,0,249810:0:0:0:0:
320,192,249736,128,0,249810:0:0:0:0:
192,192,249810,128,0,249884:0:0:0:0:
448,192,249810,128,0,249884:0:0:0:0:
320,192,249884,128,0,250033:0:0:0:0:
64,192,249884,128,0,249958:0:0:0:0:
64,192,250033,128,0,250107:0:0:0:0:
192,192,250057,128,0,250132:0:0:0:0:
320,192,250082,128,0,250156:0:0:0:0:
448,192,250107,128,0,250181:0:0:0:0:
64,192,250181,128,0,250330:0:0:0:0:
192,192,250255,128,0,250330:0:0:0:0:
192,192,250404,128,0,250478:0:0:0:0:
64,192,250478,128,0,250726:0:0:0:0:
320,192,250478,128,0,250577:0:0:0:0:
448,192,250478,128,0,250577:0:0:0:0:
192,192,250552,128,0,250651:0:0:0:0:
448,192,250627,128,0,250726:0:0:0:0:
320,192,250627,128,0,250726:0:0:0:0:
192,192,250701,128,0,250800:0:0:0:0:
64,192,250775,128,0,250874:0:0:0:0:
320,192,250775,128,0,250874:0:0:0:0:
448,192,250775,128,0,250949:0:0:0:0:
192,192,250850,128,0,251023:0:0:0:0:
64,192,250924,128,0,251023:0:0:0:0:
320,192,250924,128,0,251072:0:0:0:0:
448,192,250998,128,0,251122:0:0:0:0:
192,192,251072,128,0,251171:0:0:0:0:
64,192,251072,128,0,251171:0:0:0:0:
320,192,251122,128,0,251221:0:0:0:0:
448,192,251171,128,0,251246:0:0:0:0:
64,192,251221,128,0,251394:0:0:0:0:
192,192,251221,128,0,251320:0:0:0:0:
320,192,251270,128,0,251320:0:0:0:0:
448,192,251295,128,0,251468:0:0:0:0:
320,192,251369,128,0,251468:0:0:0:0:
192,192,251369,128,0,251518:0:0:0:0:
64,192,251444,128,0,251567:0:0:0:0:
320,192,251518,128,0,251617:0:0:0:0:
448,192,251518,128,0,251617:0:0:0:0:
192,192,251567,128,0,251666:0:0:0:0:
64,192,251617,128,0,251691:0:0:0:0:
320,192,251666,128,0,251765:0:0:0:0:
448,192,251666,128,0,251741:0:0:0:0:
192,192,251716,128,0,251790:0:0:0:0:
64,192,251741,128,0,251815:0:0:0:0:
448,192,251815,128,0,251864:0:0:0:0:
320,192,251840,128,0,251889:0:0:0:0:
192,192,251864,128,0,251914:0:0:0:0:
64,192,251889,128,0,251939:0:0:0:0:
448,192,251914,128,0,251963:0:0:0:0:
320,192,251939,128,0,252038:0:0:0:0:
192,192,251963,128,0,252087:0:0:0:0:
64,192,251988,128,0,252038:0:0:0:0:
448,192,252038,128,0,252211:0:0:0:0:
320,192,252112,128,0,252211:0:0:0:0:
64,192,252112,128,0,252211:0:0:0:0:
192,192,252186,128,0,252223:0:0:0:0:
320,192,252260,128,0,252298:0:0:0:0:
448,192,252260,128,0,252335:0:0:0:0:
192,192,252298,128,0,252335:0:0:0:0:
64,192,252335,128,0,252372:0:0:0:0:
320,192,252372,128,0,252409:0:0:0:0:
448,192,252409,128,0,252483:0:0:0:0:
192,192,252409,128,0,252483:0:0:0:0:
64,192,252446,128,0,252483:0:0:0:0:
320,192,252483,128,0,252557:0:0:0:0:
448,192,252557,128,0,252632:0:0:0:0:
192,192,252557,128,0,252780:0:0:0:0:
64,192,252557,128,0,252780:0:0:0:0:
320,192,252632,128,0,252706:0:0:0:0:
448,192,252706,128,0,252780:0:0:0:0:
320,192,252780,128,0,252817:0:0:0:0:
448,192,252854,128,0,252929:0:0:0:0:
192,192,252854,1,0,0:0:0:0:
64,192,252854,128,0,252892:0:0:0:0:
320,192,252892,128,0,252966:0:0:0:0:
192,192,252929,128,0,253003:0:0:0:0:
64,192,252966,128,0,253040:0:0:0:0:
448,192,253003,128,0,253077:0:0:0:0:
320,192,253040,128,0,253114:0:0:0:0:
192,192,253077,128,0,253151:0:0:0:0:
64,192,253114,128,0,253189:0:0:0:0:
448,192,253151,128,0,253399:0:0:0:0:
320,192,253151,128,0,253250:0:0:0:0:
192,192,253226,128,0,253325:0:0:0:0:
320,192,253300,128,0,253399:0:0:0:0:
64,192,253300,128,0,253622:0:0:0:0:
192,192,253374,128,0,253473:0:0:0:0:
320,192,253449,128,0,253548:0:0:0:0:
448,192,253449,128,0,253548:0:0:0:0:
192,192,253523,128,0,253622:0:0:0:0:
320,192,253597,128,0,253696:0:0:0:0:
448,192,253597,128,0,253696:0:0:0:0:
64,192,253671,1,0,0:0:0:0:
192,192,253671,128,0,253746:0:0:0:0:
320,192,253746,128,0,253820:0:0:0:0:
448,192,253746,128,0,253820:0:0:0:0:
64,192,253746,128,0,253845:0:0:0:0:
448,192,253894,128,0,253968:0:0:0:0:
320,192,253919,128,0,253993:0:0:0:0:
192,192,253944,128,0,254018:0:0:0:0:
64,192,253968,128,0,254043:0:0:0:0:
320,192,254043,128,0,254142:0:0:0:0:
448,192,254043,128,0,254117:0:0:0:0:
192,192,254117,128,0,254166:0:0:0:0:
448,192,254191,128,0,254265:0:0:0:0:
320,192,254216,128,0,254290:0:0:0:0:
192,192,254241,128,0,254315:0:0:0:0:
64,192,254265,128,0,254340:0:0:0:0:
192,192,254340,128,0,254439:0:0:0:0:
448,192,254340,128,0,254488:0:0:0:0:
320,192,254340,128,0,254463:0:0:0:0:
192,192,254488,128,0,254562:0:0:0:0:
64,192,254488,128,0,254562:0:0:0:0:
320,192,254562,128,0,254637:0:0:0:0:
448,192,254562,128,0,254637:0:0:0:0:
192,192,254637,128,0,254711:0:0:0:0:
64,192,254637,128,0,254711:0:0:0:0:
320,192,254711,128,0,254785:0:0:0:0:
448,192,254711,128,0,254785:0:0:0:0:
64,192,254785,128,0,254859:0:0:0:0:
192,192,254810,128,0,254884:0:0:0:0:
320,192,254835,128,0,254909:0:0:0:0:
448,192,254859,128,0,254934:0:0:0:0:
320,192,254934,128,0,255008:0:0:0:0:
192,192,254934,128,0,255008:0:0:0:0:
64,192,254934,128,0,255008:0:0:0:0:
448,192,255008,128,0,255107:0:0:0:0:
192,192,255082,128,0,255132:0:0:0:0:
64,192,255082,128,0,255132:0:0:0:0:
320,192,255156,128,0,255206:0:0:0:0:
448,192,255231,128,0,255478:0:0:0:0:
192,192,255231,128,0,255330:0:0:0:0:
64,192,255231,128,0,255330:0:0:0:0:
320,192,255305,128,0,255404:0:0:0:0:
64,192,255379,128,0,255478:0:0:0:0:
192,192,255379,128,0,255478:0:0:0:0:
320,192,255453,128,0,255552:0:0:0:0:
448,192,255528,128,0,255627:0:0:0:0:
192,192,255528,128,0,255627:0:0:0:0:
64,192,255528,128,0,255701:0:0:0:0:
320,192,255602,128,0,255775:0:0:0:0:
448,192,255676,128,0,255775:0:0:0:0:
192,192,255676,128,0,255825:0:0:0:0:
64,192,255750,128,0,255874:0:0:0:0:
320,192,255825,128,0,255924:0:0:0:0:
448,192,255825,128,0,255924:0:0:0:0:
192,192,255874,128,0,255973:0:0:0:0:
64,192,255924,128,0,255998:0:0:0:0:
448,192,255973,128,0,256147:0:0:0:0:
320,192,255973,128,0,256072:0:0:0:0:
192,192,256023,128,0,256072:0:0:0:0:
64,192,256048,128,0,256221:0:0:0:0:
192,192,256122,128,0,256221:0:0:0:0:
320,192,256122,128,0,256270:0:0:0:0:
448,192,256196,128,0,256320:0:0:0:0:
192,192,256270,128,0,256369:0:0:0:0:
64,192,256270,128,0,256369:0:0:0:0:
320,192,256320,128,0,256419:0:0:0:0:
448,192,256369,128,0,256444:0:0:0:0:
192,192,256419,128,0,256518:0:0:0:0:
64,192,256419,128,0,256493:0:0:0:0:
320,192,256468,128,0,256543:0:0:0:0:
448,192,256493,128,0,256567:0:0:0:0:
64,192,256567,128,0,256617:0:0:0:0:
192,192,256592,128,0,256642:0:0:0:0:
320,192,256617,128,0,256666:0:0:0:0:
448,192,256642,128,0,256691:0:0:0:0:
64,192,256666,128,0,256716:0:0:0:0:
192,192,256691,128,0,256790:0:0:0:0:
320,192,256716,128,0,256840:0:0:0:0:
448,192,256741,128,0,256790:0:0:0:0:
64,192,256790,128,0,256963:0:0:0:0:
192,192,256864,128,0,256963:0:0:0:0:
448,192,256864,128,0,256963:0:0:0:0:
320,192,256939,128,0,256976:0:0:0:0:
192,192,257013,128,0,257050:0:0:0:0:
64,192,257013,128,0,257087:0:0:0:0:
320,192,257050,128,0,257087:0:0:0:0:
448,192,257087,128,0,257124:0:0:0:0:
192,192,257124,128,0,257161:0:0:0:0:
64,192,257161,128,0,257236:0:0:0:0:
320,192,257161,128,0,257236:0:0:0:0:
448,192,257199,128,0,257236:0:0:0:0:
192,192,257236,128,0,257310:0:0:0:0:
64,192,257310,128,0,257384:0:0:0:0:
320,192,257310,128,0,257607:0:0:0:0:
448,192,257310,128,0,257607:0:0:0:0:
192,192,257384,128,0,257458:0:0:0:0:
64,192,257458,128,0,257533:0:0:0:0:
192,192,257533,128,0,257570:0:0:0:0:
64,192,257607,128,0,257656:0:0:0:0:
192,192,257632,128,0,257681:0:0:0:0:
320,192,257656,128,0,257706:0:0:0:0:
448,192,257681,128,0,257731:0:0:0:0:
64,192,257706,128,0,257755:0:0:0:0:
192,192,257731,128,0,257780:0:0:0:0:
320,192,257755,128,0,257805:0:0:0:0:
448,192,257780,128,0,257830:0:0:0:0:
64,192,257805,128,0,257854:0:0:0:0:
192,192,257830,128,0,257879:0:0:0:0:
320,192,257854,128,0,257904:0:0:0:0:
448,192,257879,128,0,257929:0:0:0:0:
64,192,257904,128,0,257953:0:0:0:0:
192,192,257929,128,0,257978:0:0:0:0:
320,192,257953,128,0,258003:0:0:0:0:
448,192,257978,128,0,258028:0:0:0:0:
64,192,258003,128,0,258052:0:0:0:0:
192,192,258028,128,0,258077:0:0:0:0:
320,192,258052,128,0,258102:0:0:0:0:
448,192,258077,128,0,258127:0:0:0:0:
64,192,258102,128,0,258151:0:0:0:0:
192,192,258127,128,0,258176:0:0:0:0:
320,192,258151,128,0,258201:0:0:0:0:
448,192,258176,128,0,258226:0:0:0:0:
192,192,258201,128,0,258350:0:0:0:0:
64,192,258201,128,0,258350:0:0:0:0:
320,192,258350,128,0,258424:0:0:0:0:
448,192,258350,128,0,258424:0:0:0:0:
192,192,258424,128,0,258498:0:0:0:0:
64,192,258424,1,0,0:0:0:0:
320,192,258498,128,0,258572:0:0:0:0:
448,192,258498,128,0,258572:0:0:0:0:
64,192,258498,1,0,0:0:0:0:
64,192,258647,128,0,258721:0:0:0:0:
192,192,258671,128,0,258746:0:0:0:0:
320,192,258696,128,0,258770:0:0:0:0:
448,192,258721,128,0,258795:0:0:0:0:
64,192,258795,128,0,258869:0:0:0:0:
192,192,258795,128,0,258894:0:0:0:0:
320,192,258869,128,0,258919:0:0:0:0:
448,192,258944,128,0,259018:0:0:0:0:
320,192,258968,128,0,259043:0:0:0:0:
192,192,258993,128,0,259067:0:0:0:0:
64,192,259018,128,0,259092:0:0:0:0:
320,192,259092,128,0,259166:0:0:0:0:
192,192,259092,128,0,259166:0:0:0:0:
448,192,259092,128,0,259166:0:0:0:0:
64,192,259166,128,0,259241:0:0:0:0:
192,192,259241,128,0,259315:0:0:0:0:
448,192,259241,128,0,259315:0:0:0:0:
64,192,259315,128,0,259389:0:0:0:0:
320,192,259315,128,0,259389:0:0:0:0:
448,192,259389,128,0,259463:0:0:0:0:
192,192,259389,128,0,259463:0:0:0:0:
64,192,259538,128,0,259612:0:0:0:0:
192,192,259562,128,0,259637:0:0:0:0:
320,192,259587,128,0,259661:0:0:0:0:
448,192,259612,128,0,259686:0:0:0:0:
320,192,259686,128,0,259760:0:0:0:0:
64,192,259686,128,0,259760:0:0:0:0:
192,192,259686,128,0,259760:0:0:0:0:
448,192,259760,128,0,259835:0:0:0:0:
64,192,259835,128,0,259909:0:0:0:0:
192,192,259859,128,0,259934:0:0:0:0:
320,192,259884,128,0,259958:0:0:0:0:
448,192,259909,128,0,259983:0:0:0:0:
192,192,259983,128,0,260057:0:0:0:0:
64,192,259983,128,0,260020:0:0:0:0:
320,192,260020,128,0,260095:0:0:0:0:
448,192,260057,128,0,260095:0:0:0:0:
64,192,260057,128,0,260132:0:0:0:0:
192,192,260095,128,0,260169:0:0:0:0:
320,192,260132,128,0,260206:0:0:0:0:
448,192,260132,128,0,260169:0:0:0:0:
64,192,260169,128,0,260243:0:0:0:0:
448,192,260206,128,0,260280:0:0:0:0:
192,192,260206,128,0,260243:0:0:0:0:
320,192,260243,128,0,260317:0:0:0:0:
64,192,260280,128,0,260317:0:0:0:0:
192,192,260280,128,0,260354:0:0:0:0:
448,192,260317,128,0,260392:0:0:0:0:
320,192,260354,128,0,260392:0:0:0:0:
64,192,260354,128,0,260466:0:0:0:0:
192,192,260392,128,0,260429:0:0:0:0:
448,192,260429,128,0,260503:0:0:0:0:
320,192,260429,128,0,260466:0:0:0:0:
192,192,260466,128,0,260540:0:0:0:0:
320,192,260503,128,0,260577:0:0:0:0:
64,192,260503,128,0,260540:0:0:0:0:
448,192,260540,128,0,260614:0:0:0:0:
64,192,260577,128,0,260614:0:0:0:0:
192,192,260577,128,0,260651:0:0:0:0:
320,192,260614,128,0,260689:0:0:0:0:
448,192,260651,128,0,260689:0:0:0:0:
64,192,260651,128,0,260726:0:0:0:0:
192,192,260689,128,0,260763:0:0:0:0:
320,192,260726,128,0,260800:0:0:0:0:
448,192,260726,128,0,260763:0:0:0:0:
64,192,260763,128,0,260837:0:0:0:0:
192,192,260800,128,0,260837:0:0:0:0:
448,192,260800,128,0,260911:0:0:0:0:
320,192,260837,128,0,260874:0:0:0:0:
192,192,260874,128,0,260911:0:0:0:0:
64,192,260874,128,0,260949:0:0:0:0:
320,192,260911,128,0,260986:0:0:0:0:
448,192,260949,128,0,260986:0:0:0:0:
192,192,260949,128,0,261023:0:0:0:0:
64,192,260986,128,0,261060:0:0:0:0:
320,192,261023,128,0,261097:0:0:0:0:
448,192,261023,128,0,261060:0:0:0:0:
192,192,261060,128,0,261134:0:0:0:0:
64,192,261097,128,0,261134:0:0:0:0:
448,192,261097,128,0,261208:0:0:0:0:
320,192,261134,128,0,261208:0:0:0:0:
192,192,261171,128,0,261283:0:0:0:0:
64,192,261171,128,0,261283:0:0:0:0:
320,192,261246,128,0,261357:0:0:0:0:
448,192,261246,128,0,261357:0:0:0:0:
192,192,261320,128,0,261357:0:0:0:0:
64,192,261320,128,0,261357:0:0:0:0:
192,192,261394,128,0,261505:0:0:0:0:
64,192,261394,128,0,261505:0:0:0:0:
320,192,261394,128,0,261431:0:0:0:0:
448,192,261394,128,0,261431:0:0:0:0:
320,192,261468,128,0,261580:0:0:0:0:
448,192,261468,128,0,261580:0:0:0:0:
192,192,261543,128,0,261580:0:0:0:0:
64,192,261543,128,0,261580:0:0:0:0:
192,192,261617,128,0,261654:0:0:0:0:
64,192,261617,128,0,261654:0:0:0:0:
448,192,261617,128,0,261728:0:0:0:0:
320,192,261617,128,0,261728:0:0:0:0:
192,192,261691,128,0,261728:0:0:0:0:
64,192,261691,128,0,261728:0:0:0:0:
448,192,261765,128,0,261840:0:0:0:0:
320,192,261765,128,0,261877:0:0:0:0:
192,192,261765,128,0,261914:0:0:0:0:
64,192,261765,128,0,261951:0:0:0:0:
448,192,261914,128,0,262062:0:0:0:0:
320,192,261951,128,0,262062:0:0:0:0:
192,192,261988,128,0,262062:0:0:0:0:
64,192,262025,128,0,262062:0:0:0:0:
64,192,262359,1,0,0:0:0:0:
192,192,262359,1,0,0:0:0:0:
320,192,262359,1,0,0:0:0:0:
448,192,262359,1,0,0:0:0:0:
320,192,262656,1,0,0:0:0:0:
64,192,262656,1,0,0:0:0:0:
192,192,262805,1,0,0:0:0:0:
320,192,262953,1,0,0:0:0:0:
448,192,262953,1,0,0:0:0:0:
192,192,263102,1,0,0:0:0:0:
448,192,263250,1,0,0:0:0:0:
64,192,263250,1,0,0:0:0:0:
320,192,263399,1,0,0:0:0:0:
192,192,263399,1,0,0:0:0:0:
448,192,263399,1,0,0:0:0:0:
64,192,263548,1,0,0:0:0:0:
448,192,263548,1,0,0:0:0:0:
192,192,263696,1,0,0:0:0:0:
64,192,263696,1,0,0:0:0:0:
192,192,263845,1,0,0:0:0:0:
320,192,263845,1,0,0:0:0:0:
64,192,263845,1,0,0:0:0:0:
448,192,263993,1,0,0:0:0:0:
192,192,263993,1,0,0:0:0:0:
320,192,264142,1,0,0:0:0:0:
448,192,264142,1,0,0:0:0:0:
192,192,264216,1,0,0:0:0:0:
64,192,264216,1,0,0:0:0:0:
320,192,264290,1,0,0:0:0:0:
448,192,264290,1,0,0:0:0:0:
64,192,264364,1,0,0:0:0:0:
192,192,264364,1,0,0:0:0:0:
320,192,264439,1,0,0:0:0:0:
448,192,264439,1,0,0:0:0:0:
192,192,264587,1,0,0:0:0:0:
320,192,264736,1,0,0:0:0:0:
64,192,264736,1,0,0:0:0:0:
448,192,264884,1,0,0:0:0:0:
320,192,265033,1,0,0:0:0:0:
192,192,265033,1,0,0:0:0:0:
64,192,265033,1,0,0:0:0:0:
448,192,265181,1,0,0:0:0:0:
320,192,265330,1,0,0:0:0:0:
64,192,265330,1,0,0:0:0:0:
192,192,265478,1,0,0:0:0:0:
320,192,265627,1,0,0:0:0:0:
448,192,265627,1,0,0:0:0:0:
192,192,265775,1,0,0:0:0:0:
64,192,265775,1,0,0:0:0:0:
448,192,265775,1,0,0:0:0:0:
320,192,265924,1,0,0:0:0:0:
448,192,265924,1,0,0:0:0:0:
192,192,266072,1,0,0:0:0:0:
320,192,266221,1,0,0:0:0:0:
64,192,266221,1,0,0:0:0:0:
448,192,266369,1,0,0:0:0:0:
320,192,266518,1,0,0:0:0:0:
64,192,266518,1,0,0:0:0:0:
448,192,266592,1,0,0:0:0:0:
192,192,266592,1,0,0:0:0:0:
320,192,266666,1,0,0:0:0:0:
64,192,266666,1,0,0:0:0:0:
448,192,266741,1,0,0:0:0:0:
192,192,266741,1,0,0:0:0:0:
320,192,266815,1,0,0:0:0:0:
64,192,266815,1,0,0:0:0:0:
64,192,266963,1,0,0:0:0:0:
320,192,266963,1,0,0:0:0:0:
192,192,267112,1,0,0:0:0:0:
320,192,267186,1,0,0:0:0:0:
448,192,267260,1,0,0:0:0:0:
192,192,267409,1,0,0:0:0:0:
320,192,267409,1,0,0:0:0:0:
448,192,267557,1,0,0:0:0:0:
320,192,267706,1,0,0:0:0:0:
192,192,267706,1,0,0:0:0:0:
64,192,267854,1,0,0:0:0:0:
320,192,268003,1,0,0:0:0:0:
448,192,268003,1,0,0:0:0:0:
192,192,268151,1,0,0:0:0:0:
320,192,268300,1,0,0:0:0:0:
448,192,268300,1,0,0:0:0:0:
64,192,268449,1,0,0:0:0:0:
192,192,268597,1,0,0:0:0:0:
320,192,268597,1,0,0:0:0:0:
64,192,268746,1,0,0:0:0:0:
192,192,268894,1,0,0:0:0:0:
320,192,268894,1,0,0:0:0:0:
448,192,268968,1,0,0:0:0:0:
64,192,268968,1,0,0:0:0:0:
192,192,269043,1,0,0:0:0:0:
320,192,269043,1,0,0:0:0:0:
448,192,269117,1,0,0:0:0:0:
64,192,269117,1,0,0:0:0:0:
192,192,269191,1,0,0:0:0:0:
320,192,269191,1,0,0:0:0:0:
64,192,269340,1,0,0:0:0:0:
192,192,269488,1,0,0:0:0:0:
448,192,269488,1,0,0:0:0:0:
320,192,269637,1,0,0:0:0:0:
448,192,269785,1,0,0:0:0:0:
192,192,269785,1,0,0:0:0:0:
320,192,269934,1,0,0:0:0:0:
192,192,270082,1,0,0:0:0:0:
64,192,270082,1,0,0:0:0:0:
320,192,270231,1,0,0:0:0:0:
192,192,270379,1,0,0:0:0:0:
64,192,270379,1,0,0:0:0:0:
448,192,270528,1,0,0:0:0:0:
192,192,270528,1,0,0:0:0:0:
64,192,270528,1,0,0:0:0:0:
320,192,270676,1,0,0:0:0:0:
192,192,270676,1,0,0:0:0:0:
320,192,270825,1,0,0:0:0:0:
64,192,270973,1,0,0:0:0:0:
192,192,270973,1,0,0:0:0:0:
448,192,270973,1,0,0:0:0:0:
320,192,271122,1,0,0:0:0:0:
192,192,271270,1,0,0:0:0:0:
64,192,271270,1,0,0:0:0:0:
320,192,271345,1,0,0:0:0:0:
448,192,271345,1,0,0:0:0:0:
192,192,271419,1,0,0:0:0:0:
64,192,271419,1,0,0:0:0:0:
320,192,271493,1,0,0:0:0:0:
448,192,271493,1,0,0:0:0:0:
192,192,271567,1,0,0:0:0:0:
64,192,271567,1,0,0:0:0:0:
320,192,271716,1,0,0:0:0:0:
448,192,271864,1,0,0:0:0:0:
192,192,271864,1,0,0:0:0:0:
64,192,272013,1,0,0:0:0:0:
192,192,272161,1,0,0:0:0:0:
448,192,272161,1,0,0:0:0:0:
320,192,272310,1,0,0:0:0:0:
448,192,272458,1,0,0:0:0:0:
192,192,272607,1,0,0:0:0:0:
320,192,272755,1,0,0:0:0:0:
64,192,272755,1,0,0:0:0:0:
448,192,272904,1,0,0:0:0:0:
64,192,272904,1,0,0:0:0:0:
192,192,272904,1,0,0:0:0:0:
320,192,273052,1,0,0:0:0:0:
64,192,273052,1,0,0:0:0:0:
192,192,273201,1,0,0:0:0:0:
448,192,273350,1,0,0:0:0:0:
320,192,273350,1,0,0:0:0:0:
64,192,273350,1,0,0:0:0:0:
320,192,273498,1,0,0:0:0:0:
448,192,273647,1,0,0:0:0:0:
64,192,273647,1,0,0:0:0:0:
192,192,273721,1,0,0:0:0:0:
320,192,273721,1,0,0:0:0:0:
448,192,273795,1,0,0:0:0:0:
64,192,273795,1,0,0:0:0:0:
192,192,273869,1,0,0:0:0:0:
320,192,273869,1,0,0:0:0:0:
448,192,273944,1,0,0:0:0:0:
64,192,273944,1,0,0:0:0:0:
320,192,274092,1,0,0:0:0:0:
192,192,274241,1,0,0:0:0:0:
64,192,274241,1,0,0:0:0:0:
320,192,274389,1,0,0:0:0:0:
448,192,274538,1,0,0:0:0:0:
64,192,274538,1,0,0:0:0:0:
192,192,274686,1,0,0:0:0:0:
320,192,274835,1,0,0:0:0:0:
448,192,274835,1,0,0:0:0:0:
192,192,274983,1,0,0:0:0:0:
320,192,275132,1,0,0:0:0:0:
64,192,275132,1,0,0:0:0:0:
448,192,275280,1,0,0:0:0:0:
320,192,275429,1,0,0:0:0:0:
192,192,275429,1,0,0:0:0:0:
64,192,275577,1,0,0:0:0:0:
192,192,275726,1,0,0:0:0:0:
448,192,275726,1,0,0:0:0:0:
320,192,275874,1,0,0:0:0:0:
448,192,276023,1,0,0:0:0:0:
192,192,276023,1,0,0:0:0:0:
320,192,276097,1,0,0:0:0:0:
64,192,276097,1,0,0:0:0:0:
192,192,276171,1,0,0:0:0:0:
448,192,276171,1,0,0:0:0:0:
320,192,276246,1,0,0:0:0:0:
64,192,276246,1,0,0:0:0:0:
192,192,276320,1,0,0:0:0:0:
448,192,276320,1,0,0:0:0:0:
320,192,276468,1,0,0:0:0:0:
192,192,276617,1,0,0:0:0:0:
64,192,276617,1,0,0:0:0:0:
448,192,276765,1,0,0:0:0:0:
320,192,276914,1,0,0:0:0:0:
64,192,276914,1,0,0:0:0:0:
192,192,277062,1,0,0:0:0:0:
320,192,277211,1,0,0:0:0:0:
64,192,277211,1,0,0:0:0:0:
448,192,277359,1,0,0:0:0:0:
320,192,277508,1,0,0:0:0:0:
192,192,277508,1,0,0:0:0:0:
448,192,277656,1,0,0:0:0:0:
192,192,277656,1,0,0:0:0:0:
64,192,277656,1,0,0:0:0:0:
64,192,277805,1,0,0:0:0:0:
320,192,277805,1,0,0:0:0:0:
192,192,277953,1,0,0:0:0:0:
320,192,278102,1,0,0:0:0:0:
448,192,278102,1,0,0:0:0:0:
192,192,278102,1,0,0:0:0:0:
64,192,278250,1,0,0:0:0:0:
192,192,278399,1,0,0:0:0:0:
448,192,278399,1,0,0:0:0:0:
320,192,278473,1,0,0:0:0:0:
64,192,278473,1,0,0:0:0:0:
448,192,278548,1,0,0:0:0:0:
192,192,278548,1,0,0:0:0:0:
320,192,278622,1,0,0:0:0:0:
64,192,278622,1,0,0:0:0:0:
448,192,278696,1,0,0:0:0:0:
192,192,278696,1,0,0:0:0:0:
320,192,278845,1,0,0:0:0:0:
448,192,278993,1,0,0:0:0:0:
192,192,278993,1,0,0:0:0:0:
320,192,279142,1,0,0:0:0:0:
64,192,279290,1,0,0:0:0:0:
192,192,279290,1,0,0:0:0:0:
448,192,279439,1,0,0:0:0:0:
320,192,279587,1,0,0:0:0:0:
448,192,279587,1,0,0:0:0:0:
320,192,279736,1,0,0:0:0:0:
320,192,279884,1,0,0:0:0:0:
192,192,279884,1,0,0:0:0:0:
64,192,280033,1,0,0:0:0:0:
192,192,280033,1,0,0:0:0:0:
448,192,280033,1,0,0:0:0:0:
320,192,280181,1,0,0:0:0:0:
64,192,280181,1,0,0:0:0:0:
192,192,280330,1,0,0:0:0:0:
320,192,280478,1,0,0:0:0:0:
448,192,280478,1,0,0:0:0:0:
192,192,280478,1,0,0:0:0:0:
64,192,280627,1,0,0:0:0:0:
320,192,280775,1,0,0:0:0:0:
448,192,280775,1,0,0:0:0:0:
192,192,280924,1,0,0:0:0:0:
320,192,281072,1,0,0:0:0:0:
64,192,281072,1,0,0:0:0:0:
448,192,281221,1,0,0:0:0:0:
320,192,281369,1,0,0:0:0:0:
448,192,281369,1,0,0:0:0:0:
192,192,281518,1,0,0:0:0:0:
320,192,281666,1,0,0:0:0:0:
64,192,281666,1,0,0:0:0:0:
448,192,281815,1,0,0:0:0:0:
320,192,281963,1,0,0:0:0:0:
192,192,281963,1,0,0:0:0:0:
64,192,282112,1,0,0:0:0:0:
192,192,282260,1,0,0:0:0:0:
448,192,282260,1,0,0:0:0:0:
320,192,282409,1,0,0:0:0:0:
192,192,282409,1,0,0:0:0:0:
64,192,282409,1,0,0:0:0:0:
448,192,282557,1,0,0:0:0:0:
64,192,282557,1,0,0:0:0:0:
320,192,282706,1,0,0:0:0:0:
192,192,282854,1,0,0:0:0:0:
64,192,282854,1,0,0:0:0:0:
320,192,283003,1,0,0:0:0:0:
448,192,283151,1,0,0:0:0:0:
64,192,283151,1,0,0:0:0:0:
192,192,283300,1,0,0:0:0:0:
320,192,283449,1,0,0:0:0:0:
192,192,283449,1,0,0:0:0:0:
448,192,283597,1,0,0:0:0:0:
320,192,283746,1,0,0:0:0:0:
64,192,283746,1,0,0:0:0:0:
192,192,283894,1,0,0:0:0:0:
320,192,284043,1,0,0:0:0:0:
448,192,284043,1,0,0:0:0:0:
192,192,284191,1,0,0:0:0:0:
320,192,284340,1,0,0:0:0:0:
448,192,284340,1,0,0:0:0:0:
192,192,284488,1,0,0:0:0:0:
64,192,284488,1,0,0:0:0:0:
320,192,284488,1,0,0:0:0:0:
64,192,284637,1,0,0:0:0:0:
192,192,284637,1,0,0:0:0:0:
320,192,284785,1,0,0:0:0:0:
448,192,284785,1,0,0:0:0:0:
192,192,284934,1,0,0:0:0:0:
64,192,284934,1,0,0:0:0:0:
320,192,285082,1,0,0:0:0:0:
192,192,285082,1,0,0:0:0:0:
192,192,285231,1,0,0:0:0:0:
448,192,285231,1,0,0:0:0:0:
320,192,285379,1,0,0:0:0:0:
448,192,285528,1,0,0:0:0:0:
64,192,285528,1,0,0:0:0:0:
192,192,285676,1,0,0:0:0:0:
320,192,285676,1,0,0:0:0:0:
320,192,285825,1,0,0:0:0:0:
64,192,285825,1,0,0:0:0:0:
192,192,285973,1,0,0:0:0:0:
320,192,285973,1,0,0:0:0:0:
192,192,286122,1,0,0:0:0:0:
448,192,286122,1,0,0:0:0:0:
320,192,286270,1,0,0:0:0:0:
192,192,286419,1,0,0:0:0:0:
64,192,286419,1,0,0:0:0:0:
320,192,286567,1,0,0:0:0:0:
64,192,286567,1,0,0:0:0:0:
448,192,286716,1,0,0:0:0:0:
192,192,286716,1,0,0:0:0:0:
320,192,286864,1,0,0:0:0:0:
64,192,286864,1,0,0:0:0:0:
192,192,287013,1,0,0:0:0:0:
320,192,287013,1,0,0:0:0:0:
192,192,287161,1,0,0:0:0:0:
448,192,287161,1,0,0:0:0:0:
320,192,287310,1,0,0:0:0:0:
64,192,287310,1,0,0:0:0:0:
192,192,287458,1,0,0:0:0:0:
320,192,287607,1,0,0:0:0:0:
448,192,287607,1,0,0:0:0:0:
192,192,287755,1,0,0:0:0:0:
320,192,287904,1,0,0:0:0:0:
448,192,287904,1,0,0:0:0:0:
64,192,287904,1,0,0:0:0:0:
192,192,288052,1,0,0:0:0:0:
320,192,288201,1,0,0:0:0:0:
64,192,288201,1,0,0:0:0:0:
448,192,288350,1,0,0:0:0:0:
192,192,288498,1,0,0:0:0:0:
64,192,288498,1,0,0:0:0:0:
320,192,288647,1,0,0:0:0:0:
448,192,288795,1,0,0:0:0:0:
192,192,288795,1,0,0:0:0:0:
320,192,288944,1,0,0:0:0:0:
64,192,289092,1,0,0:0:0:0:
192,192,289092,1,0,0:0:0:0:
448,192,289241,1,0,0:0:0:0:
320,192,289389,1,0,0:0:0:0:
192,192,289389,1,0,0:0:0:0:
64,192,289538,1,0,0:0:0:0:
192,192,289538,1,0,0:0:0:0:
320,192,289538,1,0,0:0:0:0:
192,192,289686,1,0,0:0:0:0:
320,192,289686,1,0,0:0:0:0:
448,192,289835,1,0,0:0:0:0:
320,192,289983,1,0,0:0:0:0:
192,192,289983,1,0,0:0:0:0:
64,192,289983,1,0,0:0:0:0:
64,192,290132,1,0,0:0:0:0:
192,192,290280,1,0,0:0:0:0:
320,192,290429,1,0,0:0:0:0:
192,192,290429,1,0,0:0:0:0:
64,192,290429,1,0,0:0:0:0:
320,192,290577,1,0,0:0:0:0:
448,192,290726,1,0,0:0:0:0:
64,192,290874,1,0,0:0:0:0:
320,192,290874,1,0,0:0:0:0:
192,192,291023,1,0,0:0:0:0:
320,192,291171,1,0,0:0:0:0:
448,192,291171,1,0,0:0:0:0:
192,192,291320,1,0,0:0:0:0:
64,192,291320,1,0,0:0:0:0:
448,192,291468,1,0,0:0:0:0:
64,192,291468,1,0,0:0:0:0:
320,192,291617,1,0,0:0:0:0:
448,192,291617,1,0,0:0:0:0:
192,192,291765,1,0,0:0:0:0:
64,192,291765,1,0,0:0:0:0:
448,192,291914,1,0,0:0:0:0:
320,192,291914,1,0,0:0:0:0:
64,192,291914,1,0,0:0:0:0:
192,192,292062,1,0,0:0:0:0:
64,192,292062,1,0,0:0:0:0:
320,192,292211,1,0,0:0:0:0:
448,192,292211,1,0,0:0:0:0:
192,192,292359,1,0,0:0:0:0:
448,192,292359,1,0,0:0:0:0:
64,192,292359,1,0,0:0:0:0:
320,192,292508,1,0,0:0:0:0:
192,192,292508,1,0,0:0:0:0:
320,192,292656,1,0,0:0:0:0:
448,192,292656,1,0,0:0:0:0:
320,192,292805,1,0,0:0:0:0:
64,192,292805,1,0,0:0:0:0:
192,192,292805,1,0,0:0:0:0:
64,192,292953,1,0,0:0:0:0:
448,192,292953,1,0,0:0:0:0:
192,192,293102,1,0,0:0:0:0:
320,192,293102,1,0,0:0:0:0:
320,192,293250,1,0,0:0:0:0:
448,192,293250,1,0,0:0:0:0:
192,192,293399,1,0,0:0:0:0:
448,192,293399,1,0,0:0:0:0:
320,192,293548,1,0,0:0:0:0:
64,192,293548,1,0,0:0:0:0:
64,192,293696,1,0,0:0:0:0:
192,192,293696,1,0,0:0:0:0:
320,192,293845,1,0,0:0:0:0:
192,192,293845,1,0,0:0:0:0:
320,192,293993,1,0,0:0:0:0:
64,192,293993,1,0,0:0:0:0:
192,192,294142,1,0,0:0:0:0:
448,192,294142,1,0,0:0:0:0:
320,192,294290,1,0,0:0:0:0:
192,192,294290,1,0,0:0:0:0:
64,192,294290,1,0,0:0:0:0:
192,192,294439,1,0,0:0:0:0:
448,192,294439,1,0,0:0:0:0:
320,192,294587,1,0,0:0:0:0:
64,192,294587,1,0,0:0:0:0:
192,192,294736,1,0,0:0:0:0:
320,192,294736,1,0,0:0:0:0:
448,192,294736,1,0,0:0:0:0:
448,192,294884,1,0,0:0:0:0:
64,192,294884,1,0,0:0:0:0:
192,192,295033,1,0,0:0:0:0:
320,192,295033,1,0,0:0:0:0:
320,192,295181,1,0,0:0:0:0:
64,192,295181,1,0,0:0:0:0:
192,192,295181,1,0,0:0:0:0:
64,192,295330,1,0,0:0:0:0:
192,192,295330,1,0,0:0:0:0:
320,192,295478,1,0,0:0:0:0:
448,192,295478,1,0,0:0:0:0:
192,192,295627,1,0,0:0:0:0:
64,192,295627,1,0,0:0:0:0:
192,192,295775,1,0,0:0:0:0:
448,192,295775,1,0,0:0:0:0:
320,192,295924,1,0,0:0:0:0:
448,192,295924,1,0,0:0:0:0:
448,192,296072,1,0,0:0:0:0:
64,192,296072,1,0,0:0:0:0:
192,192,296221,1,0,0:0:0:0:
64,192,296221,1,0,0:0:0:0:
64,192,296369,1,0,0:0:0:0:
320,192,296369,1,0,0:0:0:0:
192,192,296518,1,0,0:0:0:0:
320,192,296518,1,0,0:0:0:0:
320,192,296666,1,0,0:0:0:0:
448,192,296666,1,0,0:0:0:0:
64,192,296666,1,0,0:0:0:0:
64,192,296815,1,0,0:0:0:0:
192,192,296815,1,0,0:0:0:0:
320,192,296963,1,0,0:0:0:0:
64,192,296963,1,0,0:0:0:0:
192,192,297112,1,0,0:0:0:0:
448,192,297112,1,0,0:0:0:0:
64,192,297112,1,0,0:0:0:0:
320,192,297260,1,0,0:0:0:0:
448,192,297260,1,0,0:0:0:0:
192,192,297409,1,0,0:0:0:0:
64,192,297409,1,0,0:0:0:0:
320,192,297557,1,0,0:0:0:0:
448,192,297557,1,0,0:0:0:0:
192,192,297557,1,0,0:0:0:0:
64,192,297706,1,0,0:0:0:0:
448,192,297706,1,0,0:0:0:0:
192,192,297854,1,0,0:0:0:0:
320,192,297854,1,0,0:0:0:0:
192,192,298003,1,0,0:0:0:0:
448,192,298003,1,0,0:0:0:0:
320,192,298151,1,0,0:0:0:0:
64,192,298151,1,0,0:0:0:0:
64,192,298300,1,0,0:0:0:0:
192,192,298300,1,0,0:0:0:0:
320,192,298449,1,0,0:0:0:0:
448,192,298449,1,0,0:0:0:0:
448,192,298597,1,0,0:0:0:0:
192,192,298597,1,0,0:0:0:0:
320,192,298746,1,0,0:0:0:0:
64,192,298746,1,0,0:0:0:0:
192,192,298894,1,0,0:0:0:0:
448,192,298894,1,0,0:0:0:0:
192,192,299043,1,0,0:0:0:0:
64,192,299043,1,0,0:0:0:0:
320,192,299043,1,0,0:0:0:0:
64,192,299191,1,0,0:0:0:0:
448,192,299191,1,0,0:0:0:0:
320,192,299340,1,0,0:0:0:0:
192,192,299340,1,0,0:0:0:0:
64,192,299488,1,0,0:0:0:0:
192,192,299488,1,0,0:0:0:0:
320,192,299488,1,0,0:0:0:0:
448,192,299637,1,0,0:0:0:0:
64,192,299637,1,0,0:0:0:0:
192,192,299785,1,0,0:0:0:0:
320,192,299785,1,0,0:0:0:0:
192,192,299934,1,0,0:0:0:0:
320,192,299934,1,0,0:0:0:0:
448,192,299934,1,0,0:0:0:0:
64,192,300082,1,0,0:0:0:0:
448,192,300082,1,0,0:0:0:0:
192,192,300231,1,0,0:0:0:0:
64,192,300231,1,0,0:0:0:0:
448,192,300379,1,0,0:0:0:0:
64,192,300528,1,0,0:0:0:0:
448,192,300676,1,0,0:0:0:0:
64,192,300825,1,0,0:0:0:0:
448,192,300825,1,0,0:0:0:0:
448,192,300973,1,0,0:0:0:0:
64,192,301122,1,0,0:0:0:0:
448,192,301270,1,0,0:0:0:0:
64,192,301419,1,0,0:0:0:0:
448,192,301567,1,0,0:0:0:0:
64,192,301716,1,0,0:0:0:0:
448,192,301716,1,0,0:0:0:0:
448,192,301864,1,0,0:0:0:0:
64,192,302013,1,0,0:0:0:0:
448,192,302161,1,0,0:0:0:0:
64,192,302310,1,0,0:0:0:0:
448,192,302458,1,0,0:0:0:0:
64,192,302607,1,0,0:0:0:0:
448,192,302607,1,0,0:0:0:0:
