osu file format v14

[General]
AudioFilename: R U Still xxxx.mp3
AudioLeadIn: 0
PreviewTime: 121886
Countdown: 0
SampleSet: Soft
StackLeniency: 0.7
Mode: 0
LetterboxInBreaks: 0
WidescreenStoryboard: 0

[Editor]
DistanceSpacing: 0.8
BeatDivisor: 4
GridSize: 4
TimelineZoom: 2.999999

[Metadata]
Title:R U Still xxxx?
TitleUnicode:R U Still xxxx?
Artist:Camellia
ArtistUnicode:かめりあ
Creator:captin1
Version:Extra
Source:
Tags:planet shaper
BeatmapID:839947
BeatmapSetID:384402

[Difficulty]
HPDrainRate:7
CircleSize:4.2
OverallDifficulty:9
ApproachRate:9.8
SliderMultiplier:1.8
SliderTickRate:1

[Events]
//Background and Video events
0,0,"r u still xxxx.jpg",0,0
//Break Periods
2,35996,39420
2,93432,96856
2,154971,158394
//Storyboard Layer 0 (Background)
//Storyboard Layer 1 (Fail)
//Storyboard Layer 2 (Pass)
//Storyboard Layer 3 (Foreground)
//Storyboard Sound Samples

[TimingPoints]
7079,256.410256410256,4,2,0,50,1,0
18168,-100,4,2,0,70,0,0
19386,-133.333333333333,4,2,0,50,0,0
23489,-100,4,1,0,70,0,0
27591,-133.333333333333,4,2,0,70,0,0
31694,-100,4,1,0,70,0,0
34899,-83.3333333333333,4,1,0,70,0,0
39899,-133.333333333333,4,2,0,70,0,0
48104,-100,4,2,0,70,0,0
55925,-83.3333333333333,4,2,0,70,0,0
56309,-83.3333333333333,4,1,0,70,0,1
56373,-83.3333333333333,4,1,0,70,0,0
59899,-133.333333333333,4,1,0,70,0,0
60155,-71.4285714285714,4,1,0,70,0,0
60412,-83.3333333333333,4,1,0,70,0,0
62976,-133.333333333333,4,1,0,70,0,0
63232,-83.3333333333333,4,1,0,70,0,0
68361,-66.6666666666667,4,1,0,70,0,0
68617,-83.3333333333333,4,1,0,70,0,0
70668,-111.111111111111,4,1,0,50,0,0
72720,-83.3333333333333,4,1,0,70,0,0
76309,-125,4,1,0,70,0,0
76566,-71.4285714285714,4,1,0,70,0,0
76822,-83.3333333333333,4,1,0,70,0,0
80925,-125,4,1,0,70,0,0
81181,-83.3333333333333,4,1,0,70,0,0
84514,-100,4,1,0,70,0,0
87078,-76.9230769230769,4,1,0,70,0,0
97335,-133.333333333333,4,2,0,70,0,0
104514,-200,4,2,0,70,0,0
105540,-100,4,2,0,70,0,0
106566,-133.333333333333,4,2,0,70,0,0
107591,-100,4,2,0,70,0,0
108617,-133.333333333333,4,2,0,70,0,0
109643,-100,4,2,0,70,0,0
110668,-133.333333333333,4,2,0,70,0,0
111694,-100,4,2,0,70,0,0
112720,-133.333333333333,4,2,0,70,0,0
113745,-100,4,2,0,70,0,0
117848,-100,4,1,0,70,0,0
121566,-100,4,2,0,70,0,0
121950,-83.3333333333333,4,2,0,70,0,1
136566,-133.333333333333,4,2,0,70,0,1
136822,-83.3333333333333,4,2,0,70,0,1
137078,-133.333333333333,4,2,0,70,0,1
137335,-66.6666666666667,4,2,0,70,0,1
138361,-90.9090909090909,4,2,0,70,0,0
150668,-133.333333333333,4,2,0,70,0,0
150925,-90.9090909090909,4,2,0,70,0,0
151694,-133.333333333333,4,2,0,70,0,0
151950,-90.9090909090909,4,2,0,70,0,0
153745,-66.6666666666667,4,2,0,70,0,0
154771,-83.3333333333333,4,2,0,70,0,0
160925,-100,4,2,0,70,0,0
164514,-133.333333333333,4,2,0,70,0,0
165027,-100,4,2,0,70,0,0
168617,-133.333333333333,4,2,0,70,0,0
169130,-100,4,2,0,70,0,0
176822,-66.6666666666667,4,2,0,70,0,0
177078,-50,4,2,0,70,0,0
179002,-76.9230769230769,4,2,0,70,0,0
179386,-83.3333333333333,4,1,0,70,0,1
183489,-125,4,2,0,70,0,0
183745,-83.3333333333333,4,1,0,70,0,1
185540,-71.4285714285714,4,1,0,70,0,1
187078,-100,4,1,0,70,0,1
187335,-62.5,4,1,0,70,0,1
187527,-62.5,4,2,0,70,0,0
187591,-83.3333333333333,4,1,0,70,0,1
194771,-83.3333333333333,4,1,0,70,0,0
195796,-71.4285714285714,4,1,0,70,0,1
203937,-83.3333333333333,4,1,0,70,0,0
204002,-62.5,4,1,0,70,0,1
205540,-133.333333333333,4,1,0,70,0,0
206053,-83.3333333333333,4,1,0,70,0,1
207591,-62.5,4,1,0,70,0,0
208104,-58.8235294117647,4,1,0,70,0,1
208617,-100,4,1,0,70,0,1
209130,-58.8235294117647,4,1,0,70,0,1
209643,-133.333333333333,4,1,0,70,0,1
210155,-66.6666666666667,4,1,0,70,0,1
212207,-200,4,2,0,70,0,0
228617,-200,4,1,0,70,0,0

[Colours]
Combo1 : 192,192,192
Combo2 : 145,0,0
Combo3 : 128,128,128
Combo4 : 255,0,0

[HitObjects]
353,214,17335,5,0,0:0:0:0:
329,234,17848,1,0,0:0:0:0:
118,123,18168,6,0,L|129:67,2,45
49,187,18361,6,0,P|79:210|152:211,1,90
263,91,18617,1,0,0:0:0:0:
225,269,18745,1,0,0:0:0:0:
228,292,18809,1,0,0:0:0:0:
232,315,18873,1,0,0:0:0:0:
154,129,19002,1,0,0:0:0:0:
327,296,19130,2,0,L|312:385,1,90
234,182,19386,5,0,0:0:0:0:
426,201,19514,1,0,0:0:0:0:
263,91,19643,2,0,L|191:105,1,67.5000025749208
20,63,19899,1,0,0:0:0:0:
150,168,20027,2,0,L|78:154,1,67.5000025749208
2,234,20284,1,0,0:0:0:0:
142,353,20412,5,0,0:0:0:0:
76,230,20540,2,0,L|83:305,1,67.5000025749208
223,348,20796,1,0,0:0:0:0:
286,280,20925,2,0,L|279:205,1,67.5000025749208
402,110,21181,1,0,0:0:0:0:
402,110,21245,1,0,0:0:0:0:
402,110,21309,1,0,0:0:0:0:
402,110,21373,1,0,0:0:0:0:
402,110,21437,6,0,L|390:180,1,67.5000025749208
204,91,21694,2,0,L|278:97,1,67.5000025749208
376,307,21950,1,0,0:0:0:0:
488,153,22078,1,0,0:0:0:0:
488,153,22143,1,0,0:0:0:0:
488,153,22207,2,0,L|480:64,1,67.5000025749208
225,253,22463,6,0,L|211:327,1,67.5000025749208
135,158,22720,1,0,0:0:0:0:
297,138,22848,1,0,0:0:0:0:
293,306,22976,2,0,L|279:380,1,67.5000025749208
335,231,23168,2,0,L|321:157,1,67.5000025749208
361,87,23361,1,0,0:0:0:0:
448,260,23489,5,0,0:0:0:0:
223,172,23617,1,0,0:0:0:0:
232,137,23681,1,0,0:0:0:0:
241,102,23745,1,0,0:0:0:0:
391,336,23873,1,0,0:0:0:0:
138,329,24002,1,0,0:0:0:0:
332,250,24130,2,0,L|273:246,1,45
135,158,24258,6,0,B|117:116|117:116|132:56,1,90
270,25,24514,1,0,0:0:0:0:
202,285,24643,1,0,0:0:0:0:
166,288,24707,1,0,0:0:0:0:
130,291,24771,1,0,0:0:0:0:
94,295,24835,1,0,0:0:0:0:
64,275,24899,1,0,0:0:0:0:
316,141,25027,5,0,0:0:0:0:
286,344,25155,1,0,0:0:0:0:
221,135,25284,1,0,0:0:0:0:
391,336,25412,1,0,0:0:0:0:
148,206,25540,6,0,L|37:216,1,90
209,85,25796,1,0,0:0:0:0:
163,337,25925,1,0,0:0:0:0:
406,248,26053,1,0,0:0:0:0:
413,212,26117,1,0,0:0:0:0:
420,176,26181,1,0,0:0:0:0:
476,350,26309,5,0,0:0:0:0:
258,239,26437,2,0,L|249:184,2,45
297,352,26694,2,0,L|139:334,1,135,0|0,0:0|2:0,0:0:0:0:
153,302,26950,5,0,0:0:0:0:
117,306,27014,1,0,0:0:0:0:
81,311,27078,1,0,0:0:0:0:
277,87,27207,1,0,0:0:0:0:
369,325,27335,2,0,L|254:286,1,90
147,123,27591,5,0,0:0:0:0:
168,255,27720,1,0,0:0:0:0:
62,134,27848,2,0,L|75:56,1,67.5000025749208
92,280,28104,1,0,0:0:0:0:
245,231,28232,2,0,L|328:248,1,67.5000025749208
429,205,28489,1,0,0:0:0:0:
282,322,28617,5,0,0:0:0:0:
268,132,28745,2,0,L|274:51,1,67.5000025749208
168,217,29002,1,0,0:0:0:0:
344,173,29130,2,0,L|350:254,1,67.5000025749208
202,359,29386,1,0,0:0:0:0:
202,359,29450,1,0,0:0:0:0:
202,359,29514,1,0,0:0:0:0:
202,359,29578,1,0,0:0:0:0:
202,359,29643,6,0,L|108:349,1,67.5000025749208
364,252,29899,2,0,L|270:262,1,67.5000025749208
213,119,30155,1,0,0:0:0:0:
438,160,30284,1,0,0:0:0:0:
438,160,30348,1,0,0:0:0:0:
438,160,30412,2,0,L|446:234,1,67.5000025749208
134,137,30668,6,0,L|45:155,1,67.5000025749208
223,51,30925,1,0,0:0:0:0:
188,235,31053,1,0,0:0:0:0:
325,131,31181,2,0,L|320:54,1,67.5000025749208
394,8,31373,2,0,L|399:85,1,67.5000025749208
438,160,31566,1,0,0:0:0:0:
232,149,31694,5,0,0:0:0:0:
403,274,31822,1,0,0:0:0:0:
439,267,31886,1,0,0:0:0:0:
475,260,31950,1,0,0:0:0:0:
315,357,32078,1,0,0:0:0:0:
340,111,32207,1,0,0:0:0:0:
228,284,32335,2,0,L|235:332,1,45
29,237,32463,6,0,P|64:202|113:183,1,90
340,111,32720,1,0,0:0:0:0:
331,348,32848,1,0,0:0:0:0:
295,354,32912,1,0,0:0:0:0:
260,345,32976,1,0,0:0:0:0:
235,319,33040,1,0,0:0:0:0:
228,284,33104,2,0,L|240:214,1,45
320,44,33232,5,0,0:0:0:0:
116,98,33361,1,0,0:0:0:0:
344,165,33489,1,0,0:0:0:0:
94,121,33617,1,0,0:0:0:0:
305,277,33745,6,0,L|401:269,1,90
462,127,34002,1,0,0:0:0:0:
491,361,34130,1,0,0:0:0:0:
326,185,34258,1,0,0:0:0:0:
321,149,34322,1,0,0:0:0:0:
317,113,34386,1,0,0:0:0:0:
216,347,34514,5,0,0:0:0:0:
415,215,34643,2,0,L|471:223,2,45
227,140,34899,2,0,B|119:143|119:143|66:180,1,161.999995056153,0|0,0:0|2:0,0:0:0:0:
59,273,35155,1,0,0:0:0:0:
303,348,35284,5,0,0:0:0:0:
306,321,35348,1,0,0:0:0:0:
309,294,35412,1,0,0:0:0:0:
313,267,35476,1,0,0:0:0:0:
317,240,35540,1,0,0:0:0:0:
321,213,35604,1,0,0:0:0:0:
325,186,35668,1,0,0:0:0:0:
329,159,35732,1,0,0:0:0:0:
333,132,35796,5,0,0:0:0:0:
303,162,39899,6,0,L|292:246,1,67.5000025749208
215,296,40155,1,0,0:0:0:0:
215,296,40220,1,0,0:0:0:0:
215,296,40284,1,0,0:0:0:0:
367,343,40412,2,0,L|356:259,1,67.5000025749208
230,121,40668,2,0,L|225:74,2,33.7500012874604
380,140,40925,5,0,0:0:0:0:
197,201,41053,2,0,L|120:191,1,67.5000025749208
7,321,41309,2,0,P|74:278|144:298,1,135.000005149842
251,356,41694,2,0,L|263:283,1,67.5000025749208
446,226,41950,6,0,P|397:233|366:241,1,67.5000025749208
236,162,42207,1,0,0:0:0:0:
236,162,42271,1,0,0:0:0:0:
236,162,42335,1,0,0:0:0:0:
315,89,42463,2,0,P|364:96|395:104,1,67.5000025749208
338,308,42720,2,0,L|346:350,2,33.7500012874604
452,309,42976,5,0,0:0:0:0:
210,281,43104,2,0,P|167:295|124:312,1,67.5000025749208
28,170,43361,1,0,0:0:0:0:
28,170,43425,1,0,0:0:0:0:
28,170,43489,2,0,L|118:181,1,67.5000025749208
240,60,43745,1,0,0:0:0:0:
242,76,43809,1,0,0:0:0:0:
244,92,43873,1,0,0:0:0:0:
247,108,43937,1,0,0:0:0:0:
250,124,44002,6,0,P|202:116|164:104,1,67.5000025749208
113,20,44258,1,0,0:0:0:0:
113,20,44322,1,0,0:0:0:0:
113,20,44386,1,0,0:0:0:0:
128,194,44514,2,0,L|120:274,1,67.5000025749208
289,324,44771,2,0,L|294:364,2,33.7500012874604
390,177,45027,5,0,0:0:0:0:
230,222,45155,2,0,L|304:229,1,67.5000025749208
471,125,45412,2,0,P|430:88|331:98,1,135.000005149842
195,251,45796,2,0,L|198:329,1,67.5000025749208
256,192,46053,12,0,47848,0:0:0:0:
282,237,48104,6,0,P|224:290|107:256,1,180,0|0,1:0|0:0,0:0:0:0:
300,125,48489,1,0,0:0:0:0:
338,327,48617,2,0,L|391:343,2,45
151,235,48873,1,0,0:0:0:0:
333,297,49002,1,0,0:0:0:0:
83,339,49130,6,0,L|79:288,1,45,0|0,1:0|0:0,0:0:0:0:
35,150,49258,2,0,P|89:149|156:212,1,135,0|0,1:0|0:0,0:0:0:0:
151,235,49514,1,0,0:0:0:0:
86,44,49643,1,0,0:0:0:0:
242,80,49771,1,0,0:0:0:0:
18,131,49899,2,0,L|123:121,1,90
384,40,50155,6,0,P|420:79|392:210,1,180,0|0,1:0|0:0,0:0:0:0:
237,100,50540,1,0,0:0:0:0:
317,243,50668,2,0,L|305:294,2,45
151,235,50925,2,0,P|97:251|67:265,1,90
316,148,51181,5,0,1:0:0:0:
218,342,51309,1,0,1:0:0:0:
147,137,51437,2,0,L|141:109,3,22.5
154,161,51566,2,0,P|115:155|59:140,1,90,0|0,1:0|0:0,0:0:0:0:
253,52,51822,1,0,0:0:0:0:
272,270,51950,2,0,P|321:261|365:246,1,90
468,98,52207,6,0,L|462:49,1,45,0|0,1:0|0:0,0:0:0:0:
381,161,52335,1,0,0:0:0:0:
383,183,52399,1,0,0:0:0:0:
391,203,52463,1,0,0:0:0:0:
402,222,52527,1,0,0:0:0:0:
419,236,52591,1,0,0:0:0:0:
440,243,52655,1,0,0:0:0:0:
462,244,52720,6,0,L|512:235,1,45,0|0,1:0|0:0,0:0:0:0:
456,357,52848,2,0,L|406:348,1,45,0|0,1:0|0:0,0:0:0:0:
307,248,52976,1,0,0:0:0:0:
284,245,53040,1,0,0:0:0:0:
261,248,53104,1,0,0:0:0:0:
239,255,53168,1,0,0:0:0:0:
220,267,53232,6,0,L|206:336,1,45,0|0,1:0|0:0,0:0:0:0:
137,218,53361,2,0,L|123:287,1,45,0|0,1:0|0:0,0:0:0:0:
48,340,53489,1,0,0:0:0:0:
48,340,53553,1,0,0:0:0:0:
48,340,53617,2,0,L|34:271,1,45,0|0,1:0|0:0,0:0:0:0:
51,141,53745,6,0,L|44:103,1,22.5
81,134,53809,2,0,L|74:96,1,22.5
111,127,53873,2,0,L|104:89,1,22.5
141,120,53937,2,0,L|134:82,1,22.5
172,114,54002,6,0,L|214:122,8,22.5,0|0|0|0|0|0|0|0|0,0:0|0:0|0:0|0:0|0:0|0:0|0:0|0:0|1:0,0:0:0:0:
172,114,55925,6,0,L|178:178,1,53.9999983520508
102,316,56053,2,0,P|155:320|242:237,1,161.999995056153
281,160,56309,6,0,L|503:184,1,215.999993408203
360,44,56694,1,0,0:0:0:0:
322,50,56758,1,0,0:0:0:0:
284,56,56822,1,0,0:0:0:0:
388,302,56950,1,0,0:0:0:0:
469,84,57078,1,0,0:0:0:0:
210,146,57207,1,0,0:0:0:0:
172,140,57271,1,0,0:0:0:0:
134,134,57335,6,0,B|108:182|108:182|116:237,1,107.999996704102
248,341,57591,1,0,0:0:0:0:
310,104,57720,1,0,0:0:0:0:
310,104,57784,1,0,0:0:0:0:
310,104,57848,1,0,0:0:0:0:
367,261,57976,1,0,0:0:0:0:
199,180,58104,1,0,0:0:0:0:
161,185,58168,1,0,0:0:0:0:
123,190,58232,1,0,0:0:0:0:
85,196,58296,1,0,0:0:0:0:
47,202,58361,5,0,0:0:0:0:
61,236,58425,1,0,0:0:0:0:
75,270,58489,1,0,0:0:0:0:
153,77,58617,1,0,0:0:0:0:
276,273,58745,1,0,0:0:0:0:
262,307,58809,1,0,0:0:0:0:
248,341,58873,1,0,0:0:0:0:
294,126,59002,1,0,0:0:0:0:
271,96,59066,1,0,0:0:0:0:
249,67,59130,1,0,0:0:0:0:
413,208,59258,1,0,0:0:0:0:
449,203,59322,1,0,0:0:0:0:
485,198,59386,5,0,0:0:0:0:
195,237,59514,1,0,0:0:0:0:
404,284,59643,1,0,0:0:0:0:
285,169,59771,1,0,0:0:0:0:
248,341,59899,6,0,L|162:354,1,67.5000025749208,0|0,0:0|2:0,0:0:0:0:
29,197,60155,6,0,P|114:191|160:290,1,188.999994232178,0|0,0:0|2:0,0:0:0:0:
8,272,60412,6,0,L|-1:53,1,215.999993408203
122,270,60796,1,0,0:0:0:0:
113,307,60861,1,0,0:0:0:0:
105,344,60925,1,0,0:0:0:0:
96,153,61053,1,0,0:0:0:0:
205,319,61181,1,0,0:0:0:0:
289,147,61309,2,0,L|275:106,2,26.9999991760254
168,204,61437,5,0,0:0:0:0:
367,228,61566,1,0,0:0:0:0:
282,32,61694,1,0,0:0:0:0:
256,299,61822,1,0,0:0:0:0:
256,299,61886,1,0,0:0:0:0:
256,299,61950,2,0,L|327:308,1,53.9999983520508
172,242,62078,2,0,L|119:236,1,53.9999983520508
246,181,62206,2,0,L|300:188,1,53.9999983520508
142,145,62335,2,0,L|89:139,1,53.9999983520508
319,75,62463,6,0,P|380:85|428:110,1,107.999996704102,0|0,0:0|2:0,0:0:0:0:
496,141,62655,2,0,P|435:151|387:176,1,107.999996704102,0|0,0:0|2:0,0:0:0:0:
329,226,62848,2,0,L|385:244,1,53.9999983520508,0|0,0:0|2:0,0:0:0:0:
469,297,62976,6,0,L|461:372,1,67.5000025749208,0|0,0:0|2:0,0:0:0:0:
239,260,63232,6,0,P|215:206|207:153,1,107.999996704102,0|0,0:0|2:0,0:0:0:0:
257,57,63425,2,0,P|281:111|289:164,1,107.999996704102,0|0,0:0|2:0,0:0:0:0:
130,213,63617,2,0,L|64:197,1,53.9999983520508,0|0,0:0|2:0,0:0:0:0:
25,298,63745,1,0,0:0:0:0:
48,327,63809,1,0,0:0:0:0:
85,323,63873,1,0,0:0:0:0:
122,319,63937,1,0,0:0:0:0:
160,315,64002,5,0,0:0:0:0:
257,57,64130,1,0,0:0:0:0:
160,315,64258,5,0,0:0:0:0:
257,57,64386,1,0,0:0:0:0:
329,324,64514,6,0,P|402:322|453:200,1,215.999993408203
224,160,64899,1,0,0:0:0:0:
186,166,64963,1,0,0:0:0:0:
148,172,65027,1,0,0:0:0:0:
287,65,65155,1,0,0:0:0:0:
247,280,65284,1,0,0:0:0:0:
484,188,65412,5,0,0:0:0:0:
455,163,65476,1,0,0:0:0:0:
417,156,65540,1,0,0:0:0:0:
379,160,65604,1,0,0:0:0:0:
346,178,65668,1,0,0:0:0:0:
324,208,65732,1,0,0:0:0:0:
317,245,65796,1,0,0:0:0:0:
173,308,65925,1,0,0:0:0:0:
137,301,65989,1,0,0:0:0:0:
101,294,66053,2,0,L|89:175,1,107.999996704102
206,26,66309,1,0,0:0:0:0:
226,57,66373,1,0,0:0:0:0:
246,88,66437,1,0,0:0:0:0:
235,124,66502,1,0,0:0:0:0:
224,160,66566,6,0,L|236:215,2,53.9999983520508,0|0|0,0:0|2:0|2:0,0:0:0:0:
321,42,66822,1,0,0:0:0:0:
420,263,66950,1,0,0:0:0:0:
420,263,67014,1,0,0:0:0:0:
420,263,67078,1,0,0:0:0:0:
163,218,67207,1,0,0:0:0:0:
163,218,67271,1,0,0:0:0:0:
163,218,67335,1,0,0:0:0:0:
371,140,67463,2,0,L|428:147,1,53.9999983520508
474,327,67591,5,0,0:0:0:0:
443,349,67655,1,0,0:0:0:0:
404,353,67720,1,0,0:0:0:0:
368,339,67784,1,0,0:0:0:0:
344,309,67848,1,0,0:0:0:0:
312,287,67912,1,0,0:0:0:0:
274,281,67976,1,0,0:0:0:0:
237,289,68040,1,0,0:0:0:0:
207,312,68104,2,0,B|160:341|160:341|98:331,1,107.999996704102,0|0,0:0|2:0,0:0:0:0:
35,134,68361,6,0,L|117:146,1,67.5000025749208,0|0,0:0|2:0,0:0:0:0:
249,61,68489,2,0,L|167:73,1,67.5000025749208,0|0,0:0|2:0,0:0:0:0:
72,237,68617,6,0,P|158:179|266:204,1,215.999993408203
262,201,69130,1,0,0:0:0:0:
170,101,69258,1,0,0:0:0:0:
130,306,69386,1,0,0:0:0:0:
338,234,69514,2,0,L|344:191,2,26.9999991760254
353,315,69643,5,0,0:0:0:0:
387,330,69707,1,0,0:0:0:0:
424,330,69771,1,0,0:0:0:0:
456,310,69835,1,0,0:0:0:0:
471,275,69899,2,0,L|464:216,3,53.9999983520508
401,160,70155,5,0,0:0:0:0:
460,26,70284,1,0,0:0:0:0:
460,26,70348,1,0,0:0:0:0:
460,26,70412,1,0,0:0:0:0:
189,74,70540,2,0,L|242:84,1,53.9999983520508
331,47,70668,5,0,0:0:0:0:
303,207,70796,1,0,0:0:0:0:
178,102,70925,1,0,0:0:0:0:
331,47,71053,1,0,0:0:0:0:
331,47,71117,1,0,0:0:0:0:
331,47,71181,1,0,0:0:0:0:
460,156,71309,1,0,0:0:0:0:
178,102,71437,2,0,L|163:185,1,80.9999975280763
303,207,71694,5,0,0:0:0:0:
428,312,71822,1,0,0:0:0:0:
150,262,71950,1,0,0:0:0:0:
331,47,72078,1,0,0:0:0:0:
275,367,72207,1,0,0:0:0:0:
303,207,72335,1,0,0:0:0:0:
303,207,72399,1,0,0:0:0:0:
428,312,72527,1,0,0:0:0:0:
428,312,72591,1,0,0:0:0:0:
150,262,72720,5,0,0:0:0:0:
260,89,72848,1,0,0:0:0:0:
198,342,72976,1,0,0:0:0:0:
80,218,73104,1,0,0:0:0:0:
80,218,73168,1,0,0:0:0:0:
80,218,73232,2,0,L|74:98,1,107.999996704102
12,342,73489,1,0,0:0:0:0:
228,229,73617,1,0,0:0:0:0:
262,243,73681,1,0,0:0:0:0:
296,258,73745,6,0,B|309:205|309:205|280:130,1,107.999996704102
165,100,74002,1,0,0:0:0:0:
252,335,74130,1,0,0:0:0:0:
252,335,74194,1,0,0:0:0:0:
252,335,74258,2,0,B|305:349|305:349|365:318,1,107.999996704102
433,188,74514,1,0,0:0:0:0:
427,150,74578,1,0,0:0:0:0:
421,112,74643,1,0,0:0:0:0:
416,74,74707,1,0,0:0:0:0:
384,53,74771,6,0,L|390:15,4,26.9999991760254
321,161,74963,1,0,0:0:0:0:
321,161,75027,1,0,0:0:0:0:
82,128,75155,1,0,0:0:0:0:
82,128,75220,1,0,0:0:0:0:
82,128,75284,2,0,L|199:137,1,107.999996704102
267,98,75476,1,0,0:0:0:0:
267,98,75540,1,0,0:0:0:0:
194,333,75668,1,0,0:0:0:0:
194,333,75732,1,0,0:0:0:0:
194,333,75796,5,0,0:0:0:0:
169,163,75924,1,0,0:0:0:0:
339,138,76053,1,0,0:0:0:0:
364,308,76181,1,0,0:0:0:0:
139,248,76309,6,0,L|53:266,1,72,0|0,0:0|2:0,0:0:0:0:
203,202,76566,6,0,B|261:252|339:239|339:239|303:200,1,188.999994232178,0|0,0:0|2:0,0:0:0:0:
258,148,76822,5,0,0:0:0:0:
282,351,76950,1,0,0:0:0:0:
406,208,77078,1,0,0:0:0:0:
169,163,77207,1,0,0:0:0:0:
126,173,77271,1,0,0:0:0:0:
83,183,77335,2,0,B|48:159|48:159|36:69,1,107.999996704102
268,112,77591,1,0,0:0:0:0:
184,330,77720,1,0,0:0:0:0:
184,330,77784,1,0,0:0:0:0:
184,330,77848,6,0,P|242:358|301:341,1,107.999996704102
360,123,78104,1,0,0:0:0:0:
395,302,78232,1,0,0:0:0:0:
413,342,78296,1,0,0:0:0:0:
432,382,78361,2,0,L|448:248,1,107.999996704102
326,36,78617,1,0,0:0:0:0:
282,43,78681,1,0,0:0:0:0:
238,50,78745,1,0,0:0:0:0:
194,57,78809,1,0,0:0:0:0:
150,64,78873,6,0,B|111:137|111:137|145:237,2,161.999995056153
311,213,79386,2,0,B|350:286|350:286|316:386,2,161.999995056153
111,137,79899,2,0,L|-4:152,1,107.999996704102,0|0,0:0|2:0,0:0:0:0:
57,223,80091,2,0,L|172:208,1,107.999996704102,0|0,0:0|2:0,0:0:0:0:
202,130,80284,1,0,0:0:0:0:
401,204,80412,5,0,0:0:0:0:
429,245,80497,2,0,L|419:332,1,71.9999978027344
327,176,80668,1,0,0:0:0:0:
355,135,80753,2,0,L|345:48,1,71.9999978027344
441,15,80925,6,0,L|431:118,1,72
311,362,81181,6,0,L|329:303,1,53.9999983520508
231,206,81309,1,0,0:0:0:0:
231,206,81373,1,0,0:0:0:0:
231,206,81437,2,0,B|252:257|252:257|232:318,1,107.999996704102
50,363,81694,1,0,0:0:0:0:
128,146,81822,1,0,0:0:0:0:
91,156,81886,1,0,0:0:0:0:
54,166,81950,6,0,P|46:219|83:270,1,107.999996704102
257,106,82207,1,0,0:0:0:0:
64,72,82335,2,0,L|6:86,2,53.9999983520508
214,35,82591,1,0,0:0:0:0:
187,289,82720,1,0,0:0:0:0:
215,313,82784,1,0,0:0:0:0:
252,318,82848,1,0,0:0:0:0:
286,302,82912,1,0,0:0:0:0:
302,267,82976,5,0,0:0:0:0:
294,229,83040,1,0,0:0:0:0:
265,204,83104,1,0,0:0:0:0:
128,146,83232,1,0,0:0:0:0:
114,340,83361,1,0,0:0:0:0:
114,340,83425,1,0,0:0:0:0:
114,340,83489,2,0,B|185:357|185:357|245:340,1,107.999996704102
326,346,83681,1,0,0:0:0:0:
326,346,83745,1,0,0:0:0:0:
325,108,83873,5,0,0:0:0:0:
325,108,83937,1,0,0:0:0:0:
325,108,84002,2,0,L|330:180,1,53.9999983520508
392,283,84130,2,0,L|397:211,1,53.9999983520508
432,146,84258,2,0,L|504:141,1,53.9999983520508
277,238,84386,2,0,L|205:243,1,53.9999983520508
62,183,84514,6,0,P|112:181|157:193,1,90
205,364,84771,2,0,L|198:258,1,90
242,65,85027,5,0,0:0:0:0:
213,50,85091,1,0,0:0:0:0:
181,47,85155,1,0,0:0:0:0:
151,59,85220,1,0,0:0:0:0:
129,81,85284,1,0,0:0:0:0:
285,194,85412,1,0,0:0:0:0:
316,190,85476,1,0,0:0:0:0:
347,187,85540,1,0,0:0:0:0:
378,184,85604,1,0,0:0:0:0:
409,181,85668,1,0,0:0:0:0:
468,31,85796,2,0,L|366:43,1,90,0|0,0:0|2:0,0:0:0:0:
207,255,86053,5,0,0:0:0:0:
195,293,86117,1,0,0:0:0:0:
205,332,86181,1,0,0:0:0:0:
237,355,86245,1,0,0:0:0:0:
276,361,86309,1,0,0:0:0:0:
417,222,86437,1,0,0:0:0:0:
409,181,86502,1,0,0:0:0:0:
401,141,86566,1,0,0:0:0:0:
393,101,86630,1,0,0:0:0:0:
386,61,86694,1,0,0:0:0:0:
171,149,86822,2,0,L|308:186,1,135,0|0,0:0|2:0,0:0:0:0:
146,243,87079,5,0,0:0:0:0:
117,214,87143,1,0,0:0:0:0:
88,185,87207,1,0,0:0:0:0:
91,144,87271,1,0,0:0:0:0:
94,103,87335,1,0,0:0:0:0:
248,229,87463,5,0,0:0:0:0:
237,268,87527,1,0,0:0:0:0:
226,308,87591,1,0,0:0:0:0:
189,326,87655,1,0,0:0:0:0:
152,344,87719,1,0,0:0:0:0:
185,138,87848,5,0,0:0:0:0:
224,127,87912,1,0,0:0:0:0:
264,116,87976,1,0,0:0:0:0:
298,139,88040,1,0,0:0:0:0:
332,162,88104,1,0,0:0:0:0:
395,372,88232,5,0,0:0:0:0:
395,372,88296,1,0,0:0:0:0:
395,372,88361,1,0,0:0:0:0:
298,41,88489,1,0,0:0:0:0:
473,234,88617,1,0,0:0:0:0:
444,262,88681,1,0,0:0:0:0:
405,249,88745,1,0,0:0:0:0:
372,273,88809,1,0,0:0:0:0:
333,260,88873,2,0,L|188:277,1,116.999994644165
256,192,89130,12,0,93232,2:0:0:0:
165,205,97335,6,0,L|77:195,1,67.5000025749208
163,319,97591,2,0,L|309:302,1,135.000005149842
406,255,97976,2,0,P|437:286|452:309,1,67.5000025749208
306,186,98232,2,0,P|325:158|350:135,1,67.5000025749208
200,171,98489,21,0,0:0:0:0:
200,171,98617,2,0,P|150:159|53:158,1,135.000005149842
177,296,99002,2,0,P|210:295|243:288,1,67.5000025749208
331,103,99258,2,0,P|298:95|264:95,1,67.5000025749208
89,262,99514,21,0,0:0:0:0:
235,372,99643,2,0,L|390:354,1,135.000005149842
492,284,100027,2,0,P|447:273|420:262,1,67.5000025749208
292,181,100284,1,0,0:0:0:0:
407,170,100412,22,0,L|418:93,2,67.5000025749208
351,278,100796,2,0,P|344:320|342:349,1,67.5000025749208
237,240,101053,2,0,P|202:264|180:283,1,67.5000025749208
97,370,101309,1,0,0:0:0:0:
309,327,101437,22,0,L|322:240,1,67.5000025749208
383,122,101694,2,0,P|321:150|255:147,1,135.000005149842
104,118,102078,2,0,L|178:102,1,67.5000025749208
244,252,102335,2,0,L|178:237,1,67.5000025749208
41,342,102591,1,0,0:0:0:0:
41,342,102720,22,0,L|188:336,1,135.000005149842
331,294,103104,2,0,P|344:332|352:366,1,67.5000025749208
225,215,103361,2,0,P|233:182|244:150,1,67.5000025749208
351,71,103617,1,0,0:0:0:0:
346,274,103745,22,0,L|262:286,1,67.5000025749208
158,303,104002,2,0,L|127:323,3,33.7500012874604
71,222,104258,2,0,L|28:214,3,33.7500012874604
143,153,104514,22,0,B|204:115|273:161|273:161|253:117|276:83|276:83|240:44|162:63,1,337.5
45,121,105540,38,0,L|51:269,1,135,0|0,1:0|0:0,0:0:0:0:
158,303,105796,2,0,P|106:313|27:369,1,135
233,351,106053,2,0,L|337:343,1,90
379,276,106245,1,0,0:0:0:0:
379,276,106309,2,0,P|427:293|473:306,1,90
352,186,106502,1,0,0:0:0:0:
352,186,106566,6,0,L|340:92,1,67.5000025749208
380,44,106758,1,0,0:0:0:0:
380,44,106822,2,0,L|384:0,1,33.7500012874604
264,37,106950,2,0,L|268:81,1,33.7500012874604
235,202,107078,1,0,0:0:0:0:
235,202,107143,1,0,0:0:0:0:
235,202,107207,1,0,0:0:0:0:
69,144,107335,1,0,0:0:0:0:
89,131,107399,1,0,0:0:0:0:
111,122,107463,1,0,0:0:0:0:
134,120,107527,1,0,0:0:0:0:
157,120,107591,6,0,L|133:265,1,135,0|0,1:0|0:0,0:0:0:0:
47,359,107848,2,0,P|127:328|210:333,1,135
271,271,108104,2,0,L|283:367,1,90
371,277,108296,1,0,0:0:0:0:
371,277,108361,2,0,L|383:373,1,90
437,210,108553,1,0,0:0:0:0:
437,210,108617,6,0,P|481:235|519:247,1,67.5000025749208
447,120,108809,1,0,0:0:0:0:
447,120,108873,1,0,0:0:0:0:
354,272,109002,2,0,L|359:315,2,33.7500012874604
304,80,109258,1,0,0:0:0:0:
341,186,109386,1,0,0:0:0:0:
233,168,109514,1,0,0:0:0:0:
411,72,109643,6,0,P|350:89|278:151,1,135,0|0,1:0|0:0,0:0:0:0:
97,138,109899,2,0,P|158:155|230:217,1,135,0|0,1:0|0:0,0:0:0:0:
353,230,110155,2,0,P|312:241|263:283,1,90,0|0,1:0|0:0,0:0:0:0:
143,294,110348,1,0,0:0:0:0:
143,294,110412,2,0,P|183:305|232:347,1,90,0|0,1:0|0:0,0:0:0:0:
357,354,110604,1,0,0:0:0:0:
357,354,110668,6,0,L|437:343,1,67.5000025749208
472,290,110861,1,0,0:0:0:0:
472,290,110925,1,0,0:0:0:0:
367,149,111053,1,0,0:0:0:0:
367,149,111117,1,0,0:0:0:0:
367,149,111181,2,0,L|377:207,1,33.7500012874604
301,246,111309,2,0,L|295:279,1,33.7500012874604
207,197,111437,1,0,0:0:0:0:
194,176,111502,1,0,0:0:0:0:
189,152,111566,1,0,0:0:0:0:
189,128,111630,1,0,0:0:0:0:
198,106,111694,6,0,L|48:94,1,135.000005149842,0|0,1:0|0:0,0:0:0:0:
2,241,111950,2,0,L|152:229,1,135.000005149842
186,369,112207,2,0,L|36:357,1,135.000005149842
229,260,112463,1,0,1:0:0:0:
258,248,112527,1,0,1:0:0:0:
289,249,112591,1,0,1:0:0:0:
315,265,112655,1,0,1:0:0:0:
333,290,112720,6,0,L|340:366,1,67.5000025749208
400,240,112912,1,0,0:0:0:0:
400,240,112976,1,0,0:0:0:0:
256,164,113104,2,0,L|195:175,2,33.7500012874604
451,84,113361,1,0,0:0:0:0:
451,84,113425,1,0,0:0:0:0:
451,84,113489,2,0,L|445:174,1,67.5000025749208
372,342,113745,6,0,L|272:330,1,90,0|0,1:0|0:0,0:0:0:0:
94,273,114002,2,0,L|194:261,1,90,0|0,1:0|0:0,0:0:0:0:
19,359,114258,1,0,1:0:0:0:
166,174,114386,2,0,L|266:162,2,90,0|0|0,0:0|1:0|0:0,0:0:0:0:
36,118,114771,6,0,L|25:28,1,90,0|0,1:0|0:0,0:0:0:0:
185,145,115027,2,0,L|174:55,2,90,0|0|0,1:0|0:0|1:0,0:0:0:0:
145,340,115412,1,0,0:0:0:0:
285,189,115540,2,0,L|274:278,1,90,0|0,1:0|0:0,0:0:0:0:
403,318,115796,5,0,1:0:0:0:
361,117,115925,1,0,0:0:0:0:
246,291,116053,2,0,L|257:202,1,90,0|0,1:0|0:0,0:0:0:0:
240,68,116309,1,0,1:0:0:0:
333,268,116437,2,0,L|322:357,2,90,0|0|0,0:0|1:0|0:0,0:0:0:0:
508,223,116822,6,0,L|418:212,1,90,0|0,1:0|0:0,0:0:0:0:
174,178,117078,2,0,L|263:167,1,90,0|0,1:0|0:0,0:0:0:0:
447,139,117335,1,0,1:0:0:0:
333,268,117463,1,0,0:0:0:0:
364,48,117591,2,0,L|353:137,1,90,0|0,1:0|0:0,0:0:0:0:
256,340,117848,5,0,0:0:0:0:
268,198,117976,1,0,0:0:0:0:
236,338,118104,5,0,0:0:0:0:
282,188,118232,1,0,0:0:0:0:
219,327,118361,5,0,0:0:0:0:
302,176,118489,1,0,0:0:0:0:
199,312,118617,5,0,0:0:0:0:
322,168,118745,1,0,0:0:0:0:
145,232,118873,5,0,0:0:0:0:
363,268,119002,1,0,0:0:0:0:
171,195,119130,1,0,0:0:0:0:
409,141,119258,1,0,0:0:0:0:
188,160,119386,1,0,0:0:0:0:
294,338,119514,1,0,0:0:0:0:
334,92,119643,1,0,0:0:0:0:
363,268,119771,1,0,0:0:0:0:
203,216,119899,5,0,0:0:0:0:
184,190,119963,1,0,0:0:0:0:
176,159,120027,1,0,0:0:0:0:
175,127,120091,1,0,0:0:0:0:
184,96,120155,1,0,0:0:0:0:
201,69,120220,1,0,0:0:0:0:
203,37,120284,1,0,0:0:0:0:
182,13,120348,1,0,0:0:0:0:
150,13,120412,2,0,L|120:22,16,22.5
79,84,121566,6,0,L|86:152,1,45
151,218,121694,2,0,P|114:257|13:261,1,135
240,162,121950,6,0,L|312:170,1,53.9999983520508,0|0,1:0|0:0,0:0:0:0:
456,190,122078,1,0,0:0:0:0:
286,316,122207,1,0,1:0:0:0:
373,76,122335,1,0,0:0:0:0:
373,76,122399,1,0,0:0:0:0:
373,76,122463,2,0,L|382:141,1,53.9999983520508,0|0,1:0|0:0,0:0:0:0:
369,242,122591,2,0,L|378:307,1,53.9999983520508
240,197,122720,2,0,L|132:213,1,107.999996704102,0|0,1:0|0:0,0:0:0:0:
73,291,122912,1,0,0:0:0:0:
73,291,122976,5,0,1:0:0:0:
200,122,123104,1,0,0:0:0:0:
200,122,123168,1,0,0:0:0:0:
200,122,123232,1,0,1:0:0:0:
256,331,123361,2,0,L|148:347,1,107.999996704102,0|0,0:0|1:0,0:0:0:0:
170,31,123617,1,0,0:0:0:0:
240,197,123745,1,0,1:0:0:0:
213,222,123809,1,0,0:0:0:0:
178,235,123873,1,0,0:0:0:0:
141,233,123937,1,0,0:0:0:0:
105,220,124002,6,0,L|79:135,1,53.9999983520508,0|0,1:0|0:0,0:0:0:0:
79,46,124130,1,0,0:0:0:0:
18,273,124258,1,0,1:0:0:0:
196,178,124386,1,0,0:0:0:0:
196,178,124450,1,0,0:0:0:0:
196,178,124514,2,0,L|264:172,1,53.9999983520508,0|0,1:0|0:0,0:0:0:0:
333,99,124643,2,0,L|401:93,1,53.9999983520508
478,27,124771,2,0,L|459:160,1,107.999996704102,0|0,1:0|0:0,0:0:0:0:
365,241,124963,1,0,0:0:0:0:
365,241,125027,6,0,P|425:276|474:282,1,107.999996704102,0|0,1:0|0:0,0:0:0:0:
329,50,125284,1,0,1:0:0:0:
272,276,125412,1,0,0:0:0:0:
394,161,125540,1,0,1:0:0:0:
207,170,125668,1,0,0:0:0:0:
512,319,125796,2,0,B|482:296|482:296|394:310,1,107.999996704102,0|0,1:0|0:0,0:0:0:0:
177,366,126053,6,0,L|186:279,1,53.9999983520508,0|0,1:0|0:0,0:0:0:0:
165,154,126181,1,0,0:0:0:0:
75,335,126309,1,0,1:0:0:0:
279,283,126437,1,0,0:0:0:0:
279,283,126502,1,0,0:0:0:0:
279,283,126566,2,0,L|270:215,1,53.9999983520508,0|0,1:0|0:0,0:0:0:0:
230,62,126694,2,0,L|221:130,1,53.9999983520508
116,257,126827,2,0,P|98:202|90:144,1,107.999996704102,0|0,1:0|0:0,0:0:0:0:
130,83,127014,1,0,0:0:0:0:
130,83,127078,5,0,1:0:0:0:
357,145,127207,1,0,0:0:0:0:
357,145,127271,1,0,0:0:0:0:
357,145,127335,1,0,1:0:0:0:
184,203,127463,2,0,L|293:220,1,107.999996704102,0|0,0:0|1:0,0:0:0:0:
417,34,127720,1,0,0:0:0:0:
455,314,127848,1,0,1:0:0:0:
429,342,127912,1,0,0:0:0:0:
391,339,127976,1,0,0:0:0:0:
353,336,128040,1,0,0:0:0:0:
315,332,128104,6,0,L|260:350,1,53.9999983520508,0|0,1:0|0:0,0:0:0:0:
110,337,128232,1,0,0:0:0:0:
279,194,128361,1,0,1:0:0:0:
191,377,128489,1,0,0:0:0:0:
191,377,128553,1,0,0:0:0:0:
191,377,128617,2,0,L|185:304,1,53.9999983520508,0|0,1:0|0:0,0:0:0:0:
101,169,128745,2,0,L|107:96,1,53.9999983520508
232,11,128873,2,0,P|242:68|222:117,1,107.999996704102,0|0,1:0|0:0,0:0:0:0:
15,243,129130,6,0,L|132:262,1,107.999996704102,0|0,1:0|0:0,0:0:0:0:
239,298,129322,2,0,P|186:303|147:339,1,107.999996704102
326,359,129515,1,0,0:0:0:0:
326,359,129579,1,0,0:0:0:0:
326,359,129643,2,0,L|329:278,1,53.9999983520508,0|0,1:0|0:0,0:0:0:0:
374,150,129771,1,0,1:0:0:0:
374,150,129835,2,0,B|367:204|367:204|390:256,1,107.999996704102
450,192,130027,1,0,1:0:0:0:
234,205,130155,6,0,L|172:190,1,53.9999983520508,0|0,1:0|0:0,0:0:0:0:
52,155,130284,1,0,0:0:0:0:
286,101,130412,1,0,1:0:0:0:
191,293,130540,1,0,0:0:0:0:
191,293,130604,1,0,0:0:0:0:
191,293,130668,2,0,L|266:279,1,53.9999983520508,0|0,1:0|0:0,0:0:0:0:
364,311,130796,2,0,L|439:297,1,53.9999983520508
174,319,130925,1,0,1:0:0:0:
374,150,131053,1,0,0:0:0:0:
374,150,131117,1,0,0:0:0:0:
374,150,131181,6,0,B|365:204|365:204|324:244,1,107.999996704102,0|0,1:0|0:0,0:0:0:0:
273,301,131373,1,0,0:0:0:0:
273,301,131437,1,0,1:0:0:0:
283,52,131566,2,0,L|296:170,1,107.999996704102,0|0,0:0|1:0,0:0:0:0:
97,336,131822,1,0,0:0:0:0:
42,170,131950,1,0,1:0:0:0:
78,159,132014,1,0,0:0:0:0:
114,148,132078,1,0,0:0:0:0:
147,166,132143,1,0,0:0:0:0:
180,184,132207,6,0,L|184:247,1,53.9999983520508,0|0,1:0|0:0,0:0:0:0:
191,370,132335,1,0,0:0:0:0:
313,215,132463,1,0,1:0:0:0:
474,336,132591,1,0,0:0:0:0:
474,336,132655,1,0,0:0:0:0:
474,336,132720,2,0,L|457:276,1,53.9999983520508,0|0,1:0|0:0,0:0:0:0:
428,136,132848,2,0,L|411:196,1,53.9999983520508
311,332,132976,1,0,1:0:0:0:
240,134,133104,1,0,0:0:0:0:
230,97,133168,1,0,0:0:0:0:
220,60,133232,6,0,B|274:68|274:68|320:130,1,107.999996704102,0|0,1:0|0:0,0:0:0:0:
96,217,133489,1,0,1:0:0:0:
309,40,133617,1,0,0:0:0:0:
129,124,133745,1,0,1:0:0:0:
325,152,133873,1,0,0:0:0:0:
207,368,134002,2,0,B|190:343|190:343|201:252,1,107.999996704102,0|0,1:0|0:0,0:0:0:0:
360,126,134258,6,0,L|367:193,1,53.9999983520508,0|0,1:0|0:0,0:0:0:0:
372,316,134386,1,0,0:0:0:0:
248,163,134514,1,0,1:0:0:0:
472,156,134643,1,0,0:0:0:0:
472,156,134707,1,0,0:0:0:0:
472,156,134771,2,0,L|477:79,1,53.9999983520508,0|0,1:0|0:0,0:0:0:0:
305,32,134899,2,0,L|310:109,1,53.9999983520508
259,242,135027,1,0,1:0:0:0:
386,148,135155,1,0,0:0:0:0:
386,148,135220,1,0,0:0:0:0:
386,148,135284,6,0,B|406:199|406:199|387:274,1,107.999996704102,0|0,1:0|0:0,0:0:0:0:
411,332,135476,1,0,0:0:0:0:
411,332,135540,1,0,1:0:0:0:
200,213,135668,2,0,L|330:198,1,107.999996704102,0|0,1:0|0:0,0:0:0:0:
57,132,135925,1,0,1:0:0:0:
111,324,136053,1,0,1:0:0:0:
138,349,136117,1,0,1:0:0:0:
174,358,136181,1,0,1:0:0:0:
211,352,136245,1,0,1:0:0:0:
244,334,136309,6,0,L|257:267,1,53.9999983520508,0|0,1:0|0:0,0:0:0:0:
274,132,136437,1,0,0:0:0:0:
336,324,136566,6,0,L|426:313,1,67.5000025749208
209,199,136822,6,0,L|137:203,1,53.9999983520508,0|0,1:0|0:0,0:0:0:0:
40,208,136950,1,0,0:0:0:0:
180,38,137078,6,0,L|177:114,1,67.5000025749208
299,243,137335,6,0,B|339:278|386:252|386:252|388:212|352:212,1,135.000005149842,0|0,1:0|0:0,0:0:0:0:
325,89,137527,6,0,B|274:106|273:159|273:159|307:181|325:150,1,135.000005149842,0|0,1:0|0:0,0:0:0:0:
424,154,137720,6,0,L|468:160,3,45.0000017166138,0|0|0|0,1:0|1:0|1:0|1:0,1:0:0:0:
216,34,137976,1,0,0:0:0:0:
216,34,138040,1,0,1:0:0:0:
199,282,138168,1,0,0:0:0:0:
199,282,138232,1,0,1:0:0:0:
340,165,138361,6,0,L|237:173,1,99.0000030212403,0|0,1:0|0:0,0:0:0:0:
38,76,138617,1,0,1:0:0:0:
199,113,138745,2,0,L|141:117,1,49.5000015106202
0,233,138873,2,0,P|54:259|96:257,1,99.0000030212403,0|0,1:0|0:0,0:0:0:0:
272,265,139066,1,0,0:0:0:0:
272,265,139130,2,0,P|222:266|179:289,1,99.0000030212403,0|0,1:0|0:0,0:0:0:0:
365,363,139386,5,0,1:0:0:0:
418,138,139514,1,0,0:0:0:0:
418,138,139578,1,0,0:0:0:0:
418,138,139643,1,0,1:0:0:0:
450,334,139771,2,0,L|435:230,1,99.0000030212403,0|0,0:0|1:0,0:0:0:0:
235,187,140027,1,0,0:0:0:0:
322,50,140155,1,0,1:0:0:0:
356,53,140220,1,0,0:0:0:0:
390,57,140284,1,0,0:0:0:0:
424,61,140348,1,0,0:0:0:0:
458,65,140412,6,0,L|445:171,1,99.0000030212403,0|0,1:0|0:0,0:0:0:0:
254,101,140668,1,0,1:0:0:0:
283,269,140796,2,0,L|291:205,1,49.5000015106202
183,50,140925,2,0,P|126:63|90:96,1,99.0000030212403,0|0,1:0|0:0,0:0:0:0:
35,250,141117,1,0,0:0:0:0:
35,250,141181,2,0,P|92:237|128:204,1,99.0000030212403,0|0,1:0|0:0,0:0:0:0:
12,72,141437,5,0,1:0:0:0:
75,337,141566,1,0,0:0:0:0:
75,337,141630,1,0,0:0:0:0:
75,337,141694,1,0,1:0:0:0:
198,229,141822,2,0,L|299:243,1,99.0000030212403,0|0,0:0|1:0,0:0:0:0:
408,333,142078,1,0,0:0:0:0:
220,309,142207,1,0,1:0:0:0:
330,155,142335,1,0,0:0:0:0:
332,371,142463,6,0,P|316:323|305:261,1,99.0000030212403,0|0,1:0|0:0,0:0:0:0:
316,68,142720,1,0,1:0:0:0:
448,245,142848,2,0,L|394:233,1,49.5000015106202
280,148,142976,2,0,L|169:172,1,99.0000030212403,0|0,1:0|0:0,0:0:0:0:
25,200,143168,1,0,0:0:0:0:
25,200,143232,2,0,L|135:224,1,99.0000030212403,0|0,1:0|0:0,0:0:0:0:
373,302,143489,6,0,P|323:317|276:340,1,99.0000030212403,0|0,1:0|0:0,0:0:0:0:
441,154,143745,1,0,1:0:0:0:
483,347,143873,2,0,L|380:331,1,99.0000030212403,0|0,0:0|1:0,0:0:0:0:
231,257,144130,1,0,0:0:0:0:
457,130,144258,1,0,1:0:0:0:
462,164,144322,1,0,0:0:0:0:
446,195,144386,1,0,0:0:0:0:
414,209,144450,1,0,0:0:0:0:
380,201,144514,6,0,L|250:178,1,99.0000030212403,0|0,1:0|0:0,0:0:0:0:
87,103,144771,1,0,1:0:0:0:
191,272,144899,2,0,L|189:210,1,49.5000015106202
252,81,145027,2,0,P|198:66|146:74,1,99.0000030212403,0|0,1:0|0:0,0:0:0:0:
10,205,145220,1,0,0:0:0:0:
10,205,145284,2,0,P|59:209|106:194,1,99.0000030212403,0|0,1:0|0:0,0:0:0:0:
209,21,145540,5,0,1:0:0:0:
259,207,145668,2,0,L|242:308,1,99.0000030212403,0|0,0:0|1:0,0:0:0:0:
386,127,145925,1,0,0:0:0:0:
131,227,146053,1,0,1:0:0:0:
290,108,146181,1,0,0:0:0:0:
318,306,146309,2,0,L|325:364,1,49.5000015106202,0|0,1:0|0:0,0:0:0:0:
211,297,146437,2,0,L|218:355,1,49.5000015106202
396,244,146566,5,0,1:0:0:0:
150,179,146694,1,0,0:0:0:0:
189,273,146822,2,0,L|297:261,1,99.0000030212403,0|0,1:0|0:0,0:0:0:0:
352,317,147014,1,0,0:0:0:0:
352,317,147078,1,0,1:0:0:0:
401,132,147207,1,0,0:0:0:0:
179,141,147335,2,0,P|234:155|282:192,1,99.0000030212403,0|0,1:0|0:0,0:0:0:0:
107,375,147591,6,0,L|101:275,1,99.0000030212403,0|0,1:0|0:0,0:0:0:0:
159,58,147848,1,0,1:0:0:0:
219,250,147976,1,0,0:0:0:0:
219,250,148040,1,0,0:0:0:0:
219,250,148104,1,0,1:0:0:0:
60,170,148232,1,0,0:0:0:0:
299,194,148361,2,0,B|311:239|311:239|297:307,1,99.0000030212403,0|0,1:0|0:0,0:0:0:0:
432,206,148617,5,0,1:0:0:0:
225,342,148745,1,0,0:0:0:0:
328,172,148873,2,0,L|325:57,1,99.0000030212403,0|0,1:0|0:0,0:0:0:0:
365,6,149066,1,0,0:0:0:0:
365,6,149130,1,0,1:0:0:0:
382,278,149258,1,0,0:0:0:0:
158,224,149386,2,0,P|217:210|266:220,1,99.0000030212403,0|0,1:0|0:0,0:0:0:0:
142,355,149643,5,0,1:0:0:0:
122,350,149707,1,0,0:0:0:0:
102,345,149771,1,0,0:0:0:0:
82,341,149835,1,0,0:0:0:0:
62,337,149899,1,0,1:0:0:0:
89,153,150027,1,0,0:0:0:0:
89,153,150091,1,0,0:0:0:0:
89,153,150155,2,0,L|94:211,1,49.5000015106202,0|0,1:0|0:0,0:0:0:0:
194,275,150284,2,0,L|199:217,1,49.5000015106202
305,158,150412,2,0,P|361:157|408:181,1,99.0000030212403,0|0,1:0|0:0,0:0:0:0:
331,350,150668,6,0,B|314:326|314:326|318:239,1,101.250003862381
339,236,150925,6,0,L|272:225,1,49.5000015106202,0|0,1:0|0:0,0:0:0:0:
117,180,151053,1,0,1:0:0:0:
135,173,151117,1,0,0:0:0:0:
154,169,151181,2,0,L|235:183,1,49.5000015106202,0|0,1:0|0:0,0:0:0:0:
247,367,151309,2,0,L|236:306,1,49.5000015106202,0|0,1:0|0:0,0:0:0:0:
80,266,151437,2,0,L|149:257,1,49.5000015106202,0|0,1:0|0:0,0:0:0:0:
298,148,151566,2,0,L|281:99,1,49.5000015106202
120,38,151694,6,0,L|82:46,3,33.7500012874604
198,106,151950,6,0,L|205:43,1,49.5000015106202,0|0,1:0|0:0,0:0:0:0:
280,217,152078,1,0,1:0:0:0:
291,233,152143,1,0,0:0:0:0:
301,249,152207,2,0,L|297:182,1,49.5000015106202,0|0,1:0|0:0,0:0:0:0:
392,39,152335,2,0,L|385:88,1,49.5000015106202,0|0,1:0|0:0,0:0:0:0:
447,232,152463,2,0,L|386:225,1,49.5000015106202,0|0,1:0|0:0,0:0:0:0:
215,187,152591,2,0,L|154:194,1,49.5000015106202,0|0,1:0|0:0,0:0:0:0:
32,279,152720,5,0,0:0:0:0:
39,297,152784,1,0,0:0:0:0:
47,315,152848,1,0,0:0:0:0:
55,332,152912,1,0,0:0:0:0:
63,350,152976,2,0,L|77:286,1,49.5000015106202,0|0,1:0|1:0,0:0:0:0:
191,272,153104,5,0,1:0:0:0:
214,254,153168,1,0,1:0:0:0:
222,225,153232,1,0,1:0:0:0:
216,195,153296,1,0,1:0:0:0:
198,170,153361,1,0,1:0:0:0:
170,159,153425,1,0,1:0:0:0:
154,133,153489,1,0,1:0:0:0:
154,103,153553,1,0,1:0:0:0:
168,77,153617,1,0,1:0:0:0:
195,64,153681,1,0,1:0:0:0:
224,66,153745,6,0,B|275:108|324:99|324:99|309:58,1,135.000005149842,0|0,1:0|0:0,0:0:0:0:
490,32,153937,2,0,B|424:21|386:53|386:53|420:81,1,135.000005149842,0|0,1:0|0:0,0:0:0:0:
361,187,154130,1,0,1:0:0:0:
369,226,154194,1,0,0:0:0:0:
377,265,154258,6,0,B|365:298|372:358|372:358|337:330|309:333,1,135.000005149842,0|0,1:0|0:0,0:0:0:0:
279,193,154450,2,0,B|272:158|236:109|236:109|281:116|303:100,1,135.000005149842,0|0,1:0|0:0,0:0:0:0:
408,158,154643,2,0,L|478:148,1,67.5000025749208,0|0,1:0|0:0,0:0:0:0:
456,288,154771,5,0,1:0:0:0:
256,192,158873,12,0,160668,0:0:0:0:
211,237,160925,5,0,0:0:0:0:
211,237,161053,2,0,L|24:212,1,180
163,112,161437,2,0,L|169:160,1,45
202,319,161566,1,0,0:0:0:0:
281,188,161694,1,0,0:0:0:0:
86,151,161822,1,0,0:0:0:0:
291,231,161950,5,0,0:0:0:0:
291,231,162078,2,0,L|390:216,1,90
477,118,162335,1,0,1:0:0:0:
477,118,162399,1,0,1:0:0:0:
477,118,162463,2,0,L|468:174,1,45,0|0,1:0|0:0,0:0:0:0:
397,342,162591,1,0,1:0:0:0:
397,342,162655,1,0,1:0:0:0:
397,342,162719,2,0,L|388:286,1,45,0|0,1:0|0:0,0:0:0:0:
274,219,162848,2,0,L|283:163,1,45
362,99,162976,6,0,P|305:56|179:84,1,180,0|0,1:0|0:0,0:0:0:0:
259,286,163361,1,0,0:0:0:0:
149,174,163489,2,0,L|93:182,2,45
319,222,163745,1,0,0:0:0:0:
188,351,163873,1,0,0:0:0:0:
247,136,164002,6,0,L|239:183,1,45,0|0,1:0|0:0,0:0:0:0:
155,332,164130,2,0,P|117:277|124:211,1,135,0|0,1:0|0:0,0:0:0:0:
145,189,164386,1,0,0:0:0:0:
378,270,164514,6,0,B|340:271|302:250|302:250|286:288|286:288|256:262|212:255,1,202.500007724762
99,109,165027,6,0,P|186:110|238:179,1,180,0|0,1:0|0:0,0:0:0:0:
273,367,165412,1,0,0:0:0:0:
367,192,165540,2,0,L|361:144,2,45
401,335,165796,1,0,0:0:0:0:
215,272,165925,1,0,0:0:0:0:
446,249,166053,6,0,L|452:194,1,45,0|0,1:0|0:0,0:0:0:0:
419,31,166181,2,0,L|425:86,1,45,0|0,1:0|0:0,0:0:0:0:
198,206,166309,1,0,0:0:0:0:
361,147,166437,2,0,L|353:95,1,45,0|0,1:0|0:0,0:0:0:0:
239,36,166566,2,0,L|234:66,14,22.5
274,141,167078,6,0,P|220:112|106:153,1,180,0|0,1:0|0:0,0:0:0:0:
298,241,167463,1,0,0:0:0:0:
384,62,167591,1,0,0:0:0:0:
384,62,167677,2,0,L|322:67,1,60
198,217,167848,1,0,0:0:0:0:
198,217,167934,2,0,L|143:212,2,30,0|0|0,0:0|1:0|0:0,0:0:0:0:
316,329,168104,6,0,P|380:220|349:171,1,180,0|0,1:0|0:0,0:0:0:0:
150,91,168489,1,0,0:0:0:0:
155,242,168617,6,0,B|206:276|277:261|277:261|245:284|239:324,1,202.500007724762
15,137,169130,5,0,1:0:0:0:
66,229,169258,2,0,L|168:243,1,90
456,224,169514,1,0,1:0:0:0:
405,316,169642,2,0,L|303:330,1,90
110,86,169899,5,0,1:0:0:0:
166,188,170027,2,0,L|145:285,1,90
395,114,170284,1,0,1:0:0:0:
339,216,170412,2,0,L|360:313,1,90
246,357,170668,5,0,1:0:0:0:
246,357,170796,2,0,B|233:267|233:267|268:239|268:239|252:147,1,225
186,98,171181,6,0,P|260:66|316:209,1,270,0|0,1:0|0:0,0:0:0:0:
246,357,171694,2,0,B|194:341|194:341|174:283|174:283|253:150,1,270,0|0,1:0|0:0,0:0:0:0:
474,242,172207,2,0,B|426:265|426:265|367:265|315:200,1,180,0|0,1:0|0:0,0:0:0:0:
98,113,172591,2,0,B|146:90|146:90|205:90|257:155,1,180,0|0,1:0|0:0,0:0:0:0:
236,237,172976,2,0,L|212:241,9,15,0|0|0|0|0|0|0|0|0|0,1:0|0:0|0:0|0:0|0:0|0:0|0:0|0:0|0:0|0:0,0:0:0:0:
291,298,173232,6,0,B|235:280|235:280|198:331|198:331|175:272|129:255|75:266,1,270,0|0,1:0|0:0,0:0:0:0:
330,361,173745,2,0,P|358:329|223:269,1,270,0|0,1:0|0:0,0:0:0:0:
396,302,174258,2,0,L|496:292,1,90,0|0,1:0|0:0,0:0:0:0:
263,144,174514,2,0,L|163:154,1,90,0|0,0:0|1:0,0:0:0:0:
344,352,174771,2,0,L|444:362,1,90
474,166,175027,1,0,1:0:0:0:
445,152,175091,1,0,0:0:0:0:
413,150,175155,1,0,0:0:0:0:
385,166,175220,1,0,0:0:0:0:
365,190,175284,5,0,1:0:0:0:
319,364,175412,1,0,1:0:0:0:
378,202,175540,5,0,1:0:0:0:
242,320,175668,1,0,1:0:0:0:
400,210,175796,5,0,1:0:0:0:
185,236,175924,1,0,1:0:0:0:
420,211,176053,5,0,1:0:0:0:
188,92,176181,1,0,1:0:0:0:
371,307,176309,6,0,L|396:300,22,15
320,241,176822,6,0,L|326:219,14,16.8750006437302
239,230,177078,6,0,L|232:200,16,22.5,0|0|0|0|0|0|0|0|0|0|0|0|0|0|0|0|0,0:0|0:0|0:0|0:0|0:0|0:0|0:0|0:0|0:0|0:0|0:0|0:0|0:0|0:0|0:0|0:0|1:0,0:0:0:0:
165,292,179002,6,0,L|154:224,1,58.4999973220826
75,135,179130,2,0,P|133:114|220:199,1,175.499991966248
259,358,179386,6,0,L|268:251,1,107.999996704102
331,79,179643,1,0,0:0:0:0:
427,294,179771,1,0,0:0:0:0:
390,285,179835,1,0,0:0:0:0:
353,276,179899,1,0,0:0:0:0:
132,317,180027,1,0,0:0:0:0:
344,234,180155,1,0,0:0:0:0:
163,164,180284,2,0,L|171:230,1,53.9999983520508
249,372,180412,6,0,L|258:254,1,107.999996704102
239,191,180604,1,0,0:0:0:0:
239,191,180668,1,0,0:0:0:0:
390,285,180796,2,0,L|448:271,2,53.9999983520508
93,260,181053,1,0,0:0:0:0:
250,53,181181,1,0,0:0:0:0:
265,87,181245,1,0,0:0:0:0:
271,124,181309,1,0,0:0:0:0:
261,160,181373,1,0,0:0:0:0:
239,191,181437,5,0,0:0:0:0:
43,183,181566,1,0,0:0:0:0:
158,87,181694,1,0,0:0:0:0:
100,333,181822,1,0,0:0:0:0:
100,334,181886,1,0,0:0:0:0:
100,334,181950,1,0,0:0:0:0:
261,160,182078,1,0,0:0:0:0:
22,229,182207,1,0,0:0:0:0:
224,293,182335,1,0,0:0:0:0:
261,289,182399,1,0,0:0:0:0:
298,285,182463,6,0,P|349:301|405:309,1,107.999996704102
324,92,182720,1,0,0:0:0:0:
271,361,182848,1,0,0:0:0:0:
158,200,182976,1,0,0:0:0:0:
194,190,183040,1,0,0:0:0:0:
231,190,183104,1,0,0:0:0:0:
265,204,183168,1,0,0:0:0:0:
290,231,183232,2,0,L|298:289,1,53.9999983520508
393,208,183361,2,0,L|401:150,1,53.9999983520508
298,51,183489,6,0,B|267:67|231:66|231:66|265:92,1,108
271,117,183745,6,0,L|191:107,1,53.9999983520508
40,121,183873,1,0,0:0:0:0:
47,158,183937,1,0,0:0:0:0:
71,187,184002,2,0,L|149:180,1,53.9999983520508
277,214,184130,1,0,0:0:0:0:
130,365,184258,1,0,0:0:0:0:
101,340,184322,1,0,0:0:0:0:
93,302,184386,2,0,L|100:271,3,26.9999991760254
168,301,184514,6,0,P|202:292|236:277,1,53.9999983520508
367,154,184643,1,0,0:0:0:0:
357,190,184707,1,0,0:0:0:0:
356,227,184771,2,0,P|358:262|360:290,1,53.9999983520508
472,96,184899,2,0,P|470:131|468:159,1,53.9999983520508
279,233,185027,1,0,0:0:0:0:
389,49,185155,1,0,0:0:0:0:
389,49,185220,1,0,0:0:0:0:
389,49,185284,1,0,0:0:0:0:
433,265,185412,1,0,0:0:0:0:
289,112,185540,6,0,B|253:114|220:132|220:132|206:105|162:93,1,125.999996154785,0|0,0:0|2:0,0:0:0:0:
89,258,185732,2,0,B|105:225|106:188|106:188|136:189|168:157,1,125.999996154785,0|0,0:0|2:0,0:0:0:0:
67,64,185925,2,0,L|111:116,1,62.9999980773926,0|0,0:0|2:0,0:0:0:0:
132,331,186053,6,0,P|77:344|11:297,1,125.999996154785,0|0,0:0|2:0,0:0:0:0:
283,269,186245,2,0,P|321:310|314:390,1,125.999996154785,0|0,0:0|2:0,0:0:0:0:
155,169,186437,2,0,L|151:99,1,62.9999980773926,0|0,0:0|2:0,0:0:0:0:
364,46,186566,1,0,0:0:0:0:
396,123,186651,1,0,0:0:0:0:
312,113,186737,1,0,0:0:0:0:
376,60,186822,1,0,0:0:0:0:
376,143,186907,1,0,0:0:0:0:
302,101,186993,1,0,0:0:0:0:
454,104,187078,6,0,L|466:200,1,90,0|0,0:0|2:0,0:0:0:0:
358,364,187335,6,0,B|364:335|364:335|362:303|333:277|333:277|378:239|381:191|381:191|348:179,1,216
293,201,187591,6,0,L|179:181,1,107.999996704102
286,340,187848,1,0,0:0:0:0:
142,108,187976,1,0,0:0:0:0:
180,104,188040,1,0,0:0:0:0:
218,101,188104,1,0,0:0:0:0:
89,199,188232,1,0,0:0:0:0:
287,52,188361,1,0,0:0:0:0:
312,285,188489,2,0,L|319:341,1,53.9999983520508
244,233,188617,6,0,P|298:204|361:216,1,107.999996704102
396,274,188809,1,0,0:0:0:0:
396,274,188873,1,0,0:0:0:0:
153,271,189002,2,0,L|142:211,2,53.9999983520508
214,96,189258,1,0,0:0:0:0:
77,287,189386,1,0,0:0:0:0:
89,322,189450,1,0,0:0:0:0:
117,346,189514,1,0,0:0:0:0:
153,353,189578,1,0,0:0:0:0:
190,345,189643,5,0,0:0:0:0:
219,321,189707,1,0,0:0:0:0:
234,286,189771,1,0,0:0:0:0:
85,136,189899,1,0,0:0:0:0:
344,200,190027,1,0,0:0:0:0:
306,206,190091,1,0,0:0:0:0:
268,212,190155,1,0,0:0:0:0:
135,69,190284,1,0,0:0:0:0:
173,75,190348,1,0,0:0:0:0:
211,81,190412,1,0,0:0:0:0:
195,338,190540,2,0,L|184:278,1,53.9999983520508
162,179,190668,5,0,0:0:0:0:
217,363,190796,1,0,0:0:0:0:
229,326,190861,1,0,0:0:0:0:
241,290,190925,1,0,0:0:0:0:
283,161,191053,1,0,0:0:0:0:
67,255,191181,1,0,0:0:0:0:
316,343,191309,1,0,0:0:0:0:
274,64,191437,1,0,0:0:0:0:
178,333,191566,1,0,0:0:0:0:
325,170,191694,5,0,0:0:0:0:
350,161,191758,1,0,0:0:0:0:
376,159,191822,1,0,0:0:0:0:
400,170,191886,1,0,0:0:0:0:
417,190,191950,1,0,0:0:0:0:
425,215,192014,1,0,0:0:0:0:
420,241,192078,1,0,0:0:0:0:
406,264,192143,1,0,0:0:0:0:
384,280,192207,2,0,L|327:269,3,53.9999983520508
206,294,192463,6,0,P|276:287|334:357,1,161.999995056153,0|0,2:0|2:0,2:0:0:0:
138,340,192720,5,0,0:0:0:0:
108,308,192784,1,0,0:0:0:0:
98,265,192848,1,0,0:0:0:0:
113,224,192912,1,0,0:0:0:0:
147,197,192976,1,0,0:0:0:0:
168,159,193040,1,0,0:0:0:0:
172,116,193104,1,0,0:0:0:0:
151,78,193168,1,0,0:0:0:0:
110,63,193232,1,0,0:0:0:0:
71,82,193296,1,0,0:0:0:0:
47,119,193361,1,0,0:0:0:0:
54,161,193425,1,0,0:0:0:0:
84,191,193489,6,0,L|203:180,1,107.999996704102,0|0,2:0|2:0,2:0:0:0:
385,30,193745,5,0,0:0:0:0:
373,82,193809,1,0,0:0:0:0:
361,134,193873,1,0,0:0:0:0:
349,186,193937,1,0,0:0:0:0:
337,239,194002,1,0,0:0:0:0:
379,206,194066,1,0,0:0:0:0:
432,205,194130,1,0,0:0:0:0:
471,241,194194,1,0,0:0:0:0:
482,293,194258,1,0,0:0:0:0:
454,339,194322,1,0,0:0:0:0:
403,358,194386,1,0,0:0:0:0:
355,332,194450,1,0,0:0:0:0:
334,282,194514,2,0,B|281:269|281:269|214:295,1,107.999996704102
256,192,194771,12,0,195540,2:0:0:0:
197,34,195796,5,0,0:0:0:0:
255,323,195925,1,0,0:0:0:0:
255,323,195989,1,0,0:0:0:0:
255,323,196053,1,0,0:0:0:0:
323,91,196181,5,0,0:0:0:0:
334,133,196245,1,0,0:0:0:0:
346,175,196309,2,0,L|336:246,1,62.9999980773926
427,67,196437,2,0,L|437:138,1,62.9999980773926
467,283,196566,1,0,0:0:0:0:
215,143,196694,5,0,0:0:0:0:
204,185,196758,1,0,0:0:0:0:
192,227,196822,2,0,L|202:298,1,62.9999980773926
111,119,196950,2,0,L|101:190,1,62.9999980773926
71,335,197079,1,0,0:0:0:0:
314,195,197207,5,0,0:0:0:0:
314,195,197271,1,0,0:0:0:0:
314,195,197335,1,0,0:0:0:0:
144,34,197463,1,0,0:0:0:0:
144,34,197527,1,0,0:0:0:0:
89,261,197655,1,0,0:0:0:0:
89,261,197720,1,0,0:0:0:0:
260,72,197848,5,0,0:0:0:0:
428,262,197976,1,0,0:0:0:0:
428,262,198040,1,0,0:0:0:0:
428,262,198104,1,0,0:0:0:0:
140,172,198232,5,0,0:0:0:0:
183,167,198296,1,0,0:0:0:0:
227,163,198361,2,0,L|318:187,1,62.9999980773926
479,58,198489,2,0,L|388:82,1,62.9999980773926
195,250,198617,1,0,0:0:0:0:
19,102,198745,5,0,0:0:0:0:
62,107,198809,1,0,0:0:0:0:
106,111,198874,2,0,L|197:87,1,62.9999980773926
358,216,199002,2,0,L|267:192,1,62.9999980773926
72,25,199130,1,0,0:0:0:0:
100,313,199258,5,0,0:0:0:0:
100,313,199322,1,0,0:0:0:0:
100,313,199386,1,0,0:0:0:0:
262,107,199514,1,0,0:0:0:0:
28,216,199643,2,0,B|64:235|64:235|155:227,1,125.999996154785
311,335,199899,5,0,0:0:0:0:
169,85,200027,1,0,0:0:0:0:
169,85,200091,1,0,0:0:0:0:
169,85,200155,1,0,0:0:0:0:
433,252,200284,5,0,0:0:0:0:
389,246,200348,1,0,0:0:0:0:
345,240,200412,2,0,L|271:253,1,62.9999980773926
434,142,200540,2,0,L|360:129,1,62.9999980773926
457,332,200668,1,0,0:0:0:0:
137,166,200796,5,0,0:0:0:0:
181,160,200860,1,0,0:0:0:0:
225,154,200924,2,0,L|299:167,1,62.9999980773926
136,56,201052,2,0,L|210:43,1,62.9999980773926
113,246,201180,1,0,0:0:0:0:
298,41,201309,5,0,0:0:0:0:
298,41,201373,1,0,0:0:0:0:
298,41,201437,1,0,0:0:0:0:
283,295,201566,1,0,0:0:0:0:
283,295,201630,1,0,0:0:0:0:
70,155,201758,1,0,0:0:0:0:
70,155,201823,1,0,0:0:0:0:
355,180,201950,5,0,0:0:0:0:
105,265,202078,1,0,0:0:0:0:
105,265,202143,1,0,0:0:0:0:
105,265,202207,1,0,0:0:0:0:
211,87,202335,1,0,0:0:0:0:
245,332,202463,2,0,L|229:266,1,62.9999980773926,0|0,2:0|2:0,2:0:0:0:
272,232,202591,2,0,L|256:298,1,62.9999980773926,0|0,2:0|2:0,2:0:0:0:
299,332,202720,2,0,L|283:266,1,62.9999980773926,0|0,2:0|2:0,2:0:0:0:
326,232,202848,2,0,L|310:298,1,62.9999980773926,0|0,2:0|2:0,2:0:0:0:
105,265,202976,6,0,P|46:215|58:108,1,188.999994232178,0|0,0:0|2:0,0:0:0:0:
225,297,203232,2,0,L|211:216,1,62.9999980773926,0|0,0:0|2:0,0:0:0:0:
249,115,203361,6,0,B|376:105|376:105|416:162,1,188.999994232178,0|0,0:0|2:0,0:0:0:0:
373,250,203617,2,0,L|385:318,1,62.9999980773926,0|0,0:0|2:0,0:0:0:0:
465,81,203745,6,0,P|423:31|306:87,1,188.999994232178,0|0,0:0|2:0,0:0:0:0:
256,165,204002,5,0,0:0:0:0:
140,341,204130,6,0,L|128:262,1,72
82,106,204258,1,0,0:0:0:0:
372,341,204386,6,0,L|384:262,1,72
430,106,204514,1,0,0:0:0:0:
114,344,204643,6,0,L|119:264,1,72
107,102,204771,1,0,0:0:0:0:
397,344,204899,6,0,L|392:264,1,72
404,102,205027,1,0,0:0:0:0:
89,342,205155,6,0,L|110:265,1,72
132,104,205283,1,0,0:0:0:0:
422,342,205412,6,0,L|401:265,1,72
379,104,205540,6,0,B|333:124|279:107|279:107|256:141|256:141|269:166|269:166|258:186|258:186|272:209|272:209|262:237,1,236.250009012223,0|0,0:0|2:0,0:0:0:0:
256,300,206053,5,0,0:0:0:0:
93,50,206181,6,0,L|86:121,1,53.9999983520508
93,312,206309,1,0,0:0:0:0:
419,50,206437,6,0,L|426:121,1,53.9999983520508
418,312,206565,1,0,0:0:0:0:
120,52,206694,6,0,L|98:120,1,53.9999983520508
65,309,206822,1,0,0:0:0:0:
391,52,206950,6,0,L|413:120,1,53.9999983520508
446,309,207078,1,0,0:0:0:0:
146,61,207207,6,0,L|111:123,1,53.9999983520508
39,300,207335,1,0,0:0:0:0:
365,61,207463,6,0,L|400:123,1,53.9999983520508
472,300,207591,5,0,0:0:0:0:
256,25,207720,5,0,0:0:0:0:
218,284,207848,6,0,B|256:315|256:361|256:361|256:284|289:226,1,216,0|0,0:0|2:0,0:0:0:0:
410,211,208104,5,0,0:0:0:0:
54,184,208232,6,0,L|141:171,1,76.5000014591217
447,226,208361,1,0,0:0:0:0:
91,253,208489,6,0,L|178:266,1,76.5000014591217
468,124,208617,6,0,B|433:145|433:145|365:82|277:124|277:124|329:166,1,270,0|0,0:0|2:0,0:0:0:0:
115,341,209130,5,0,0:0:0:0:
467,240,209258,6,0,L|367:221,1,76.5000014591217
45,221,209386,1,0,0:0:0:0:
397,120,209514,6,0,L|297:101,1,76.5000014591217
51,298,209643,6,0,L|42:371,2,67.5000025749208,0|0|0,1:0|2:0|2:0,2:0:0:0:
167,31,210155,5,0,0:0:0:0:
198,75,210220,1,0,0:0:0:0:
197,128,210284,1,0,0:0:0:0:
171,175,210348,1,0,0:0:0:0:
120,194,210412,1,0,0:0:0:0:
345,353,210540,5,0,0:0:0:0:
314,309,210605,1,0,0:0:0:0:
315,256,210669,1,0,0:0:0:0:
341,209,210733,1,0,0:0:0:0:
392,190,210797,1,0,0:0:0:0:
254,56,210925,5,0,0:0:0:0:
273,107,210989,1,0,0:0:0:0:
320,133,211053,1,0,0:0:0:0:
373,134,211117,1,0,0:0:0:0:
417,103,211182,1,0,0:0:0:0:
258,328,211309,5,0,0:0:0:0:
239,277,211373,1,0,0:0:0:0:
192,251,211437,1,0,0:0:0:0:
139,250,211501,1,0,0:0:0:0:
95,281,211566,1,0,0:0:0:0:
335,84,211694,5,0,0:0:0:0:
291,53,211759,1,0,0:0:0:0:
238,54,211823,1,0,0:0:0:0:
191,80,211887,1,0,0:0:0:0:
172,131,211950,1,0,0:0:0:0:
216,162,212015,1,0,0:0:0:0:
269,161,212079,1,0,0:0:0:0:
316,135,212143,1,0,0:0:0:0:
335,84,212207,6,0,B|367:157|344:243|344:243|396:211|435:252|435:252|426:314|380:323,1,360,0|0,1:0|0:0,0:0:0:0:
177,84,214258,6,0,B|145:157|168:243|168:243|116:211|77:252|77:252|86:314|132:323,1,360
297,82,216309,6,0,B|246:77|162:128|162:128|207:77|207:77|159:54|125:57|125:57|102:75|80:121,1,360
215,302,218361,6,0,B|266:307|350:256|350:256|305:307|305:307|353:330|387:327|387:327|410:309|432:263,1,360
113,337,220412,6,0,B|82:312|72:276|72:276|114:251|114:251|81:212|105:153|105:153|138:177|169:157|169:157|147:97,1,360
399,337,222463,6,0,B|429:312|440:276|440:276|398:251|398:251|431:212|407:153|407:153|374:177|343:157|343:157|365:97,1,360
256,192,224514,5,0,0:0:0:0:
256,192,224578,12,0,228361,0:0:0:0:
43,191,228617,5,0,0:0:0:0:
55,185,228681,1,0,0:0:0:0:
67,179,228745,1,0,0:0:0:0:
80,173,228809,1,0,0:0:0:0:
94,169,228873,1,0,0:0:0:0:
107,165,228937,1,0,0:0:0:0:
121,163,229001,1,0,0:0:0:0:
135,161,229065,1,0,0:0:0:0:
149,160,229129,1,0,0:0:0:0:
162,161,229193,1,0,0:0:0:0:
176,162,229258,1,0,0:0:0:0:
190,165,229322,1,0,0:0:0:0:
204,169,229386,1,0,0:0:0:0:
217,173,229450,1,0,0:0:0:0:
230,178,229514,1,0,0:0:0:0:
242,184,229578,1,0,0:0:0:0:
255,191,229642,5,0,0:0:0:0:
267,198,229706,1,0,0:0:0:0:
279,204,229770,1,0,0:0:0:0:
292,209,229834,1,0,0:0:0:0:
305,214,229899,1,0,0:0:0:0:
319,217,229963,1,0,0:0:0:0:
332,220,230027,1,0,0:0:0:0:
346,222,230091,1,0,0:0:0:0:
360,223,230155,1,0,0:0:0:0:
374,222,230219,1,0,0:0:0:0:
388,221,230283,1,0,0:0:0:0:
402,218,230347,1,0,0:0:0:0:
415,215,230411,1,0,0:0:0:0:
429,210,230475,1,0,0:0:0:0:
441,205,230540,1,0,0:0:0:0:
454,199,230604,1,0,0:0:0:0:
468,191,230668,5,0,0:0:0:0:
456,185,230732,1,0,0:0:0:0:
444,179,230796,1,0,0:0:0:0:
431,173,230860,1,0,0:0:0:0:
417,169,230924,1,0,0:0:0:0:
404,165,230988,1,0,0:0:0:0:
390,163,231052,1,0,0:0:0:0:
376,161,231116,1,0,0:0:0:0:
362,160,231180,1,0,0:0:0:0:
349,161,231244,1,0,0:0:0:0:
335,162,231309,1,0,0:0:0:0:
321,165,231373,1,0,0:0:0:0:
307,169,231437,1,0,0:0:0:0:
294,173,231501,1,0,0:0:0:0:
281,178,231565,1,0,0:0:0:0:
269,184,231629,1,0,0:0:0:0:
256,191,231693,5,0,0:0:0:0:
244,198,231757,1,0,0:0:0:0:
232,204,231821,1,0,0:0:0:0:
219,209,231885,1,0,0:0:0:0:
206,214,231950,1,0,0:0:0:0:
192,217,232014,1,0,0:0:0:0:
179,220,232078,1,0,0:0:0:0:
165,222,232142,1,0,0:0:0:0:
151,223,232206,1,0,0:0:0:0:
137,222,232270,1,0,0:0:0:0:
123,221,232334,1,0,0:0:0:0:
109,218,232398,1,0,0:0:0:0:
96,215,232462,1,0,0:0:0:0:
82,210,232526,1,0,0:0:0:0:
70,205,232591,1,0,0:0:0:0:
57,199,232655,1,0,0:0:0:0:
45,193,232719,5,0,0:0:0:0:
