osu file format v14

[General]
AudioFilename: audio.mp3
AudioLeadIn: 0
PreviewTime: 121950
Countdown: 0
SampleSet: None
StackLeniency: 0.7
Mode: 1
LetterboxInBreaks: 0
WidescreenStoryboard: 1

[Editor]
DistanceSpacing: 0.7
BeatDivisor: 2
GridSize: 32
TimelineZoom: 3.399999

[Metadata]
Title:R U Still xxxx?
TitleUnicode:R U Still xxxx?
Artist:Camellia
ArtistUnicode:かめりあ
Creator:DarkVortex
Version:Inner Oni
Source:
Tags:
BeatmapID:1473966
BeatmapSetID:695719

[Difficulty]
HPDrainRate:5
CircleSize:5
OverallDifficulty:7
ApproachRate:5
SliderMultiplier:1.4
SliderTickRate:1

[Events]
//Background and Video events
0,0,"4685503-monster-[wallpaper].jpg",0,30
//Break Periods
//Storyboard Layer 0 (Background)
//Storyboard Layer 1 (Fail)
//Storyboard Layer 2 (Pass)
//Storyboard Layer 3 (Foreground)
//Storyboard Sound Samples

[TimingPoints]
2976,256.410256410256,4,1,0,5,1,0
7078,-100,4,1,0,5,0,0
7206,-100,4,1,0,6,0,0
7334,-100,4,1,0,7,0,0
7591,-100,4,1,0,9,0,0
7719,-100,4,1,0,10,0,0
7975,-100,4,1,0,12,0,0
8104,-100,4,1,0,13,0,0
8232,-100,4,1,0,14,0,0
8488,-100,4,1,0,16,0,0
8617,-100,4,1,0,17,0,0
8745,-100,4,1,0,18,0,0
8873,-100,4,1,0,19,0,0
9129,-100,4,1,0,21,0,0
9258,-100,4,1,0,22,0,0
9386,-100,4,1,0,23,0,0
9514,-100,4,1,0,24,0,0
9642,-100,4,1,0,25,0,0
9770,-100,4,1,0,26,0,0
10027,-100,4,1,0,28,0,0
10155,-100,4,1,0,29,0,0
10283,-100,4,1,0,30,0,0
10540,-100,4,1,0,32,0,0
10668,-100,4,1,0,33,0,0
10924,-100,4,1,0,35,0,0
11052,-100,4,1,0,36,0,0
11181,-100,4,1,0,37,0,0
11309,-100,4,1,0,38,0,0
11437,-100,4,1,0,39,0,0
11565,-100,4,1,0,40,0,0
11693,-100,4,1,0,41,0,0
11950,-100,4,1,0,43,0,0
12078,-100,4,1,0,44,0,0
12206,-100,4,1,0,45,0,0
12334,-100,4,1,0,46,0,0
12463,-100,4,1,0,47,0,0
12591,-100,4,1,0,48,0,0
12719,-100,4,1,0,49,0,0
12847,-100,4,1,0,50,0,0
12975,-100,4,1,0,51,0,0
13232,-100,4,1,0,53,0,0
13360,-100,4,1,0,54,0,0
13488,-100,4,1,0,55,0,0
13745,-100,4,1,0,57,0,0
13873,-100,4,1,0,58,0,0
14001,-100,4,1,0,59,0,0
14129,-100,4,1,0,60,0,0
14258,-100,4,1,0,61,0,0
14386,-100,4,1,0,62,0,0
14642,-100,4,1,0,64,0,0
14770,-100,4,1,0,65,0,0
15027,-100,4,1,0,67,0,0
15155,-100,4,1,0,68,0,0
15283,-100,4,1,0,69,0,0
15411,-100,4,1,0,70,0,0
15540,-100,4,1,0,71,0,0
15796,-100,4,1,0,73,0,0
15924,-100,4,1,0,74,0,0
16181,-100,4,1,0,76,0,0
16309,-100,4,1,0,77,0,0
16437,-100,4,1,0,78,0,0
16693,-100,4,1,0,80,0,0
16822,-100,4,1,0,81,0,0
18232,-100,4,1,0,90,0,0
72719,-100,4,1,0,100,0,1
89129,-100,4,1,0,100,0,0
89386,-100,4,1,0,70,0,0
121950,-100,4,1,0,100,0,1
154770,-100,4,1,0,100,0,0
179386,-100,4,1,0,100,0,1
192463,-100,4,1,0,100,0,0
192719,-100,4,1,0,100,0,1
193488,-100,4,1,0,100,0,0
193745,-100,4,1,0,100,0,1
194514,-100,4,1,0,100,0,0
195796,-100,4,1,0,100,0,1
205540,-100,4,1,0,100,0,0
206052,-100,4,1,0,100,0,1
207591,-100,4,1,0,100,0,0
207847,-100,4,1,0,100,0,1
208617,-100,4,1,0,100,0,0
209129,-100,4,1,0,100,0,1
209642,-100,4,1,0,100,0,0
210155,-100,4,1,0,100,0,1
212206,-100,4,1,0,100,0,0
228617,-100,4,1,0,100,0,1
232719,-100,4,1,0,100,0,0

[HitObjects]
256,192,2976,12,0,6565,0:0:0:0:
256,192,6822,5,0,0:0:0:0:
256,192,6950,1,8,0:0:0:0:
256,192,7078,1,0,0:0:0:0:
256,192,7206,1,0,0:0:0:0:
256,192,7334,1,8,0:0:0:0:
256,192,7591,1,8,0:0:0:0:
256,192,7719,1,8,0:0:0:0:
256,192,7976,1,8,0:0:0:0:
256,192,8104,1,8,0:0:0:0:
256,192,8232,1,0,0:0:0:0:
256,192,8488,1,8,0:0:0:0:
256,192,8617,1,0,0:0:0:0:
256,192,8745,1,8,0:0:0:0:
256,192,8873,1,0,0:0:0:0:
256,192,9129,1,0,0:0:0:0:
256,192,9258,1,8,0:0:0:0:
256,192,9386,1,0,0:0:0:0:
256,192,9514,1,0,0:0:0:0:
256,192,9642,1,8,0:0:0:0:
256,192,9770,1,8,0:0:0:0:
256,192,10027,1,8,0:0:0:0:
256,192,10155,1,8,0:0:0:0:
256,192,10283,1,8,0:0:0:0:
256,192,10540,1,0,0:0:0:0:
256,192,10668,1,8,0:0:0:0:
256,192,10924,1,0,0:0:0:0:
256,192,11052,1,0,0:0:0:0:
256,192,11181,1,0,0:0:0:0:
256,192,11309,1,8,0:0:0:0:
256,192,11437,1,8,0:0:0:0:
256,192,11565,1,0,0:0:0:0:
256,192,11693,1,8,0:0:0:0:
256,192,11950,1,0,0:0:0:0:
256,192,12078,1,8,0:0:0:0:
256,192,12206,1,8,0:0:0:0:
256,192,12334,1,0,0:0:0:0:
256,192,12463,1,8,0:0:0:0:
256,192,12591,1,8,0:0:0:0:
256,192,12719,1,0,0:0:0:0:
256,192,12847,1,8,0:0:0:0:
256,192,12976,1,0,0:0:0:0:
256,192,13232,1,0,0:0:0:0:
256,192,13360,1,0,0:0:0:0:
256,192,13488,1,8,0:0:0:0:
256,192,13745,1,8,0:0:0:0:
256,192,13873,1,8,0:0:0:0:
256,192,14001,1,0,0:0:0:0:
256,192,14129,1,8,0:0:0:0:
256,192,14258,1,8,0:0:0:0:
256,192,14386,1,8,0:0:0:0:
256,192,14642,1,8,0:0:0:0:
256,192,14770,1,8,0:0:0:0:
256,192,15027,1,0,0:0:0:0:
256,192,15155,1,0,0:0:0:0:
256,192,15283,1,0,0:0:0:0:
256,192,15411,1,0,0:0:0:0:
256,192,15540,1,8,0:0:0:0:
256,192,15796,1,8,0:0:0:0:
256,192,15924,1,8,0:0:0:0:
256,192,16181,1,8,0:0:0:0:
256,192,16309,1,8,0:0:0:0:
256,192,16437,1,8,0:0:0:0:
256,192,16693,1,0,0:0:0:0:
256,192,16822,1,8,0:0:0:0:
256,192,17078,1,0,0:0:0:0:
256,192,17334,1,8,0:0:0:0:
256,192,17463,1,8,0:0:0:0:
288,192,17591,1,0,0:0:0:0:
256,192,17719,1,0,0:0:0:0:
256,192,17847,1,8,0:0:0:0:
256,192,17975,1,8,0:0:0:0:
256,192,18104,1,0,0:0:0:0:
256,192,18232,1,0,0:0:0:0:
256,192,18296,1,0,0:0:0:0:
256,192,18360,1,8,0:0:0:0:
256,192,18424,1,8,0:0:0:0:
256,192,18488,1,0,0:0:0:0:
256,192,18617,1,0,0:0:0:0:
256,192,18745,1,8,0:0:0:0:
256,192,18809,1,8,0:0:0:0:
256,192,18873,1,0,0:0:0:0:
256,192,19001,1,0,0:0:0:0:
256,192,19129,1,8,0:0:0:0:
256,192,19193,1,8,0:0:0:0:
256,192,19258,1,0,0:0:0:0:
256,192,19386,1,4,0:0:0:0:
256,192,19514,1,0,0:0:0:0:
256,192,19642,1,8,0:0:0:0:
256,192,19899,1,0,0:0:0:0:
256,192,20027,1,8,0:0:0:0:
256,192,20283,1,8,0:0:0:0:
256,192,20411,1,8,0:0:0:0:
256,192,20540,1,8,0:0:0:0:
256,192,20668,1,0,0:0:0:0:
256,192,20732,1,0,0:0:0:0:
256,192,20796,1,0,0:0:0:0:
256,192,20924,1,8,0:0:0:0:
256,192,21052,1,0,0:0:0:0:
256,192,21181,1,8,0:0:0:0:
256,192,21309,1,8,0:0:0:0:
256,192,21437,1,0,0:0:0:0:
256,192,21565,1,0,0:0:0:0:
256,192,21693,1,8,0:0:0:0:
256,192,21950,1,0,0:0:0:0:
256,192,22078,1,8,0:0:0:0:
256,192,22334,1,8,0:0:0:0:
256,192,22463,1,8,0:0:0:0:
256,192,22591,1,8,0:0:0:0:
256,192,22719,1,0,0:0:0:0:
256,192,22783,1,0,0:0:0:0:
256,192,22847,1,0,0:0:0:0:
256,192,22911,1,0,0:0:0:0:
256,192,22975,1,8,0:0:0:0:
256,192,23104,1,0,0:0:0:0:
256,192,23232,1,8,0:0:0:0:
256,192,23360,1,8,0:0:0:0:
256,192,23488,1,4,0:0:0:0:
256,192,23617,1,8,0:0:0:0:
256,192,23681,1,8,0:0:0:0:
256,192,23745,1,8,0:0:0:0:
256,192,23873,1,4,0:0:0:0:
256,192,24129,1,8,0:0:0:0:
256,192,24258,1,4,0:0:0:0:
256,192,24642,1,4,0:0:0:0:
256,192,25027,1,4,0:0:0:0:
256,192,25283,1,4,0:0:0:0:
256,192,25540,1,4,0:0:0:0:
256,192,25924,1,4,0:0:0:0:
256,192,26052,1,8,0:0:0:0:
256,192,26117,1,8,0:0:0:0:
256,192,26181,1,8,0:0:0:0:
256,192,26309,1,4,0:0:0:0:
256,192,26437,1,8,0:0:0:0:
256,192,26501,1,8,0:0:0:0:
256,192,26565,1,0,0:0:0:0:
256,192,26693,1,4,0:0:0:0:
256,192,26950,1,0,0:0:0:0:
256,192,27014,1,0,0:0:0:0:
256,192,27078,1,8,0:0:0:0:
256,192,27206,1,8,0:0:0:0:
256,192,27334,1,8,0:0:0:0:
256,192,27463,1,8,0:0:0:0:
256,192,27591,1,4,0:0:0:0:
256,192,27719,1,0,0:0:0:0:
256,192,27847,1,8,0:0:0:0:
256,192,28104,1,0,0:0:0:0:
256,192,28232,1,8,0:0:0:0:
256,192,28488,1,8,0:0:0:0:
256,192,28617,1,8,0:0:0:0:
256,192,28745,1,8,0:0:0:0:
256,192,28873,1,0,0:0:0:0:
256,192,29001,1,0,0:0:0:0:
256,192,29129,1,8,0:0:0:0:
256,192,29258,1,0,0:0:0:0:
256,192,29322,1,0,0:0:0:0:
256,192,29386,1,8,0:0:0:0:
256,192,29514,1,8,0:0:0:0:
256,192,29642,1,0,0:0:0:0:
256,192,29770,1,0,0:0:0:0:
256,192,29899,1,8,0:0:0:0:
256,192,30027,1,0,0:0:0:0:
256,192,30155,1,8,0:0:0:0:
256,192,30283,1,8,0:0:0:0:
256,192,30540,1,8,0:0:0:0:
256,192,30668,1,8,0:0:0:0:
256,192,30796,1,8,0:0:0:0:
256,192,30924,1,0,0:0:0:0:
256,192,30988,1,0,0:0:0:0:
256,192,31052,1,0,0:0:0:0:
256,192,31117,1,0,0:0:0:0:
256,192,31181,1,8,0:0:0:0:
256,192,31309,1,0,0:0:0:0:
256,192,31373,1,0,0:0:0:0:
256,192,31437,1,8,0:0:0:0:
256,192,31565,1,8,0:0:0:0:
256,192,31693,1,4,0:0:0:0:
256,192,31822,1,8,0:0:0:0:
256,192,31886,1,8,0:0:0:0:
256,192,31950,1,8,0:0:0:0:
256,192,32078,1,4,0:0:0:0:
256,192,32334,1,8,0:0:0:0:
256,192,32463,1,4,0:0:0:0:
256,192,32847,1,0,0:0:0:0:
256,192,33232,1,4,0:0:0:0:
256,192,33488,1,4,0:0:0:0:
256,192,33617,1,8,0:0:0:0:
256,192,33745,1,4,0:0:0:0:
256,192,34129,1,0,0:0:0:0:
256,192,34258,1,8,0:0:0:0:
256,192,34322,1,8,0:0:0:0:
256,192,34386,1,8,0:0:0:0:
256,192,34514,1,4,0:0:0:0:
256,192,34642,1,8,0:0:0:0:
256,192,34706,1,8,0:0:0:0:
256,192,34770,1,0,0:0:0:0:
256,192,34899,1,4,0:0:0:0:
256,192,35155,1,4,0:0:0:0:
256,192,35283,1,8,0:0:0:0:
256,192,35347,1,8,0:0:0:0:
256,192,35411,1,8,0:0:0:0:
256,192,35475,1,0,0:0:0:0:
256,192,35540,1,0,0:0:0:0:
256,192,35668,1,0,0:0:0:0:
256,192,35796,1,4,0:0:0:0:
256,192,35924,12,0,39770,0:0:0:0:
256,192,39899,5,8,0:0:0:0:
256,192,40155,1,0,0:0:0:0:
256,192,40219,1,0,0:0:0:0:
256,192,40283,1,8,0:0:0:0:
256,192,40411,1,8,0:0:0:0:
256,192,40540,1,8,0:0:0:0:
256,192,40668,1,0,0:0:0:0:
256,192,40796,1,8,0:0:0:0:
256,192,40924,1,8,0:0:0:0:
256,192,41052,1,8,0:0:0:0:
256,192,41181,1,0,0:0:0:0:
256,192,41245,1,0,0:0:0:0:
256,192,41309,1,8,0:0:0:0:
256,192,41437,1,0,0:0:0:0:
256,192,41565,1,8,0:0:0:0:
256,192,41693,1,8,0:0:0:0:
256,192,41822,1,8,0:0:0:0:
256,192,41950,1,0,0:0:0:0:
256,192,42206,1,0,0:0:0:0:
256,192,42270,1,0,0:0:0:0:
256,192,42334,1,8,0:0:0:0:
256,192,42463,1,8,0:0:0:0:
256,192,42591,1,8,0:0:0:0:
256,192,42719,1,0,0:0:0:0:
256,192,42783,1,0,0:0:0:0:
256,192,42847,1,8,0:0:0:0:
256,192,42975,1,8,0:0:0:0:
256,192,43040,1,8,0:0:0:0:
256,192,43104,1,0,0:0:0:0:
256,192,43232,1,0,0:0:0:0:
256,192,43360,1,8,0:0:0:0:
256,192,43488,1,8,0:0:0:0:
256,192,43617,1,8,0:0:0:0:
256,192,43745,1,0,0:0:0:0:
256,192,43873,1,0,0:0:0:0:
256,192,44001,1,8,0:0:0:0:
256,192,44258,1,0,0:0:0:0:
256,192,44322,1,0,0:0:0:0:
256,192,44386,1,8,0:0:0:0:
256,192,44514,1,8,0:0:0:0:
256,192,44642,1,8,0:0:0:0:
256,192,44770,1,0,0:0:0:0:
256,192,44834,1,0,0:0:0:0:
256,192,44899,1,8,0:0:0:0:
256,192,45027,1,8,0:0:0:0:
256,192,45155,1,8,0:0:0:0:
256,192,45283,1,0,0:0:0:0:
256,192,45411,1,8,0:0:0:0:
256,192,45668,1,0,0:0:0:0:
256,192,45796,1,8,0:0:0:0:
256,192,45924,1,8,0:0:0:0:
256,192,46052,2,0,L|320:192,14,35
256,192,47078,1,8,0:0:0:0:
256,192,47334,1,8,0:0:0:0:
256,192,47463,1,0,0:0:0:0:
256,192,47527,1,0,0:0:0:0:
256,192,47591,1,8,0:0:0:0:
256,192,47719,1,0,0:0:0:0:
256,192,47783,1,0,0:0:0:0:
256,192,47847,1,8,0:0:0:0:
256,192,47975,1,8,0:0:0:0:
256,192,48104,1,4,0:0:0:0:
256,192,48488,1,0,0:0:0:0:
256,192,48617,1,8,0:0:0:0:
256,192,48873,1,8,0:0:0:0:
256,192,49129,1,4,0:0:0:0:
256,192,49258,1,4,0:0:0:0:
256,192,49514,1,8,0:0:0:0:
256,192,49642,1,8,0:0:0:0:
256,192,49770,1,8,0:0:0:0:
256,192,49899,1,8,0:0:0:0:
256,192,50155,1,4,0:0:0:0:
256,192,50540,1,0,0:0:0:0:
256,192,50668,1,8,0:0:0:0:
256,192,50924,1,8,0:0:0:0:
256,192,51181,1,4,0:0:0:0:
256,192,51309,1,4,0:0:0:0:
256,192,51565,1,4,0:0:0:0:
256,192,51822,1,8,0:0:0:0:
256,192,51950,1,8,0:0:0:0:
256,192,52206,1,4,0:0:0:0:
256,192,52591,1,8,0:0:0:0:
256,192,52719,1,4,0:0:0:0:
256,192,52847,1,4,0:0:0:0:
256,192,53104,1,8,0:0:0:0:
256,192,53232,1,4,0:0:0:0:
256,192,53360,1,4,0:0:0:0:
256,192,53617,1,4,0:0:0:0:
256,192,53745,1,0,0:0:0:0:
256,192,53809,1,0,0:0:0:0:
256,192,53873,1,0,0:0:0:0:
256,192,53937,1,0,0:0:0:0:
256,192,54001,1,8,0:0:0:0:
256,192,54065,1,8,0:0:0:0:
256,192,54129,1,8,0:0:0:0:
256,192,54193,1,8,0:0:0:0:
256,192,54258,1,0,0:0:0:0:
256,192,55924,5,0,0:0:0:0:
256,192,55988,1,0,0:0:0:0:
256,192,56052,1,8,0:0:0:0:
256,192,56309,1,4,0:0:0:0:
256,192,56565,1,0,0:0:0:0:
256,192,56693,1,0,0:0:0:0:
256,192,56758,1,0,0:0:0:0:
256,192,56822,1,0,0:0:0:0:
256,192,56950,1,0,0:0:0:0:
256,192,57078,1,0,0:0:0:0:
256,192,57206,1,0,0:0:0:0:
256,192,57270,1,0,0:0:0:0:
256,192,57334,1,0,0:0:0:0:
256,192,57463,1,0,0:0:0:0:
256,192,57591,1,0,0:0:0:0:
256,192,57719,1,0,0:0:0:0:
256,192,57783,1,0,0:0:0:0:
256,192,57847,1,0,0:0:0:0:
256,192,57975,1,0,0:0:0:0:
256,192,58104,1,0,0:0:0:0:
256,192,58168,1,0,0:0:0:0:
256,192,58232,1,0,0:0:0:0:
256,192,58296,1,0,0:0:0:0:
256,192,58360,1,0,0:0:0:0:
256,192,58424,1,0,0:0:0:0:
256,192,58488,1,0,0:0:0:0:
256,192,58617,1,0,0:0:0:0:
256,192,58745,1,0,0:0:0:0:
256,192,58809,1,0,0:0:0:0:
256,192,58873,1,0,0:0:0:0:
256,192,59001,1,0,0:0:0:0:
256,192,59065,1,0,0:0:0:0:
256,192,59129,1,0,0:0:0:0:
256,192,59258,1,0,0:0:0:0:
256,192,59322,1,0,0:0:0:0:
256,192,59386,1,8,0:0:0:0:
256,192,59514,1,0,0:0:0:0:
256,192,59642,1,8,0:0:0:0:
256,192,59770,1,8,0:0:0:0:
256,192,59899,1,0,0:0:0:0:
256,192,59963,1,0,0:0:0:0:
256,192,60027,1,8,0:0:0:0:
256,192,60091,1,0,0:0:0:0:
256,192,60155,1,8,0:0:0:0:
256,192,60411,1,0,0:0:0:0:
256,192,60668,1,0,0:0:0:0:
256,192,60796,1,0,0:0:0:0:
256,192,60860,1,0,0:0:0:0:
256,192,60924,1,0,0:0:0:0:
256,192,61052,1,0,0:0:0:0:
256,192,61181,1,0,0:0:0:0:
256,192,61309,1,8,0:0:0:0:
256,192,61373,1,8,0:0:0:0:
256,192,61437,1,0,0:0:0:0:
256,192,61565,1,0,0:0:0:0:
256,192,61693,1,0,0:0:0:0:
256,192,61822,1,0,0:0:0:0:
256,192,61886,1,0,0:0:0:0:
256,192,61950,1,8,0:0:0:0:
256,192,62078,1,8,0:0:0:0:
256,192,62206,1,8,0:0:0:0:
256,192,62334,1,8,0:0:0:0:
256,192,62463,1,8,0:0:0:0:
256,192,62591,1,0,0:0:0:0:
256,192,62655,1,0,0:0:0:0:
256,192,62783,1,0,0:0:0:0:
256,192,62847,1,0,0:0:0:0:
256,192,62975,1,8,0:0:0:0:
256,192,63232,1,8,0:0:0:0:
256,192,63360,1,0,0:0:0:0:
256,192,63424,1,0,0:0:0:0:
256,192,63552,1,0,0:0:0:0:
256,192,63617,1,0,0:0:0:0:
256,192,63745,1,8,0:0:0:0:
256,192,63809,1,8,0:0:0:0:
256,192,63873,1,8,0:0:0:0:
256,192,63937,1,8,0:0:0:0:
256,192,64001,1,8,0:0:0:0:
256,192,64129,1,8,0:0:0:0:
256,192,64258,1,8,0:0:0:0:
256,192,64386,1,8,0:0:0:0:
256,192,64514,1,4,0:0:0:0:
256,192,64770,1,0,0:0:0:0:
256,192,64899,1,0,0:0:0:0:
256,192,64963,1,0,0:0:0:0:
256,192,65027,1,0,0:0:0:0:
256,192,65155,1,0,0:0:0:0:
256,192,65283,1,0,0:0:0:0:
256,192,65411,1,0,0:0:0:0:
256,192,65475,1,0,0:0:0:0:
256,192,65540,1,0,0:0:0:0:
256,192,65604,1,0,0:0:0:0:
256,192,65668,1,0,0:0:0:0:
256,192,65732,1,0,0:0:0:0:
256,192,65796,1,0,0:0:0:0:
256,192,65924,1,0,0:0:0:0:
256,192,65988,1,0,0:0:0:0:
256,192,66052,1,0,0:0:0:0:
256,192,66181,1,0,0:0:0:0:
256,192,66309,1,0,0:0:0:0:
256,192,66373,1,0,0:0:0:0:
256,192,66437,1,0,0:0:0:0:
256,192,66501,1,0,0:0:0:0:
256,192,66565,1,0,0:0:0:0:
256,192,66693,1,8,0:0:0:0:
256,192,66758,1,8,0:0:0:0:
256,192,66822,1,0,0:0:0:0:
256,192,66950,1,0,0:0:0:0:
256,192,67014,1,0,0:0:0:0:
256,192,67078,1,0,0:0:0:0:
256,192,67206,1,0,0:0:0:0:
256,192,67270,1,0,0:0:0:0:
256,192,67463,1,8,0:0:0:0:
256,192,67527,1,8,0:0:0:0:
256,192,67591,1,0,0:0:0:0:
256,192,67655,1,0,0:0:0:0:
256,192,67719,1,0,0:0:0:0:
256,192,67783,1,0,0:0:0:0:
256,192,67847,1,0,0:0:0:0:
256,192,67911,1,0,0:0:0:0:
256,192,67975,1,0,0:0:0:0:
256,192,68040,1,0,0:0:0:0:
256,192,68104,1,0,0:0:0:0:
256,192,68232,1,0,0:0:0:0:
256,192,68360,1,12,0:0:0:0:
256,192,68488,1,8,0:0:0:0:
256,192,68617,1,8,0:0:0:0:
256,192,68873,1,0,0:0:0:0:
256,192,69129,1,0,0:0:0:0:
256,192,69258,1,0,0:0:0:0:
256,192,69386,1,0,0:0:0:0:
256,192,69514,1,8,0:0:0:0:
256,192,69578,1,8,0:0:0:0:
256,192,69642,1,0,0:0:0:0:
256,192,69706,1,0,0:0:0:0:
256,192,69770,1,0,0:0:0:0:
256,192,69899,1,0,0:0:0:0:
256,192,69963,1,0,0:0:0:0:
256,192,70027,1,0,0:0:0:0:
256,192,70155,1,8,0:0:0:0:
256,192,70219,1,8,0:0:0:0:
256,192,70283,1,0,0:0:0:0:
256,192,70347,1,8,0:0:0:0:
256,192,70411,1,8,0:0:0:0:
256,192,70475,1,0,0:0:0:0:
256,192,70540,1,8,0:0:0:0:
256,192,70604,1,8,0:0:0:0:
256,192,70668,1,8,0:0:0:0:
256,192,70796,1,0,0:0:0:0:
256,192,70860,1,0,0:0:0:0:
256,192,70924,1,8,0:0:0:0:
256,192,71052,1,0,0:0:0:0:
256,192,71117,1,8,0:0:0:0:
256,192,71181,1,0,0:0:0:0:
256,192,71309,1,8,0:0:0:0:
256,192,71437,1,8,0:0:0:0:
256,192,71565,1,8,0:0:0:0:
256,192,71693,1,0,0:0:0:0:
256,192,71822,1,0,0:0:0:0:
256,192,71950,1,8,0:0:0:0:
256,192,72014,1,8,0:0:0:0:
256,192,72078,1,0,0:0:0:0:
256,192,72142,1,0,0:0:0:0:
256,192,72206,1,8,0:0:0:0:
256,192,72334,1,0,0:0:0:0:
256,192,72399,1,8,0:0:0:0:
256,192,72463,1,0,0:0:0:0:
256,192,72591,1,8,0:0:0:0:
256,192,72719,1,4,0:0:0:0:
256,192,72975,1,8,0:0:0:0:
256,192,73104,1,0,0:0:0:0:
256,192,73168,1,0,0:0:0:0:
256,192,73232,1,8,0:0:0:0:
256,192,73296,1,0,0:0:0:0:
256,192,73360,1,8,0:0:0:0:
256,192,73488,1,0,0:0:0:0:
256,192,73617,1,8,0:0:0:0:
256,192,73681,1,0,0:0:0:0:
256,192,73745,1,8,0:0:0:0:
256,192,73809,1,8,0:0:0:0:
256,192,73873,1,0,0:0:0:0:
256,192,74001,1,0,0:0:0:0:
256,192,74065,1,0,0:0:0:0:
256,192,74129,1,8,0:0:0:0:
256,192,74258,1,8,0:0:0:0:
256,192,74322,1,8,0:0:0:0:
256,192,74386,1,0,0:0:0:0:
256,192,74450,1,0,0:0:0:0:
256,192,74514,1,8,0:0:0:0:
256,192,74578,1,0,0:0:0:0:
256,192,74642,1,8,0:0:0:0:
256,192,74706,1,8,0:0:0:0:
256,192,74770,1,0,0:0:0:0:
256,192,74834,1,0,0:0:0:0:
256,192,74899,1,8,0:0:0:0:
256,192,74963,1,0,0:0:0:0:
256,192,75027,1,8,0:0:0:0:
256,192,75091,1,8,0:0:0:0:
256,192,75155,1,0,0:0:0:0:
256,192,75283,1,8,0:0:0:0:
256,192,75347,1,8,0:0:0:0:
256,192,75411,1,0,0:0:0:0:
256,192,75475,1,0,0:0:0:0:
256,192,75540,1,8,0:0:0:0:
256,192,75668,1,8,0:0:0:0:
256,192,75732,1,0,0:0:0:0:
256,192,75796,1,8,0:0:0:0:
256,192,75860,1,8,0:0:0:0:
256,192,75924,1,0,0:0:0:0:
256,192,76052,1,0,0:0:0:0:
256,192,76181,1,8,0:0:0:0:
256,192,76309,1,8,0:0:0:0:
256,192,76437,1,0,0:0:0:0:
256,192,76565,1,8,0:0:0:0:
256,192,76822,1,0,0:0:0:0:
256,192,76950,1,0,0:0:0:0:
256,192,77014,1,0,0:0:0:0:
256,192,77078,1,8,0:0:0:0:
256,192,77142,1,8,0:0:0:0:
256,192,77206,1,0,0:0:0:0:
256,192,77334,1,8,0:0:0:0:
256,192,77399,1,0,0:0:0:0:
256,192,77463,1,8,0:0:0:0:
256,192,77527,1,8,0:0:0:0:
256,192,77591,1,0,0:0:0:0:
256,192,77719,1,0,0:0:0:0:
256,192,77783,1,8,0:0:0:0:
256,192,77847,1,8,0:0:0:0:
256,192,77911,1,8,0:0:0:0:
256,192,77975,1,0,0:0:0:0:
256,192,78104,1,0,0:0:0:0:
256,192,78168,1,0,0:0:0:0:
256,192,78232,1,8,0:0:0:0:
256,192,78296,1,0,0:0:0:0:
256,192,78360,1,8,0:0:0:0:
256,192,78424,1,8,0:0:0:0:
256,192,78488,1,0,0:0:0:0:
256,192,78552,1,0,0:0:0:0:
256,192,78617,1,8,0:0:0:0:
256,192,78745,1,0,0:0:0:0:
256,192,78809,1,0,0:0:0:0:
256,192,78873,1,8,0:0:0:0:
256,192,79001,1,0,0:0:0:0:
256,192,79065,1,8,0:0:0:0:
256,192,79193,1,8,0:0:0:0:
256,192,79258,1,0,0:0:0:0:
256,192,79386,1,8,0:0:0:0:
256,192,79514,1,0,0:0:0:0:
256,192,79578,1,8,0:0:0:0:
256,192,79706,1,8,0:0:0:0:
256,192,79770,1,0,0:0:0:0:
256,192,79899,1,8,0:0:0:0:
256,192,80027,1,8,0:0:0:0:
256,192,80155,1,8,0:0:0:0:
256,192,80219,1,8,0:0:0:0:
256,192,80283,1,8,0:0:0:0:
256,192,80347,1,8,0:0:0:0:
256,192,80411,1,0,0:0:0:0:
256,192,80497,1,0,0:0:0:0:
256,192,80582,1,0,0:0:0:0:
256,192,80668,1,0,0:0:0:0:
256,192,80753,1,0,0:0:0:0:
256,192,80839,1,0,0:0:0:0:
256,192,80924,1,0,0:0:0:0:
256,192,81181,1,12,0:0:0:0:
256,192,81309,1,0,0:0:0:0:
256,192,81373,1,0,0:0:0:0:
256,192,81437,1,8,0:0:0:0:
256,192,81565,1,8,0:0:0:0:
256,192,81693,1,0,0:0:0:0:
256,192,81822,1,8,0:0:0:0:
256,192,81886,1,0,0:0:0:0:
256,192,81950,1,8,0:0:0:0:
256,192,82014,1,8,0:0:0:0:
256,192,82078,1,0,0:0:0:0:
256,192,82206,1,0,0:0:0:0:
256,192,82334,1,8,0:0:0:0:
256,192,82399,1,0,0:0:0:0:
256,192,82463,1,8,0:0:0:0:
256,192,82591,1,0,0:0:0:0:
256,192,82655,1,0,0:0:0:0:
256,192,82719,1,8,0:0:0:0:
256,192,82783,1,8,0:0:0:0:
256,192,82847,1,8,0:0:0:0:
256,192,82911,1,8,0:0:0:0:
256,192,82975,1,0,0:0:0:0:
256,192,83040,1,0,0:0:0:0:
256,192,83104,1,8,0:0:0:0:
256,192,83232,1,8,0:0:0:0:
256,192,83296,1,8,0:0:0:0:
256,192,83360,1,0,0:0:0:0:
256,192,83424,1,0,0:0:0:0:
256,192,83488,1,8,0:0:0:0:
256,192,83617,1,8,0:0:0:0:
256,192,83681,1,8,0:0:0:0:
256,192,83745,1,0,0:0:0:0:
256,192,83873,1,8,0:0:0:0:
256,192,83937,1,0,0:0:0:0:
256,192,84001,1,8,0:0:0:0:
256,192,84065,1,8,0:0:0:0:
256,192,84129,1,0,0:0:0:0:
256,192,84193,1,8,0:0:0:0:
256,192,84258,1,0,0:0:0:0:
256,192,84322,1,0,0:0:0:0:
256,192,84386,1,8,0:0:0:0:
256,192,84450,1,0,0:0:0:0:
256,192,84514,1,8,0:0:0:0:
256,192,84642,1,8,0:0:0:0:
256,192,84770,1,8,0:0:0:0:
256,192,85027,1,0,0:0:0:0:
256,192,85091,1,0,0:0:0:0:
256,192,85155,1,0,0:0:0:0:
256,192,85219,1,0,0:0:0:0:
256,192,85283,1,8,0:0:0:0:
256,192,85411,1,0,0:0:0:0:
256,192,85475,1,0,0:0:0:0:
256,192,85540,1,8,0:0:0:0:
256,192,85604,1,0,0:0:0:0:
256,192,85668,1,8,0:0:0:0:
256,192,85796,1,0,0:0:0:0:
256,192,86052,1,0,0:0:0:0:
256,192,86117,1,8,0:0:0:0:
256,192,86181,1,0,0:0:0:0:
256,192,86245,1,0,0:0:0:0:
256,192,86309,1,8,0:0:0:0:
256,192,86437,1,0,0:0:0:0:
256,192,86501,1,8,0:0:0:0:
256,192,86565,1,8,0:0:0:0:
256,192,86629,1,0,0:0:0:0:
256,192,86693,1,8,0:0:0:0:
256,192,86822,1,0,0:0:0:0:
256,192,87078,1,8,0:0:0:0:
256,192,87142,1,8,0:0:0:0:
256,192,87206,1,0,0:0:0:0:
256,192,87270,1,0,0:0:0:0:
256,192,87334,1,8,0:0:0:0:
256,192,87463,1,0,0:0:0:0:
256,192,87527,1,0,0:0:0:0:
256,192,87591,1,8,0:0:0:0:
256,192,87655,1,8,0:0:0:0:
256,192,87719,1,0,0:0:0:0:
256,192,87783,1,0,0:0:0:0:
256,192,87847,1,8,0:0:0:0:
256,192,87911,1,0,0:0:0:0:
256,192,87975,1,8,0:0:0:0:
256,192,88040,1,8,0:0:0:0:
256,192,88104,1,0,0:0:0:0:
256,192,88168,1,0,0:0:0:0:
256,192,88232,1,0,0:0:0:0:
256,192,88296,1,0,0:0:0:0:
256,192,88360,1,8,0:0:0:0:
256,192,88424,1,8,0:0:0:0:
256,192,88488,1,8,0:0:0:0:
256,192,88552,1,8,0:0:0:0:
256,192,88617,1,0,0:0:0:0:
256,192,88681,1,0,0:0:0:0:
256,192,88745,1,0,0:0:0:0:
256,192,88809,1,0,0:0:0:0:
256,192,88873,1,8,0:0:0:0:
256,192,89001,1,8,0:0:0:0:
256,192,89129,1,4,0:0:0:0:
256,192,89258,12,0,91181,0:0:0:0:
256,192,92463,5,0,0:0:0:0:
256,192,92847,1,0,0:0:0:0:
256,192,93104,1,0,0:0:0:0:
256,192,93488,1,8,0:0:0:0:
256,192,93873,1,8,0:0:0:0:
256,192,94129,1,8,0:0:0:0:
256,192,94386,1,0,0:0:0:0:
256,192,94514,1,8,0:0:0:0:
256,192,94770,1,0,0:0:0:0:
256,192,94899,1,8,0:0:0:0:
256,192,95155,1,8,0:0:0:0:
256,192,95411,1,0,0:0:0:0:
256,192,95540,1,8,0:0:0:0:
256,192,95668,1,0,0:0:0:0:
256,192,95796,1,0,0:0:0:0:
256,192,95924,1,8,0:0:0:0:
256,192,96181,1,8,0:0:0:0:
256,192,96437,1,0,0:0:0:0:
256,192,96565,1,8,0:0:0:0:
256,192,96950,1,8,0:0:0:0:
256,192,97206,1,8,0:0:0:0:
256,192,97334,1,0,0:0:0:0:
256,192,97463,1,0,0:0:0:0:
256,192,97591,1,8,0:0:0:0:
256,192,97719,1,0,0:0:0:0:
256,192,97847,1,0,0:0:0:0:
256,192,97975,1,8,0:0:0:0:
256,192,98232,1,8,0:0:0:0:
256,192,98488,1,0,0:0:0:0:
256,192,98617,1,8,0:0:0:0:
256,192,98745,1,0,0:0:0:0:
256,192,98873,1,0,0:0:0:0:
256,192,99001,1,8,0:0:0:0:
256,192,99258,1,0,0:0:0:0:
256,192,99514,1,8,0:0:0:0:
256,192,99642,1,8,0:0:0:0:
256,192,99770,1,0,0:0:0:0:
256,192,99899,1,0,0:0:0:0:
256,192,100027,1,8,0:0:0:0:
256,192,100283,1,8,0:0:0:0:
256,192,100411,1,0,0:0:0:0:
256,192,100540,1,0,0:0:0:0:
256,192,100668,1,8,0:0:0:0:
256,192,100924,1,0,0:0:0:0:
256,192,101052,1,8,0:0:0:0:
256,192,101309,1,8,0:0:0:0:
256,192,101565,1,0,0:0:0:0:
256,192,101693,1,8,0:0:0:0:
256,192,101822,1,8,0:0:0:0:
256,192,101950,1,0,0:0:0:0:
256,192,102078,1,8,0:0:0:0:
256,192,102334,1,8,0:0:0:0:
256,192,102591,1,0,0:0:0:0:
256,192,102719,1,8,0:0:0:0:
256,192,102847,1,0,0:0:0:0:
256,192,102975,1,0,0:0:0:0:
256,192,103104,1,8,0:0:0:0:
256,192,103360,1,8,0:0:0:0:
256,192,103617,1,0,0:0:0:0:
256,192,103745,1,8,0:0:0:0:
256,192,103873,1,8,0:0:0:0:
256,192,104001,1,0,0:0:0:0:
256,192,104129,1,8,0:0:0:0:
256,192,104258,1,0,0:0:0:0:
256,192,104386,1,8,0:0:0:0:
256,192,104514,1,4,0:0:0:0:
256,192,105540,1,12,0:0:0:0:
256,192,106565,1,0,0:0:0:0:
256,192,106950,1,0,0:0:0:0:
256,192,107206,1,8,0:0:0:0:
256,192,107334,1,0,0:0:0:0:
256,192,107591,1,12,0:0:0:0:
256,192,108617,1,8,0:0:0:0:
256,192,108873,1,0,0:0:0:0:
256,192,109001,1,8,0:0:0:0:
256,192,109258,1,0,0:0:0:0:
256,192,109386,1,8,0:0:0:0:
256,192,109642,1,12,0:0:0:0:
256,192,109899,1,12,0:0:0:0:
256,192,110155,1,12,0:0:0:0:
256,192,110411,1,12,0:0:0:0:
256,192,110668,1,0,0:0:0:0:
256,192,111052,1,0,0:0:0:0:
256,192,111309,1,8,0:0:0:0:
256,192,111437,1,0,0:0:0:0:
256,192,111693,1,12,0:0:0:0:
256,192,112463,1,0,0:0:0:0:
256,192,112527,1,0,0:0:0:0:
256,192,112591,1,0,0:0:0:0:
256,192,112655,1,0,0:0:0:0:
256,192,112719,1,8,0:0:0:0:
256,192,112975,1,0,0:0:0:0:
256,192,113104,1,8,0:0:0:0:
256,192,113360,1,0,0:0:0:0:
256,192,113488,1,8,0:0:0:0:
256,192,113617,1,8,0:0:0:0:
256,192,113745,1,4,0:0:0:0:
256,192,114001,1,8,0:0:0:0:
256,192,114258,1,0,0:0:0:0:
256,192,114386,1,8,0:0:0:0:
256,192,114514,1,0,0:0:0:0:
256,192,114770,1,8,0:0:0:0:
256,192,115027,1,8,0:0:0:0:
256,192,115283,1,0,0:0:0:0:
256,192,115411,1,8,0:0:0:0:
256,192,115540,1,8,0:0:0:0:
256,192,115796,1,0,0:0:0:0:
256,192,115924,1,0,0:0:0:0:
256,192,116052,1,8,0:0:0:0:
256,192,116309,1,0,0:0:0:0:
256,192,116437,1,8,0:0:0:0:
256,192,116565,1,0,0:0:0:0:
256,192,116822,1,8,0:0:0:0:
256,192,117078,1,8,0:0:0:0:
256,192,117334,1,0,0:0:0:0:
256,192,117463,1,8,0:0:0:0:
256,192,117591,1,8,0:0:0:0:
256,192,117847,1,0,0:0:0:0:
256,192,117975,1,0,0:0:0:0:
256,192,118104,1,8,0:0:0:0:
256,192,118232,1,8,0:0:0:0:
256,192,118360,1,0,0:0:0:0:
256,192,118488,1,0,0:0:0:0:
256,192,118617,1,8,0:0:0:0:
256,192,118745,1,8,0:0:0:0:
256,192,118873,1,0,0:0:0:0:
256,192,119001,1,0,0:0:0:0:
256,192,119129,1,8,0:0:0:0:
256,192,119258,1,8,0:0:0:0:
256,192,119386,1,0,0:0:0:0:
256,192,119514,1,0,0:0:0:0:
256,192,119642,1,8,0:0:0:0:
256,192,119770,1,8,0:0:0:0:
256,192,119899,1,0,0:0:0:0:
256,192,119963,1,0,0:0:0:0:
256,192,120027,1,0,0:0:0:0:
256,192,120091,1,0,0:0:0:0:
256,192,120155,1,0,0:0:0:0:
256,192,120219,1,0,0:0:0:0:
256,192,120283,1,0,0:0:0:0:
256,192,120347,1,0,0:0:0:0:
256,192,120411,1,8,0:0:0:0:
256,192,120475,1,8,0:0:0:0:
256,192,120540,1,8,0:0:0:0:
256,192,120604,1,8,0:0:0:0:
256,192,120668,1,8,0:0:0:0:
256,192,120732,1,8,0:0:0:0:
256,192,120796,1,8,0:0:0:0:
256,192,120860,1,8,0:0:0:0:
256,192,120924,1,0,0:0:0:0:
256,192,121565,1,0,0:0:0:0:
256,192,121629,1,0,0:0:0:0:
256,192,121693,1,8,0:0:0:0:
256,192,121950,5,8,0:0:0:0:
256,192,122014,1,8,0:0:0:0:
256,192,122078,1,0,0:0:0:0:
256,192,122142,1,0,0:0:0:0:
256,192,122206,1,8,0:0:0:0:
256,192,122334,1,0,0:0:0:0:
256,192,122463,1,8,0:0:0:0:
256,192,122527,1,8,0:0:0:0:
256,192,122591,1,0,0:0:0:0:
256,192,122655,1,0,0:0:0:0:
256,192,122719,1,8,0:0:0:0:
256,192,122847,1,0,0:0:0:0:
256,192,122975,1,8,0:0:0:0:
256,192,123040,1,8,0:0:0:0:
256,192,123104,1,0,0:0:0:0:
256,192,123168,1,0,0:0:0:0:
256,192,123232,1,8,0:0:0:0:
256,192,123296,1,0,0:0:0:0:
256,192,123360,1,8,0:0:0:0:
256,192,123424,1,8,0:0:0:0:
256,192,123488,1,0,0:0:0:0:
256,192,123617,1,8,0:0:0:0:
256,192,123681,1,8,0:0:0:0:
256,192,123745,1,8,0:0:0:0:
256,192,123873,1,0,0:0:0:0:
256,192,124001,1,8,0:0:0:0:
256,192,124065,1,8,0:0:0:0:
256,192,124129,1,0,0:0:0:0:
256,192,124193,1,0,0:0:0:0:
256,192,124258,1,8,0:0:0:0:
256,192,124386,1,0,0:0:0:0:
256,192,124514,1,8,0:0:0:0:
256,192,124578,1,8,0:0:0:0:
256,192,124642,1,0,0:0:0:0:
256,192,124706,1,0,0:0:0:0:
256,192,124770,1,8,0:0:0:0:
256,192,124899,1,0,0:0:0:0:
256,192,125027,1,12,0:0:0:0:
256,192,125155,1,0,0:0:0:0:
256,192,125283,1,8,0:0:0:0:
256,192,125347,1,0,0:0:0:0:
256,192,125411,1,8,0:0:0:0:
256,192,125475,1,8,0:0:0:0:
256,192,125540,1,0,0:0:0:0:
256,192,125668,1,0,0:0:0:0:
256,192,125796,1,8,0:0:0:0:
256,192,126052,1,8,0:0:0:0:
256,192,126117,1,8,0:0:0:0:
256,192,126181,1,0,0:0:0:0:
256,192,126245,1,0,0:0:0:0:
256,192,126309,1,8,0:0:0:0:
256,192,126437,1,0,0:0:0:0:
256,192,126565,1,8,0:0:0:0:
256,192,126629,1,8,0:0:0:0:
256,192,126693,1,0,0:0:0:0:
256,192,126758,1,0,0:0:0:0:
256,192,126822,1,8,0:0:0:0:
256,192,126950,1,0,0:0:0:0:
256,192,127078,1,8,0:0:0:0:
256,192,127142,1,8,0:0:0:0:
256,192,127206,1,0,0:0:0:0:
256,192,127270,1,0,0:0:0:0:
256,192,127334,1,8,0:0:0:0:
256,192,127399,1,0,0:0:0:0:
256,192,127463,1,8,0:0:0:0:
256,192,127527,1,8,0:0:0:0:
256,192,127591,1,0,0:0:0:0:
256,192,127719,1,8,0:0:0:0:
256,192,127847,1,8,0:0:0:0:
256,192,127975,1,0,0:0:0:0:
256,192,128040,1,0,0:0:0:0:
256,192,128104,1,8,0:0:0:0:
256,192,128232,1,0,0:0:0:0:
256,192,128296,1,8,0:0:0:0:
256,192,128360,1,0,0:0:0:0:
256,192,128488,1,0,0:0:0:0:
256,192,128552,1,0,0:0:0:0:
256,192,128617,1,8,0:0:0:0:
256,192,128745,1,0,0:0:0:0:
256,192,128809,1,8,0:0:0:0:
256,192,128873,1,0,0:0:0:0:
256,192,129001,1,0,0:0:0:0:
256,192,129129,1,8,0:0:0:0:
256,192,129258,1,0,0:0:0:0:
256,192,129322,1,8,0:0:0:0:
256,192,129450,1,8,0:0:0:0:
256,192,129514,1,0,0:0:0:0:
256,192,129642,1,8,0:0:0:0:
256,192,129770,1,0,0:0:0:0:
256,192,129834,1,8,0:0:0:0:
256,192,129899,1,0,0:0:0:0:
256,192,129963,1,0,0:0:0:0:
256,192,130027,1,8,0:0:0:0:
256,192,130155,1,12,0:0:0:0:
256,192,130347,1,0,0:0:0:0:
256,192,130411,1,8,0:0:0:0:
256,192,130540,1,0,0:0:0:0:
256,192,130668,1,8,0:0:0:0:
256,192,130732,1,8,0:0:0:0:
256,192,130796,1,0,0:0:0:0:
256,192,130860,1,0,0:0:0:0:
256,192,130924,1,8,0:0:0:0:
256,192,131052,1,0,0:0:0:0:
256,192,131181,1,8,0:0:0:0:
256,192,131245,1,8,0:0:0:0:
256,192,131309,1,0,0:0:0:0:
256,192,131373,1,0,0:0:0:0:
256,192,131437,1,8,0:0:0:0:
256,192,131501,1,0,0:0:0:0:
256,192,131565,1,8,0:0:0:0:
256,192,131629,1,8,0:0:0:0:
256,192,131693,1,0,0:0:0:0:
256,192,131822,1,8,0:0:0:0:
256,192,131886,1,8,0:0:0:0:
256,192,131950,1,8,0:0:0:0:
256,192,132078,1,0,0:0:0:0:
256,192,132142,1,0,0:0:0:0:
256,192,132206,1,8,0:0:0:0:
256,192,132270,1,8,0:0:0:0:
256,192,132334,1,0,0:0:0:0:
256,192,132399,1,0,0:0:0:0:
256,192,132463,1,8,0:0:0:0:
256,192,132591,1,0,0:0:0:0:
256,192,132719,1,8,0:0:0:0:
256,192,132783,1,8,0:0:0:0:
256,192,132847,1,0,0:0:0:0:
256,192,132911,1,0,0:0:0:0:
256,192,132975,1,8,0:0:0:0:
256,192,133104,1,0,0:0:0:0:
256,192,133232,1,12,0:0:0:0:
256,192,133360,1,0,0:0:0:0:
256,192,133488,1,8,0:0:0:0:
256,192,133552,1,8,0:0:0:0:
256,192,133617,1,0,0:0:0:0:
256,192,133681,1,8,0:0:0:0:
256,192,133745,1,0,0:0:0:0:
256,192,133873,1,8,0:0:0:0:
256,192,134001,1,8,0:0:0:0:
256,192,134258,1,8,0:0:0:0:
256,192,134322,1,8,0:0:0:0:
256,192,134386,1,0,0:0:0:0:
256,192,134450,1,0,0:0:0:0:
256,192,134514,1,8,0:0:0:0:
256,192,134642,1,0,0:0:0:0:
256,192,134770,1,8,0:0:0:0:
256,192,134834,1,8,0:0:0:0:
256,192,134899,1,0,0:0:0:0:
256,192,134963,1,0,0:0:0:0:
256,192,135027,1,8,0:0:0:0:
256,192,135155,1,0,0:0:0:0:
256,192,135283,1,8,0:0:0:0:
256,192,135347,1,8,0:0:0:0:
256,192,135411,1,0,0:0:0:0:
256,192,135475,1,0,0:0:0:0:
256,192,135540,1,8,0:0:0:0:
256,192,135604,1,0,0:0:0:0:
256,192,135668,1,8,0:0:0:0:
256,192,135924,1,8,0:0:0:0:
256,192,135988,1,0,0:0:0:0:
256,192,136052,1,8,0:0:0:0:
256,192,136117,1,8,0:0:0:0:
256,192,136181,1,0,0:0:0:0:
256,192,136309,1,12,0:0:0:0:
256,192,136437,1,0,0:0:0:0:
256,192,136501,1,0,0:0:0:0:
256,192,136565,1,0,0:0:0:0:
256,192,136822,1,12,0:0:0:0:
256,192,136950,1,0,0:0:0:0:
256,192,137014,1,0,0:0:0:0:
256,192,137078,1,0,0:0:0:0:
256,192,137334,1,12,0:0:0:0:
256,192,137463,1,0,0:0:0:0:
256,192,137527,1,8,0:0:0:0:
256,192,137655,1,8,0:0:0:0:
256,192,137719,1,0,0:0:0:0:
256,192,137783,1,0,0:0:0:0:
256,192,137847,1,8,0:0:0:0:
256,192,137975,1,0,0:0:0:0:
256,192,138040,1,8,0:0:0:0:
256,192,138168,1,8,0:0:0:0:
256,192,138232,1,0,0:0:0:0:
256,192,138360,1,12,0:0:0:0:
256,192,138488,1,8,0:0:0:0:
256,192,138552,1,8,0:0:0:0:
256,192,138617,1,0,0:0:0:0:
256,192,138745,1,0,0:0:0:0:
256,192,138873,1,8,0:0:0:0:
256,192,139001,1,0,0:0:0:0:
256,192,139065,1,8,0:0:0:0:
256,192,139129,1,0,0:0:0:0:
256,192,139193,1,0,0:0:0:0:
256,192,139258,1,8,0:0:0:0:
256,192,139386,1,0,0:0:0:0:
256,192,139514,1,8,0:0:0:0:
256,192,139578,1,0,0:0:0:0:
256,192,139642,1,8,0:0:0:0:
256,192,139706,1,8,0:0:0:0:
256,192,139770,1,0,0:0:0:0:
256,192,139899,1,8,0:0:0:0:
256,192,140027,1,0,0:0:0:0:
256,192,140091,1,0,0:0:0:0:
256,192,140155,1,8,0:0:0:0:
256,192,140283,1,8,0:0:0:0:
256,192,140411,1,8,0:0:0:0:
256,192,140475,1,8,0:0:0:0:
256,192,140540,1,0,0:0:0:0:
256,192,140604,1,0,0:0:0:0:
256,192,140668,1,8,0:0:0:0:
256,192,140796,1,0,0:0:0:0:
256,192,140924,1,8,0:0:0:0:
256,192,141052,1,0,0:0:0:0:
256,192,141117,1,8,0:0:0:0:
256,192,141181,1,0,0:0:0:0:
256,192,141309,1,8,0:0:0:0:
256,192,141437,1,8,0:0:0:0:
256,192,141565,1,8,0:0:0:0:
256,192,141629,1,8,0:0:0:0:
256,192,141693,1,0,0:0:0:0:
256,192,141822,1,0,0:0:0:0:
256,192,141950,1,8,0:0:0:0:
256,192,142014,1,8,0:0:0:0:
256,192,142078,1,0,0:0:0:0:
256,192,142142,1,8,0:0:0:0:
256,192,142206,1,8,0:0:0:0:
256,192,142334,1,8,0:0:0:0:
256,192,142463,1,8,0:0:0:0:
256,192,142591,1,8,0:0:0:0:
256,192,142655,1,0,0:0:0:0:
256,192,142719,1,8,0:0:0:0:
256,192,142847,1,8,0:0:0:0:
256,192,142975,1,0,0:0:0:0:
256,192,143040,1,0,0:0:0:0:
256,192,143104,1,0,0:0:0:0:
256,192,143168,1,0,0:0:0:0:
256,192,143232,1,8,0:0:0:0:
256,192,143360,1,8,0:0:0:0:
256,192,143488,1,0,0:0:0:0:
256,192,143617,1,8,0:0:0:0:
256,192,143681,1,0,0:0:0:0:
256,192,143745,1,8,0:0:0:0:
256,192,143873,1,0,0:0:0:0:
256,192,143937,1,0,0:0:0:0:
256,192,144001,1,8,0:0:0:0:
256,192,144129,1,8,0:0:0:0:
256,192,144258,1,0,0:0:0:0:
256,192,144322,1,8,0:0:0:0:
256,192,144386,1,0,0:0:0:0:
256,192,144450,1,0,0:0:0:0:
256,192,144514,1,8,0:0:0:0:
256,192,144642,1,8,0:0:0:0:
256,192,144706,1,8,0:0:0:0:
256,192,144770,1,0,0:0:0:0:
256,192,144899,1,0,0:0:0:0:
256,192,144963,1,0,0:0:0:0:
256,192,145027,1,8,0:0:0:0:
256,192,145155,1,8,0:0:0:0:
256,192,145219,1,8,0:0:0:0:
256,192,145283,1,0,0:0:0:0:
256,192,145411,1,0,0:0:0:0:
256,192,145475,1,0,0:0:0:0:
256,192,145540,1,8,0:0:0:0:
256,192,145604,1,8,0:0:0:0:
256,192,145668,1,0,0:0:0:0:
256,192,145732,1,8,0:0:0:0:
256,192,145796,1,0,0:0:0:0:
256,192,145924,1,8,0:0:0:0:
256,192,146052,1,8,0:0:0:0:
256,192,146117,1,8,0:0:0:0:
256,192,146181,1,8,0:0:0:0:
256,192,146245,1,8,0:0:0:0:
256,192,146309,1,0,0:0:0:0:
256,192,146373,1,0,0:0:0:0:
256,192,146437,1,0,0:0:0:0:
256,192,146501,1,0,0:0:0:0:
256,192,146565,1,8,0:0:0:0:
256,192,146693,1,0,0:0:0:0:
256,192,146758,1,0,0:0:0:0:
256,192,146822,1,8,0:0:0:0:
256,192,146950,1,0,0:0:0:0:
256,192,147014,1,0,0:0:0:0:
256,192,147078,1,8,0:0:0:0:
256,192,147142,1,0,0:0:0:0:
256,192,147206,1,8,0:0:0:0:
256,192,147334,1,8,0:0:0:0:
256,192,147399,1,0,0:0:0:0:
256,192,147463,1,8,0:0:0:0:
256,192,147591,1,0,0:0:0:0:
256,192,147719,1,8,0:0:0:0:
256,192,147783,1,8,0:0:0:0:
256,192,147847,1,0,0:0:0:0:
256,192,147975,1,0,0:0:0:0:
256,192,148040,1,0,0:0:0:0:
256,192,148104,1,8,0:0:0:0:
256,192,148168,1,8,0:0:0:0:
256,192,148232,1,0,0:0:0:0:
256,192,148296,1,0,0:0:0:0:
256,192,148360,1,8,0:0:0:0:
256,192,148488,1,0,0:0:0:0:
256,192,148617,1,8,0:0:0:0:
256,192,148745,1,8,0:0:0:0:
256,192,148809,1,8,0:0:0:0:
256,192,148873,1,0,0:0:0:0:
256,192,149001,1,0,0:0:0:0:
256,192,149065,1,8,0:0:0:0:
256,192,149129,1,8,0:0:0:0:
256,192,149193,1,0,0:0:0:0:
256,192,149258,1,8,0:0:0:0:
256,192,149386,1,8,0:0:0:0:
256,192,149450,1,0,0:0:0:0:
256,192,149514,1,8,0:0:0:0:
256,192,149578,1,8,0:0:0:0:
256,192,149642,1,0,0:0:0:0:
256,192,149770,1,0,0:0:0:0:
256,192,149834,1,0,0:0:0:0:
256,192,149899,1,8,0:0:0:0:
256,192,150027,1,0,0:0:0:0:
256,192,150091,1,8,0:0:0:0:
256,192,150155,1,0,0:0:0:0:
256,192,150219,1,8,0:0:0:0:
256,192,150283,1,0,0:0:0:0:
256,192,150411,1,8,0:0:0:0:
256,192,150668,1,4,0:0:0:0:
256,192,150924,1,12,0:0:0:0:
256,192,151052,1,0,0:0:0:0:
256,192,151117,1,0,0:0:0:0:
256,192,151181,1,8,0:0:0:0:
256,192,151245,1,0,0:0:0:0:
256,192,151309,1,8,0:0:0:0:
256,192,151437,1,8,0:0:0:0:
256,192,151501,1,0,0:0:0:0:
256,192,151565,1,8,0:0:0:0:
256,192,151693,1,4,0:0:0:0:
256,192,151950,1,12,0:0:0:0:
256,192,152078,1,0,0:0:0:0:
256,192,152142,1,0,0:0:0:0:
256,192,152206,1,8,0:0:0:0:
256,192,152270,1,8,0:0:0:0:
256,192,152334,1,0,0:0:0:0:
256,192,152399,1,0,0:0:0:0:
256,192,152463,1,8,0:0:0:0:
256,192,152591,1,0,0:0:0:0:
256,192,152719,1,8,0:0:0:0:
256,192,152783,1,8,0:0:0:0:
256,192,152847,1,8,0:0:0:0:
256,192,152911,1,8,0:0:0:0:
256,192,152975,1,0,0:0:0:0:
256,192,153040,1,0,0:0:0:0:
256,192,153104,1,0,0:0:0:0:
256,192,153168,1,0,0:0:0:0:
256,192,153232,1,8,0:0:0:0:
256,192,153296,1,0,0:0:0:0:
256,192,153360,1,8,0:0:0:0:
256,192,153424,1,8,0:0:0:0:
256,192,153488,1,0,0:0:0:0:
256,192,153552,1,0,0:0:0:0:
256,192,153617,1,0,0:0:0:0:
256,192,153681,1,0,0:0:0:0:
256,192,153745,1,8,0:0:0:0:
256,192,153873,1,0,0:0:0:0:
256,192,153937,1,8,0:0:0:0:
256,192,154065,1,8,0:0:0:0:
256,192,154129,1,0,0:0:0:0:
256,192,154258,1,8,0:0:0:0:
256,192,154386,1,0,0:0:0:0:
256,192,154450,1,8,0:0:0:0:
256,192,154578,1,8,0:0:0:0:
256,192,154642,1,0,0:0:0:0:
256,192,154770,1,12,0:0:0:0:
256,192,158617,1,0,0:0:0:0:
256,192,158681,1,0,0:0:0:0:
256,192,158745,2,0,L|320:192,28,35
256,192,160924,1,8,0:0:0:0:
256,192,161052,1,0,0:0:0:0:
256,192,161309,1,8,0:0:0:0:
256,192,161565,1,8,0:0:0:0:
256,192,161693,1,8,0:0:0:0:
256,192,161822,1,8,0:0:0:0:
256,192,161950,1,8,0:0:0:0:
256,192,162078,1,0,0:0:0:0:
256,192,162206,1,8,0:0:0:0:
256,192,162334,1,0,0:0:0:0:
256,192,162399,1,0,0:0:0:0:
256,192,162463,1,8,0:0:0:0:
256,192,162591,1,0,0:0:0:0:
256,192,162655,1,0,0:0:0:0:
256,192,162719,1,8,0:0:0:0:
256,192,162847,1,0,0:0:0:0:
256,192,162975,1,12,0:0:0:0:
256,192,164001,1,4,0:0:0:0:
256,192,164129,1,4,0:0:0:0:
256,192,164514,12,0,164899,0:0:0:0:
256,192,165027,5,12,0:0:0:0:
256,192,166052,1,4,0:0:0:0:
256,192,166181,1,4,0:0:0:0:
256,192,166437,1,4,0:0:0:0:
256,192,166565,2,0,L|320:192,6,35
256,192,167078,1,12,0:0:0:0:
256,192,167463,1,0,0:0:0:0:
256,192,167591,2,0,L|96:192,1,140
256,192,167975,1,0,0:0:0:0:
256,192,168104,1,12,0:0:0:0:
256,192,168488,1,0,0:0:0:0:
256,192,168617,2,0,L|96:192,1,140
256,192,169129,1,4,0:0:0:0:
256,192,169258,1,8,0:0:0:0:
256,192,169386,1,8,0:0:0:0:
256,192,169514,1,4,0:0:0:0:
256,192,169642,1,8,0:0:0:0:
256,192,169770,1,8,0:0:0:0:
256,192,169899,1,4,0:0:0:0:
256,192,170027,1,8,0:0:0:0:
256,192,170155,1,8,0:0:0:0:
256,192,170283,1,4,0:0:0:0:
256,192,170411,1,8,0:0:0:0:
256,192,170540,1,8,0:0:0:0:
256,192,170668,1,4,0:0:0:0:
256,192,171181,1,12,0:0:0:0:
256,192,171565,1,0,0:0:0:0:
256,192,171693,1,12,0:0:0:0:
256,192,172078,1,0,0:0:0:0:
256,192,172206,1,12,0:0:0:0:
256,192,172591,1,12,0:0:0:0:
256,192,172975,1,0,0:0:0:0:
256,192,173104,1,0,0:0:0:0:
256,192,173232,1,12,0:0:0:0:
256,192,173617,1,0,0:0:0:0:
256,192,173745,1,12,0:0:0:0:
256,192,174129,1,0,0:0:0:0:
256,192,174258,1,12,0:0:0:0:
256,192,174642,1,12,0:0:0:0:
256,192,175027,1,8,0:0:0:0:
256,192,175091,1,8,0:0:0:0:
256,192,175155,1,8,0:0:0:0:
256,192,175219,1,8,0:0:0:0:
256,192,175283,1,8,0:0:0:0:
256,192,175411,1,0,0:0:0:0:
256,192,175540,1,0,0:0:0:0:
256,192,175668,1,0,0:0:0:0:
256,192,175796,1,8,0:0:0:0:
256,192,175924,1,0,0:0:0:0:
256,192,176052,1,0,0:0:0:0:
256,192,176181,1,0,0:0:0:0:
256,192,176309,1,8,0:0:0:0:
256,192,176373,1,8,0:0:0:0:
256,192,176437,1,8,0:0:0:0:
256,192,176501,1,8,0:0:0:0:
256,192,176565,1,0,0:0:0:0:
256,192,176629,1,0,0:0:0:0:
256,192,176693,1,0,0:0:0:0:
256,192,176758,1,0,0:0:0:0:
256,192,176822,1,8,0:0:0:0:
256,192,176886,1,8,0:0:0:0:
256,192,176950,1,0,0:0:0:0:
256,192,177014,1,0,0:0:0:0:
256,192,177078,1,8,0:0:0:0:
256,192,177142,1,8,0:0:0:0:
256,192,177206,1,8,0:0:0:0:
256,192,177270,1,8,0:0:0:0:
256,192,177334,1,0,0:0:0:0:
256,192,179001,1,0,0:0:0:0:
256,192,179065,1,0,0:0:0:0:
256,192,179129,1,8,0:0:0:0:
256,192,179386,1,8,0:0:0:0:
256,192,179514,1,0,0:0:0:0:
256,192,179578,1,0,0:0:0:0:
256,192,179642,1,8,0:0:0:0:
256,192,179770,1,8,0:0:0:0:
256,192,179834,1,8,0:0:0:0:
256,192,179899,1,0,0:0:0:0:
256,192,180027,1,0,0:0:0:0:
256,192,180091,1,0,0:0:0:0:
256,192,180155,1,8,0:0:0:0:
256,192,180283,1,8,0:0:0:0:
256,192,180347,1,8,0:0:0:0:
256,192,180411,1,0,0:0:0:0:
256,192,180540,1,0,0:0:0:0:
256,192,180604,1,0,0:0:0:0:
256,192,180668,1,8,0:0:0:0:
256,192,180732,1,0,0:0:0:0:
256,192,180796,1,8,0:0:0:0:
256,192,180860,1,8,0:0:0:0:
256,192,180924,1,0,0:0:0:0:
256,192,180988,1,0,0:0:0:0:
256,192,181052,1,8,0:0:0:0:
256,192,181117,1,0,0:0:0:0:
256,192,181181,1,8,0:0:0:0:
256,192,181245,1,8,0:0:0:0:
256,192,181309,1,0,0:0:0:0:
256,192,181373,1,8,0:0:0:0:
256,192,181437,1,8,0:0:0:0:
256,192,181565,1,0,0:0:0:0:
256,192,181629,1,0,0:0:0:0:
256,192,181693,1,8,0:0:0:0:
256,192,181822,1,8,0:0:0:0:
256,192,181886,1,8,0:0:0:0:
256,192,181950,1,0,0:0:0:0:
256,192,182078,1,0,0:0:0:0:
256,192,182142,1,0,0:0:0:0:
256,192,182206,1,8,0:0:0:0:
256,192,182334,1,8,0:0:0:0:
256,192,182399,1,0,0:0:0:0:
256,192,182463,1,8,0:0:0:0:
256,192,182591,1,0,0:0:0:0:
256,192,182655,1,0,0:0:0:0:
256,192,182719,1,8,0:0:0:0:
256,192,182783,1,8,0:0:0:0:
256,192,182847,1,0,0:0:0:0:
256,192,182911,1,8,0:0:0:0:
256,192,182975,1,0,0:0:0:0:
256,192,183104,1,0,0:0:0:0:
256,192,183168,1,0,0:0:0:0:
256,192,183296,1,0,0:0:0:0:
256,192,183360,1,0,0:0:0:0:
256,192,183488,1,8,0:0:0:0:
256,192,183745,1,8,0:0:0:0:
256,192,183873,1,0,0:0:0:0:
256,192,183937,1,0,0:0:0:0:
256,192,184001,1,8,0:0:0:0:
256,192,184129,1,8,0:0:0:0:
256,192,184193,1,8,0:0:0:0:
256,192,184258,1,0,0:0:0:0:
256,192,184322,1,8,0:0:0:0:
256,192,184386,1,8,0:0:0:0:
256,192,184450,1,8,0:0:0:0:
256,192,184514,1,0,0:0:0:0:
256,192,184642,1,0,0:0:0:0:
256,192,184706,1,0,0:0:0:0:
256,192,184770,1,8,0:0:0:0:
256,192,184834,1,0,0:0:0:0:
256,192,184899,1,8,0:0:0:0:
256,192,184963,1,8,0:0:0:0:
256,192,185027,1,0,0:0:0:0:
256,192,185155,1,8,0:0:0:0:
256,192,185219,1,0,0:0:0:0:
256,192,185283,1,8,0:0:0:0:
256,192,185411,1,0,0:0:0:0:
256,192,185540,1,8,0:0:0:0:
256,192,185668,1,0,0:0:0:0:
256,192,185732,1,8,0:0:0:0:
256,192,185860,1,8,0:0:0:0:
256,192,185924,1,0,0:0:0:0:
256,192,186052,1,8,0:0:0:0:
256,192,186181,1,8,0:0:0:0:
256,192,186245,1,0,0:0:0:0:
256,192,186373,1,0,0:0:0:0:
256,192,186437,1,8,0:0:0:0:
256,192,186565,1,8,0:0:0:0:
256,192,186629,1,8,0:0:0:0:
256,192,186693,1,8,0:0:0:0:
256,192,186758,1,8,0:0:0:0:
256,192,186822,1,8,0:0:0:0:
256,192,186886,1,8,0:0:0:0:
256,192,186950,1,8,0:0:0:0:
256,192,187014,1,8,0:0:0:0:
256,192,187078,1,0,0:0:0:0:
256,192,187206,1,0,0:0:0:0:
256,192,187334,1,12,0:0:0:0:
256,192,187591,1,8,0:0:0:0:
256,192,187719,1,0,0:0:0:0:
256,192,187783,1,0,0:0:0:0:
256,192,187847,1,8,0:0:0:0:
256,192,187975,1,8,0:0:0:0:
256,192,188040,1,8,0:0:0:0:
256,192,188104,1,0,0:0:0:0:
256,192,188232,1,0,0:0:0:0:
256,192,188296,1,0,0:0:0:0:
256,192,188360,1,8,0:0:0:0:
256,192,188488,1,8,0:0:0:0:
256,192,188552,1,8,0:0:0:0:
256,192,188617,1,0,0:0:0:0:
256,192,188745,1,0,0:0:0:0:
256,192,188809,1,0,0:0:0:0:
256,192,188873,1,8,0:0:0:0:
256,192,188937,1,0,0:0:0:0:
256,192,189001,1,8,0:0:0:0:
256,192,189065,1,8,0:0:0:0:
256,192,189129,1,0,0:0:0:0:
256,192,189193,1,0,0:0:0:0:
256,192,189258,1,8,0:0:0:0:
256,192,189322,1,0,0:0:0:0:
256,192,189386,1,8,0:0:0:0:
256,192,189450,1,8,0:0:0:0:
256,192,189514,1,0,0:0:0:0:
256,192,189578,1,0,0:0:0:0:
256,192,189642,1,8,0:0:0:0:
256,192,189706,1,0,0:0:0:0:
256,192,189770,1,0,0:0:0:0:
256,192,189834,1,0,0:0:0:0:
256,192,189899,1,8,0:0:0:0:
256,192,190027,1,8,0:0:0:0:
256,192,190091,1,8,0:0:0:0:
256,192,190155,1,0,0:0:0:0:
256,192,190283,1,0,0:0:0:0:
256,192,190347,1,0,0:0:0:0:
256,192,190411,1,8,0:0:0:0:
256,192,190540,1,8,0:0:0:0:
256,192,190604,1,0,0:0:0:0:
256,192,190668,1,8,0:0:0:0:
256,192,190796,1,0,0:0:0:0:
256,192,190860,1,8,0:0:0:0:
256,192,190924,1,0,0:0:0:0:
256,192,190988,1,0,0:0:0:0:
256,192,191052,1,8,0:0:0:0:
256,192,191181,1,0,0:0:0:0:
256,192,191309,1,0,0:0:0:0:
256,192,191437,1,12,0:0:0:0:
256,192,191693,1,0,0:0:0:0:
256,192,191758,1,0,0:0:0:0:
256,192,191822,1,0,0:0:0:0:
256,192,191886,1,0,0:0:0:0:
256,192,191950,1,0,0:0:0:0:
256,192,192014,1,0,0:0:0:0:
256,192,192078,1,0,0:0:0:0:
256,192,192142,1,0,0:0:0:0:
256,192,192206,1,0,0:0:0:0:
256,192,192270,1,0,0:0:0:0:
256,192,192334,1,0,0:0:0:0:
256,192,192399,1,0,0:0:0:0:
256,192,192463,1,8,0:0:0:0:
256,192,192719,1,0,0:0:0:0:
256,192,192783,1,0,0:0:0:0:
256,192,192847,1,8,0:0:0:0:
256,192,192911,1,8,0:0:0:0:
256,192,192975,1,0,0:0:0:0:
256,192,193040,1,0,0:0:0:0:
256,192,193104,1,8,0:0:0:0:
256,192,193168,1,8,0:0:0:0:
256,192,193232,1,0,0:0:0:0:
256,192,193296,1,0,0:0:0:0:
256,192,193360,1,8,0:0:0:0:
256,192,193424,1,8,0:0:0:0:
256,192,193488,1,0,0:0:0:0:
256,192,193745,1,0,0:0:0:0:
256,192,193809,1,8,0:0:0:0:
256,192,193873,1,8,0:0:0:0:
256,192,193937,1,8,0:0:0:0:
256,192,194001,1,0,0:0:0:0:
256,192,194065,1,8,0:0:0:0:
256,192,194129,1,8,0:0:0:0:
256,192,194193,1,8,0:0:0:0:
256,192,194258,1,0,0:0:0:0:
256,192,194322,1,8,0:0:0:0:
256,192,194386,1,8,0:0:0:0:
256,192,194450,1,8,0:0:0:0:
256,192,194514,1,0,0:0:0:0:
256,192,194770,1,8,0:0:0:0:
256,192,194899,1,8,0:0:0:0:
256,192,194963,1,0,0:0:0:0:
256,192,195091,1,0,0:0:0:0:
256,192,195155,1,8,0:0:0:0:
256,192,195283,1,0,0:0:0:0:
256,192,195369,1,0,0:0:0:0:
256,192,195454,1,0,0:0:0:0:
256,192,195540,1,8,0:0:0:0:
256,192,195796,1,4,0:0:0:0:
256,192,195924,1,8,0:0:0:0:
256,192,195988,1,0,0:0:0:0:
256,192,196052,1,0,0:0:0:0:
256,192,196181,1,0,0:0:0:0:
256,192,196245,1,0,0:0:0:0:
256,192,196309,1,8,0:0:0:0:
256,192,196437,1,0,0:0:0:0:
256,192,196501,1,8,0:0:0:0:
256,192,196629,1,8,0:0:0:0:
256,192,196693,1,0,0:0:0:0:
256,192,196758,1,0,0:0:0:0:
256,192,196822,1,8,0:0:0:0:
256,192,196950,1,0,0:0:0:0:
256,192,197014,1,8,0:0:0:0:
256,192,197142,1,8,0:0:0:0:
256,192,197206,1,8,0:0:0:0:
256,192,197270,1,8,0:0:0:0:
256,192,197334,1,0,0:0:0:0:
256,192,197463,1,0,0:0:0:0:
256,192,197527,1,0,0:0:0:0:
256,192,197591,1,0,0:0:0:0:
256,192,197719,1,0,0:0:0:0:
256,192,197847,1,8,0:0:0:0:
256,192,197975,1,8,0:0:0:0:
256,192,198040,1,8,0:0:0:0:
256,192,198104,1,0,0:0:0:0:
256,192,198232,1,0,0:0:0:0:
256,192,198296,1,0,0:0:0:0:
256,192,198360,1,8,0:0:0:0:
256,192,198488,1,0,0:0:0:0:
256,192,198552,1,8,0:0:0:0:
256,192,198681,1,0,0:0:0:0:
256,192,198745,1,0,0:0:0:0:
256,192,198809,1,0,0:0:0:0:
256,192,198873,1,8,0:0:0:0:
256,192,199001,1,0,0:0:0:0:
256,192,199065,1,8,0:0:0:0:
256,192,199193,1,0,0:0:0:0:
256,192,199258,1,8,0:0:0:0:
256,192,199322,1,8,0:0:0:0:
256,192,199386,1,0,0:0:0:0:
256,192,199514,1,0,0:0:0:0:
256,192,199642,1,12,0:0:0:0:
256,192,199899,1,8,0:0:0:0:
256,192,200027,1,8,0:0:0:0:
256,192,200091,1,8,0:0:0:0:
256,192,200155,1,0,0:0:0:0:
256,192,200283,1,0,0:0:0:0:
256,192,200347,1,0,0:0:0:0:
256,192,200411,1,8,0:0:0:0:
256,192,200540,1,0,0:0:0:0:
256,192,200604,1,8,0:0:0:0:
256,192,200732,1,8,0:0:0:0:
256,192,200796,1,0,0:0:0:0:
256,192,200860,1,8,0:0:0:0:
256,192,200924,1,8,0:0:0:0:
256,192,201052,1,0,0:0:0:0:
256,192,201117,1,8,0:0:0:0:
256,192,201245,1,8,0:0:0:0:
256,192,201309,1,8,0:0:0:0:
256,192,201373,1,8,0:0:0:0:
256,192,201437,1,0,0:0:0:0:
256,192,201565,1,0,0:0:0:0:
256,192,201629,1,0,0:0:0:0:
256,192,201693,1,8,0:0:0:0:
256,192,201758,1,8,0:0:0:0:
256,192,201822,1,0,0:0:0:0:
256,192,201950,1,8,0:0:0:0:
256,192,202078,1,0,0:0:0:0:
256,192,202142,1,0,0:0:0:0:
256,192,202206,1,8,0:0:0:0:
256,192,202334,1,0,0:0:0:0:
256,192,202463,1,8,0:0:0:0:
256,192,202527,1,8,0:0:0:0:
256,192,202591,1,8,0:0:0:0:
256,192,202655,1,8,0:0:0:0:
256,192,202719,1,8,0:0:0:0:
256,192,202783,1,8,0:0:0:0:
256,192,202847,1,8,0:0:0:0:
256,192,202911,1,8,0:0:0:0:
256,192,202975,1,0,0:0:0:0:
256,192,203232,1,0,0:0:0:0:
256,192,203360,1,0,0:0:0:0:
256,192,203617,1,0,0:0:0:0:
256,192,203745,1,8,0:0:0:0:
256,192,204001,1,0,0:0:0:0:
256,192,204065,1,0,0:0:0:0:
256,192,204129,1,8,0:0:0:0:
256,192,204193,1,8,0:0:0:0:
256,192,204258,1,0,0:0:0:0:
256,192,204386,1,8,0:0:0:0:
256,192,204450,1,8,0:0:0:0:
256,192,204514,1,0,0:0:0:0:
256,192,204642,1,8,0:0:0:0:
256,192,204706,1,8,0:0:0:0:
256,192,204770,1,0,0:0:0:0:
256,192,204899,1,8,0:0:0:0:
256,192,204963,1,8,0:0:0:0:
256,192,205027,1,0,0:0:0:0:
256,192,205155,1,8,0:0:0:0:
256,192,205219,1,8,0:0:0:0:
256,192,205283,1,0,0:0:0:0:
256,192,205411,1,8,0:0:0:0:
256,192,205475,1,0,0:0:0:0:
256,192,205540,1,8,0:0:0:0:
256,192,205796,1,8,0:0:0:0:
256,192,205860,1,8,0:0:0:0:
256,192,205924,1,8,0:0:0:0:
256,192,205988,1,8,0:0:0:0:
256,192,206052,1,0,0:0:0:0:
256,192,206181,1,8,0:0:0:0:
256,192,206245,1,8,0:0:0:0:
256,192,206309,1,0,0:0:0:0:
256,192,206437,1,8,0:0:0:0:
256,192,206501,1,8,0:0:0:0:
256,192,206565,1,0,0:0:0:0:
256,192,206693,1,8,0:0:0:0:
256,192,206758,1,8,0:0:0:0:
256,192,206822,1,0,0:0:0:0:
256,192,206950,1,8,0:0:0:0:
256,192,207014,1,8,0:0:0:0:
256,192,207078,1,0,0:0:0:0:
256,192,207206,1,8,0:0:0:0:
256,192,207270,1,8,0:0:0:0:
256,192,207334,1,0,0:0:0:0:
256,192,207463,1,8,0:0:0:0:
256,192,207527,1,8,0:0:0:0:
256,192,207591,1,0,0:0:0:0:
256,192,207655,1,8,0:0:0:0:
256,192,207719,1,0,0:0:0:0:
256,192,207847,1,12,0:0:0:0:
256,192,208104,1,0,0:0:0:0:
256,192,208168,1,0,0:0:0:0:
256,192,208232,1,8,0:0:0:0:
256,192,208296,1,8,0:0:0:0:
256,192,208360,1,0,0:0:0:0:
256,192,208488,1,8,0:0:0:0:
256,192,208552,1,8,0:0:0:0:
256,192,208617,1,0,0:0:0:0:
256,192,208873,1,0,0:0:0:0:
256,192,209129,1,0,0:0:0:0:
256,192,209193,1,0,0:0:0:0:
256,192,209258,1,8,0:0:0:0:
256,192,209322,1,8,0:0:0:0:
256,192,209386,1,0,0:0:0:0:
256,192,209514,1,8,0:0:0:0:
256,192,209578,1,8,0:0:0:0:
256,192,209642,1,0,0:0:0:0:
256,192,209770,1,8,0:0:0:0:
256,192,209899,1,8,0:0:0:0:
256,192,210155,1,0,0:0:0:0:
256,192,210219,1,0,0:0:0:0:
256,192,210283,1,0,0:0:0:0:
256,192,210347,1,0,0:0:0:0:
256,192,210411,1,8,0:0:0:0:
256,192,210540,1,0,0:0:0:0:
256,192,210604,1,0,0:0:0:0:
256,192,210668,1,0,0:0:0:0:
256,192,210732,1,0,0:0:0:0:
256,192,210796,1,8,0:0:0:0:
256,192,210924,1,0,0:0:0:0:
256,192,210988,1,0,0:0:0:0:
256,192,211052,1,0,0:0:0:0:
256,192,211117,1,0,0:0:0:0:
256,192,211181,1,8,0:0:0:0:
256,192,211309,1,0,0:0:0:0:
256,192,211373,1,0,0:0:0:0:
256,192,211437,1,0,0:0:0:0:
256,192,211501,1,0,0:0:0:0:
256,192,211565,1,8,0:0:0:0:
256,192,211693,1,0,0:0:0:0:
256,192,211758,1,0,0:0:0:0:
256,192,211822,1,0,0:0:0:0:
256,192,211886,1,0,0:0:0:0:
256,192,211950,1,8,0:0:0:0:
256,192,212014,1,8,0:0:0:0:
256,192,212078,1,8,0:0:0:0:
256,192,212142,1,8,0:0:0:0:
256,192,212206,1,0,0:0:0:0:
256,192,212719,1,8,0:0:0:0:
256,192,213232,1,8,0:0:0:0:
256,192,213745,1,8,0:0:0:0:
256,192,214258,1,8,0:0:0:0:
256,192,214770,1,8,0:0:0:0:
256,192,215283,1,8,0:0:0:0:
256,192,215796,1,8,0:0:0:0:
256,192,216052,1,0,0:0:0:0:
256,192,216181,1,0,0:0:0:0:
256,192,216309,1,4,0:0:0:0:
256,192,216822,1,8,0:0:0:0:
256,192,217334,1,8,0:0:0:0:
256,192,217847,1,8,0:0:0:0:
256,192,218360,1,8,0:0:0:0:
256,192,218873,1,8,0:0:0:0:
256,192,219386,1,8,0:0:0:0:
256,192,219899,1,8,0:0:0:0:
256,192,220155,1,0,0:0:0:0:
256,192,220411,1,4,0:0:0:0:
256,192,220924,1,8,0:0:0:0:
256,192,221437,1,8,0:0:0:0:
256,192,221950,1,8,0:0:0:0:
256,192,222463,1,8,0:0:0:0:
256,192,222975,1,8,0:0:0:0:
256,192,223488,1,8,0:0:0:0:
256,192,224001,1,8,0:0:0:0:
256,192,224514,1,4,0:0:0:0:
256,192,225027,1,8,0:0:0:0:
256,192,225540,1,8,0:0:0:0:
256,192,226052,1,8,0:0:0:0:
256,192,226565,1,8,0:0:0:0:
256,192,227078,1,8,0:0:0:0:
256,192,227591,1,8,0:0:0:0:
256,192,228104,1,8,0:0:0:0:
256,192,228617,5,0,0:0:0:0:
256,192,228681,1,0,0:0:0:0:
256,192,228745,1,0,0:0:0:0:
256,192,228809,1,0,0:0:0:0:
256,192,228873,1,0,0:0:0:0:
256,192,228937,1,0,0:0:0:0:
256,192,229001,1,0,0:0:0:0:
256,192,229065,1,0,0:0:0:0:
256,192,229129,1,0,0:0:0:0:
256,192,229193,1,0,0:0:0:0:
256,192,229258,1,0,0:0:0:0:
256,192,229322,1,0,0:0:0:0:
256,192,229386,1,0,0:0:0:0:
256,192,229450,1,0,0:0:0:0:
256,192,229514,1,0,0:0:0:0:
256,192,229578,1,0,0:0:0:0:
256,192,229642,1,0,0:0:0:0:
256,192,229706,1,0,0:0:0:0:
256,192,229770,1,0,0:0:0:0:
256,192,229834,1,0,0:0:0:0:
256,192,229899,1,0,0:0:0:0:
256,192,229963,1,0,0:0:0:0:
256,192,230027,1,0,0:0:0:0:
256,192,230091,1,0,0:0:0:0:
256,192,230155,1,0,0:0:0:0:
256,192,230219,1,0,0:0:0:0:
256,192,230283,1,0,0:0:0:0:
256,192,230347,1,0,0:0:0:0:
256,192,230411,1,0,0:0:0:0:
256,192,230475,1,0,0:0:0:0:
256,192,230540,1,0,0:0:0:0:
256,192,230604,1,0,0:0:0:0:
256,192,230668,1,0,0:0:0:0:
256,192,230732,1,0,0:0:0:0:
256,192,230796,1,0,0:0:0:0:
256,192,230860,1,0,0:0:0:0:
256,192,230924,1,0,0:0:0:0:
256,192,230988,1,0,0:0:0:0:
256,192,231052,1,0,0:0:0:0:
256,192,231117,1,0,0:0:0:0:
256,192,231181,1,0,0:0:0:0:
256,192,231245,1,0,0:0:0:0:
256,192,231309,1,0,0:0:0:0:
256,192,231373,1,0,0:0:0:0:
256,192,231437,1,0,0:0:0:0:
256,192,231501,1,0,0:0:0:0:
256,192,231565,1,0,0:0:0:0:
256,192,231629,1,0,0:0:0:0:
256,192,231693,1,0,0:0:0:0:
256,192,231758,1,0,0:0:0:0:
256,192,231822,1,0,0:0:0:0:
256,192,231886,1,0,0:0:0:0:
256,192,231950,1,0,0:0:0:0:
256,192,232014,1,0,0:0:0:0:
256,192,232078,1,0,0:0:0:0:
256,192,232142,1,0,0:0:0:0:
256,192,232206,1,0,0:0:0:0:
256,192,232270,1,0,0:0:0:0:
256,192,232334,1,0,0:0:0:0:
256,192,232399,1,0,0:0:0:0:
256,192,232463,1,0,0:0:0:0:
256,192,232527,1,0,0:0:0:0:
256,192,232591,1,0,0:0:0:0:
256,192,232655,1,0,0:0:0:0:
256,192,232719,1,0,0:0:0:0:
