osu file format v14

[General]
AudioFilename: audio.mp3
AudioLeadIn: 0
PreviewTime: 60371
Countdown: 0
SampleSet: Soft
StackLeniency: 0.3
Mode: 0
LetterboxInBreaks: 0
WidescreenStoryboard: 0

[Editor]
Bookmarks: 91147,217354
DistanceSpacing: 0.7
BeatDivisor: 4
GridSize: 8
TimelineZoom: 1.5

[Metadata]
Title:Quaoar
TitleUnicode:Quaoar
Artist:Camellia
ArtistUnicode:かめりあ
Creator:TheKoala
Version:Trans-Neptunian
Source:
Tags:cametek electronic artcore hardcore 50000 50k twitter followers stars technical
BeatmapID:1752368
BeatmapSetID:836856

[Difficulty]
HPDrainRate:6
CircleSize:4
OverallDifficulty:8.8
ApproachRate:9.5
SliderMultiplier:1.4
SliderTickRate:1

[Events]
//Background and Video events
0,0,"anime-girl-stars-blue-hd-wallpaper-image-1920-x-1080-desktop.jpg",0,0
//Break Periods
2,162580,165938
//Storyboard Layer 0 (Background)
//Storyboard Layer 1 (Fail)
//Storyboard Layer 2 (Pass)
//Storyboard Layer 3 (Foreground)
//Storyboard Sound Samples

[TimingPoints]
6546,344.827586206897,4,2,1,20,1,0
17580,-90.9090909090909,4,2,1,35,0,0
17925,-90.9090909090909,4,2,1,5,0,0
18097,-90.9090909090909,4,2,1,35,0,0
18442,-90.9090909090909,4,2,1,5,0,0
18614,-66.6666666666667,4,2,1,35,0,0
18787,-66.6666666666667,4,2,1,5,0,0
18959,-100,4,2,1,35,0,0
20339,-90.9090909090909,4,2,1,35,0,0
20683,-90.9090909090909,4,2,1,5,0,0
20856,-90.9090909090909,4,2,1,35,0,0
21201,-90.9090909090909,4,2,1,5,0,0
21373,-66.6666666666667,4,2,1,35,0,0
21546,-66.6666666666667,4,2,1,5,0,0
21718,-90.9090909090909,4,2,1,35,0,0
23097,-111.111111111111,4,2,1,35,0,0
24132,-111.111111111111,4,2,1,5,0,0
24304,-111.111111111111,4,2,1,35,0,0
24477,-83.3333333333333,4,2,1,35,0,0
25511,-83.3333333333333,4,2,1,5,0,0
25683,-125,4,2,1,35,0,0
26718,-125,4,2,1,5,0,0
26890,-125,4,2,1,35,0,0
27235,-100,4,2,1,35,0,0
27580,-76.9230769230769,4,2,1,35,0,0
28614,-76.9230769230769,4,2,1,50,0,0
39304,-133.333333333333,4,2,1,50,0,0
39563,-133.333333333333,4,2,1,5,0,0
39649,-76.9230769230769,4,2,1,50,0,0
45339,-76.9230769230769,4,2,1,5,0,0
45425,-100,4,2,1,50,0,0
45597,-100,4,2,1,5,0,0
45683,-66.6666666666667,4,2,1,50,0,0
45856,-66.6666666666667,4,2,1,5,0,0
45942,-111.111111111111,4,2,1,50,0,0
46114,-111.111111111111,4,2,1,5,0,0
46201,-60.6060606060606,4,2,1,50,0,0
46459,-60.6060606060606,4,2,1,5,0,0
46546,-76.9230769230769,4,2,1,50,0,0
47925,-60.6060606060606,4,2,1,50,0,0
48442,-54.054054054054,4,2,1,65,0,0
48959,-48.780487804878,4,2,1,80,0,0
50339,-48.780487804878,4,2,1,40,0,0
50683,-71.4285714285714,4,2,1,50,0,0
56114,-71.4285714285714,4,2,1,5,0,0
56201,-71.4285714285714,4,2,1,60,0,0
60339,-250,4,2,1,25,0,0
61201,-250,4,2,1,5,0,0
61373,-250,4,2,1,40,0,0
61718,-50,4,2,1,70,0,1
62752,-30.3030303030304,4,2,1,70,0,1
62925,-26.3157894736842,4,2,1,5,0,1
63270,-62.5,4,2,1,70,0,1
64132,-333.333333333333,4,2,1,70,0,1
64390,-333.333333333333,4,2,1,5,0,1
64477,-50,4,2,1,70,0,1
64563,-50,4,2,1,5,0,1
64649,-50,4,2,1,70,0,1
64735,-50,4,2,1,5,0,1
64821,-50,4,2,1,70,0,1
65511,-30.3030303030303,4,2,1,70,0,1
65683,-28.5714285714286,4,2,1,5,0,1
65856,-62.5,4,2,1,70,0,1
67235,-50,4,2,1,70,0,1
68270,-28.5714285714286,4,2,1,70,0,1
68442,-26.3157894736842,4,2,1,5,0,1
68614,-62.5,4,2,1,70,0,1
69994,-43.4782608695652,4,2,1,70,0,1
70166,-43.4782608695652,4,2,1,5,0,1
70252,-43.4782608695652,4,2,1,70,0,1
70425,-43.4782608695652,4,2,1,5,0,1
70511,-43.4782608695652,4,2,1,70,0,1
71028,-27.7777777777778,4,2,1,70,0,1
71201,-25,4,2,1,5,0,1
71373,-62.5,4,2,1,70,0,1
71546,-62.5,4,2,1,70,0,1
71718,-55.5555555555556,4,2,1,70,0,1
71890,-100,4,2,1,50,0,0
72752,-50,4,2,1,70,0,1
73787,-27.027027027027,4,2,1,70,0,1
73959,-26.3157894736842,4,2,1,5,0,1
74132,-62.5,4,2,1,70,0,1
75166,-333.333333333333,4,2,1,70,0,1
75425,-333.333333333333,4,2,1,5,0,1
75511,-50,4,2,1,70,0,1
75597,-50,4,2,1,5,0,1
75683,-50,4,2,1,70,0,1
75770,-50,4,2,1,5,0,1
75856,-50,4,2,1,70,0,1
76546,-27.027027027027,4,2,1,70,0,1
76718,-26.3157894736842,4,2,1,5,0,1
76890,-62.5,4,2,1,70,0,1
78270,-55.5555555555556,4,2,1,70,0,0
78614,-55.5555555555556,4,2,1,5,0,0
78787,-55.5555555555556,4,2,1,70,0,0
78873,-55.5555555555556,4,2,1,5,0,0
78959,-41.6666666666667,4,2,1,70,0,0
79218,-41.6666666666667,4,2,1,5,0,0
79304,-28.5714285714286,4,2,1,70,0,0
79477,-41.6666666666667,4,2,1,5,0,0
79649,-62.5,4,2,1,70,0,0
81028,-55.5555555555556,4,2,1,70,0,0
81459,-55.5555555555556,4,2,1,5,0,0
81546,-55.5555555555556,4,2,1,70,0,0
81632,-55.5555555555556,4,2,1,5,0,0
81718,-55.5555555555556,4,2,1,70,0,0
83442,-55.5555555555556,4,2,1,50,0,0
83787,-76.9230769230769,4,2,1,55,0,0
89821,-90.9090909090909,4,2,1,55,0,0
90339,-55.5555555555556,4,2,1,55,0,0
90683,-76.9230769230769,4,2,1,55,0,0
92063,-90.9090909090909,4,2,1,55,0,0
93097,-71.4285714285714,4,2,1,55,0,0
93356,-71.4285714285714,4,2,1,5,0,0
93442,-90.9090909090909,4,2,1,55,0,0
93701,-90.9090909090909,4,2,1,5,0,0
93787,-90.9090909090909,4,2,1,55,0,0
94821,-71.4285714285714,4,2,1,60,0,0
100339,-83.3333333333333,4,2,1,60,0,0
101373,-62.5,4,2,1,60,0,0
101632,-62.5,4,2,1,5,0,0
101718,-83.3333333333333,4,2,1,60,0,0
104477,-58.8235294117647,4,2,1,60,0,0
106028,-100,4,2,1,40,0,0
108614,-55.5555555555556,4,2,1,65,0,0
108873,-55.5555555555556,4,2,1,5,0,0
108959,-55.5555555555556,4,2,1,65,0,0
109046,-55.5555555555556,4,2,1,5,0,0
109132,-55.5555555555556,4,2,1,65,0,0
109390,-55.5555555555556,4,2,1,5,0,0
109477,-55.5555555555556,4,2,1,65,0,0
109563,-55.5555555555556,4,2,1,5,0,0
109649,-55.5555555555556,4,2,1,65,0,0
109908,-55.5555555555556,4,2,1,5,0,0
109994,-55.5555555555556,4,2,1,65,0,0
110080,-55.5555555555556,4,2,1,5,0,0
110166,-55.5555555555556,4,2,1,65,0,0
110252,-55.5555555555556,4,2,1,5,0,0
110339,-55.5555555555556,4,2,1,65,0,0
111287,-55.5555555555556,4,2,1,5,0,0
111373,-100,4,2,1,65,0,0
111546,-100,4,2,1,40,0,0
114132,-55.5555555555556,4,2,1,65,0,0
114390,-55.5555555555556,4,2,1,5,0,0
114477,-55.5555555555556,4,2,1,65,0,0
114563,-55.5555555555556,4,2,1,5,0,0
114649,-55.5555555555556,4,2,1,65,0,0
114908,-55.5555555555556,4,2,1,5,0,0
114994,-55.5555555555556,4,2,1,65,0,0
115080,-55.5555555555556,4,2,1,5,0,0
115166,-55.5555555555556,4,2,1,65,0,0
115425,-55.5555555555556,4,2,1,5,0,0
115511,-55.5555555555556,4,2,1,65,0,0
115770,-55.5555555555556,4,2,1,5,0,0
115856,-55.5555555555556,4,2,1,65,0,0
115942,-55.5555555555556,4,2,1,5,0,0
116028,-55.5555555555556,4,2,1,65,0,0
116804,-55.5555555555556,4,2,1,5,0,0
116890,-100,4,2,1,65,0,0
117063,-100,4,2,1,40,0,0
119649,-55.5555555555556,4,2,1,65,0,0
119908,-55.5555555555556,4,2,1,5,0,0
119994,-55.5555555555556,4,2,1,65,0,0
120080,-55.5555555555556,4,2,1,5,0,0
120166,-55.5555555555556,4,2,1,65,0,0
120425,-55.5555555555556,4,2,1,5,0,0
120511,-55.5555555555556,4,2,1,65,0,0
120597,-55.5555555555556,4,2,1,5,0,0
120683,-55.5555555555556,4,2,1,65,0,0
120942,-55.5555555555556,4,2,1,5,0,0
121028,-55.5555555555556,4,2,1,65,0,0
121114,-55.5555555555556,4,2,1,5,0,0
121201,-55.5555555555556,4,2,1,65,0,0
121287,-55.5555555555556,4,2,1,5,0,0
121373,-55.5555555555556,4,2,1,65,0,0
122580,-100,4,2,1,40,0,0
125080,-100,4,2,1,5,0,0
125166,-71.4285714285714,4,2,1,50,0,0
125252,-71.4285714285714,4,2,1,5,0,0
125339,-71.4285714285714,4,2,1,50,0,0
125770,-71.4285714285714,4,2,1,5,0,0
125856,-71.4285714285714,4,2,1,50,0,0
126287,-71.4285714285714,4,2,1,5,0,0
126373,-71.4285714285714,4,2,1,50,0,0
127580,-100,4,2,1,50,0,0
127839,-100,4,2,1,5,0,0
127925,-250,4,2,1,50,0,0
133442,-66.6666666666667,4,2,1,50,0,0
137752,-250,4,2,1,50,0,0
138097,-142.857142857143,4,2,1,50,0,0
138442,-50,4,2,1,50,0,0
138528,-50,4,2,1,5,0,0
138614,-50,4,2,1,50,0,0
138959,-26.3157894736842,4,2,1,70,0,1
139304,-55.5555555555556,4,2,1,5,0,1
139477,-55.5555555555556,4,2,1,70,0,1
139821,-45.4545454545455,4,2,1,70,0,1
140339,-28.5714285714286,4,2,1,70,0,1
140856,-55.5555555555556,4,2,1,70,0,1
141201,-45.4545454545455,4,2,1,70,0,1
141718,-30.3030303030303,4,2,1,70,0,1
142235,-55.5555555555556,4,2,1,70,0,1
142580,-45.4545454545455,4,2,1,70,0,1
143097,-35.7142857142857,4,2,1,70,0,1
143442,-41.6666666666667,4,2,1,70,0,1
143787,-50,4,2,1,70,0,1
143959,-66.6666666666667,4,2,1,70,0,1
144132,-33.3333333333333,4,2,1,70,0,1
144390,-33.3333333333333,4,2,1,5,0,1
144477,-25,4,2,1,70,0,1
144735,-25,4,2,1,5,0,1
144821,-33.3333333333333,4,2,1,70,0,1
145166,-37.037037037037,4,2,1,70,0,1
145856,-40,4,2,1,70,0,1
146890,-28.5714285714286,4,2,1,70,0,1
147149,-28.5714285714286,4,2,1,5,0,1
147235,-26.3157894736842,4,2,1,70,0,1
147494,-26.3157894736842,4,2,1,5,0,1
147580,-33.3333333333333,4,2,1,70,0,1
147925,-37.037037037037,4,2,1,70,0,1
148270,-40,4,2,1,70,0,1
149304,-26.3157894736842,4,2,1,70,0,0
149821,-30.3030303030303,4,2,1,70,0,0
149994,-26.3157894736842,4,2,1,70,0,1
150339,-26.3157894736842,4,2,1,5,0,1
150511,-50,4,2,1,70,0,1
151373,-26.3157894736842,4,2,1,70,0,1
151890,-50,4,2,1,70,0,1
152752,-30.3030303030303,4,2,1,70,0,1
153442,-50,4,2,1,70,0,1
154132,-28.5714285714286,4,2,1,70,0,1
155166,-33.3333333333333,4,2,1,70,0,1
155425,-33.3333333333333,4,2,1,5,0,1
155511,-25,4,2,1,70,0,1
155856,-45.4545454545455,4,2,1,70,0,1
156287,-40,4,2,1,70,0,1
157925,-30.3030303030303,4,2,1,70,0,1
158183,-30.3030303030303,4,2,1,5,0,1
158270,-25,4,2,1,70,0,1
158614,-35.7142857142857,4,2,1,70,0,1
159132,-35.7142857142857,4,2,1,5,0,1
159218,-35.7142857142857,4,2,1,70,0,1
159390,-35.7142857142857,4,2,1,5,0,1
159477,-35.7142857142857,4,2,1,70,0,1
161028,-166.666666666667,4,2,1,30,0,0
171890,-166.666666666667,4,2,1,5,0,0
172063,-133.333333333333,4,2,1,30,0,0
172925,-133.333333333333,4,2,1,5,0,0
173097,-90.9090909090909,4,2,1,30,0,0
173356,-90.9090909090909,4,2,1,5,0,0
173442,-133.333333333333,4,2,1,30,0,0
174304,-133.333333333333,4,2,1,5,0,0
174477,-90.9090909090909,4,2,1,30,0,0
174735,-90.9090909090909,4,2,1,5,0,0
174821,-133.333333333333,4,2,1,30,0,0
174994,-133.333333333333,4,2,1,5,0,0
175166,-117.647058823529,4,2,1,30,0,0
175339,-117.647058823529,4,2,1,5,0,0
175511,-100,4,2,1,30,0,0
175683,-100,4,2,1,5,0,0
175856,-83.3333333333333,4,2,1,30,0,0
176028,-83.3333333333333,4,2,1,5,0,0
176201,-76.9230769230769,4,2,1,30,0,0
176804,-76.9230769230769,4,2,1,5,0,0
176890,-90.9090909090909,4,2,1,30,0,0
177321,-90.9090909090909,4,2,1,5,0,0
177408,-90.9090909090909,4,2,1,30,0,0
177580,-142.857142857143,4,2,1,30,0,0
179477,-142.857142857143,4,2,1,5,0,0
179649,-142.857142857143,4,2,1,30,0,0
180166,-142.857142857143,4,2,1,5,0,0
180339,-142.857142857143,4,2,1,30,0,0
182235,-142.857142857143,4,2,1,5,0,0
182408,-142.857142857143,4,2,1,30,0,0
182925,-142.857142857143,4,2,1,5,0,0
183097,-142.857142857143,4,2,1,30,0,0
188614,-90.9090909090909,4,2,1,45,0,0
191373,-86.9565217391304,4,2,1,45,0,0
194132,-83.3333333333333,4,2,1,45,0,0
196890,-80,4,2,1,45,0,0
198270,-74.0740740740741,4,2,1,45,0,0
198959,-66.6666666666667,4,2,1,45,0,0
199649,-76.9230769230769,4,2,1,60,0,0
202408,-71.4285714285714,4,2,1,60,0,0
203787,-62.5,4,2,1,60,0,0
205166,-66.6666666666667,4,2,1,60,0,0
206546,-62.5,4,2,1,60,0,0
207925,-57.1428571428571,4,2,1,60,0,0
208270,-55.5555555555556,4,2,1,60,0,0
208614,-54.054054054054,4,2,1,60,0,0
208959,-50,4,2,1,60,0,0
209477,-250,4,2,1,25,0,0
210166,-250,4,2,1,5,0,0
210339,-40,4,2,1,50,0,0
210683,-35.7142857142857,4,2,1,80,0,1
210856,-35.7142857142857,4,2,1,5,0,1
210942,-35.7142857142857,4,2,1,80,0,1
211114,-35.7142857142857,4,2,1,5,0,1
211201,-35.7142857142857,4,2,1,80,0,1
211373,-35.7142857142857,4,2,1,5,0,1
211459,-35.7142857142857,4,2,1,80,0,1
211632,-35.7142857142857,4,2,1,5,0,1
211718,-50,4,2,1,80,0,1
213442,-35.7142857142857,4,2,1,80,0,1
213614,-35.7142857142857,4,2,1,5,0,1
213701,-35.7142857142857,4,2,1,80,0,1
213873,-35.7142857142857,4,2,1,5,0,1
213959,-35.7142857142857,4,2,1,80,0,1
214132,-35.7142857142857,4,2,1,5,0,1
214218,-17.8571428571,4,2,1,80,0,1
214304,-17.8571428571,4,2,1,5,0,1
214477,-35.7142857142857,4,2,1,80,0,1
214563,-35.7142857142857,4,2,1,5,0,1
214649,-35.7142857142857,4,2,1,80,0,1
214735,-35.7142857142857,4,2,1,5,0,1
214821,-35.7142857142857,4,2,1,80,0,1
216373,-35.7142857142857,4,2,1,5,0,1
216459,-35.7142857142857,4,2,1,80,0,1
216632,-35.7142857142857,4,2,1,5,0,1
216718,-35.7142857142857,4,2,1,80,0,1
216890,-35.7142857142857,4,2,1,5,0,1
216977,-35.7142857142857,4,2,1,80,0,1
217149,-35.7142857142857,4,2,1,5,0,1
217235,-35.7142857142857,4,2,1,80,0,1
218959,-35.7142857142857,4,2,1,80,0,1
219132,-35.7142857142857,4,2,1,5,0,1
219218,-35.7142857142857,4,2,1,80,0,1
219390,-35.7142857142857,4,2,1,5,0,1
219477,-35.7142857142857,4,2,1,80,0,1
219649,-35.7142857142857,4,2,1,5,0,1
219735,-35.7142857142857,4,2,1,80,0,1
219908,-35.7142857142857,4,2,1,5,0,1
219994,-17.8571428571,4,2,1,80,0,1
220080,-17.8571428571,4,2,1,5,0,1
220166,-17.8571428571,4,2,1,80,0,1
220252,-17.8571428571,4,2,1,5,0,1
220339,-28.5714285714286,4,2,1,80,0,1
220511,-28.5714285714286,4,2,1,5,0,1
220597,-28.5714285714286,4,2,1,80,0,1
220770,-28.5714285714286,4,2,1,5,0,1
220856,-28.5714285714286,4,2,1,80,0,1
221028,-28.5714285714286,4,2,1,5,0,1
221114,-28.5714285714286,4,2,1,80,0,1
221287,-28.5714285714286,4,2,1,5,0,1
221373,-28.5714285714286,4,2,1,80,0,1
221718,-28.5714285714286,4,2,1,60,0,0
222063,-29.4117647058824,4,2,1,80,0,1
222149,-29.4117647058824,4,2,1,5,0,1
222235,-29.4117647058824,4,2,1,80,0,1
222321,-29.4117647058824,4,2,1,5,0,1
222408,-29.4117647058824,4,2,1,80,0,1
222752,-33.3333333333333,4,2,1,80,0,1
224477,-33.3333333333333,4,2,1,80,0,1
224649,-33.3333333333333,4,2,1,5,0,1
224735,-33.3333333333333,4,2,1,80,0,1
224908,-33.3333333333333,4,2,1,5,0,1
224994,-33.3333333333333,4,2,1,80,0,1
225166,-33.3333333333333,4,2,1,5,0,1
225252,-16.6666666667,4,2,1,80,0,1
225339,-16.6666666667,4,2,1,5,0,1
225511,-33.3333333333333,4,2,1,80,0,1
227408,-33.3333333333333,4,2,1,5,0,1
227494,-33.3333333333333,4,2,1,80,0,1
227666,-33.3333333333333,4,2,1,5,0,1
227752,-33.3333333333333,4,2,1,80,0,1
227925,-33.3333333333333,4,2,1,5,0,1
228011,-33.3333333333333,4,2,1,80,0,1
228183,-33.3333333333333,4,2,1,5,0,1
228270,-66.6666666666667,4,2,1,80,0,1
229477,-100,4,2,1,80,0,1
229994,-40,4,2,1,80,0,1
231028,-158.730158730159,4,2,1,50,0,0
232235,-66.6666666666667,4,2,1,60,0,0
232321,-66.6666666666667,4,2,1,5,0,0
232408,-66.6666666666667,4,2,1,60,0,0
232666,-66.6666666666667,4,2,1,5,0,0
232752,-33.3333333333333,4,2,1,90,0,1
232839,-33.3333333333333,4,2,1,5,0,1
232925,-33.3333333333333,4,2,1,90,0,1
233356,-33.3333333333333,4,2,1,5,0,1
233442,-33.3333333333333,4,2,1,90,0,1
233873,-33.3333333333333,4,2,1,5,0,1
233959,-33.3333333333333,4,2,1,90,0,1
234304,-41.6666666666667,4,2,1,90,0,1
234390,-41.6666666666667,4,2,1,5,0,1
234477,-41.6666666666667,4,2,1,90,0,1
234563,-100,4,2,1,5,0,1
234649,-41.6666666666667,4,2,1,90,0,1
234994,-41.6666666666667,4,2,1,5,0,1
235080,-50,4,2,1,90,0,1
235252,-50,4,2,1,5,0,1
235339,-31.25,4,2,1,90,0,1
235425,-31.25,4,2,1,5,0,1
235511,-37.037037037037,4,2,1,90,0,1
235597,-37.037037037037,4,2,1,5,0,1
235683,-37.037037037037,4,2,1,90,0,1
236114,-37.037037037037,4,2,1,5,0,1
236201,-37.037037037037,4,2,1,90,0,1
236632,-37.037037037037,4,2,1,5,0,1
236718,-37.037037037037,4,2,1,90,0,1
237752,-37.037037037037,4,2,1,5,0,1
237839,-33.3333333333333,4,2,1,90,0,1
238011,-33.3333333333333,4,2,1,5,0,1
238097,-22.2222222222222,4,2,1,90,0,1
238183,-22.2222222222222,4,2,1,5,0,1
238270,-33.3333333333333,4,2,1,90,0,1
238356,-33.3333333333333,4,2,1,5,0,1
238442,-33.3333333333333,4,2,1,90,0,1
238873,-33.3333333333333,4,2,1,5,0,1
238959,-33.3333333333333,4,2,1,90,0,1
239390,-33.3333333333333,4,2,1,5,0,1
239477,-33.3333333333333,4,2,1,90,0,1
239821,-41.6666666666667,4,2,1,90,0,1
239908,-41.6666666666667,4,2,1,5,0,1
239994,-41.6666666666667,4,2,1,90,0,1
240080,-41.6666666666667,4,2,1,5,0,1
240166,-41.6666666666667,4,2,1,90,0,1
240511,-41.6666666666667,4,2,1,5,0,1
240597,-50,4,2,1,90,0,1
240770,-50,4,2,1,5,0,1
240856,-31.25,4,2,1,90,0,1
240942,-31.25,4,2,1,5,0,1
241028,-31.25,4,2,1,90,0,1
241114,-31.25,4,2,1,5,0,1
241201,-31.25,4,2,1,90,0,1
241546,-31.25,4,2,1,90,0,1
241632,-31.25,4,2,1,5,0,1
241718,-31.25,4,2,1,90,0,1
242063,-31.25,4,2,1,90,0,1
242149,-31.25,4,2,1,5,0,1
242235,-35.7142857142857,4,2,1,90,0,1
242580,-31.25,4,2,1,90,0,1
242925,-40,4,2,1,60,0,0
243787,-30.3030303030303,4,2,1,90,0,1
243873,-30.3030303030303,4,2,1,5,0,1
243959,-30.3030303030303,4,2,1,90,0,1
244390,-30.3030303030303,4,2,1,5,0,1
244477,-30.3030303030303,4,2,1,90,0,1
244908,-30.3030303030303,4,2,1,5,0,1
244994,-30.3030303030303,4,2,1,90,0,1
245252,-40,4,2,1,90,0,1
245425,-40,4,2,1,5,0,1
245511,-40,4,2,1,90,0,1
245597,-40,4,2,1,5,0,1
245683,-40,4,2,1,90,0,1
245856,-40,4,2,1,90,0,1
246028,-40,4,2,1,5,0,1
246114,-47.6190476190476,4,2,1,90,0,1
246287,-47.6190476190476,4,2,1,5,0,1
246373,-32.258064516129,4,2,1,90,0,1
246459,-32.258064516129,4,2,1,5,0,1
246546,-37.037037037037,4,2,1,90,0,1
246632,-37.037037037037,4,2,1,5,0,1
246718,-37.037037037037,4,2,1,90,0,1
247149,-37.037037037037,4,2,1,5,0,1
247235,-37.037037037037,4,2,1,90,0,1
247666,-37.037037037037,4,2,1,5,0,1
247752,-37.037037037037,4,2,1,90,0,1
249304,-41.6666666666667,4,2,1,90,0,1
250339,-20.8333333333333,4,2,1,90,0,1
250425,-20.8333333333333,4,2,1,5,0,1
250511,-33.3333333333333,4,2,1,90,0,1
250770,-33.3333333333333,4,2,1,5,0,1
250856,-41.6666666666667,4,2,1,90,0,1
251114,-41.6666666666667,4,2,1,5,0,1
251201,-41.6666666666667,4,2,1,90,0,1
251546,-41.6666666666667,4,2,1,5,0,1
251632,-41.6666666666667,4,2,1,90,0,1
251804,-41.6666666666667,4,2,1,5,0,1
251890,-20.8333333333333,4,2,1,90,0,1
251977,-20.8333333333333,4,2,1,5,0,1
252063,-25,4,2,1,100,0,1
252149,-25,4,2,1,5,0,1
252235,-25,4,2,1,100,0,1
252666,-25,4,2,1,5,0,1
252752,-25,4,2,1,100,0,1
253183,-25,4,2,1,5,0,1
253270,-25,4,2,1,100,0,1
254477,-40,4,2,1,70,0,1
254821,-100,4,2,1,30,0,0
256546,-100,4,2,1,5,0,0
256718,-100,4,2,1,30,0,0
259304,-100,4,2,1,5,0,0
259477,-100,4,2,1,30,0,0
259821,-100,4,2,1,5,0,0
259994,-100,4,2,1,30,0,0
260339,-83.3333333333333,4,2,1,30,0,0
260683,-83.3333333333333,4,2,1,5,0,0
260856,-83.3333333333333,4,2,1,30,0,0
261201,-83.3333333333333,4,2,1,5,0,0
261373,-83.3333333333333,4,2,1,30,0,0
261718,-111.111111111111,4,2,1,30,0,0
262063,-111.111111111111,4,2,1,5,0,0
262235,-111.111111111111,4,2,1,30,0,0
262580,-111.111111111111,4,2,1,5,0,0
262752,-111.111111111111,4,2,1,30,0,0
263097,-83.3333333333333,4,2,1,30,0,0
263442,-83.3333333333333,4,2,1,5,0,0
263614,-83.3333333333333,4,2,1,30,0,0
263959,-83.3333333333333,4,2,1,5,0,0
264132,-66.6666666666667,4,2,1,30,0,0
264390,-66.6666666666667,4,2,1,5,0,0
264477,-76.9230769230769,4,2,1,30,0,0
264994,-76.9230769230769,4,2,1,5,0,0
265080,-76.9230769230769,4,2,1,30,0,0
265856,-133.333333333333,4,2,1,15,0,0

[Colours]
Combo1 : 253,117,205
Combo2 : 84,116,224
Combo3 : 149,103,224
Combo4 : 254,193,103

[HitObjects]
108,234,6546,6,0,B|93:228|71:231|71:231|101:203|152:220|152:220|198:236|250:211,2,210,2|0|2,0:0|0:0|0:0,0:0:0:0:
108,234,8442,1,0,0:0:0:0:
108,234,8614,2,0,L|102:305,1,70,2|0,0:0|0:0,0:0:0:0:
181,263,8959,2,0,L|176:305,3,23.3333333333333,2|0|0|0,0:0|0:0|0:0|0:0,0:0:0:0:
249,226,9304,6,0,P|293:244|423:162,2,210,2|0|2,0:0|0:0|0:0,0:0:0:0:
249,226,11546,1,0,0:0:0:0:
272,152,11718,1,2,0:0:0:0:
199,170,11890,2,0,L|168:166,2,23.3333333333333
166,150,12063,38,0,B|150:172|159:212|159:212|115:194|80:193|44:201|5:242,2,210,2|0|2,0:0|0:0|0:0,0:0:0:0:
166,150,13959,1,0,0:0:0:0:
234,112,14132,1,2,0:0:0:0:
308,127,14304,1,0,0:0:0:0:
350,188,14477,2,0,L|341:218,2,23.3333333333333,2|0|0,0:0|0:0|0:0,0:0:0:0:
348,228,14649,1,0,0:0:0:0:
430,81,14821,6,0,B|393:190|481:174|425:297,2,210,2|2|2,0:0|0:0|0:0,0:0:0:0:
165,25,16201,1,2,0:0:0:0:
165,25,16804,2,2,L|163:8,2,17.5
233,62,17063,1,2,0:0:0:0:
229,73,17149,1,2,0:0:0:0:
226,87,17235,2,0,L|235:145,1,35,2|2,0:0|0:0,0:0:0:0:
262,191,17408,2,0,L|253:249,1,35,2|2,0:0|0:0,0:0:0:0:
133,171,17580,38,0,P|182:147|268:207,1,154.000004699707,2|0,0:0|0:0,0:0:0:0:
133,180,18097,2,0,P|182:156|265:219,1,154.000004699707,2|0,0:0|0:0,0:0:0:0:
135,189,18614,6,0,P|194:164|241:190,1,105.000004005432,2|0,0:0|0:0,0:0:0:0:
427,265,19477,37,0,0:0:0:0:
496,235,19649,2,0,P|505:197|502:159,1,70,2|0,0:0|0:0,0:0:0:0:
430,192,19994,2,0,P|422:169|415:158,3,23.3333333333333,2|0|0|0,0:0|0:0|0:0|0:0,0:0:0:0:
248,36,20339,6,0,P|320:62|421:46,1,154.000004699707,2|0,0:0|0:0,0:0:0:0:
244,43,20856,2,0,P|316:69|420:56,1,154.000004699707,2|0,0:0|0:0,0:0:0:0:
242,52,21373,38,0,P|290:73|351:80,1,105.000004005432,2|0,0:0|0:0,0:0:0:0:
80,362,22235,5,0,0:0:0:0:
55,291,22408,1,2,0:0:0:0:
61,275,22580,1,0,0:0:0:0:
90,205,22752,1,2,0:0:0:0:
84,189,22924,1,0,0:0:0:0:
99,94,23097,38,0,B|165:91|187:42|187:42|187:75|194:120|239:143|299:155|345:124|340:59|293:28|250:53,1,377.999988464356,2|0,0:0|0:0,0:0:0:0:
158,171,24304,5,2,0:0:0:0:
158,171,24390,1,2,0:0:0:0:
158,171,24477,2,0,B|193:229|177:321|177:321|200:272|233:258|233:258|253:313|302:331|381:328|404:261|364:206|306:234,1,503.999984619141,2|0,0:0|0:0,0:0:0:0:
260,171,25683,38,0,P|253:146|241:126,1,28,2|0,0:0|0:0,0:0:0:0:
253,124,25856,2,0,B|278:154|317:149|317:149|354:145|385:151|434:178|455:222|445:284,1,280,2|0,0:0|0:0,0:0:0:0:
427,354,26890,2,0,P|401:343|373:340,1,56,2|0,0:0|0:0,0:0:0:0:
289,338,27235,2,0,P|302:292|320:271,1,70,2|0,0:0|0:0,0:0:0:0:
201,330,27580,6,0,B|203:307|210:292|210:292|195:287|153:290|111:315|111:315|62:301|42:264|42:264|80:212|179:186|253:210,1,454.999979171754,2|0,0:0|0:0,0:0:0:0:
285,330,28614,38,0,L|404:315,1,90.9999958343508,6|0,0:0|0:0,0:0:0:0:
392,290,28873,2,0,L|482:301,1,90.9999958343508,2|0,0:0|0:0,0:0:0:0:
510,324,29132,1,2,0:0:0:0:
391,206,29304,1,0,0:0:0:0:
391,206,29390,1,2,0:0:0:0:
503,221,29563,1,0,0:0:0:0:
503,221,29649,1,2,0:0:0:0:
392,290,29821,1,2,0:0:0:0:
406,121,29994,6,0,L|414:30,1,90.9999958343508,10|0,0:0|0:0,0:0:0:0:
325,5,30339,2,0,L|316:95,1,90.9999958343508,10|0,0:0|0:0,0:0:0:0:
251,159,30683,1,10,0:0:0:0:
251,159,30856,1,8,0:0:0:0:
156,69,31028,37,2,0:0:0:0:
134,62,31114,1,0,0:0:0:0:
111,60,31201,1,10,0:0:0:0:
89,65,31286,1,0,0:0:0:0:
65,72,31373,6,0,P|48:136|51:189,1,90.9999958343508,10|0,0:0|0:0,0:0:0:0:
64,186,31632,2,0,P|81:250|78:303,1,90.9999958343508,2|0,0:0|0:0,0:0:0:0:
61,304,31890,1,2,0:0:0:0:
181,262,32063,1,0,0:0:0:0:
181,262,32149,1,0,0:0:0:0:
87,382,32321,1,0,0:0:0:0:
87,382,32408,1,2,0:0:0:0:
209,334,32580,1,2,0:0:0:0:
147,232,32752,38,0,L|239:239,1,90.9999958343508,10|0,0:0|0:0,0:0:0:0:
324,258,33097,2,0,L|416:265,1,90.9999958343508,10|0,0:0|0:0,0:0:0:0:
292,336,33442,1,10,0:0:0:0:
292,336,33614,1,8,0:0:0:0:
354,157,33787,5,2,0:0:0:0:
350,134,33873,1,2,0:0:0:0:
348,111,33959,1,10,0:0:0:0:
349,89,34045,1,2,0:0:0:0:
354,67,34132,38,0,P|322:35|245:25,1,90.9999958343508,10|0,0:0|0:0,0:0:0:0:
262,45,34390,2,0,P|218:33|146:63,1,90.9999958343508,2|0,0:0|0:0,0:0:0:0:
163,67,34649,1,2,0:0:0:0:
63,19,34821,1,0,0:0:0:0:
63,19,34908,1,2,0:0:0:0:
153,149,35080,1,0,0:0:0:0:
153,149,35166,1,2,0:0:0:0:
28,89,35339,1,2,0:0:0:0:
71,170,35511,6,0,L|84:284,1,90.9999958343508,10|0,0:0|0:0,0:0:0:0:
164,294,35856,2,0,L|151:408,1,90.9999958343508,10|0,0:0|0:0,0:0:0:0:
82,338,36201,1,10,0:0:0:0:
82,338,36373,1,8,0:0:0:0:
216,212,36546,37,2,0:0:0:0:
257,185,36632,1,2,0:0:0:0:
307,175,36718,1,10,0:0:0:0:
356,181,36804,1,2,0:0:0:0:
401,201,36890,6,0,L|520:190,1,90.9999958343508,10|0,0:0|0:0,0:0:0:0:
453,116,37149,2,0,L|334:105,1,90.9999958343508,2|0,0:0|0:0,0:0:0:0:
307,175,37408,1,2,0:0:0:0:
399,16,37580,1,0,0:0:0:0:
399,16,37666,1,2,0:0:0:0:
262,108,37839,1,0,0:0:0:0:
262,108,37925,1,2,0:0:0:0:
435,103,38097,1,2,0:0:0:0:
181,72,38270,38,0,P|137:85|74:80,1,90.9999958343508,2|0,0:0|0:0,0:0:0:0:
34,32,38528,2,0,P|67:63|94:120,1,90.9999958343508,2|0,0:0|0:0,0:0:0:0:
97,175,38787,1,2,0:0:0:0:
127,6,38959,1,0,0:0:0:0:
127,6,39046,1,2,0:0:0:0:
167,221,39218,1,2,0:0:0:0:
167,221,39304,2,0,P|159:265|181:311,1,78.7500030040742,2|0,0:0|0:0,0:0:0:0:
233,253,39649,6,0,L|334:241,1,90.9999958343508,6|0,0:0|0:0,0:0:0:0:
339,166,39908,2,0,L|238:178,1,90.9999958343508,2|0,0:0|0:0,0:0:0:0:
359,89,40166,1,2,0:0:0:0:
402,230,40339,1,0,0:0:0:0:
402,230,40425,1,2,0:0:0:0:
436,69,40597,1,0,0:0:0:0:
436,69,40683,1,2,0:0:0:0:
479,210,40856,1,2,0:0:0:0:
359,89,41028,38,0,L|258:77,1,90.9999958343508,10|0,0:0|0:0,0:0:0:0:
209,135,41373,2,0,L|108:147,1,90.9999958343508,10|0,0:0|0:0,0:0:0:0:
189,56,41718,1,10,0:0:0:0:
189,56,41890,1,8,0:0:0:0:
226,220,42063,5,2,0:0:0:0:
232,249,42149,1,0,0:0:0:0:
235,280,42235,1,10,0:0:0:0:
235,310,42321,1,0,0:0:0:0:
232,341,42408,38,0,P|285:324|336:326,1,90.9999958343508,10|0,0:0|0:0,0:0:0:0:
417,262,42666,2,0,P|371:259|329:244,1,90.9999958343508,2|0,0:0|0:0,0:0:0:0:
283,175,42925,1,2,0:0:0:0:
400,343,43097,1,0,0:0:0:0:
400,343,43183,1,2,0:0:0:0:
363,161,43356,1,0,0:0:0:0:
363,161,43442,1,2,0:0:0:0:
322,361,43614,1,2,0:0:0:0:
440,199,43787,6,0,P|448:141|415:89,1,90.9999958343508,10|0,0:0|0:0,0:0:0:0:
287,121,44132,2,0,P|279:179|312:231,1,90.9999958343508,10|0,0:0|0:0,0:0:0:0:
363,161,44477,1,10,0:0:0:0:
363,161,44649,1,8,0:0:0:0:
159,83,44821,37,2,0:0:0:0:
121,70,44907,1,2,0:0:0:0:
81,66,44994,1,10,0:0:0:0:
42,68,45079,1,2,0:0:0:0:
3,77,45166,6,0,P|-4:130|7:179,1,90.9999958343508,10|0,0:0|0:0,0:0:0:0:
29,239,45425,2,0,P|33:274|26:314,1,70,2|0,0:0|0:0,0:0:0:0:
81,177,45683,38,0,P|137:169|190:181,1,105.000004005432,2|0,0:0|0:0,0:0:0:0:
245,221,45942,2,0,P|273:224|310:216,1,62.9999980773926,2|0,0:0|0:0,0:0:0:0:
288,49,46201,6,0,P|279:112|319:236,1,173.250001652241,2|0,0:0|0:0,0:0:0:0:
389,269,46546,37,8,0:0:0:0:
392,172,46718,1,0,0:0:0:0:
304,315,46890,1,8,0:0:0:0:
386,366,47063,1,0,0:0:0:0:
307,218,47235,1,8,0:0:0:0:
222,264,47407,1,0,0:0:0:0:
392,172,47580,1,8,0:0:0:0:
394,159,47666,1,8,0:0:0:0:
394,145,47752,1,8,0:0:0:0:
394,132,47838,1,8,0:0:0:0:
394,117,47925,6,0,P|355:88|239:113,1,173.250001652241,6|0,0:0|0:0,0:0:0:0:
251,122,48270,21,0,0:0:0:0:
251,122,48356,1,0,0:0:0:0:
251,122,48442,2,0,B|217:223|293:211|255:309,1,194.249999258995,6|0,0:0|0:0,0:0:0:0:
265,320,48787,37,0,0:0:0:0:
265,320,48873,1,0,0:0:0:0:
265,320,48959,2,0,B|112:480|-147:287|130:130|282:292|282:292|452:480|717:290|434:130|298:280,1,1148.00001751709,6|0,0:0|0:0,0:0:0:0:
296,290,50683,22,0,L|303:186,1,97.9999970092774,14|0,0:0|0:0,0:0:0:0:
257,66,51028,1,8,0:0:0:0:
388,149,51201,1,2,0:0:0:0:
221,150,51373,2,0,L|123:156,1,97.9999970092774,10|0,0:0|0:0,0:0:0:0:
353,58,51718,2,0,L|450:64,1,97.9999970092774,10|2,0:0|0:0,0:0:0:0:
295,301,52063,6,0,L|301:203,1,97.9999970092774,8|2,0:0|0:0,0:0:0:0:
388,149,52408,1,10,0:0:0:0:
388,149,52580,1,2,0:0:0:0:
295,301,52752,2,0,L|197:307,1,97.9999970092774,10|2,0:0|0:0,0:0:0:0:
404,250,53097,1,10,0:0:0:0:
404,250,53270,1,2,0:0:0:0:
211,212,53442,38,0,L|217:114,1,97.9999970092774,10|0,0:0|0:0,0:0:0:0:
337,160,53787,1,8,0:0:0:0:
295,301,53959,1,2,0:0:0:0:
216,114,54132,2,0,L|209:16,1,97.9999970092774,10|0,0:0|0:0,0:0:0:0:
122,189,54477,1,10,0:0:0:0:
282,220,54649,1,2,0:0:0:0:
113,309,54821,6,0,L|15:315,1,97.9999970092774,8|2,0:0|0:0,0:0:0:0:
276,317,55166,2,0,L|282:219,1,97.9999970092774,10|2,0:0|0:0,0:0:0:0:
115,91,55511,2,0,L|121:188,1,97.9999970092774,8|2,0:0|0:0,0:0:0:0:
276,317,55856,2,0,B|330:305|330:305|369:317|369:317|432:307,1,146.999995513916,10|0,0:0|0:0,0:0:0:0:
481,270,56201,37,14,0:0:0:0:
498,90,56373,1,8,0:0:0:0:
405,237,56546,1,8,0:0:0:0:
474,89,56718,1,10,0:0:0:0:
356,171,56890,1,8,0:0:0:0:
448,78,57062,1,8,0:0:0:0:
321,104,57235,1,10,0:0:0:0:
428,53,57408,1,8,0:0:0:0:
203,43,57580,5,12,0:0:0:0:
220,223,57752,1,8,0:0:0:0:
127,76,57925,1,10,0:0:0:0:
196,224,58097,1,8,0:0:0:0:
78,142,58269,1,8,0:0:0:0:
170,235,58441,1,8,0:0:0:0:
48,210,58614,1,10,0:0:0:0:
155,261,58786,1,8,0:0:0:0:
1,355,58959,37,14,0:0:0:0:
46,337,59045,1,8,0:0:0:0:
95,330,59131,1,8,0:0:0:0:
144,331,59217,1,8,0:0:0:0:
191,343,59304,5,8,0:0:0:0:
226,355,59390,1,8,0:0:0:0:
262,361,59476,1,10,0:0:0:0:
299,359,59562,1,8,0:0:0:0:
334,350,59648,37,8,0:0:0:0:
356,340,59735,1,8,0:0:0:0:
380,334,59821,1,8,0:0:0:0:
405,334,59907,1,8,0:0:0:0:
429,339,59994,5,10,0:0:0:0:
440,343,60080,1,8,0:0:0:0:
452,346,60166,1,10,0:0:0:0:
465,346,60252,1,8,0:0:0:0:
477,344,60339,5,0,0:0:0:0:
457,269,60511,22,0,B|440:214|479:215|450:151,1,112,2|0,0:0|0:0,0:0:0:0:
383,194,61373,5,10,3:0:0:0:
376,192,61459,1,10,3:0:0:0:
369,191,61545,1,10,3:0:0:0:
362,190,61631,1,10,3:0:0:0:
355,188,61718,6,0,B|352:144|381:120|381:120|338:118|289:138|256:198|274:286,1,280,6|8,0:0|3:0,0:0:0:0:
349,184,62235,6,0,B|346:140|375:116|375:116|332:114|285:135|250:194|265:282,1,280,6|8,0:0|3:0,0:0:0:0:
344,175,62752,38,0,B|341:135|370:111|370:111|329:106|280:132|250:195|261:235,1,231.000002202988,14|0,0:0|0:0,0:0:0:0:
61,348,63270,21,10,0:0:0:0:
140,192,63442,1,8,3:0:0:0:
9,273,63614,1,2,0:0:0:0:
49,262,63700,1,2,0:0:0:0:
90,267,63786,1,2,0:0:0:0:
131,277,63872,1,0,0:0:0:0:
173,272,63959,1,8,0:0:0:0:
50,177,64132,6,0,P|48:156|51:141,1,31.4999990386963,8|0,3:0|0:0,0:0:0:0:
57,136,64477,6,0,P|91:126|149:130,1,70,6|0,0:0|0:0,0:0:0:0:
197,138,64649,2,0,P|232:137|266:127,1,70,10|0,0:0|0:0,0:0:0:0:
332,102,64821,1,8,3:0:0:0:
53,144,64994,6,0,B|210:110|154:192|328:114,1,280,6|8,0:0|3:0,0:0:0:0:
52,154,65511,38,0,B|189:121|159:190|285:144,1,231.000002202988,14|0,0:0|0:0,0:0:0:0:
481,145,65856,21,2,0:0:0:0:
481,145,66028,1,8,0:0:0:0:
419,301,66201,1,10,3:0:0:0:
472,229,66373,1,2,0:0:0:0:
432,216,66459,1,2,0:0:0:0:
390,221,66545,1,2,0:0:0:0:
355,243,66631,1,0,0:0:0:0:
331,277,66718,1,8,0:0:0:0:
512,317,66890,5,8,3:0:0:0:
493,146,67063,1,10,0:0:0:0:
493,146,67149,1,2,0:0:0:0:
493,146,67235,6,0,B|484:116|499:93|499:93|453:77|394:94|394:94|394:98|394:98|338:125|268:97,1,280,6|8,0:0|3:0,0:0:0:0:
498,153,67752,6,0,B|489:123|504:100|504:100|458:84|399:101|399:101|399:105|399:105|343:132|270:105,1,280,6|8,0:0|3:0,0:0:0:0:
505,159,68270,38,0,B|494:130|509:109|509:109|459:92|404:108|404:108|404:112|404:112|357:137|295:121,1,245.000002336502,14|0,0:0|0:0,0:0:0:0:
22,54,68787,21,10,0:0:0:0:
155,186,68959,1,8,3:0:0:0:
114,95,69132,1,2,0:0:0:0:
80,121,69218,1,2,0:0:0:0:
59,156,69304,1,2,0:0:0:0:
56,197,69390,1,0,0:0:0:0:
69,236,69476,1,8,0:0:0:0:
143,340,69649,5,10,3:0:0:0:
156,338,69735,1,0,0:0:0:0:
170,337,69821,1,2,0:0:0:0:
184,336,69907,1,0,0:0:0:0:
196,335,69994,6,0,B|235:318|276:326|276:326|280:323|280:323|325:333|370:325,1,161.000003070831,6|0,0:0|0:0,0:0:0:0:
428,318,70252,1,8,0:0:0:0:
428,318,70339,2,0,P|466:314|521:328,1,80.5000015354157,8|0,3:0|0:0,0:0:0:0:
197,344,70511,6,0,B|235:329|280:336|280:336|285:332|285:332|345:346|403:332|403:332|407:335|407:335|461:319|520:343,1,322.000006141663,6|8,0:0|3:0,0:0:0:0:
210,351,71028,38,0,B|245:341|283:348|283:348|288:344|288:344|348:358|406:344|406:344|410:347|410:347|442:337|494:356,1,251.999992309571,14|0,0:0|0:0,0:0:0:0:
357,81,71373,21,10,0:0:0:0:
397,162,71546,2,0,B|400:181|400:181|395:198,2,37.3333333333333,2|0|0,0:0|0:0|0:0,0:0:0:0:
389,152,71718,2,0,B|357:160|357:160|274:142,1,62.9999980773926,10|0,0:0|0:0,0:0:0:0:
255,104,71890,5,8,3:0:0:0:
256,182,72063,1,8,3:0:0:0:
256,192,72149,1,8,3:0:0:0:
256,203,72235,1,8,3:0:0:0:
256,279,72408,37,8,3:0:0:0:
256,289,72494,1,8,3:0:0:0:
256,300,72580,1,8,3:0:0:0:
256,310,72666,1,8,3:0:0:0:
256,320,72752,22,0,B|223:324|191:305|191:305|143:355|34:359|-4:299,1,280,6|8,0:0|3:0,0:0:0:0:
259,331,73270,6,0,B|226:335|191:317|191:317|141:364|37:370|-3:311,1,280,6|8,0:0|3:0,0:0:0:0:
262,342,73787,38,0,B|229:346|192:328|192:328|143:371|54:378|7:331,1,258.999999011993,14|0,0:0|0:0,0:0:0:0:
84,37,74304,21,10,0:0:0:0:
163,191,74477,1,8,3:0:0:0:
38,112,74649,1,2,0:0:0:0:
78,121,74735,1,2,0:0:0:0:
119,114,74821,1,2,0:0:0:0:
160,106,74907,1,0,0:0:0:0:
202,112,74994,1,8,0:0:0:0:
342,183,75166,6,0,P|339:167|341:148,1,31.4999990386963,10|0,3:0|0:0,0:0:0:0:
347,136,75511,6,0,P|387:160|407:199,1,70,6|0,0:0|0:0,0:0:0:0:
419,250,75683,2,0,P|417:296|392:333,1,70,10|0,0:0|0:0,0:0:0:0:
359,370,75856,1,8,3:0:0:0:
356,125,76028,6,0,P|422:198|380:370,1,280,6|8,0:0|3:0,0:0:0:0:
367,121,76546,38,0,P|433:194|403:360,1,258.999999011993,14|0,0:0|0:0,0:0:0:0:
265,242,76890,21,2,0:0:0:0:
265,242,77063,1,8,0:0:0:0:
160,357,77235,1,10,3:0:0:0:
125,207,77408,1,2,0:0:0:0:
125,207,77494,1,2,0:0:0:0:
125,207,77580,5,2,0:0:0:0:
134,152,77666,1,0,0:0:0:0:
163,104,77752,1,10,0:0:0:0:
208,71,77839,1,2,0:0:0:0:
262,57,77925,5,10,3:0:0:0:
269,133,78011,1,10,3:0:0:0:
276,205,78097,1,10,3:0:0:0:
276,205,78270,22,0,B|330:153|412:183|412:183|390:245|415:309,1,251.999992309571,14|0,0:0|0:0,0:0:0:0:
330,384,78787,2,0,P|335:346|332:311,1,62.9999980773926,10|0,0:0|0:0,0:0:0:0:
270,198,78959,6,0,B|324:146|406:176|406:176|384:238|408:298,1,251.999992309571,10|0,3:0|0:0,0:0:0:0:
265,192,79304,22,0,B|319:140|401:170|401:170|377:232|400:293,1,245.000002336502,10|0,0:0|0:0,0:0:0:0:
36,327,79821,5,8,0:0:0:0:
198,283,79994,1,8,3:0:0:0:
189,258,80339,5,8,0:0:0:0:
57,248,80512,1,2,0:0:0:0:
190,225,80683,1,2,0:0:0:0:
95,182,80856,1,10,3:0:0:0:
199,10,81028,38,0,L|73:0,1,125.999996154785,14|8,0:0|0:0,0:0:0:0:
276,46,81373,2,0,L|338:41,1,62.9999980773926,10|0,0:0|0:0,0:0:0:0:
189,88,81546,2,0,L|126:83,1,62.9999980773926,10|0,0:0|0:0,0:0:0:0:
275,119,81718,6,0,L|424:108,1,125.999996154785,10|8,0:0|0:0,0:0:0:0:
204,166,81977,1,2,0:0:0:0:
204,166,82063,2,0,L|55:155,1,125.999996154785,8|8,0:0|0:0,0:0:0:0:
175,241,82408,37,12,0:0:0:0:
138,239,82494,1,8,0:0:0:0:
103,237,82580,1,8,0:0:0:0:
66,235,82666,1,8,0:0:0:0:
31,231,82752,5,8,0:0:0:0:
38,210,82839,1,8,0:0:0:0:
41,188,82924,1,8,0:0:0:0:
39,166,83010,1,8,0:0:0:0:
32,145,83097,37,8,0:0:0:0:
28,134,83183,1,8,0:0:0:0:
27,122,83269,1,8,0:0:0:0:
27,111,83355,1,8,0:0:0:0:
28,100,83442,21,12,3:0:0:0:
110,113,83614,1,8,3:0:0:0:
132,91,83700,1,8,3:0:0:0:
162,82,83787,22,0,P|212:91|273:81,1,90.9999958343508,6|0,0:0|0:0,0:0:0:0:
322,60,84132,1,8,3:0:0:0:
241,108,84304,2,0,P|208:146|186:204,1,90.9999958343508,2|0,0:0|0:0,0:0:0:0:
195,259,84649,1,8,0:0:0:0:
319,162,84821,1,10,3:0:0:0:
270,222,84994,5,2,0:0:0:0:
270,222,85080,1,2,0:0:0:0:
270,222,85166,1,2,0:0:0:0:
344,236,85339,1,8,0:0:0:0:
393,178,85511,1,10,3:0:0:0:
296,293,85683,37,2,0:0:0:0:
290,315,85769,1,0,0:0:0:0:
289,337,85855,1,0,0:0:0:0:
293,360,85941,1,0,0:0:0:0:
301,381,86027,1,10,0:0:0:0:
368,331,86201,1,10,3:0:0:0:
368,331,86373,1,10,0:0:0:0:
216,360,86546,6,0,L|128:352,1,45.4999979171754
150,338,86718,2,0,L|62:346,1,45.4999979171754,8|0,0:0|0:0,0:0:0:0:
36,368,86890,1,10,3:0:0:0:
165,260,87063,1,2,0:0:0:0:
142,262,87149,1,0,0:0:0:0:
119,264,87235,1,0,0:0:0:0:
97,266,87321,1,0,0:0:0:0:
74,268,87408,1,8,0:0:0:0:
178,183,87580,1,10,3:0:0:0:
99,185,87752,37,2,0:0:0:0:
99,185,87839,1,2,0:0:0:0:
99,185,87925,1,2,0:0:0:0:
137,117,88097,2,0,P|141:72|133:28,1,90.9999958343508,10|8,0:0|3:0,0:0:0:0:
178,183,88442,1,2,0:0:0:0:
173,205,88528,1,0,0:0:0:0:
173,228,88614,1,0,0:0:0:0:
175,250,88700,1,0,0:0:0:0:
181,272,88787,1,10,0:0:0:0:
266,164,88959,1,10,3:0:0:0:
223,69,89132,1,10,0:0:0:0:
223,69,89218,1,0,0:0:0:0:
223,69,89304,6,0,P|279:64|374:140,1,181.999991668702,2|8,0:0|3:0,0:0:0:0:
228,79,89821,1,2,0:0:0:0:
265,73,89908,1,0,0:0:0:0:
303,81,89993,1,0,0:0:0:0:
335,101,90079,1,0,0:0:0:0:
357,132,90165,1,8,0:0:0:0:
233,90,90339,2,0,P|302:92|349:153,1,125.999996154785,10|2,3:0|0:0,0:0:0:0:
352,205,90597,37,2,0:0:0:0:
352,205,90683,1,2,0:0:0:0:
282,175,90856,1,10,0:0:0:0:
295,250,91028,1,10,3:0:0:0:
411,158,91201,1,2,0:0:0:0:
422,177,91287,1,0,0:0:0:0:
427,199,91373,1,0,0:0:0:0:
425,222,91459,1,0,0:0:0:0:
416,243,91546,2,0,P|406:269|408:299,1,45.4999979171754,10|0,0:0|0:0,0:0:0:0:
464,339,91718,5,10,3:0:0:0:
420,323,91804,1,2,0:0:0:0:
375,333,91890,1,10,0:0:0:0:
330,345,91976,1,2,0:0:0:0:
287,333,92063,37,2,0:0:0:0:
329,271,92235,1,8,0:0:0:0:
256,264,92408,1,8,3:0:0:0:
297,201,92580,1,2,0:0:0:0:
301,182,92666,1,0,0:0:0:0:
303,162,92752,1,0,0:0:0:0:
300,144,92838,1,0,0:0:0:0:
294,126,92924,1,8,0:0:0:0:
216,166,93097,6,0,P|181:121|88:133,1,146.999995513916,10|0,3:0|0:0,0:0:0:0:
84,144,93442,38,0,P|80:191|99:245,1,77.0000023498536,2|8,0:0|0:0,0:0:0:0:
216,166,93787,1,8,3:0:0:0:
136,333,93959,1,10,3:0:0:0:
136,333,94046,1,10,3:0:0:0:
136,333,94132,1,10,3:0:0:0:
170,328,94218,1,8,3:0:0:0:
205,324,94304,1,8,3:0:0:0:
250,256,94477,5,8,3:0:0:0:
296,260,94563,1,8,3:0:0:0:
342,265,94649,1,8,3:0:0:0:
388,270,94735,1,8,3:0:0:0:
435,275,94821,38,0,P|401:211|423:78,1,195.999994018555,6|8,0:0|3:0,0:0:0:0:
309,165,95339,1,2,0:0:0:0:
279,146,95425,1,0,0:0:0:0:
246,137,95511,1,0,0:0:0:0:
212,139,95597,1,0,0:0:0:0:
179,150,95683,1,8,0:0:0:0:
325,68,95856,1,10,3:0:0:0:
241,233,96028,5,2,0:0:0:0:
241,233,96114,1,2,0:0:0:0:
241,233,96201,1,2,0:0:0:0:
309,165,96373,1,8,0:0:0:0:
179,150,96546,1,10,3:0:0:0:
333,264,96718,37,2,0:0:0:0:
357,262,96804,1,0,0:0:0:0:
381,261,96890,1,0,0:0:0:0:
406,260,96976,1,0,0:0:0:0:
430,259,97063,1,10,0:0:0:0:
434,263,97149,1,2,0:0:0:0:
438,267,97235,1,10,3:0:0:0:
451,180,97408,1,10,0:0:0:0:
451,180,97494,1,2,0:0:0:0:
451,180,97580,6,0,L|454:119,1,48.9999985046387,2|0,0:0|0:0,0:0:0:0:
440,112,97752,2,0,L|436:51,1,48.9999985046387,8|0,0:0|0:0,0:0:0:0:
489,3,97925,1,8,3:0:0:0:
359,88,98097,1,2,0:0:0:0:
331,67,98183,1,0,0:0:0:0:
299,56,98269,1,0,0:0:0:0:
264,57,98355,1,0,0:0:0:0:
232,68,98442,1,8,0:0:0:0:
364,186,98614,2,0,P|310:186|253:238,1,97.9999970092774,10|2,3:0|0:0,0:0:0:0:
268,282,98873,37,2,0:0:0:0:
268,282,98959,1,2,0:0:0:0:
334,257,99132,1,10,0:0:0:0:
324,328,99304,1,8,3:0:0:0:
189,280,99477,1,2,0:0:0:0:
176,281,99563,1,0,0:0:0:0:
164,282,99649,1,2,0:0:0:0:
152,283,99735,1,0,0:0:0:0:
140,285,99821,1,10,0:0:0:0:
58,358,99994,5,10,3:0:0:0:
41,325,100080,1,10,3:0:0:0:
33,289,100166,1,10,3:0:0:0:
36,253,100252,1,10,3:0:0:0:
48,218,100339,38,0,P|66:168|13:46,1,167.999994873047,6|8,0:0|3:0,0:0:0:0:
153,161,100856,1,2,0:0:0:0:
136,122,100942,1,0,0:0:0:0:
109,91,101028,1,0,0:0:0:0:
72,70,101114,1,0,0:0:0:0:
31,62,101201,1,8,0:0:0:0:
186,46,101373,2,0,P|106:27|31:61,1,168,10|0,3:0|0:0,0:0:0:0:
10,138,101718,6,0,P|11:196|26:234,1,83.9999974365235,2|8,0:0|0:0,0:0:0:0:
201,150,102063,1,8,3:0:0:0:
105,166,102235,1,2,0:0:0:0:
121,204,102321,1,2,0:0:0:0:
152,232,102407,1,2,0:0:0:0:
192,245,102493,1,0,0:0:0:0:
233,240,102579,1,8,0:0:0:0:
137,80,102752,1,8,3:0:0:0:
295,170,102925,1,2,0:0:0:0:
315,168,103011,1,2,0:0:0:0:
336,167,103097,37,2,0:0:0:0:
262,83,103270,1,8,0:0:0:0:
321,255,103442,1,8,3:0:0:0:
353,76,103614,1,2,0:0:0:0:
377,56,103700,1,0,0:0:0:0:
407,46,103786,1,0,0:0:0:0:
438,44,103872,1,0,0:0:0:0:
468,53,103958,1,8,0:0:0:0:
299,0,104132,1,8,3:0:0:0:
492,133,104304,1,2,0:0:0:0:
499,174,104390,1,2,0:0:0:0:
498,216,104477,21,14,3:0:0:0:
470,206,104563,1,2,3:0:0:0:
441,205,104649,1,10,3:0:0:0:
414,215,104735,1,10,3:0:0:0:
392,235,104821,1,10,3:0:0:0:
312,194,104994,5,10,3:0:0:0:
283,204,105080,1,2,3:0:0:0:
254,204,105166,1,10,3:0:0:0:
227,194,105252,1,10,3:0:0:0:
205,174,105338,1,10,3:0:0:0:
176,264,105511,37,10,3:0:0:0:
141,250,105597,1,10,3:0:0:0:
104,250,105683,1,10,3:0:0:0:
71,262,105769,1,10,3:0:0:0:
44,287,105856,21,14,0:0:0:0:
44,287,106028,2,0,L|33:360,1,70
126,267,106373,1,10,0:0:0:0:
126,267,106546,2,0,L|134:340,1,70
200,227,106890,1,10,0:0:0:0:
200,227,107063,2,0,L|226:295,1,70
261,170,107408,1,10,0:0:0:0:
261,170,107581,2,0,L|304:229,1,70
305,99,107925,2,0,L|361:144,1,70,8|0,0:0|0:0,0:0:0:0:
329,19,108270,1,0,3:0:0:0:
360,33,108356,1,0,3:0:0:0:
392,47,108442,1,8,3:0:0:0:
198,123,108614,22,0,B|147:152|83:126|83:126|60:150|17:152,1,188.999994232178,6|0,0:0|0:0,0:0:0:0:
25,11,108959,2,0,P|30:51|15:79,1,62.9999980773926,10|0,0:0|0:0,0:0:0:0:
82,225,109132,6,0,B|70:306|135:354|135:354|168:356|203:342,1,188.999994232178,2|0,0:0|0:0,0:0:0:0:
162,216,109477,2,0,P|157:256|172:284,1,62.9999980773926,10|0,0:0|0:0,0:0:0:0:
251,384,109649,38,0,B|261:359|259:341|259:341|304:373|359:378|413:352,1,188.999994232178,2|0,0:0|0:0,0:0:0:0:
366,286,109994,2,0,P|334:289|305:279,1,62.9999980773926,10|0,0:0|0:0,0:0:0:0:
236,205,110166,6,0,P|265:194|295:199,1,62.9999980773926,10|0,3:0|0:0,0:0:0:0:
443,294,110339,2,0,B|447:262|428:236|428:236|448:205|432:157,1,125.999996154785,10|8,0:0|3:0,0:0:0:0:
204,121,110683,37,2,0:0:0:0:
230,110,110769,1,2,0:0:0:0:
259,108,110856,1,10,0:0:0:0:
287,112,110941,1,2,0:0:0:0:
314,122,111028,2,0,P|244:81|129:79,1,188.999994232178,2|0,0:0|0:0,0:0:0:0:
66,108,111373,21,14,0:0:0:0:
66,108,111545,2,0,L|55:35,1,70
148,128,111890,1,10,0:0:0:0:
148,128,112063,2,0,L|156:55,1,70
222,168,112408,1,10,0:0:0:0:
222,168,112580,2,0,L|248:100,1,70
283,225,112925,1,10,0:0:0:0:
283,225,113098,2,0,L|326:166,1,70
327,296,113442,2,0,L|383:251,1,70,8|0,0:0|0:0,0:0:0:0:
407,347,113873,6,0,L|354:372,1,52.5,2|2,0:0|0:0,0:0:0:0:
195,238,114132,6,0,B|166:234|154:214|154:214|184:185|250:193|290:231,1,188.999994232178,6|0,0:0|0:0,0:0:0:0:
247,292,114477,2,0,P|210:313|165:307,1,62.9999980773926,10|0,0:0|0:0,0:0:0:0:
83,261,114649,6,0,B|65:211|77:168|77:168|113:125|91:57,1,188.999994232178,2|0,0:0|0:0,0:0:0:0:
27,44,114994,2,0,P|18:74|23:105,1,62.9999980773926,10|0,0:0|0:0,0:0:0:0:
175,125,115166,38,0,B|207:122|225:98|225:98|259:129|313:145|381:128,1,188.999994232178,2|0,0:0|0:0,0:0:0:0:
420,109,115511,1,8,0:0:0:0:
365,0,115683,6,0,P|355:40|364:83,1,62.9999980773926,10|0,3:0|0:0,0:0:0:0:
497,130,115856,2,0,P|498:98|488:68,1,62.9999980773926,8|0,0:0|0:0,0:0:0:0:
424,188,116028,37,8,3:0:0:0:
426,219,116114,1,0,3:0:0:0:
428,250,116201,1,8,3:0:0:0:
507,214,116373,1,8,3:0:0:0:
343,223,116546,1,10,3:0:0:0:
315,218,116632,2,0,P|254:217|190:242,1,125.999996154785,8|0,3:0|3:0,3:0:0:0:
149,303,116890,21,14,0:0:0:0:
149,303,117063,2,0,L|70:306,1,70
218,256,117408,1,10,0:0:0:0:
218,256,117581,2,0,L|297:259,1,70
148,227,117925,1,10,0:0:0:0:
148,227,118098,2,0,L|69:230,1,70
208,180,118442,1,10,0:0:0:0:
208,180,118615,2,0,L|287:183,1,70
138,152,118959,6,0,L|97:153,4,23.3333333333333,8|0|0|0|0,3:0|3:0|3:0|3:0|3:0,3:0:0:0:
198,105,119304,1,8,3:0:0:0:
215,105,119390,1,2,3:0:0:0:
232,106,119476,1,2,3:0:0:0:
250,106,119562,1,2,3:0:0:0:
270,109,119649,6,0,B|279:69|307:45|348:36|375:53|375:53|342:58|318:98,1,188.999994232178,6|0,0:0|0:0,0:0:0:0:
335,156,119994,2,0,P|337:209|322:244,1,62.9999980773926,10|0,0:0|0:0,0:0:0:0:
149,190,120166,6,0,B|140:175|121:160|121:160|156:149|194:145|246:163|278:202,1,188.999994232178,2|0,0:0|0:0,0:0:0:0:
206,246,120511,2,0,P|204:299|217:337,1,62.9999980773926,10|0,0:0|0:0,0:0:0:0:
390,374,120683,38,0,B|350:381|306:367|283:331|283:331|274:361|254:380|214:390,1,188.999994232178,2|0,0:0|0:0,0:0:0:0:
163,375,121028,2,0,P|110:373|72:386,1,62.9999980773926,10|0,0:0|0:0,0:0:0:0:
357,292,121201,2,0,P|410:294|448:281,1,62.9999980773926,10|0,3:0|0:0,0:0:0:0:
206,308,121373,1,8,0:0:0:0:
389,222,121546,5,10,3:0:0:0:
389,222,121632,1,2,0:0:0:0:
389,222,121718,1,2,0:0:0:0:
379,178,121804,1,0,0:0:0:0:
349,145,121890,1,8,0:0:0:0:
307,130,121976,1,0,0:0:0:0:
262,134,122062,1,2,0:0:0:0:
283,104,122149,1,2,0:0:0:0:
286,63,122235,2,0,P|280:31|292:-4,1,62.9999980773926,2|0,0:0|0:0,0:0:0:0:
205,77,122408,5,14,0:0:0:0:
205,77,122581,2,0,L|126:74,1,70
14,136,122925,1,10,0:0:0:0:
14,136,123097,2,0,L|93:133,1,70
230,160,123442,1,10,0:0:0:0:
230,160,123614,2,0,L|151:157,1,70
39,219,123959,1,10,0:0:0:0:
39,219,124132,2,0,L|118:216,1,70
255,243,124477,1,10,0:0:0:0:
220,241,124563,1,2,0:0:0:0:
185,240,124649,1,2,0:0:0:0:
20,300,124821,2,0,L|125:296,1,105,10|0,0:0|0:0,0:0:0:0:
135,322,125166,6,0,P|121:355|123:381,1,48.9999985046387,14|0,0:0|0:0,0:0:0:0:
253,254,125339,1,10,0:0:0:0:
253,254,125511,1,8,3:0:0:0:
180,118,125683,38,0,P|158:89|134:78,1,48.9999985046387,14|0,0:0|0:0,0:0:0:0:
179,254,125856,1,10,0:0:0:0:
179,254,126028,1,8,3:0:0:0:
334,258,126201,6,0,P|369:253|391:238,1,48.9999985046387,14|0,0:0|0:0,0:0:0:0:
216,189,126374,1,10,0:0:0:0:
216,189,126546,37,14,3:0:0:0:
207,153,126632,1,0,3:0:0:0:
207,116,126718,1,0,3:0:0:0:
218,81,126804,1,0,3:0:0:0:
238,50,126890,5,8,3:0:0:0:
260,41,126976,1,0,3:0:0:0:
284,36,127062,1,0,3:0:0:0:
309,36,127148,1,0,3:0:0:0:
333,41,127235,37,8,3:0:0:0:
344,43,127321,1,8,3:0:0:0:
357,45,127407,1,8,3:0:0:0:
369,46,127493,1,8,3:0:0:0:
383,46,127580,22,0,P|435:32|489:41,1,105,14|0,0:0|0:0,0:0:0:0:
502,48,127925,22,0,B|284:170|399:426|569:334|537:238|537:238|524:191|457:161|392:235|392:235|318:306|223:267,1,840,6|0,0:0|0:0,0:0:0:0:
306,157,133442,6,0,L|254:150,1,52.5000020027161,14|0,0:0|0:0,0:0:0:0:
179,181,133614,2,0,L|127:188,1,52.5000020027161,8|0,0:0|0:0,0:0:0:0:
185,53,133787,2,0,L|192:105,1,52.5000020027161,8|0,0:0|0:0,0:0:0:0:
242,228,133959,1,8,0:0:0:0:
111,13,134132,38,0,L|104:65,1,52.5000020027161,10|0,3:0|0:0,0:0:0:0:
0,72,134304,2,0,L|7:124,1,52.5000020027161,8|0,0:0|0:0,0:0:0:0:
98,143,134477,2,8,L|91:195,1,52.5000020027161,8|0,0:0|0:0,0:0:0:0:
18,207,134649,2,0,L|25:259,1,52.5000020027161,8|0,0:0|0:0,0:0:0:0:
144,364,134821,6,0,L|196:357,1,52.5000020027161,10|0,0:0|0:0,0:0:0:0:
271,297,134994,2,0,L|323:304,1,52.5000020027161,8|0,0:0|0:0,0:0:0:0:
185,219,135166,2,0,L|192:271,1,52.5000020027161,8|0,0:0|0:0,0:0:0:0:
271,379,135339,1,8,0:0:0:0:
430,260,135511,38,0,L|437:208,1,52.5000020027161,10|0,3:0|0:0,0:0:0:0:
345,169,135683,2,0,L|352:221,1,52.5000020027161,8|0,0:0|0:0,0:0:0:0:
444,127,135856,2,0,L|451:75,1,52.5000020027161,8|0,0:0|0:0,0:0:0:0:
331,37,136028,2,0,L|338:89,1,52.5000020027161,8|0,0:0|0:0,0:0:0:0:
358,304,136201,5,10,0:0:0:0:
319,294,136287,1,8,0:0:0:0:
280,291,136373,1,8,0:0:0:0:
242,298,136459,1,8,0:0:0:0:
205,313,136545,1,8,0:0:0:0:
167,323,136632,1,8,0:0:0:0:
128,324,136718,1,8,0:0:0:0:
89,318,136804,1,8,0:0:0:0:
51,308,136890,37,10,3:0:0:0:
96,303,136976,1,8,0:0:0:0:
130,273,137063,1,8,0:0:0:0:
139,229,137148,1,8,0:0:0:0:
121,188,137234,1,8,0:0:0:0:
81,166,137321,1,8,0:0:0:0:
36,171,137407,1,8,0:0:0:0:
4,202,137493,1,8,0:0:0:0:
0,246,137580,21,10,3:0:0:0:
67,236,137752,38,0,P|84:233|103:238,1,28,2|2,0:0|0:0,0:0:0:0:
163,253,138097,2,0,P|185:256|209:250,1,48.9999985046387,2|2,0:0|0:0,0:0:0:0:
284,233,138442,22,0,B|322:225|322:225|360:237,1,70,2|0,0:0|0:0,0:0:0:0:
422,275,138614,5,10,3:0:0:0:
429,259,138700,1,10,3:0:0:0:
432,241,138786,1,10,3:0:0:0:
432,224,138872,1,10,3:0:0:0:
427,207,138959,22,0,B|356:236|336:137|402:130|402:130|438:125|438:125|436:130|436:130|439:125|439:125|488:116|488:116|507:93|507:93|502:54|502:54|476:38|476:38|444:42|444:42|444:38|444:38|444:42|444:42|391:49|391:49|390:45|390:45|391:49|391:49|370:52|370:52|353:54|352:35|307:46,1,531.999985794068,6|0,0:0|0:0,0:0:0:0:
35,65,139477,22,0,B|65:66|65:66|67:70|67:70|69:66|69:66|108:68,1,62.9999980773926,2|0,0:0|0:0,0:0:0:0:
165,140,139649,2,0,B|135:139|135:139|133:135|133:135|131:139|131:139|92:137,1,62.9999980773926,10|0,0:0|0:0,0:0:0:0:
24,140,139821,6,0,B|25:178|25:178|30:181|30:181|25:183|25:183|27:234,1,77.0000023498536,2|0,0:0|0:0,0:0:0:0:
98,211,139994,2,0,B|100:238|100:238|95:240|95:240|100:243|100:243|102:282,1,77.0000023498536,2|0,0:0|0:0,0:0:0:0:
55,344,140166,1,2,0:0:0:0:
306,274,140339,22,0,B|251:281|251:281|250:275|250:275|251:281|251:281|212:285|212:285|159:291|167:362|221:356|221:356|296:346,2,245.000002336502,14|8|8,0:0|0:0|3:0,0:0:0:0:
457,235,140856,6,0,B|465:268|465:268|456:311,1,62.9999980773926,2|0,0:0|0:0,0:0:0:0:
385,283,141028,2,0,B|377:250|377:250|385:206,1,62.9999980773926,10|0,0:0|0:0,0:0:0:0:
436,90,141201,6,0,B|444:124|444:124|435:164,1,77.0000023498536,2|0,0:0|0:0,0:0:0:0:
360,151,141373,2,0,B|351:116|351:116|360:76,1,77.0000023498536,2|0,0:0|0:0,0:0:0:0:
410,15,141546,1,2,0:0:0:0:
257,121,141718,6,8,B|212:117|212:117|211:122|211:122|211:117|211:117|170:113|170:113|195:105|208:81,4,115.500001101494,14|8|8|8|8,0:0|0:0|0:0|0:0|0:0,0:0:0:0:
0,129,142235,22,0,B|2:107|2:107|1:102|1:102|4:67,1,62.9999980773926,2|0,0:0|0:0,0:0:0:0:
80,60,142408,2,0,B|77:95|77:95|78:100|78:100|76:123,1,62.9999980773926,10|0,0:0|0:0,0:0:0:0:
18,277,142580,6,0,B|22:245|22:245|21:239|21:239|25:201,1,77.0000023498536
101,194,142752,2,0,B|97:232|97:232|99:238|99:238|96:271,1,77.0000023498536,2|0,0:0|0:0,0:0:0:0:
64,341,142925,1,2,0:0:0:0:
173,233,143097,38,0,B|220:227|220:227|233:220|233:220|246:223|246:223|314:216,1,130.666662679037,8|2,0:0|0:0,0:0:0:0:
366,141,143327,1,2,0:0:0:0:
292,131,143442,6,0,B|264:128|264:128|250:133|250:133|237:126|237:126|210:123,1,83.9999974365235,10|0,0:0|0:0,0:0:0:0:
385,225,143614,1,2,0:0:0:0:
385,225,143701,1,8,0:0:0:0:
385,225,143787,2,0,B|406:223|406:223|417:217|417:217|429:221|429:221|452:219,1,70,10|0,3:0|0:0,0:0:0:0:
501,142,143959,2,0,B|483:140|483:140|474:143|474:143|466:138|466:138|449:137,1,52.5000020027161,10|0,0:0|0:0,0:0:0:0:
133,260,144132,6,0,B|202:252|202:252|213:323|329:304|319:235|319:235|395:224,1,315.000012016297,14|0,0:0|0:0,0:0:0:0:
104,204,144477,6,0,B|106:224|106:224|138:249|138:249|211:240|211:240|218:309|317:296|307:226|307:226|383:215|383:215|399:191|399:191|396:166,1,420,6|0,0:0|0:0,0:0:0:0:
319,80,144821,6,2,B|323:116|323:116|321:116|321:116|323:117|323:117|328:154,4,70.0000026702882
283,11,145166,2,0,B|223:18|223:18|212:37|212:37|187:40|187:40|188:43|188:43|187:40|187:40|148:44|148:44|148:47|148:47|148:44|148:44|117:47,1,189.000000720978,10|2,0:0|0:0,0:0:0:0:
119,47,145683,5,2,0:0:0:0:
115,61,145770,1,2,0:0:0:0:
94,68,145856,1,2,0:0:0:0:
73,42,145942,1,0,0:0:0:0:
102,1,146028,38,0,B|113:46|113:46|88:110,1,87.5,10|0,0:0|0:0,0:0:0:0:
7,167,146201,2,0,B|-7:128|-7:128|4:83,1,87.5,10|0,3:0|0:0,0:0:0:0:
118,173,146373,1,10,0:0:0:0:
118,173,146459,1,2,0:0:0:0:
118,173,146546,2,0,B|129:218|129:218|114:256,1,87.5,10|0,3:0|0:0,0:0:0:0:
10,250,146718,2,0,B|-4:211|-4:211|7:166,1,87.5,2|0,0:0|0:0,0:0:0:0:
218,112,146890,22,0,B|214:166|214:166|210:166|210:166|214:166|214:166|213:196|213:196|223:224|223:224|220:280|295:284|298:228|298:228|301:168|301:168|305:168|305:168|301:168|301:168|297:168|297:168|301:168|301:168|304:91,1,367.500003504753,6|0,0:0|0:0,0:0:0:0:
409,34,147235,6,0,B|407:99|407:99|411:100|411:100|407:99|407:99|406:129|406:129|392:156|392:156|389:212|315:208|317:152|317:152|321:92|321:92|317:92|317:92|321:92|321:92|325:92|325:92|321:92|321:92|323:23,1,398.999989345551,14|0,0:0|0:0,0:0:0:0:
218,112,147580,6,2,B|182:109|182:109|181:112|181:112|131:107,4,70.0000026702882
73,53,147925,2,0,B|68:91|68:91|64:90|64:90|68:91|68:91|64:124|64:124|82:152|82:152|78:196|78:196|52:222,1,189.000000720978,10|2,0:0|0:0,0:0:0:0:
65,229,148442,5,2,0:0:0:0:
65,229,148528,1,2,0:0:0:0:
65,229,148614,2,0,B|60:273|60:273|62:282|62:282|54:339,1,87.5,10|0,0:0|0:0,0:0:0:0:
164,187,148787,1,2,0:0:0:0:
164,187,148873,1,0,0:0:0:0:
164,187,148959,2,0,B|159:153|159:153|161:144|161:144|156:100,1,87.5,10|0,0:0|0:0,0:0:0:0:
220,334,149132,1,2,0:0:0:0:
220,334,149218,1,10,0:0:0:0:
220,334,149304,22,0,B|259:336|259:336|259:340|259:340|259:336|259:336|304:338|304:338|305:334|305:334|304:338|304:338|334:340|334:340|349:362|349:362|393:365|393:365|413:344|413:344|490:347,2,265.999992897034,14|8|8,3:0|3:0|3:0,3:0:0:0:
379,251,149821,2,0,B|346:249|346:249|336:243|336:243|313:243|313:243|314:237|314:237|313:243|313:243|245:242,1,115.500001101494,8|0,3:0|0:0,0:0:0:0:
192,73,149994,38,0,B|237:73|237:73|237:65|237:65|237:73|237:73|290:75|290:75|325:105|325:105|324:129|324:129|328:128|328:128|324:129|324:129|323:152|323:152|313:165|313:165|247:165|247:165|248:170|248:170|247:165|247:165|229:165|229:165|174:162|172:248|224:251|224:251|311:254,1,531.999985794068,6|0,0:0|0:0,0:0:0:0:
112,39,150511,21,2,0:0:0:0:
112,39,150597,1,2,0:0:0:0:
112,39,150683,2,0,B|109:75|109:75|112:79|112:79|109:114,1,70,10|0,0:0|0:0,0:0:0:0:
32,197,150856,1,2,0:0:0:0:
32,197,150942,1,2,0:0:0:0:
32,197,151028,2,0,B|29:161|29:161|32:157|32:157|29:122,1,70,2|0,0:0|0:0,0:0:0:0:
88,273,151201,1,2,0:0:0:0:
88,273,151287,1,2,0:0:0:0:
88,273,151373,38,0,B|124:274|124:274|126:269|126:269|124:274|124:274|165:277|165:277|192:304|192:304|237:306|237:306|237:302|237:302|237:306|237:306|262:308|262:308|262:312|262:312|262:308|262:308|289:309|289:309|289:305|289:305|289:309|289:309|350:311,2,265.999992897034,14|8|8,0:0|0:0|3:0,0:0:0:0:
235,209,151890,5,2,0:0:0:0:
235,209,151977,1,2,0:0:0:0:
235,209,152063,2,0,B|266:218|266:218|304:210,1,70,10|0,0:0|0:0,0:0:0:0:
307,74,152235,1,2,0:0:0:0:
307,74,152321,1,2,0:0:0:0:
307,74,152408,2,0,B|283:96|283:96|271:133,1,70,2|0,0:0|0:0,0:0:0:0:
379,261,152580,1,2,0:0:0:0:
379,261,152666,1,2,0:0:0:0:
379,261,152752,22,8,B|386:248|388:233|388:233|412:257|412:257|418:257|418:257|431:267|431:267|434:264|434:264|432:267|432:267|452:281,4,115.500001101494,14|8|8|8|8,0:0|0:0|0:0|0:0|0:0,0:0:0:0:
348,352,153270,37,2,0:0:0:0:
348,352,153356,1,2,0:0:0:0:
348,352,153442,2,0,B|312:349|312:349|312:346|312:346|312:349|312:349|247:344,1,70,10|0,0:0|0:0,0:0:0:0:
148,321,153615,1,2,0:0:0:0:
148,321,153701,1,2,0:0:0:0:
148,321,153787,2,0,B|175:318|175:318|175:321|175:321|175:318|175:318|211:315,1,70,2|0,0:0|0:0,0:0:0:0:
64,352,153959,1,2,0:0:0:0:
64,352,154046,1,2,0:0:0:0:
64,352,154132,38,0,B|55:290|55:290|69:276|69:276|64:234|64:234|68:234|68:234|64:234|64:234|57:179,1,163.333334891001,10|0,0:0|0:0,0:0:0:0:
64,17,154362,1,0,3:0:0:0:
5,98,154477,2,0,B|54:108|54:108|68:96|68:96|134:109,1,122.500001168251,8|0,0:0|0:0,0:0:0:0:
176,162,154649,2,0,B|225:152|225:152|239:164|239:164|305:151,1,122.500001168251,0|8,0:0|0:0,0:0:0:0:
346,99,154821,1,8,3:0:0:0:
159,234,154994,1,8,3:0:0:0:
442,62,155166,22,0,B|434:149|434:149|388:202|388:202|424:262|424:262|416:349,1,315.000012016297,6|0,0:0|0:0,0:0:0:0:
390,25,155511,6,0,B|432:69|432:69|425:144|425:144|378:200|378:200|415:264|415:264|408:339|408:339|359:375,1,420,6|8,0:0|3:0,0:0:0:0:
289,173,155856,6,2,B|293:141|293:141|284:94,2,51.3333348999024,10|2|2,0:0|0:0|0:0,0:0:0:0:
280,192,156028,2,2,B|276:224|276:224|285:271,2,51.3333348999024,10|2|2,0:0|0:0|0:0,0:0:0:0:
202,259,156201,5,0,0:0:0:0:
202,259,156287,1,8,0:0:0:0:
202,259,156373,2,0,B|160:256|160:256|157:261|157:261|88:256,1,87.5,10|0,3:0|0:0,0:0:0:0:
69,181,156546,2,0,B|111:178|111:178|114:183|114:183|183:178,1,87.5,10|0,3:0|0:0,0:0:0:0:
243,50,156718,5,8,0:0:0:0:
238,112,156804,1,10,0:0:0:0:
231,175,156890,2,2,B|273:178|273:178|276:173|276:173|345:178,1,87.5,8|0,3:0|0:0,0:0:0:0:
387,61,157063,5,2,0:0:0:0:
394,136,157149,1,10,0:0:0:0:
401,211,157235,1,10,3:0:0:0:
408,286,157321,1,2,0:0:0:0:
415,361,157408,2,0,B|373:364|373:364|370:359|370:359|301:364,1,87.5,10|0,3:0|0:0,0:0:0:0:
264,293,157580,5,2,0:0:0:0:
264,293,157666,1,10,0:0:0:0:
264,293,157752,2,0,B|222:290|222:290|219:295|219:295|150:290,1,87.5,10|0,3:0|0:0,0:0:0:0:
27,364,157925,22,0,B|22:317|22:317|25:313|25:313|21:259|21:259|16:205|91:198|95:251|95:251|98:287|98:287|101:287|101:287|98:287|98:287|102:328|102:328|106:327|106:327|102:328|102:328|106:383,1,346.500003304482,14|0,0:0|0:0,0:0:0:0:
3,237,158270,6,0,B|7:193|7:193|14:186|14:186|18:123|18:123|24:48|129:57|123:131|123:131|121:156|121:156|124:156|124:156|121:156|121:156|117:193|117:193|120:193|120:193|117:193|117:193|111:263,1,420,6|8,0:0|0:0,0:0:0:0:
213,169,158614,6,2,B|222:137|222:137|215:105,2,65.3333313395183,10|2|2,0:0|0:0|0:0,0:0:0:0:
216,185,158787,2,2,B|209:217|209:217|221:260,2,65.3333313395183,10|2|2,0:0|0:0|0:0,0:0:0:0:
423,224,158959,6,0,B|418:272|418:272|423:273|423:273|418:272|418:272|415:311|415:311|411:311|411:311|415:311|415:311|412:344|412:344|394:365|394:365|324:357,1,195.999994018555,10|0,3:0|0:0,0:0:0:0:
296,215,159218,2,0,B|298:181|298:181|308:174|308:174|339:177|339:177|346:186|346:186|343:223|343:223|347:223|347:223|343:223|343:223|340:258|340:258|336:265|336:265|333:307,1,195.999994018555,10|0,3:0|0:0,0:0:0:0:
255,360,159477,5,10,0:0:0:0:
180,365,159563,1,10,0:0:0:0:
105,371,159649,2,0,B|94:320|94:320|102:261,1,97.9999970092774,10|0,3:0|0:0,0:0:0:0:
155,177,159821,5,2,0:0:0:0:
230,182,159907,1,10,0:0:0:0:
305,188,159994,1,10,3:0:0:0:
380,193,160080,1,2,0:0:0:0:
455,199,160166,2,0,B|466:148|466:148|458:89,1,97.9999970092774,10|0,3:0|0:0,0:0:0:0:
381,22,160339,37,10,3:0:0:0:
305,62,160425,1,10,3:0:0:0:
222,78,160511,1,10,3:0:0:0:
136,71,160597,1,10,3:0:0:0:
57,41,160683,1,10,3:0:0:0:
305,188,160856,5,10,0:0:0:0:
327,255,160942,1,10,0:0:0:0:
311,324,161028,1,14,3:0:0:0:
40,147,166546,6,0,P|29:112|106:162,1,251.999992309571,2|2,0:0|0:0,0:0:0:0:
64,220,167925,2,0,B|98:244|143:243|176:209|176:209|193:253|253:271|300:248,1,251.999992309571,2|2,0:0|0:0,0:0:0:0:
254,175,169304,6,0,P|243:148|251:87,1,83.9999974365235,2|2,0:0|0:0,0:0:0:0:
319,129,169994,2,0,P|330:102|379:64,1,83.9999974365235,2|2,0:0|0:0,0:0:0:0:
508,166,170683,38,0,P|457:131|397:141,1,125.999996154785,2|0,0:0|0:0,0:0:0:0:
415,316,171373,2,0,P|450:265|440:205,1,125.999996154785,2|0,0:0|0:0,0:0:0:0:
340,348,172063,6,0,B|191:294|238:390|66:345,1,262.500010013581,2|0,0:0|0:0,0:0:0:0:
51,276,173097,2,0,P|64:237|44:156,1,115.50000352478,2|0,0:0|0:0,0:0:0:0:
41,147,173442,38,0,P|17:85|135:116,1,262.500010013581,2|0,0:0|0:0,0:0:0:0:
187,190,174477,2,0,P|232:170|314:187,1,115.50000352478,2|0,0:0|0:0,0:0:0:0:
314,184,174821,6,0,P|308:142|309:111,1,52.5000020027161,2|0,0:0|0:0,0:0:0:0:
383,215,175166,2,0,P|398:175|417:146,1,59.5000011348725,2|0,0:0|0:0,0:0:0:0:
431,275,175511,2,0,P|464:248|503:233,1,70,2|0,0:0|0:0,0:0:0:0:
434,352,175856,2,0,P|476:346|518:353,1,83.9999974365235,2|0,0:0|0:0,0:0:0:0:
344,367,176201,38,0,B|338:340|348:315|348:315|297:296|218:327|218:327|149:354|74:324,1,318.499985420228,2|0,0:0|0:0,0:0:0:0:
64,250,176890,2,0,P|113:184|146:257,1,192.500005874634,2|0,0:0|0:0,0:0:0:0:
229,244,177408,2,0,P|255:235|284:238,1,38.5000011749268,2|2,0:0|0:0,0:0:0:0:
343,231,177580,6,0,B|375:182|360:104|337:66|337:66|273:-32|161:57|263:166|337:68|337:68|354:57|407:41|445:57,1,538.999983551026,2|0,0:0|0:0,0:0:0:0:
436,135,179649,2,0,P|439:196|397:294,1,146.999995513916,2|0,0:0|0:0,0:0:0:0:
260,219,180339,38,0,B|207:237|181:281|181:281|112:368|239:441|298:296|181:281|181:281|142:274|87:275|49:296|2:341,1,538.999983551026,2|0,0:0|0:0,0:0:0:0:
0,244,182408,2,0,P|64:212|149:203,1,146.999995513916,2|0,0:0|0:0,0:0:0:0:
340,250,183097,6,0,B|361:275|355:342|355:342|298:301|287:244|287:244|246:287|182:294|182:294|201:231|254:200|254:200|198:168|174:112|174:112|240:118|287:152|287:152|293:95|344:50|344:50|360:124|340:168|340:168|394:163|452:195|452:195|407:241|327:221,1,1175.99996411133,2|4,0:0|0:0,0:0:0:0:
343,223,188614,38,0,L|237:236,1,77.0000023498536,6|0,0:0|0:0,0:0:0:0:
239,220,188873,2,0,L|133:233,1,77.0000023498536,2|0,0:0|0:0,0:0:0:0:
131,233,189132,1,2,0:0:0:0:
171,147,189304,1,0,0:0:0:0:
171,147,189390,1,2,0:0:0:0:
186,307,189563,1,0,0:0:0:0:
186,307,189649,2,0,P|183:344|170:383,1,77.0000023498536,2|2,0:0|0:0,0:0:0:0:
288,305,189994,6,0,P|275:268|272:230,1,77.0000023498536,10|0,0:0|0:0,0:0:0:0:
171,147,190339,2,0,P|167:185|155:221,1,77.0000023498536,8|0,0:0|0:0,0:0:0:0:
285,146,190683,2,0,P|272:109|269:71,1,77.0000023498536,8|0,0:0|0:0,0:0:0:0:
133,0,191028,37,10,0:0:0:0:
132,19,191114,1,2,0:0:0:0:
129,38,191201,1,10,0:0:0:0:
124,56,191286,1,2,0:0:0:0:
117,74,191373,6,0,L|18:82,1,80.5000015354157,10|0,0:0|0:0,0:0:0:0:
17,102,191632,2,0,L|73:183,1,80.5000015354157,2|0,0:0|0:0,0:0:0:0:
87,178,191890,1,2,0:0:0:0:
1,244,192063,1,0,0:0:0:0:
1,244,192149,1,2,0:0:0:0:
115,265,192321,1,0,0:0:0:0:
115,265,192408,1,2,0:0:0:0:
12,327,192580,1,2,0:0:0:0:
151,349,192752,38,0,P|191:352|229:365,1,80.5000015354157,10|0,0:0|0:0,0:0:0:0:
273,250,193097,2,0,P|234:262|194:266,1,80.5000015354157,8|0,0:0|0:0,0:0:0:0:
318,353,193442,2,0,P|358:356|396:369,1,80.5000015354157,8|0,0:0|0:0,0:0:0:0:
452,234,193787,5,10,0:0:0:0:
433,241,193873,1,2,0:0:0:0:
413,246,193959,1,10,0:0:0:0:
393,249,194045,1,2,0:0:0:0:
372,249,194132,38,0,L|378:150,1,83.9999974365235,10|0,0:0|0:0,0:0:0:0:
394,135,194390,2,0,L|310:140,1,83.9999974365235,2|0,0:0|0:0,0:0:0:0:
281,156,194649,1,2,0:0:0:0:
345,63,194821,1,0,0:0:0:0:
345,63,194908,1,2,0:0:0:0:
219,104,195080,1,0,0:0:0:0:
219,104,195166,2,0,P|177:94|119:101,1,83.9999974365235,2|2,0:0|0:0,0:0:0:0:
82,176,195511,5,10,0:0:0:0:
155,191,195683,1,0,0:0:0:0:
226,177,195856,1,10,0:0:0:0:
226,177,196028,1,0,0:0:0:0:
83,292,196201,37,10,0:0:0:0:
178,263,196373,1,2,0:0:0:0:
254,194,196546,1,10,0:0:0:0:
279,175,196632,1,10,0:0:0:0:
308,164,196718,1,10,0:0:0:0:
340,162,196804,1,10,0:0:0:0:
368,170,196890,6,0,L|358:56,1,87.5,10|0,0:0|0:0,0:0:0:0:
334,51,197149,2,0,L|421:43,1,87.5,8|0,0:0|0:0,0:0:0:0:
439,17,197408,1,10,0:0:0:0:
450,192,197580,1,8,0:0:0:0:
450,192,197666,1,2,0:0:0:0:
334,51,197839,1,0,0:0:0:0:
334,51,197925,1,10,0:0:0:0:
500,104,198097,1,10,0:0:0:0:
309,204,198270,38,0,B|266:193|266:193|187:212,1,94.5000003604889,10|0,0:0|0:0,0:0:0:0:
182,271,198528,2,0,B|193:228|193:228|174:149,1,94.5000003604889,10|0,0:0|0:0,0:0:0:0:
230,121,198787,2,0,L|238:54,1,47.2500001802444,10|0,0:0|0:0,0:0:0:0:
109,226,198959,5,2,0:0:0:0:
109,226,199046,1,10,0:0:0:0:
109,226,199132,2,0,L|52:232,1,52.5000020027161,10|0,0:0|0:0,0:0:0:0:
271,195,199304,2,0,L|327:201,1,52.5000020027161,8|0,0:0|0:0,0:0:0:0:
90,141,199477,1,10,3:0:0:0:
90,141,199563,1,10,3:0:0:0:
90,141,199649,37,12,0:0:0:0:
77,182,199735,1,0,0:0:0:0:
82,226,199821,1,0,0:0:0:0:
107,262,199908,1,2,0:0:0:0:
145,284,199994,1,8,0:0:0:0:
189,287,200080,1,0,0:0:0:0:
230,271,200166,1,2,0:0:0:0:
259,238,200252,1,0,0:0:0:0:
271,195,200339,5,8,0:0:0:0:
282,152,200425,1,2,0:0:0:0:
312,119,200511,1,0,0:0:0:0:
353,102,200597,1,0,0:0:0:0:
396,105,200683,1,10,0:0:0:0:
434,127,200770,1,0,0:0:0:0:
459,164,200856,1,2,0:0:0:0:
465,207,200942,1,0,0:0:0:0:
452,249,201028,38,0,L|400:251,1,45.4999979171754,10|0,0:0|0:0,0:0:0:0:
346,297,201201,2,0,L|294:299,1,45.4999979171754
256,233,201373,2,0,L|204:235,1,45.4999979171754,10|0,0:0|0:0,0:0:0:0:
150,281,201546,2,0,L|98:283,1,45.4999979171754
34,364,201718,6,0,L|36:313,1,45.4999979171754,10|0,0:0|0:0,0:0:0:0:
82,258,201890,2,0,L|83:206,1,45.4999979171754
17,168,202063,2,0,L|19:117,1,45.4999979171754,10|0,0:0|0:0,0:0:0:0:
65,62,202235,1,2,0:0:0:0:
65,62,202321,1,2,0:0:0:0:
65,62,202408,37,14,0:0:0:0:
104,36,202494,1,0,0:0:0:0:
152,33,202580,1,0,0:0:0:0:
195,52,202666,1,2,0:0:0:0:
224,89,202752,1,8,0:0:0:0:
263,115,202838,1,0,0:0:0:0:
311,118,202925,1,2,0:0:0:0:
354,98,203010,1,0,0:0:0:0:
383,61,203097,5,8,0:0:0:0:
408,100,203183,1,2,0:0:0:0:
411,148,203269,1,0,0:0:0:0:
392,191,203355,1,0,0:0:0:0:
355,220,203442,1,10,0:0:0:0:
329,259,203528,1,0,0:0:0:0:
326,307,203614,1,2,0:0:0:0:
346,350,203700,1,0,0:0:0:0:
383,379,203787,38,0,L|305:372,1,56,10|0,0:0|0:0,0:0:0:0:
260,330,203959,2,0,L|204:335,1,56
142,375,204132,2,0,L|64:368,1,56,8|0,0:0|0:0,0:0:0:0:
55,301,204304,2,0,L|0:306,1,56
21,227,204477,2,0,L|15:171,1,56,8|0,0:0|0:0,0:0:0:0:
75,118,204649,2,0,L|80:62,1,56
188,123,204821,5,10,0:0:0:0:
213,102,204907,1,2,0:0:0:0:
243,90,204993,1,2,0:0:0:0:
275,88,205079,1,2,0:0:0:0:
300,91,205166,37,14,0:0:0:0:
273,119,205252,1,0,0:0:0:0:
259,156,205339,1,8,0:0:0:0:
259,195,205424,1,2,0:0:0:0:
274,231,205511,1,10,0:0:0:0:
289,267,205597,1,0,0:0:0:0:
289,306,205683,1,10,0:0:0:0:
275,343,205769,1,2,0:0:0:0:
248,371,205856,5,8,0:0:0:0:
221,342,205942,1,2,0:0:0:0:
186,325,206028,1,10,0:0:0:0:
147,322,206114,1,0,0:0:0:0:
110,334,206201,1,10,0:0:0:0:
81,307,206287,1,0,0:0:0:0:
64,272,206373,1,10,0:0:0:0:
61,233,206459,1,2,0:0:0:0:
73,196,206546,37,14,0:0:0:0:
105,222,206632,1,0,0:0:0:0:
144,237,206718,1,10,0:0:0:0:
186,239,206804,1,2,0:0:0:0:
226,228,206890,1,8,0:0:0:0:
266,217,206976,1,2,0:0:0:0:
308,219,207063,1,10,0:0:0:0:
347,234,207149,1,0,0:0:0:0:
379,261,207235,5,10,0:0:0:0:
368,221,207321,1,2,0:0:0:0:
370,179,207408,1,8,0:0:0:0:
385,140,207493,1,0,0:0:0:0:
407,107,207580,37,10,0:0:0:0:
362,85,207666,1,0,0:0:0:0:
313,74,207752,1,10,0:0:0:0:
263,75,207838,1,2,0:0:0:0:
213,85,207925,5,14,0:0:0:0:
249,36,208011,1,10,0:0:0:0:
303,7,208097,1,10,0:0:0:0:
363,2,208183,1,8,0:0:0:0:
421,22,208270,37,8,0:0:0:0:
384,70,208356,1,10,0:0:0:0:
330,99,208442,1,10,0:0:0:0:
270,104,208528,1,8,0:0:0:0:
213,85,208614,5,10,0:0:0:0:
155,65,208700,1,10,0:0:0:0:
95,70,208787,1,8,0:0:0:0:
41,99,208872,1,8,0:0:0:0:
4,147,208959,5,10,3:0:0:0:
81,155,209045,1,8,3:0:0:0:
140,205,209131,1,10,3:0:0:0:
161,280,209217,1,10,3:0:0:0:
137,354,209304,1,14,3:0:0:0:
277,270,209477,22,0,B|335:254|325:290|395:273,1,112,2|0,0:0|0:0,0:0:0:0:
286,192,210339,5,10,3:0:0:0:
280,179,210425,1,10,3:0:0:0:
278,165,210511,1,10,3:0:0:0:
281,151,210597,1,10,3:0:0:0:
287,136,210683,6,0,B|169:91|225:223|45:157,1,195.999994018555,14|0,0:0|0:0,0:0:0:0:
162,0,210942,2,0,B|182:124|268:10|301:199,1,195.999994018555,10|0,3:0|0:0,0:0:0:0:
104,175,211201,2,0,B|201:95|59:77|206:-45,1,195.999994018555,10|10,0:0|0:0,0:0:0:0:
287,136,211459,2,0,B|169:91|225:223|45:157,1,195.999994018555,10|0,3:0|0:0,0:0:0:0:
64,311,211718,38,2,P|59:341|69:379,2,46.6666666666667,10|2|2,0:0|0:0|0:0,0:0:0:0:
71,298,211890,2,2,P|76:268|66:230,2,46.6666666666667
145,312,212063,21,10,3:0:0:0:
186,280,212149,1,0,0:0:0:0:
237,270,212235,1,10,1:0:0:0:
287,284,212321,1,0,0:0:0:0:
325,319,212408,1,10,3:0:0:0:
366,351,212494,1,0,0:0:0:0:
417,361,212580,1,10,1:0:0:0:
467,347,212666,1,0,0:0:0:0:
505,312,212752,5,10,0:0:0:0:
470,274,212838,1,0,0:0:0:0:
456,224,212925,1,10,1:0:0:0:
466,173,213010,1,0,0:0:0:0:
498,132,213097,5,10,3:0:0:0:
500,114,213183,1,0,0:0:0:0:
501,97,213270,1,10,0:0:0:0:
500,79,213356,1,10,0:0:0:0:
499,65,213442,6,0,B|452:63|402:39|381:0|381:0|348:17|286:-6,1,195.999994018555,14|0,0:0|0:0,0:0:0:0:
361,182,213701,2,0,B|384:141|430:111|475:111|475:111|476:74|528:33,1,195.999994018555,10|0,3:0|0:0,0:0:0:0:
327,3,213959,2,0,B|349:43|352:97|329:136|329:136|361:156|370:221,1,195.999994018555,10|0,0:0|0:0,0:0:0:0:
499,65,214218,6,0,B|452:63|402:39|381:0|381:0|348:17|286:-6,1,195.999994018555,10|0,3:0|0:0,0:0:0:0:
104,18,214477,38,0,P|90:53|115:149,1,97.9999970092774,10|0,0:0|0:0,0:0:0:0:
199,180,214649,2,0,P|215:134|210:85,1,97.9999970092774,10|0,0:0|0:0,0:0:0:0:
88,308,214821,5,10,3:0:0:0:
122,346,214907,1,0,0:0:0:0:
170,367,214994,1,10,1:0:0:0:
222,364,215079,1,0,0:0:0:0:
268,340,215166,1,10,3:0:0:0:
234,301,215252,1,0,0:0:0:0:
186,281,215339,1,10,1:0:0:0:
134,283,215424,1,0,0:0:0:0:
88,308,215511,5,10,2:0:0:0:
68,278,215597,1,0,0:0:0:0:
60,245,215683,1,10,1:0:0:0:
62,210,215769,1,0,0:0:0:0:
76,178,215856,37,10,3:0:0:0:
125,133,215942,1,2,0:0:0:0:
111,68,216028,1,10,0:0:0:0:
47,50,216114,1,10,0:0:0:0:
0,97,216201,38,0,B|110:54|68:144|234:74,1,195.999994018555,14|0,0:0|0:0,0:0:0:0:
100,258,216459,2,0,B|7:184|106:175|-37:66,1,195.999994018555,10|0,3:0|0:0,0:0:0:0:
190,90,216718,2,0,B|172:206|115:125|92:304,1,195.999994018555,10|0,0:0|0:0,0:0:0:0:
0,97,216977,2,0,B|110:53|68:143|234:73,1,195.999994018555,10|0,3:0|0:0,0:0:0:0:
338,165,217235,38,2,P|357:155|412:154,2,65.3333313395183,10|2|2,0:0|0:0|0:0,0:0:0:0:
327,176,217408,2,2,P|294:175|264:162,2,65.3333313395183
343,251,217580,21,10,3:0:0:0:
301,222,217666,1,0,0:0:0:0:
253,218,217752,1,10,1:0:0:0:
210,239,217838,1,0,0:0:0:0:
184,280,217925,1,10,3:0:0:0:
175,230,218011,1,0,0:0:0:0:
143,193,218097,1,10,1:0:0:0:
97,178,218183,1,0,0:0:0:0:
50,188,218270,5,10,0:0:0:0:
54,163,218356,1,0,0:0:0:0:
56,138,218442,1,10,1:0:0:0:
52,112,218528,1,0,0:0:0:0:
45,90,218614,37,10,3:0:0:0:
111,60,218700,1,2,0:0:0:0:
184,47,218786,1,10,0:0:0:0:
257,52,218872,1,10,0:0:0:0:
326,74,218959,38,0,B|284:160|337:231|337:231|375:233|414:225,1,195.999994018555,14|0,0:0|0:0,0:0:0:0:
482,117,219218,2,0,B|428:37|340:48|340:48|319:79|307:117,1,195.999994018555,10|0,3:0|0:0,0:0:0:0:
366,231,219477,2,0,B|461:224|496:142|496:142|479:109|452:79,1,195.999994018555,10|0,0:0|0:0,0:0:0:0:
326,74,219735,2,0,B|284:160|337:231|337:231|375:233|414:225,1,195.999994018555,10|0,3:0|0:0,0:0:0:0:
482,117,219994,6,0,B|428:37|340:48|340:48|319:79|307:117,1,195.999994018555,10|0,0:0|0:0,0:0:0:0:
366,231,220166,2,0,B|461:224|496:142|496:142|479:109|452:79,1,195.999994018555,10|0,0:0|0:0,0:0:0:0:
251,52,220339,38,0,B|129:38|129:38|-37:115,1,245.000002336502,14|0,0:0|0:0,0:0:0:0:
288,284,220597,2,0,B|301:162|301:162|250:51,1,245.000002336502,14|0,3:0|0:0,0:0:0:0:
55,321,220856,2,0,B|176:334|176:334|287:283,1,245.000002336502,14|0,0:0|0:0,0:0:0:0:
18,89,221114,2,0,B|4:210|4:210|55:321,1,245.000002336502,14|0,3:0|0:0,0:0:0:0:
251,52,221373,5,14,0:0:0:0:
129,38,221459,1,8,0:0:0:0:
18,89,221545,1,8,0:0:0:0:
256,286,221718,5,8,3:0:0:0:
256,212,221890,1,8,3:0:0:0:
256,203,221977,1,8,3:0:0:0:
256,192,222063,22,0,P|328:154|392:181,1,119.000002269745,14|0,0:0|0:0,0:0:0:0:
292,361,222235,2,0,P|233:363|186:329,1,119.000002269745,10|0,0:0|0:0,0:0:0:0:
123,148,222408,1,8,3:0:0:0:
190,123,222494,2,0,P|286:179|255:285,1,238.00000453949,2|0,3:0|0:0,0:0:0:0:
83,231,222752,38,2,P|55:217|13:219,2,70.0000026702882,10|2|2,0:0|0:0|0:0,0:0:0:0:
103,221,222925,2,2,P|137:222|169:207,2,70.0000026702882,10|2|2,0:0|0:0|0:0,0:0:0:0:
74,130,223097,21,10,3:0:0:0:
123,148,223183,1,0,0:0:0:0:
179,136,223270,1,10,1:0:0:0:
219,97,223355,1,0,0:0:0:0:
232,43,223442,1,10,3:0:0:0:
245,97,223528,1,0,0:0:0:0:
286,136,223614,1,10,1:0:0:0:
341,148,223700,1,0,0:0:0:0:
392,130,223787,5,10,0:0:0:0:
372,151,223873,1,0,0:0:0:0:
359,175,223959,1,10,1:0:0:0:
351,203,224046,1,0,0:0:0:0:
349,231,224132,37,10,3:0:0:0:
371,282,224218,1,2,0:0:0:0:
349,334,224304,1,10,0:0:0:0:
299,356,224390,1,10,0:0:0:0:
246,344,224477,38,0,B|213:372|213:372|172:379|89:372|41:312,1,210.000008010865,14|0,0:0|0:0,0:0:0:0:
164,173,224735,2,0,B|204:187|204:187|231:219|266:294|238:366,1,210.000008010865,10|0,3:0|0:0,0:0:0:0:
57,329,224994,2,0,B|49:286|49:286|63:247|111:179|187:167,1,210.000008010865,10|0,0:0|0:0,0:0:0:0:
246,344,225252,6,0,B|213:372|213:372|172:379|89:372|41:312,1,210.000008010865,10|0,3:0|0:0,0:0:0:0:
83,92,225511,22,2,P|89:62|82:19,2,70.0000026702882,10|2|2,0:0|0:0|0:0,0:0:0:0:
94,105,225683,2,2,P|88:139|94:173,2,70.0000026702882
170,82,225856,21,10,3:0:0:0:
218,106,225942,1,0,0:0:0:0:
270,113,226028,1,10,1:0:0:0:
320,101,226114,1,0,0:0:0:0:
365,73,226201,1,10,3:0:0:0:
316,48,226288,1,0,0:0:0:0:
264,41,226373,1,10,1:0:0:0:
214,53,226460,1,0,0:0:0:0:
170,82,226546,21,10,0:0:0:0:
195,130,226633,1,0,0:0:0:0:
202,182,226718,1,10,1:0:0:0:
190,232,226805,1,0,0:0:0:0:
162,277,226890,21,10,3:0:0:0:
231,243,226976,1,2,0:0:0:0:
309,235,227062,1,10,0:0:0:0:
386,248,227149,1,10,0:0:0:0:
457,282,227235,38,0,B|440:158|520:213|482:52,1,210.000008010865,14|0,0:0|0:0,0:0:0:0:
297,154,227494,2,0,B|412:201|325:243|483:290,1,210.000008010865,10|0,3:0|0:0,0:0:0:0:
487,80,227752,2,0,B|388:156|395:59|275:173,1,210.000008010865,10|0,0:0|0:0,0:0:0:0:
457,282,228011,2,0,B|440:158|520:213|482:52,1,210.000008010865,10|0,3:0|0:0,0:0:0:0:
297,154,228270,22,0,B|412:201|325:243|484:291,1,210.000008010865,14|8,0:0|3:0,0:0:0:0:
90,71,228959,5,8,3:0:0:0:
104,200,229132,1,8,0:0:0:0:
175,62,229304,1,8,3:0:0:0:
123,210,229477,2,0,P|118:244|123:267,2,35,8|0|8,0:0|0:0|3:0,0:0:0:0:
350,74,229821,5,8,3:0:0:0:
262,68,229907,1,8,3:0:0:0:
175,62,229994,6,0,B|55:117|151:179|-5:245,1,262.5,14|2,0:0|0:0,0:0:0:0:
355,254,230511,2,0,B|367:122|265:174|286:6,1,262.5,14|2,0:0|0:0,0:0:0:0:
99,314,231028,22,0,B|206:390|212:276|354:380,1,264.599991925049,8|0,3:0|0:0,0:0:0:0:
249,173,232235,38,0,P|252:142|248:108,1,52.5000020027161,8|0,3:0|3:0,3:0:0:0:
219,49,232408,2,0,B|301:33|273:78|390:43,1,157.500006008148,8|0,3:0|3:0,3:0:0:0:
384,42,232752,22,0,P|369:114|390:181,1,105.000004005432,14|0,3:0|0:0,0:0:0:0:
442,268,232925,1,10,0:0:0:0:
364,247,233011,1,2,0:0:0:0:
288,226,233097,1,10,3:0:0:0:
366,41,233270,6,0,P|363:114|396:176,1,105.000004005432,10|0,0:0|0:0,0:0:0:0:
442,268,233442,1,10,3:0:0:0:
362,261,233528,1,2,0:0:0:0:
283,253,233614,1,10,0:0:0:0:
348,43,233787,38,0,P|358:115|401:171,1,105.000004005432,10|0,3:0|0:0,0:0:0:0:
442,268,233959,2,0,B|333:258|369:349|198:326,1,210.000008010865,10|8,0:0|3:0,0:0:0:0:
100,223,234218,1,2,0:0:0:0:
100,223,234304,6,0,P|90:174|117:125,1,83.9999974365235,10|0,0:0|0:0,0:0:0:0:
178,183,234477,2,0,P|188:232|161:281,1,83.9999974365235,10|0,3:0|0:0,0:0:0:0:
15,236,234649,1,10,0:0:0:0:
6,174,234735,1,10,0:0:0:0:
19,115,234821,38,0,P|88:89|215:115,1,167.999994873047,10|0,3:0|0:0,0:0:0:0:
311,276,235080,2,0,P|240:284|173:261,1,140,10|0,3:0|0:0,0:0:0:0:
322,126,235339,6,0,P|375:108|430:115,1,112,10|0,3:0|0:0,0:0:0:0:
472,249,235511,6,0,L|457:361,1,94.5000003604889,14|0,3:0|0:0,0:0:0:0:
367,371,235683,1,10,0:0:0:0:
299,375,235769,1,2,0:0:0:0:
231,379,235855,1,10,3:0:0:0:
455,246,236028,6,0,L|459:358,1,94.5000003604889,10|0,0:0|0:0,0:0:0:0:
367,371,236201,1,10,3:0:0:0:
299,363,236287,1,2,0:0:0:0:
231,355,236373,1,10,0:0:0:0:
438,248,236546,38,0,L|462:358,1,94.5000003604889,10|0,3:0|0:0,0:0:0:0:
367,371,236718,2,0,L|169:310,1,189.000000720978,10|10,0:0|3:0,0:0:0:0:
21,142,237063,6,0,P|14:240|66:333,1,189.000000720978,10|8,0:0|3:0,0:0:0:0:
201,217,237408,1,10,0:0:0:0:
152,203,237494,1,10,0:0:0:0:
99,200,237580,38,0,P|149:284|245:330,1,189.000000720978,10|0,3:0|0:0,0:0:0:0:
401,210,237839,2,0,P|301:240|200:216,1,210.000008010865,10|0,3:0|0:0,0:0:0:0:
222,104,238097,38,0,P|296:81|372:99,1,157.500006008148,10|0,3:0|0:0,0:0:0:0:
101,160,238270,38,8,P|50:173|-1:166,1,105.000004005432,14|0,3:0|0:0,0:0:0:0:
222,104,238442,1,10,0:0:0:0:
216,183,238528,1,2,0:0:0:0:
210,261,238614,1,10,3:0:0:0:
101,178,238787,6,0,P|48:182|0:166,1,105.000004005432,10|0,0:0|0:0,0:0:0:0:
222,104,238959,1,10,3:0:0:0:
229,183,239045,1,2,0:0:0:0:
237,262,239131,1,10,0:0:0:0:
97,195,239304,38,0,P|45:190|-1:166,1,105.000004005432,10|0,3:0|0:0,0:0:0:0:
222,104,239477,2,0,B|241:217|319:151|315:327,1,210.000008010865,10|8,0:0|3:0,0:0:0:0:
154,56,239735,1,2,0:0:0:0:
154,56,239821,6,0,P|205:23|260:24,1,83.9999974365235,10|0,0:0|0:0,0:0:0:0:
377,141,239994,2,0,P|336:130|304:104,1,83.9999974365235,10|0,3:0|0:0,0:0:0:0:
431,61,240166,1,10,0:0:0:0:
468,105,240252,1,10,0:0:0:0:
475,163,240339,38,0,P|450:266|462:357,1,167.999994873047,10|0,3:0|0:0,0:0:0:0:
273,235,240597,2,0,P|275:151|255:78,1,140,10|0,3:0|0:0,0:0:0:0:
395,31,240856,6,0,P|376:118|379:162,1,112,10|0,3:0|0:0,0:0:0:0:
194,290,241028,38,0,L|44:308,1,112,14|0,3:0|0:0,0:0:0:0:
309,194,241201,1,10,0:0:0:0:
305,272,241287,1,2,0:0:0:0:
302,350,241373,1,10,3:0:0:0:
193,308,241546,6,0,L|82:302,1,112,10|0,0:0|0:0,0:0:0:0:
309,194,241718,1,10,3:0:0:0:
318,271,241804,1,2,0:0:0:0:
329,348,241890,1,10,0:0:0:0:
190,327,242063,38,0,L|81:301,1,112,10|0,3:0|0:0,0:0:0:0:
309,194,242235,2,0,L|378:422,1,195.999994018555,10|0,0:0|0:0,0:0:0:0:
84,184,242580,5,10,0:0:0:0:
76,110,242666,1,8,0:0:0:0:
95,40,242752,2,0,P|141:37|208:48,1,112,8|0,0:0|0:0,0:0:0:0:
257,103,242925,5,8,3:0:0:0:
257,187,243097,5,8,3:0:0:0:
257,196,243183,1,8,3:0:0:0:
257,206,243269,1,8,3:0:0:0:
257,281,243442,37,8,3:0:0:0:
257,290,243528,1,8,3:0:0:0:
257,300,243614,1,8,3:0:0:0:
257,309,243700,1,8,3:0:0:0:
257,319,243787,22,0,P|298:339|374:357,1,115.500001101494,14|0,3:0|0:0,0:0:0:0:
468,315,243959,1,10,0:0:0:0:
478,237,244045,1,2,0:0:0:0:
492,162,244132,1,10,3:0:0:0:
252,338,244304,6,0,P|296:351|374:355,1,115.500001101494,10|0,0:0|0:0,0:0:0:0:
468,315,244477,1,10,3:0:0:0:
464,237,244563,1,2,0:0:0:0:
465,160,244649,1,10,0:0:0:0:
250,357,244821,38,0,P|296:362|373:353,1,115.500001101494,10|0,3:0|0:0,0:0:0:0:
468,315,244994,2,0,B|415:191|502:230|419:29,1,231.000002202988,10|8,0:0|3:0,0:0:0:0:
280,75,245252,1,2,0:0:0:0:
280,75,245339,6,0,P|271:133|298:175,1,87.5,10|0,0:0|0:0,0:0:0:0:
360,196,245511,2,0,P|368:137|341:95,1,87.5,10|0,3:0|0:0,0:0:0:0:
200,43,245683,1,10,0:0:0:0:
149,40,245769,1,10,0:0:0:0:
99,50,245856,38,0,P|73:142|97:296,1,175,10|0,3:0|0:0,0:0:0:0:
255,263,246114,2,0,P|251:189|227:120,1,146.999995513916,10|0,3:0|0:0,0:0:0:0:
122,284,246373,6,0,P|140:338|174:385,1,108.500000827789,10|0,3:0|0:0,0:0:0:0:
349,253,246546,6,0,L|229:265,1,94.5000003604889,14|0,3:0|0:0,0:0:0:0:
86,155,246718,1,10,0:0:0:0:
148,161,246804,1,2,0:0:0:0:
210,167,246890,1,10,3:0:0:0:
349,269,247063,6,0,L|228:259,1,94.5000003604889,10|0,0:0|0:0,0:0:0:0:
86,177,247235,1,10,3:0:0:0:
148,172,247321,1,2,0:0:0:0:
210,167,247408,1,10,0:0:0:0:
346,285,247580,38,0,L|229:255,1,94.5000003604889,10|0,3:0|0:0,0:0:0:0:
88,198,247752,2,0,L|305:144,1,189.000000720978,10|10,0:0|3:0,0:0:0:0:
452,237,248097,2,0,P|421:170|450:42,1,189.000000720978,10|8,0:0|3:0,0:0:0:0:
315,80,248442,5,10,0:0:0:0:
270,76,248528,1,10,0:0:0:0:
225,72,248614,2,0,L|117:63,1,94.5000003604889,10|0,3:0|0:0,0:0:0:0:
27,119,248787,5,10,3:0:0:0:
96,90,248873,1,10,3:0:0:0:
170,101,248959,1,10,3:0:0:0:
228,147,249046,1,10,3:0:0:0:
256,216,249131,1,10,3:0:0:0:
245,290,249218,1,10,3:0:0:0:
210,354,249304,6,0,B|93:318|162:400|-7:348,1,167.999994873047,6|8,3:0|0:0,0:0:0:0:
218,343,249821,2,0,B|109:288|162:380|4:299,1,167.999994873047,10|8,3:0|0:0,0:0:0:0:
230,331,250339,38,0,B|132:258|169:358|30:251,1,167.999994873047,10|0,0:0|0:0,0:0:0:0:
40,215,250511,2,0,P|42:132|94:242,1,315.000012016297,10|0,3:0|0:0,0:0:0:0:
40,215,250856,6,0,B|182:176|152:275|357:196,1,251.999992309571,10|0,0:0|0:0,0:0:0:0:
367,133,251201,1,10,0:0:0:0:
334,103,251287,1,10,0:0:0:0:
318,63,251373,38,0,B|279:55|279:55|197:75|148:133,1,167.999994873047,10|0,3:0|0:0,0:0:0:0:
287,218,251632,2,0,B|312:188|312:188|336:106|309:35,1,167.999994873047,10|0,3:0|0:0,0:0:0:0:
166,114,251890,6,0,B|177:150|177:150|236:212|311:224,1,167.999994873047,10|0,3:0|0:0,0:0:0:0:
452,170,252063,38,0,L|414:322,1,140,14|0,3:0|0:0,0:0:0:0:
219,383,252235,1,10,3:0:0:0:
147,351,252321,1,2,0:0:0:0:
74,319,252408,1,10,3:0:0:0:
452,169,252580,6,0,L|441:326,1,140,14|0,3:0|0:0,0:0:0:0:
228,358,252752,1,10,3:0:0:0:
151,337,252838,1,2,0:0:0:0:
74,319,252925,1,10,3:0:0:0:
451,169,253097,38,0,L|468:325,1,140,14|0,3:0|0:0,0:0:0:0:
234,331,253270,1,10,3:0:0:0:
154,323,253356,1,2,0:0:0:0:
74,319,253442,5,14,3:0:0:0:
84,269,253528,1,10,3:0:0:0:
86,216,253614,1,10,3:0:0:0:
82,164,253700,1,10,3:0:0:0:
72,113,253786,1,14,3:0:0:0:
55,63,253873,1,10,3:0:0:0:
32,16,253959,2,0,P|115:59|215:58,1,140,10|10,3:0|3:0,3:0:0:0:
385,131,254132,37,14,0:0:0:0:
332,71,254218,1,10,0:0:0:0:
260,104,254304,1,10,0:0:0:0:
268,183,254391,1,10,0:0:0:0:
346,199,254477,6,0,L|494:220,1,87.5,14|0,0:0|0:0,0:0:0:0:
402,288,254649,2,0,L|315:275,1,87.5,10|0,0:0|0:0,0:0:0:0:
201,237,254821,6,0,B|164:128|241:141|191:16,2,210,6|2|2,0:0|0:0|0:0,0:0:0:0:
184,354,256201,6,0,P|141:337|36:352,1,140,2|0,0:0|0:0,0:0:0:0:
37,270,256718,1,2,0:0:0:0:
37,270,256890,2,0,P|42:221|33:174,1,70,2|0,0:0|0:0,0:0:0:0:
46,129,257235,2,0,P|43:113|48:92,3,23.3333333333333,2|0|0|0,0:0|0:0|0:0|0:0,0:0:0:0:
95,47,257580,38,0,P|166:23|297:53,2,210,2|2|2,0:0|0:0|0:0,0:0:0:0:
220,142,258959,6,0,P|231:188|215:288,1,140,2|0,0:0|0:0,0:0:0:0:
318,315,259477,2,0,P|307:269|323:169,1,140,2|0,0:0|0:0,0:0:0:0:
388,138,259994,2,0,L|469:143,1,70,2|0,0:0|0:0,0:0:0:0:
411,248,260339,38,0,P|339:217|245:237,1,167.999994873047,2|0,0:0|0:0,0:0:0:0:
204,295,260856,2,0,P|132:326|38:306,1,167.999994873047,2|0,0:0|0:0,0:0:0:0:
2,234,261373,1,2,0:0:0:0:
2,234,261718,6,0,P|19:183|0:103,1,125.999996154785,2|0,0:0|0:0,0:0:0:0:
55,53,262235,2,0,L|211:57,1,125.999996154785,2|0,0:0|0:0,0:0:0:0:
261,84,262752,2,0,L|283:82,3,20.9999993591309,2|0|0|0,0:0|0:0|0:0|0:0,0:0:0:0:
140,184,263097,38,0,B|172:168|178:142|178:142|195:169|247:199|297:180,1,167.999994873047,2|0,0:0|0:0,0:0:0:0:
304,119,263614,2,0,B|336:135|344:160|344:160|359:134|411:104|461:123,1,167.999994873047,2|0,0:0|0:0,0:0:0:0:
421,207,264132,38,0,P|396:278|415:368,1,157.500006008148,2|0,0:0|0:0,0:0:0:0:
409,357,264477,22,0,P|324:316|132:313,1,272.999987503052,2|0,0:0|0:0,0:0:0:0:
127,316,265080,1,2,0:0:0:0:
127,316,265166,2,0,P|61:335|20:325,1,90.9999958343508,2|0,0:0|0:0,0:0:0:0:
71,251,265511,2,0,P|34:242|18:226,2,45.4999979171754,2|0|0,0:0|0:0|0:0,0:0:0:0:
142,212,265856,38,0,P|183:181|287:191,2,157.500006008148,2|0|2,0:0|0:0|0:0,0:0:0:0:
346,120,267752,5,0,0:0:0:0:
346,120,267925,2,0,L|413:112,1,52.5000020027161,2|0,0:0|0:0,0:0:0:0:
370,194,268270,2,0,L|397:191,3,17.500000667572,2|0|0|0,0:0|0:0|0:0|0:0,0:0:0:0:
314,250,268614,38,0,P|304:314|370:377,2,157.500006008148,2|0|2,0:0|0:0|0:0,0:0:0:0:
173,343,270856,5,2,0:0:0:0:
100,328,271028,1,2,0:0:0:0:
29,351,271201,2,0,L|4:356,2,17.500000667572,2|0|0,0:0|0:0|0:0,0:0:0:0:
3,339,271373,38,0,P|-8:266|17:179,2,157.500006008148,2|0|2,0:0|0:0|0:0,0:0:0:0:
127,150,273270,5,2,0:0:0:0:
82,95,273442,1,2,0:0:0:0:
151,80,273614,2,2,L|186:85,3,26.2500010013581
198,80,273959,2,2,L|227:76,2,17.500000667572
235,97,274132,37,2,0:0:0:0:
107,252,274649,5,2,0:0:0:0:
306,286,275166,37,6,0:0:0:0:
