osu file format v14

[General]
AudioFilename: audio.mp3
AudioLeadIn: 0
PreviewTime: 199606
Countdown: 0
SampleSet: Normal
StackLeniency: 0.7
Mode: 3
LetterboxInBreaks: 0
SpecialStyle: 0
WidescreenStoryboard: 0

[Editor]
Bookmarks: 40346,52198,64050,75902,87754,99606,111458,123309,135161,147013,152939,164791,176643,188495,200346,218124,224050,229976,235902,241458
DistanceSpacing: 1.4
BeatDivisor: 4
GridSize: 32
TimelineZoom: 2.699999

[Metadata]
Title:Proluvies ("abyssum oblivionis" Long ver.)
TitleUnicode:Proluvies ("abyssum oblivionis" Long ver.)
Artist:Camellia
ArtistUnicode:かめりあ
Creator:-mint-
Version:chasm
Source:REFLEC BEAT groovin'!!
Tags:qqqant extended FA Featured Artist Xroniàl Xéro Xronial Xero 株式会社ポニーキャニオン Pony Canyon エグジットチューンズ株式会社 EXIT TUNES INC. EDP EXITTUNES Dance Production Cametek 大箭将也 Masaya Oya PCCA-04883 ビーマニ BEMANI コナミ KONAMI MYSTICAL STRIKE Video Rhythm Game Dubstep Hardcore Techno Electronic Instrumental
BeatmapID:2470834
BeatmapSetID:1185393

[Difficulty]
HPDrainRate:8.3
CircleSize:4
OverallDifficulty:7.7
ApproachRate:6.4
SliderMultiplier:1.4
SliderTickRate:1

[Events]
//Background and Video events
0,0,"BG.jpg",0,0
//Break Periods
//Storyboard Layer 0 (Background)
//Storyboard Layer 1 (Fail)
//Storyboard Layer 2 (Pass)
//Storyboard Layer 3 (Foreground)
//Storyboard Layer 4 (Overlay)
//Storyboard Sound Samples

[TimingPoints]
347,370.37037037037,4,1,1,40,1,0
347,-166.666666666667,4,1,1,40,0,0
9976,-153.846153846154,4,1,1,40,0,0
10161,-142.857142857143,4,1,1,40,0,0
10346,-133.333333333333,4,1,1,40,0,0
10532,-125,4,1,1,40,0,0
10717,-166.666666666667,4,1,1,40,0,0
18124,-153.846153846154,4,1,1,40,0,0
18495,-142.857142857143,4,1,1,40,0,0
18865,-133.333333333333,4,1,1,40,0,0
19235,-125,4,1,1,40,0,0
19606,-117.647058823529,4,1,1,40,0,0
19976,-111.111111111111,4,1,1,40,0,0
20346,-105.263157894737,4,1,1,40,0,0
20717,-100,4,1,1,40,0,0
20902,-100,4,1,1,70,0,0
22754,-100,4,1,1,40,0,0
29976,-100,4,1,1,45,0,0
30717,-100,4,1,1,50,0,0
31458,-100,4,1,1,55,0,0
32198,-100,4,1,1,60,0,0
32939,-100,4,1,1,65,0,0
33680,-100,4,1,1,70,0,0
34606,-100,4,1,1,40,0,0
38495,-100,4,1,1,55,0,0
40346,-100,4,1,1,70,0,0
41458,-10000,4,1,1,70,0,0
41890,-166.666666666667,4,1,1,70,0,0
41921,-83.3333333333333,4,1,1,70,0,0
41951,-55.5555555555556,4,1,1,70,0,0
41982,-41.6666666666667,4,1,1,70,0,0
42013,-100,4,1,1,70,0,0
52939,-25,4,1,1,70,0,0
52985,-100,4,1,1,70,0,0
53032,-400,4,1,1,70,0,0
53217,-25,4,1,1,70,0,0
53263,-100,4,1,1,70,0,0
53309,-400,4,1,1,70,0,0
53495,-25,4,1,1,70,0,0
53541,-100,4,1,1,70,0,0
53587,-400,4,1,1,70,0,0
53772,-100,4,1,1,70,0,0
58124,-125,4,1,1,70,0,0
58217,-117.647058823529,4,1,1,70,0,0
58309,-111.111111111111,4,1,1,70,0,0
58402,-105.263157894737,4,1,1,70,0,0
58495,-100,4,1,1,70,0,0
62569,-100,4,1,1,55,0,0
62939,-100,4,1,1,60,0,0
63309,-100,4,1,1,65,0,0
63680,-100,4,1,1,70,0,0
63865,-500,4,1,1,70,0,0
64004,-29.4117647058824,4,1,1,70,0,0
64050,-100,4,1,1,70,0,0
67754,-10000,4,1,1,70,0,0
68186,-166.666666666667,4,1,1,70,0,0
68217,-83.3333333333333,4,1,1,70,0,0
68248,-55.5555555555556,4,1,1,70,0,0
68279,-41.6666666666667,4,1,1,70,0,0
68309,-100,4,1,1,70,0,0
76087,-105.263157894737,4,1,1,40,0,0
76272,-111.111111111111,4,1,1,40,0,0
76458,-117.647058823529,4,1,1,40,0,0
76643,-125,4,1,1,40,0,0
76828,-133.333333333333,4,1,1,40,0,0
77013,-142.857142857143,4,1,1,40,0,0
77198,-153.846153846153,4,1,1,40,0,0
77384,-166.666666666667,4,1,1,40,0,0
83309,-153.846153846154,4,1,1,40,0,0
83680,-142.857142857143,4,1,1,40,0,0
84050,-133.333333333333,4,1,1,40,0,0
84421,-125,4,1,1,40,0,0
84791,-117.647058823529,4,1,1,40,0,0
85161,-111.111111111111,4,1,1,40,0,0
85532,-105.263157894737,4,1,1,40,0,0
85902,-100,4,1,1,40,0,0
86180,-100,4,1,1,60,0,0
87939,-100,4,1,1,40,0,0
95161,-100,4,1,1,45,0,0
95902,-100,4,1,1,50,0,0
96643,-100,4,1,1,55,0,0
97384,-100,4,1,1,60,0,0
98124,-100,4,1,1,65,0,0
98865,-100,4,1,1,50,0,0
99606,-100,4,1,1,70,0,0
106396,-10000,4,1,1,70,0,0
106705,-166.666666666667,4,1,1,70,0,0
106735,-83.3333333333333,4,1,1,70,0,0
106766,-55.5555555555556,4,1,1,70,0,0
106797,-41.6666666666667,4,1,1,70,0,0
106828,-100,4,1,1,70,0,0
111458,-10000,4,1,1,70,0,0
111705,-166.666666666667,4,1,1,70,0,0
111735,-83.3333333333333,4,1,1,70,0,0
111766,-55.5555555555556,4,1,1,70,0,0
111797,-41.6666666666667,4,1,1,70,0,0
111828,-100,4,1,1,70,0,0
118124,-25,4,1,1,70,0,0
118171,-100,4,1,1,70,0,0
118217,-400,4,1,1,70,0,0
118402,-25,4,1,1,70,0,0
118448,-100,4,1,1,70,0,0
118495,-400,4,1,1,70,0,0
118680,-100,4,1,1,70,0,0
121087,-10,4,1,1,70,0,0
121211,-285.714285714286,4,1,1,55,0,0
121828,-250,4,1,1,55,0,0
121951,-222.222222222221,4,1,1,55,0,0
122075,-200,4,1,1,55,0,0
122198,-181.818181818181,4,1,1,55,0,0
122322,-166.666666666667,4,1,1,60,0,0
122445,-153.846153846153,4,1,1,60,0,0
122569,-142.857142857143,4,1,1,65,0,0
122692,-133.333333333333,4,1,1,65,0,0
122816,-125,4,1,1,65,0,0
122939,-117.647058823529,4,1,1,65,0,0
123063,-111.111111111111,4,1,1,65,0,0
123186,-105.263157894737,4,1,1,65,0,0
123309,-100,4,1,1,70,0,0
129976,-25,4,1,1,70,0,0
130022,-100,4,1,1,70,0,0
130069,-400,4,1,1,70,0,0
130254,-25,4,1,1,70,0,0
130300,-100,4,1,1,70,0,0
130346,-400,4,1,1,70,0,0
130532,-100,4,1,1,70,0,0
135161,-22.2222222222222,4,1,1,70,0,0
135254,-200,4,1,1,70,0,0
135902,-166.666666666667,4,1,1,70,0,0
140717,-22.2222222222222,4,1,1,70,0,0
140763,-200,4,1,1,70,0,0
141087,-166.666666666667,4,1,1,70,0,0
142198,-22.2222222222222,4,1,1,70,0,0
142244,-200,4,1,1,70,0,0
142568,-153.846153846154,4,1,1,70,0,0
142939,-142.857142857143,4,1,1,70,0,0
143309,-133.333333333333,4,1,1,70,0,0
143680,-125,4,1,1,70,0,0
143865,-22.2222222222222,4,1,1,70,0,0
143911,-200,4,1,1,70,0,0
144235,-117.647058823529,4,1,1,70,0,0
144421,-111.111111111111,4,1,1,70,0,0
144606,-22.2222222222222,4,1,1,70,0,0
144652,-200,4,1,1,70,0,0
144976,-105.263157894737,4,1,1,70,0,0
145161,-100,4,1,1,70,0,0
146272,-100,4,1,1,55,0,0
147013,-100,4,1,1,70,0,0
147939,-100,4,1,1,45,0,0
148495,-100,4,1,1,50,0,0
149235,-100,4,1,1,55,0,0
149976,-100,4,1,1,60,0,0
150717,-100,4,1,1,65,0,0
151458,-100,4,1,1,70,0,0
152198,-125,4,1,1,40,0,0
152939,-100,4,1,1,70,0,0
153742,-100,4,1,1,55,0,0
154112,-100,4,1,1,60,0,0
154328,-100,4,1,1,65,0,0
154606,-100,4,1,1,70,0,0
165532,-25,4,1,1,70,0,0
165578,-100,4,1,1,70,0,0
165624,-400,4,1,1,70,0,0
165809,-25,4,1,1,70,0,0
165856,-100,4,1,1,70,0,0
165902,-400,4,1,1,70,0,0
166087,-25,4,1,1,70,0,0
166134,-100,4,1,1,70,0,0
166180,-400,4,1,1,70,0,0
166365,-100,4,1,1,70,0,0
166643,-25,4,1,1,70,0,0
166689,-100,4,1,1,70,0,0
166735,-400,4,1,1,70,0,0
166921,-100,4,1,1,70,0,0
175161,-40,4,1,1,70,0,0
175254,-200,4,1,1,70,0,0
175532,-125,4,1,1,70,0,0
175902,-40,4,1,1,70,0,0
175995,-200,4,1,1,70,0,0
176272,-100,4,1,1,70,0,0
176828,-100,4,1,1,40,0,0
177013,-105.263157894737,4,1,1,40,0,0
177384,-111.111111111111,4,1,1,40,0,0
177754,-117.647058823529,4,1,1,40,0,0
178124,-125,4,1,1,40,0,0
178495,-133.333333333333,4,1,1,40,0,0
178865,-142.857142857143,4,1,1,40,0,0
179235,-153.846153846154,4,1,1,40,0,0
179606,-166.666666666667,4,1,1,40,0,0
185161,-153.846153846154,4,1,1,40,0,0
185531,-142.857142857143,4,1,1,40,0,0
185902,-133.333333333333,4,1,1,45,0,0
186272,-125,4,1,1,50,0,0
186642,-117.647058823529,4,1,1,55,0,0
187013,-111.111111111111,4,1,1,60,0,0
187383,-105.263157894737,4,1,1,65,0,0
187754,-100,4,1,1,70,0,0
199606,-142.857142857143,4,1,1,70,0,0
199698,-133.333333333333,4,1,1,55,0,0
199791,-125,4,1,1,55,0,0
199884,-117.647058823529,4,1,1,55,0,0
199976,-111.111111111111,4,1,1,55,0,0
200069,-105.263157894737,4,1,1,55,0,0
200161,-100,4,1,1,55,0,0
200346,-100,4,1,1,70,0,1
212198,-66.6666666666667,4,1,1,70,0,1
212291,-100,4,1,1,70,0,1
212384,-133.333333333333,4,1,1,70,0,1
212569,-100,4,1,1,70,0,1
218124,-100,4,1,1,70,0,0
218309,-100,4,1,1,60,0,0
221087,-100,4,1,1,65,0,0
223309,-100,4,1,1,70,0,0
224050,-100,4,1,1,70,0,1
229976,-100,4,1,1,70,0,0
230161,-100,4,1,1,60,0,0
232939,-100,4,1,1,65,0,0
235161,-100,4,1,1,70,0,0
235902,-100,4,1,1,70,0,1
241458,-100,4,1,1,70,0,0
241643,-100,4,1,1,60,0,0
244791,-100,4,1,1,65,0,0
247754,-100,4,1,1,70,0,0
253032,-100,4,1,1,55,0,0
253865,-100,4,1,1,40,0,0
257384,-100,4,1,1,55,0,0
257939,-100,4,1,1,70,0,0
259421,-100,4,1,1,40,0,0

[HitObjects]
448,192,3124,128,0,4791:0:0:0:0:
64,192,4791,5,0,0:0:0:0:
192,192,4791,128,0,9235:0:0:0:0:
448,192,10717,1,0,0:0:0:0:
64,192,10717,128,0,10902:0:0:0:0:
320,192,10717,1,0,0:0:0:0:
192,192,10902,128,0,11087:0:0:0:0:
448,192,11087,128,0,11272:0:0:0:0:
320,192,11272,128,0,11828:0:0:0:0:
64,192,11828,128,0,12013:0:0:0:0:
192,192,12013,128,0,12198:0:0:0:0:
448,192,12198,128,0,12384:0:0:0:0:
320,192,12384,128,0,12754:0:0:0:0:
64,192,12754,128,0,12939:0:0:0:0:
192,192,12939,128,0,13124:0:0:0:0:
448,192,13124,128,0,13309:0:0:0:0:
320,192,13309,128,0,13680:0:0:0:0:
64,192,13680,128,0,13865:0:0:0:0:
320,192,13865,128,0,14050:0:0:0:0:
448,192,14050,128,0,14235:0:0:0:0:
192,192,14235,128,0,14791:0:0:0:0:
64,192,14791,128,0,14976:0:0:0:0:
320,192,14976,128,0,15161:0:0:0:0:
448,192,15161,128,0,15346:0:0:0:0:
192,192,15346,128,0,15717:0:0:0:0:
64,192,15717,128,0,15902:0:0:0:0:
320,192,15902,128,0,16087:0:0:0:0:
448,192,16087,128,0,16272:0:0:0:0:
320,192,16272,1,0,0:0:0:0:
64,192,16319,1,0,0:0:0:0:
192,192,16365,128,0,16458:0:0:0:0:
320,192,16458,128,0,16550:0:0:0:0:
192,192,16550,128,0,16643:0:0:0:0:
64,192,16643,128,0,16828:0:0:0:0:
192,192,16828,128,0,17013:0:0:0:0:
448,192,17013,128,0,17198:0:0:0:0:
320,192,17198,128,0,17754:0:0:0:0:
64,192,17754,128,0,17939:0:0:0:0:
192,192,17939,128,0,18124:0:0:0:0:
448,192,18124,128,0,18309:0:0:0:0:
320,192,18309,128,0,18680:0:0:0:0:
64,192,18680,128,0,18865:0:0:0:0:
192,192,18865,128,0,19050:0:0:0:0:
448,192,19050,128,0,19235:0:0:0:0:
320,192,19235,128,0,19606:0:0:0:0:
192,192,19606,128,0,19791:0:0:0:0:
320,192,19791,128,0,20161:0:0:0:0:
448,192,20161,128,0,20717:0:0:0:0:
192,192,20717,128,0,20902:0:0:0:0:
320,192,20902,1,0,0:0:0:0:
448,192,20902,1,0,0:0:0:0:
448,192,20995,1,0,0:0:0:0:
320,192,20995,1,0,0:0:0:0:
64,192,21087,128,0,21365:0:0:0:0:
192,192,21087,128,0,21272:0:0:0:0:
448,192,21087,1,0,0:0:0:0:
320,192,21272,128,0,21458:0:0:0:0:
192,192,21365,128,0,21458:0:0:0:0:
64,192,21458,1,0,0:0:0:0:
64,192,21550,1,0,0:0:0:0:
320,192,21643,128,0,21828:0:0:0:0:
192,192,21828,1,0,0:0:0:0:
448,192,21828,1,0,0:0:0:0:
448,192,22013,128,0,22106:0:0:0:0:
320,192,22106,1,0,0:0:0:0:
64,192,22106,1,0,0:0:0:0:
192,192,22198,128,0,22245:0:0:0:0:
320,192,22291,128,0,22337:0:0:0:0:
64,192,22384,1,0,0:0:0:0:
448,192,22384,1,0,0:0:0:0:
192,192,22476,1,0,0:0:0:0:
64,192,22569,128,0,22754:0:0:0:0:
320,192,22569,128,0,22661:0:0:0:0:
448,192,22569,128,0,22754:0:0:0:0:
192,192,22754,128,0,22939:0:0:0:0:
448,192,22939,128,0,23124:0:0:0:0:
320,192,23124,128,0,23680:0:0:0:0:
64,192,23680,128,0,23865:0:0:0:0:
192,192,23865,128,0,24050:0:0:0:0:
448,192,24050,128,0,24235:0:0:0:0:
320,192,24235,128,0,24606:0:0:0:0:
64,192,24606,128,0,24791:0:0:0:0:
192,192,24791,128,0,24976:0:0:0:0:
448,192,24976,128,0,25161:0:0:0:0:
320,192,24976,128,0,25069:0:0:0:0:
64,192,24976,128,0,25161:0:0:0:0:
320,192,25161,128,0,25532:0:0:0:0:
64,192,25254,128,0,25346:0:0:0:0:
192,192,25254,128,0,25439:0:0:0:0:
448,192,25254,128,0,25439:0:0:0:0:
64,192,25532,128,0,25717:0:0:0:0:
192,192,25532,128,0,25624:0:0:0:0:
448,192,25532,128,0,25717:0:0:0:0:
320,192,25717,128,0,25902:0:0:0:0:
448,192,25902,128,0,26087:0:0:0:0:
192,192,26087,128,0,26643:0:0:0:0:
64,192,26643,128,0,26828:0:0:0:0:
320,192,26828,128,0,27013:0:0:0:0:
448,192,27013,128,0,27198:0:0:0:0:
192,192,27198,128,0,27569:0:0:0:0:
64,192,27569,128,0,27754:0:0:0:0:
320,192,27754,128,0,27939:0:0:0:0:
448,192,27939,128,0,28124:0:0:0:0:
64,192,27939,128,0,28032:0:0:0:0:
192,192,27939,128,0,28124:0:0:0:0:
320,192,28124,1,0,0:0:0:0:
64,192,28171,1,0,0:0:0:0:
192,192,28217,128,0,28309:0:0:0:0:
448,192,28217,128,0,28402:0:0:0:0:
320,192,28309,128,0,28402:0:0:0:0:
192,192,28402,128,0,28495:0:0:0:0:
64,192,28495,128,0,28680:0:0:0:0:
320,192,28495,128,0,28587:0:0:0:0:
448,192,28495,128,0,28680:0:0:0:0:
192,192,28680,128,0,28865:0:0:0:0:
448,192,28865,128,0,29050:0:0:0:0:
320,192,29050,128,0,29606:0:0:0:0:
64,192,29606,128,0,29791:0:0:0:0:
192,192,29791,128,0,29976:0:0:0:0:
320,192,29791,128,0,29976:0:0:0:0:
448,192,29791,128,0,29884:0:0:0:0:
448,192,29976,128,0,30161:0:0:0:0:
320,192,30161,128,0,30532:0:0:0:0:
448,192,30346,1,0,0:0:0:0:
64,192,30532,128,0,30717:0:0:0:0:
448,192,30532,1,0,0:0:0:0:
192,192,30717,128,0,30902:0:0:0:0:
448,192,30717,1,0,0:0:0:0:
448,192,30902,128,0,31087:0:0:0:0:
64,192,30902,1,0,0:0:0:0:
320,192,31087,128,0,31458:0:0:0:0:
64,192,31087,1,0,0:0:0:0:
64,192,31272,128,0,31365:0:0:0:0:
192,192,31272,128,0,31458:0:0:0:0:
448,192,31272,128,0,31458:0:0:0:0:
64,192,31458,128,0,31550:0:0:0:0:
320,192,31550,1,0,0:0:0:0:
192,192,31643,128,0,31735:0:0:0:0:
320,192,31735,1,0,0:0:0:0:
448,192,31828,128,0,31921:0:0:0:0:
64,192,31921,1,0,0:0:0:0:
320,192,32013,128,0,32106:0:0:0:0:
192,192,32013,128,0,32198:0:0:0:0:
448,192,32013,128,0,32198:0:0:0:0:
64,192,32106,1,0,0:0:0:0:
320,192,32198,1,0,0:0:0:0:
192,192,32291,1,0,0:0:0:0:
448,192,32384,1,0,0:0:0:0:
320,192,32430,1,0,0:0:0:0:
192,192,32476,1,0,0:0:0:0:
64,192,32569,128,0,32661:0:0:0:0:
320,192,32661,1,0,0:0:0:0:
192,192,32754,128,0,32846:0:0:0:0:
64,192,32754,128,0,32846:0:0:0:0:
448,192,32754,128,0,32846:0:0:0:0:
320,192,32846,1,0,0:0:0:0:
448,192,32939,128,0,33032:0:0:0:0:
64,192,32985,1,0,0:0:0:0:
192,192,33032,1,0,0:0:0:0:
320,192,33124,128,0,33217:0:0:0:0:
448,192,33124,128,0,33309:0:0:0:0:
64,192,33124,1,0,0:0:0:0:
192,192,33217,1,0,0:0:0:0:
64,192,33263,1,0,0:0:0:0:
320,192,33309,1,0,0:0:0:0:
64,192,33402,128,0,33587:0:0:0:0:
192,192,33402,128,0,33495:0:0:0:0:
448,192,33402,1,0,0:0:0:0:
320,192,33495,1,0,0:0:0:0:
448,192,33541,1,0,0:0:0:0:
192,192,33587,1,0,0:0:0:0:
448,192,33680,1,0,0:0:0:0:
64,192,33680,1,0,0:0:0:0:
320,192,33772,1,0,0:0:0:0:
64,192,33865,1,0,0:0:0:0:
192,192,33865,1,0,0:0:0:0:
64,192,33958,1,0,0:0:0:0:
448,192,33958,1,0,0:0:0:0:
192,192,34050,1,0,0:0:0:0:
320,192,34143,1,0,0:0:0:0:
448,192,34143,1,0,0:0:0:0:
448,192,34235,1,0,0:0:0:0:
64,192,34235,1,0,0:0:0:0:
192,192,34328,1,0,0:0:0:0:
320,192,34328,1,0,0:0:0:0:
448,192,34421,1,0,0:0:0:0:
64,192,34421,1,0,0:0:0:0:
192,192,34421,1,0,0:0:0:0:
448,192,34606,128,0,34698:0:0:0:0:
64,192,34791,128,0,34884:0:0:0:0:
320,192,34976,128,0,35069:0:0:0:0:
320,192,35161,128,0,35254:0:0:0:0:
192,192,35346,128,0,35439:0:0:0:0:
320,192,35532,128,0,35624:0:0:0:0:
192,192,35717,128,0,35809:0:0:0:0:
448,192,35902,128,0,35995:0:0:0:0:
64,192,36087,128,0,36180:0:0:0:0:
192,192,36272,128,0,36365:0:0:0:0:
320,192,36458,128,0,36550:0:0:0:0:
64,192,36643,128,0,36735:0:0:0:0:
448,192,36828,128,0,36921:0:0:0:0:
320,192,37013,128,0,37106:0:0:0:0:
64,192,37198,128,0,37291:0:0:0:0:
448,192,37384,128,0,37476:0:0:0:0:
320,192,37569,128,0,37661:0:0:0:0:
64,192,37754,128,0,37846:0:0:0:0:
320,192,37939,128,0,38032:0:0:0:0:
192,192,38124,128,0,38217:0:0:0:0:
64,192,38309,128,0,38402:0:0:0:0:
320,192,38495,128,0,38587:0:0:0:0:
64,192,38680,128,0,38772:0:0:0:0:
192,192,38865,128,0,38958:0:0:0:0:
448,192,39050,128,0,39143:0:0:0:0:
192,192,39235,128,0,39328:0:0:0:0:
320,192,39421,128,0,39513:0:0:0:0:
64,192,39606,128,0,39976:0:0:0:0:
448,192,39606,1,0,0:0:0:0:
448,192,39976,1,0,0:0:0:0:
192,192,40022,1,0,0:0:0:0:
320,192,40069,1,0,0:0:0:0:
64,192,40115,1,0,0:0:0:0:
448,192,40161,1,0,0:0:0:0:
320,192,40192,1,0,0:0:0:0:
192,192,40223,1,0,0:0:0:0:
64,192,40254,1,0,0:0:0:0:
448,192,40285,1,0,0:0:0:0:
320,192,40316,1,0,0:0:0:0:
192,192,40346,1,0,0:0:0:0:
64,192,40346,1,0,0:0:0:0:
448,192,40408,1,0,0:0:0:0:
320,192,40470,1,0,0:0:0:0:
64,192,40532,1,0,0:0:0:0:
448,192,40593,1,0,0:0:0:0:
192,192,40655,1,0,0:0:0:0:
64,192,40717,1,0,0:0:0:0:
320,192,40779,1,0,0:0:0:0:
192,192,40840,1,0,0:0:0:0:
64,192,40902,1,0,0:0:0:0:
320,192,40964,1,0,0:0:0:0:
448,192,40964,1,0,0:0:0:0:
64,192,41026,1,0,0:0:0:0:
192,192,41087,1,0,0:0:0:0:
448,192,41087,128,0,41272:0:0:0:0:
192,192,41272,1,0,0:0:0:0:
64,192,41272,1,0,0:0:0:0:
320,192,41319,1,0,0:0:0:0:
192,192,41365,1,0,0:0:0:0:
64,192,41411,1,0,0:0:0:0:
448,192,41458,1,0,0:0:0:0:
64,192,42013,1,0,0:0:0:0:
192,192,42013,1,0,0:0:0:0:
320,192,42075,1,0,0:0:0:0:
192,192,42137,1,0,0:0:0:0:
448,192,42198,128,0,42384:0:0:0:0:
64,192,42384,1,0,0:0:0:0:
192,192,42384,1,0,0:0:0:0:
320,192,42430,1,0,0:0:0:0:
448,192,42476,1,0,0:0:0:0:
192,192,42522,1,0,0:0:0:0:
64,192,42569,1,0,0:0:0:0:
320,192,42569,128,0,42692:0:0:0:0:
320,192,42754,128,0,42877:0:0:0:0:
192,192,42939,1,0,0:0:0:0:
448,192,43032,128,0,43124:0:0:0:0:
64,192,43124,128,0,43217:0:0:0:0:
320,192,43217,128,0,43263:0:0:0:0:
64,192,43309,1,0,0:0:0:0:
192,192,43309,1,0,0:0:0:0:
320,192,43371,1,0,0:0:0:0:
448,192,43433,1,0,0:0:0:0:
192,192,43495,1,0,0:0:0:0:
320,192,43556,1,0,0:0:0:0:
64,192,43618,1,0,0:0:0:0:
192,192,43680,1,0,0:0:0:0:
448,192,43742,1,0,0:0:0:0:
320,192,43803,1,0,0:0:0:0:
192,192,43865,1,0,0:0:0:0:
64,192,43865,1,0,0:0:0:0:
320,192,43927,1,0,0:0:0:0:
192,192,43988,1,0,0:0:0:0:
64,192,44050,1,0,0:0:0:0:
448,192,44050,1,0,0:0:0:0:
320,192,44143,1,0,0:0:0:0:
64,192,44235,1,0,0:0:0:0:
448,192,44282,1,0,0:0:0:0:
192,192,44328,1,0,0:0:0:0:
320,192,44374,1,0,0:0:0:0:
64,192,44421,128,0,44467:0:0:0:0:
64,192,44513,128,0,44559:0:0:0:0:
64,192,44606,128,0,44652:0:0:0:0:
320,192,44698,1,0,0:0:0:0:
448,192,44698,1,0,0:0:0:0:
192,192,44760,1,0,0:0:0:0:
320,192,44822,1,0,0:0:0:0:
64,192,44884,1,0,0:0:0:0:
448,192,44945,1,0,0:0:0:0:
320,192,45007,1,0,0:0:0:0:
64,192,45069,1,0,0:0:0:0:
192,192,45069,1,0,0:0:0:0:
448,192,45161,1,0,0:0:0:0:
448,192,45254,1,0,0:0:0:0:
192,192,45346,1,0,0:0:0:0:
64,192,45346,1,0,0:0:0:0:
320,192,45439,1,0,0:0:0:0:
64,192,45532,1,0,0:0:0:0:
448,192,45532,1,0,0:0:0:0:
192,192,45624,1,0,0:0:0:0:
64,192,45624,1,0,0:0:0:0:
320,192,45717,1,0,0:0:0:0:
448,192,45717,1,0,0:0:0:0:
64,192,45763,1,0,0:0:0:0:
192,192,45809,1,0,0:0:0:0:
320,192,45856,1,0,0:0:0:0:
448,192,45902,1,0,0:0:0:0:
192,192,45995,1,0,0:0:0:0:
64,192,45995,1,0,0:0:0:0:
320,192,46087,1,0,0:0:0:0:
320,192,46180,1,0,0:0:0:0:
64,192,46272,128,0,46550:0:0:0:0:
448,192,46272,128,0,46458:0:0:0:0:
192,192,46272,128,0,46365:0:0:0:0:
320,192,46365,128,0,46643:0:0:0:0:
192,192,46458,128,0,46828:0:0:0:0:
448,192,46550,128,0,46735:0:0:0:0:
64,192,46643,128,0,46735:0:0:0:0:
320,192,46735,1,0,0:0:0:0:
64,192,46828,1,0,0:0:0:0:
320,192,46890,1,0,0:0:0:0:
448,192,46890,1,0,0:0:0:0:
192,192,46951,1,0,0:0:0:0:
448,192,47013,1,0,0:0:0:0:
64,192,47013,1,0,0:0:0:0:
320,192,47106,1,0,0:0:0:0:
192,192,47198,1,0,0:0:0:0:
64,192,47198,1,0,0:0:0:0:
448,192,47291,1,0,0:0:0:0:
448,192,47384,1,0,0:0:0:0:
64,192,47476,1,0,0:0:0:0:
320,192,47569,128,0,47754:0:0:0:0:
192,192,47754,128,0,47800:0:0:0:0:
448,192,47846,128,0,47893:0:0:0:0:
64,192,47939,1,0,0:0:0:0:
192,192,47939,1,0,0:0:0:0:
320,192,48001,1,0,0:0:0:0:
64,192,48063,1,0,0:0:0:0:
448,192,48124,1,0,0:0:0:0:
192,192,48186,1,0,0:0:0:0:
64,192,48248,1,0,0:0:0:0:
320,192,48309,1,0,0:0:0:0:
448,192,48309,1,0,0:0:0:0:
192,192,48379,1,0,0:0:0:0:
448,192,48448,1,0,0:0:0:0:
64,192,48495,1,0,0:0:0:0:
320,192,48495,128,0,48618:0:0:0:0:
320,192,48680,128,0,48803:0:0:0:0:
64,192,48865,1,0,0:0:0:0:
448,192,48865,1,0,0:0:0:0:
192,192,48988,128,0,49050:0:0:0:0:
192,192,49112,128,0,49174:0:0:0:0:
320,192,49235,1,0,0:0:0:0:
448,192,49235,1,0,0:0:0:0:
64,192,49297,1,0,0:0:0:0:
192,192,49359,1,0,0:0:0:0:
320,192,49421,1,0,0:0:0:0:
64,192,49482,1,0,0:0:0:0:
192,192,49544,1,0,0:0:0:0:
448,192,49606,128,0,49791:0:0:0:0:
192,192,49791,1,0,0:0:0:0:
64,192,49791,1,0,0:0:0:0:
320,192,49853,1,0,0:0:0:0:
192,192,49914,1,0,0:0:0:0:
64,192,49976,1,0,0:0:0:0:
448,192,49976,1,0,0:0:0:0:
320,192,50038,1,0,0:0:0:0:
192,192,50100,1,0,0:0:0:0:
448,192,50161,1,0,0:0:0:0:
64,192,50208,1,0,0:0:0:0:
320,192,50254,1,0,0:0:0:0:
192,192,50300,1,0,0:0:0:0:
448,192,50346,128,0,50393:0:0:0:0:
448,192,50439,128,0,50485:0:0:0:0:
448,192,50532,128,0,50578:0:0:0:0:
192,192,50624,1,0,0:0:0:0:
64,192,50624,1,0,0:0:0:0:
320,192,50686,1,0,0:0:0:0:
192,192,50748,1,0,0:0:0:0:
448,192,50809,1,0,0:0:0:0:
64,192,50902,1,0,0:0:0:0:
320,192,50902,1,0,0:0:0:0:
448,192,50995,1,0,0:0:0:0:
320,192,50995,1,0,0:0:0:0:
192,192,51087,1,0,0:0:0:0:
320,192,51149,1,0,0:0:0:0:
64,192,51180,1,0,0:0:0:0:
192,192,51211,1,0,0:0:0:0:
320,192,51272,1,0,0:0:0:0:
448,192,51272,1,0,0:0:0:0:
192,192,51334,1,0,0:0:0:0:
320,192,51396,1,0,0:0:0:0:
448,192,51458,1,0,0:0:0:0:
64,192,51458,1,0,0:0:0:0:
64,192,51550,1,0,0:0:0:0:
192,192,51550,1,0,0:0:0:0:
320,192,51643,1,0,0:0:0:0:
448,192,51643,1,0,0:0:0:0:
64,192,51735,1,0,0:0:0:0:
448,192,51735,1,0,0:0:0:0:
192,192,51782,1,0,0:0:0:0:
320,192,51828,1,0,0:0:0:0:
448,192,51874,1,0,0:0:0:0:
192,192,51921,1,0,0:0:0:0:
64,192,51921,1,0,0:0:0:0:
64,192,52013,1,0,0:0:0:0:
320,192,52013,1,0,0:0:0:0:
448,192,52106,1,0,0:0:0:0:
192,192,52198,1,0,0:0:0:0:
64,192,52198,1,0,0:0:0:0:
448,192,52260,1,0,0:0:0:0:
320,192,52322,1,0,0:0:0:0:
64,192,52384,1,0,0:0:0:0:
448,192,52445,1,0,0:0:0:0:
192,192,52507,1,0,0:0:0:0:
64,192,52569,1,0,0:0:0:0:
320,192,52630,1,0,0:0:0:0:
192,192,52692,1,0,0:0:0:0:
64,192,52754,1,0,0:0:0:0:
320,192,52816,1,0,0:0:0:0:
448,192,52816,1,0,0:0:0:0:
64,192,52877,1,0,0:0:0:0:
192,192,52939,1,0,0:0:0:0:
448,192,52939,128,0,53217:0:0:0:0:
320,192,53217,1,0,0:0:0:0:
64,192,53217,128,0,53495:0:0:0:0:
192,192,53495,1,0,0:0:0:0:
448,192,53495,128,0,53772:0:0:0:0:
320,192,53772,1,0,0:0:0:0:
64,192,53772,1,0,0:0:0:0:
64,192,53865,1,0,0:0:0:0:
192,192,53865,1,0,0:0:0:0:
448,192,53865,1,0,0:0:0:0:
320,192,53927,1,0,0:0:0:0:
192,192,53988,1,0,0:0:0:0:
448,192,54050,128,0,54235:0:0:0:0:
64,192,54235,1,0,0:0:0:0:
192,192,54235,1,0,0:0:0:0:
320,192,54282,1,0,0:0:0:0:
448,192,54328,1,0,0:0:0:0:
192,192,54374,1,0,0:0:0:0:
64,192,54421,1,0,0:0:0:0:
320,192,54421,128,0,54544:0:0:0:0:
64,192,54606,1,0,0:0:0:0:
320,192,54606,128,0,54729:0:0:0:0:
192,192,54791,1,0,0:0:0:0:
320,192,54884,128,0,54976:0:0:0:0:
448,192,54976,128,0,55100:0:0:0:0:
64,192,55161,1,0,0:0:0:0:
192,192,55161,1,0,0:0:0:0:
320,192,55223,1,0,0:0:0:0:
448,192,55285,1,0,0:0:0:0:
192,192,55346,1,0,0:0:0:0:
320,192,55408,1,0,0:0:0:0:
64,192,55470,1,0,0:0:0:0:
192,192,55532,1,0,0:0:0:0:
448,192,55593,1,0,0:0:0:0:
320,192,55655,1,0,0:0:0:0:
192,192,55717,1,0,0:0:0:0:
64,192,55717,1,0,0:0:0:0:
320,192,55779,1,0,0:0:0:0:
192,192,55840,1,0,0:0:0:0:
64,192,55902,1,0,0:0:0:0:
448,192,55902,1,0,0:0:0:0:
320,192,55995,1,0,0:0:0:0:
64,192,56087,1,0,0:0:0:0:
448,192,56134,1,0,0:0:0:0:
192,192,56180,1,0,0:0:0:0:
320,192,56226,1,0,0:0:0:0:
64,192,56272,128,0,56319:0:0:0:0:
64,192,56365,128,0,56411:0:0:0:0:
64,192,56458,128,0,56504:0:0:0:0:
320,192,56550,1,0,0:0:0:0:
448,192,56550,1,0,0:0:0:0:
192,192,56612,1,0,0:0:0:0:
320,192,56674,1,0,0:0:0:0:
64,192,56735,1,0,0:0:0:0:
448,192,56797,1,0,0:0:0:0:
320,192,56859,1,0,0:0:0:0:
192,192,56921,1,0,0:0:0:0:
64,192,56921,1,0,0:0:0:0:
448,192,57013,128,0,57075:0:0:0:0:
64,192,57137,128,0,57198:0:0:0:0:
320,192,57198,1,0,0:0:0:0:
448,192,57198,1,0,0:0:0:0:
192,192,57260,128,0,57322:0:0:0:0:
64,192,57384,1,0,0:0:0:0:
448,192,57384,1,0,0:0:0:0:
64,192,57476,1,0,0:0:0:0:
192,192,57476,1,0,0:0:0:0:
448,192,57476,1,0,0:0:0:0:
320,192,57569,1,0,0:0:0:0:
448,192,57569,1,0,0:0:0:0:
64,192,57615,1,0,0:0:0:0:
192,192,57661,1,0,0:0:0:0:
320,192,57708,1,0,0:0:0:0:
448,192,57754,1,0,0:0:0:0:
192,192,57846,1,0,0:0:0:0:
64,192,57846,1,0,0:0:0:0:
320,192,57939,1,0,0:0:0:0:
320,192,58032,1,0,0:0:0:0:
64,192,58124,128,0,58402:0:0:0:0:
192,192,58217,128,0,58402:0:0:0:0:
320,192,58309,128,0,58495:0:0:0:0:
448,192,58402,128,0,58495:0:0:0:0:
192,192,58495,1,0,0:0:0:0:
64,192,58495,1,0,0:0:0:0:
320,192,58556,1,0,0:0:0:0:
448,192,58618,1,0,0:0:0:0:
64,192,58680,1,0,0:0:0:0:
320,192,58742,1,0,0:0:0:0:
192,192,58803,1,0,0:0:0:0:
64,192,58865,1,0,0:0:0:0:
448,192,58865,128,0,59050:0:0:0:0:
320,192,58988,1,0,0:0:0:0:
192,192,59050,1,0,0:0:0:0:
64,192,59050,1,0,0:0:0:0:
448,192,59143,1,0,0:0:0:0:
64,192,59143,1,0,0:0:0:0:
320,192,59235,1,0,0:0:0:0:
320,192,59328,1,0,0:0:0:0:
192,192,59421,1,0,0:0:0:0:
448,192,59421,128,0,59698:0:0:0:0:
320,192,59698,1,0,0:0:0:0:
64,192,59698,1,0,0:0:0:0:
64,192,59791,1,0,0:0:0:0:
192,192,59791,1,0,0:0:0:0:
448,192,59791,1,0,0:0:0:0:
320,192,59853,1,0,0:0:0:0:
64,192,59914,1,0,0:0:0:0:
448,192,59976,1,0,0:0:0:0:
192,192,60038,1,0,0:0:0:0:
64,192,60100,1,0,0:0:0:0:
320,192,60161,1,0,0:0:0:0:
448,192,60161,1,0,0:0:0:0:
192,192,60223,1,0,0:0:0:0:
448,192,60285,1,0,0:0:0:0:
64,192,60346,1,0,0:0:0:0:
320,192,60346,128,0,60470:0:0:0:0:
320,192,60532,128,0,60655:0:0:0:0:
64,192,60717,1,0,0:0:0:0:
448,192,60717,1,0,0:0:0:0:
192,192,60840,128,0,60902:0:0:0:0:
192,192,60964,128,0,61026:0:0:0:0:
320,192,61087,1,0,0:0:0:0:
448,192,61087,1,0,0:0:0:0:
64,192,61149,1,0,0:0:0:0:
192,192,61211,1,0,0:0:0:0:
320,192,61272,1,0,0:0:0:0:
64,192,61334,1,0,0:0:0:0:
192,192,61396,1,0,0:0:0:0:
448,192,61458,128,0,61643:0:0:0:0:
192,192,61643,1,0,0:0:0:0:
64,192,61643,1,0,0:0:0:0:
320,192,61705,1,0,0:0:0:0:
192,192,61766,1,0,0:0:0:0:
64,192,61828,1,0,0:0:0:0:
448,192,61828,1,0,0:0:0:0:
320,192,61874,1,0,0:0:0:0:
192,192,61921,1,0,0:0:0:0:
448,192,61967,1,0,0:0:0:0:
320,192,62013,1,0,0:0:0:0:
64,192,62106,1,0,0:0:0:0:
448,192,62106,1,0,0:0:0:0:
192,192,62152,1,0,0:0:0:0:
320,192,62198,1,0,0:0:0:0:
64,192,62245,1,0,0:0:0:0:
448,192,62291,1,0,0:0:0:0:
192,192,62337,1,0,0:0:0:0:
320,192,62384,1,0,0:0:0:0:
64,192,62384,1,0,0:0:0:0:
448,192,62445,1,0,0:0:0:0:
192,192,62507,1,0,0:0:0:0:
320,192,62569,1,0,0:0:0:0:
320,192,62661,1,0,0:0:0:0:
64,192,62754,1,0,0:0:0:0:
64,192,62846,1,0,0:0:0:0:
448,192,62939,1,0,0:0:0:0:
448,192,63032,1,0,0:0:0:0:
320,192,63124,1,0,0:0:0:0:
320,192,63217,1,0,0:0:0:0:
192,192,63309,1,0,0:0:0:0:
192,192,63402,1,0,0:0:0:0:
192,192,63495,1,0,0:0:0:0:
192,192,63587,1,0,0:0:0:0:
320,192,63680,128,0,63803:0:0:0:0:
192,192,63865,128,0,64050:0:0:0:0:
320,192,64050,1,0,0:0:0:0:
448,192,64050,1,0,0:0:0:0:
64,192,64112,1,0,0:0:0:0:
192,192,64174,1,0,0:0:0:0:
448,192,64235,1,0,0:0:0:0:
64,192,64297,1,0,0:0:0:0:
320,192,64359,1,0,0:0:0:0:
448,192,64421,1,0,0:0:0:0:
192,192,64482,1,0,0:0:0:0:
320,192,64544,1,0,0:0:0:0:
448,192,64606,1,0,0:0:0:0:
64,192,64667,1,0,0:0:0:0:
192,192,64729,1,0,0:0:0:0:
448,192,64791,1,0,0:0:0:0:
448,192,64884,1,0,0:0:0:0:
448,192,64976,1,0,0:0:0:0:
448,192,65069,1,0,0:0:0:0:
64,192,65161,1,0,0:0:0:0:
64,192,65254,1,0,0:0:0:0:
64,192,65346,1,0,0:0:0:0:
64,192,65439,1,0,0:0:0:0:
192,192,65532,1,0,0:0:0:0:
448,192,65532,1,0,0:0:0:0:
64,192,65624,128,0,65717:0:0:0:0:
320,192,65809,128,0,65902:0:0:0:0:
448,192,65902,128,0,65995:0:0:0:0:
192,192,65995,128,0,66087:0:0:0:0:
64,192,66087,1,0,0:0:0:0:
448,192,66087,1,0,0:0:0:0:
320,192,66180,128,0,66242:0:0:0:0:
192,192,66272,1,0,0:0:0:0:
64,192,66365,1,0,0:0:0:0:
448,192,66411,1,0,0:0:0:0:
320,192,66458,1,0,0:0:0:0:
192,192,66519,1,0,0:0:0:0:
320,192,66581,1,0,0:0:0:0:
448,192,66643,1,0,0:0:0:0:
64,192,66643,1,0,0:0:0:0:
192,192,66828,128,0,67013:0:0:0:0:
320,192,67013,1,0,0:0:0:0:
448,192,67013,1,0,0:0:0:0:
64,192,67075,1,0,0:0:0:0:
192,192,67137,1,0,0:0:0:0:
448,192,67198,1,0,0:0:0:0:
64,192,67260,1,0,0:0:0:0:
320,192,67322,1,0,0:0:0:0:
448,192,67384,1,0,0:0:0:0:
192,192,67445,1,0,0:0:0:0:
320,192,67507,1,0,0:0:0:0:
448,192,67569,1,0,0:0:0:0:
64,192,67630,1,0,0:0:0:0:
192,192,67692,1,0,0:0:0:0:
320,192,67754,1,0,0:0:0:0:
64,192,68309,1,0,0:0:0:0:
192,192,68309,1,0,0:0:0:0:
192,192,68402,1,0,0:0:0:0:
64,192,68402,1,0,0:0:0:0:
448,192,68495,1,0,0:0:0:0:
64,192,68495,1,0,0:0:0:0:
320,192,68556,1,0,0:0:0:0:
192,192,68618,1,0,0:0:0:0:
448,192,68680,128,0,68742:0:0:0:0:
64,192,68772,1,0,0:0:0:0:
192,192,68865,1,0,0:0:0:0:
320,192,68958,1,0,0:0:0:0:
448,192,68958,1,0,0:0:0:0:
64,192,69050,1,0,0:0:0:0:
448,192,69050,128,0,69328:0:0:0:0:
192,192,69143,1,0,0:0:0:0:
320,192,69235,1,0,0:0:0:0:
64,192,69328,1,0,0:0:0:0:
192,192,69421,1,0,0:0:0:0:
448,192,69482,1,0,0:0:0:0:
320,192,69544,1,0,0:0:0:0:
64,192,69606,1,0,0:0:0:0:
192,192,69606,1,0,0:0:0:0:
448,192,69667,1,0,0:0:0:0:
320,192,69729,1,0,0:0:0:0:
64,192,69791,1,0,0:0:0:0:
448,192,69853,1,0,0:0:0:0:
192,192,69914,1,0,0:0:0:0:
64,192,69976,1,0,0:0:0:0:
320,192,70038,1,0,0:0:0:0:
192,192,70100,1,0,0:0:0:0:
64,192,70161,1,0,0:0:0:0:
448,192,70223,1,0,0:0:0:0:
320,192,70285,1,0,0:0:0:0:
64,192,70346,1,0,0:0:0:0:
64,192,70439,1,0,0:0:0:0:
64,192,70532,1,0,0:0:0:0:
64,192,70624,1,0,0:0:0:0:
448,192,70717,1,0,0:0:0:0:
448,192,70809,1,0,0:0:0:0:
448,192,70902,1,0,0:0:0:0:
448,192,70995,1,0,0:0:0:0:
64,192,71087,1,0,0:0:0:0:
320,192,71134,1,0,0:0:0:0:
192,192,71180,1,0,0:0:0:0:
448,192,71226,1,0,0:0:0:0:
64,192,71272,1,0,0:0:0:0:
64,192,71365,1,0,0:0:0:0:
192,192,71458,1,0,0:0:0:0:
448,192,71458,1,0,0:0:0:0:
64,192,71550,128,0,71643:0:0:0:0:
320,192,71735,128,0,71828:0:0:0:0:
448,192,71828,128,0,71921:0:0:0:0:
192,192,71921,128,0,72013:0:0:0:0:
64,192,72013,1,0,0:0:0:0:
448,192,72013,1,0,0:0:0:0:
320,192,72106,128,0,72167:0:0:0:0:
192,192,72198,1,0,0:0:0:0:
64,192,72291,1,0,0:0:0:0:
448,192,72337,1,0,0:0:0:0:
320,192,72384,1,0,0:0:0:0:
192,192,72445,1,0,0:0:0:0:
320,192,72507,1,0,0:0:0:0:
448,192,72569,1,0,0:0:0:0:
64,192,72569,1,0,0:0:0:0:
192,192,72661,128,0,72731:0:0:0:0:
320,192,72731,128,0,72800:0:0:0:0:
192,192,72800,128,0,72870:0:0:0:0:
64,192,72870,128,0,72939:0:0:0:0:
320,192,72939,1,0,0:0:0:0:
448,192,72939,1,0,0:0:0:0:
64,192,73001,1,0,0:0:0:0:
192,192,73063,1,0,0:0:0:0:
448,192,73124,1,0,0:0:0:0:
64,192,73186,1,0,0:0:0:0:
320,192,73248,1,0,0:0:0:0:
448,192,73309,1,0,0:0:0:0:
192,192,73371,1,0,0:0:0:0:
64,192,73433,1,0,0:0:0:0:
448,192,73495,1,0,0:0:0:0:
320,192,73495,1,0,0:0:0:0:
64,192,73556,1,0,0:0:0:0:
192,192,73556,1,0,0:0:0:0:
320,192,73618,1,0,0:0:0:0:
448,192,73618,1,0,0:0:0:0:
192,192,73680,1,0,0:0:0:0:
64,192,73680,1,0,0:0:0:0:
448,192,73742,1,0,0:0:0:0:
320,192,73803,1,0,0:0:0:0:
64,192,73865,1,0,0:0:0:0:
448,192,73927,1,0,0:0:0:0:
192,192,73988,1,0,0:0:0:0:
64,192,74050,1,0,0:0:0:0:
320,192,74112,1,0,0:0:0:0:
448,192,74174,1,0,0:0:0:0:
192,192,74235,1,0,0:0:0:0:
64,192,74235,1,0,0:0:0:0:
192,192,74328,1,0,0:0:0:0:
64,192,74328,1,0,0:0:0:0:
64,192,74421,1,0,0:0:0:0:
448,192,74421,1,0,0:0:0:0:
320,192,74513,1,0,0:0:0:0:
192,192,74559,1,0,0:0:0:0:
448,192,74606,1,0,0:0:0:0:
64,192,74667,1,0,0:0:0:0:
448,192,74729,1,0,0:0:0:0:
192,192,74791,1,0,0:0:0:0:
320,192,74853,1,0,0:0:0:0:
192,192,74914,1,0,0:0:0:0:
320,192,74976,1,0,0:0:0:0:
192,192,75038,1,0,0:0:0:0:
320,192,75100,1,0,0:0:0:0:
64,192,75161,1,0,0:0:0:0:
448,192,75223,1,0,0:0:0:0:
64,192,75285,1,0,0:0:0:0:
448,192,75346,1,0,0:0:0:0:
64,192,75408,1,0,0:0:0:0:
448,192,75470,1,0,0:0:0:0:
192,192,75532,128,0,75593:0:0:0:0:
320,192,75624,128,0,75686:0:0:0:0:
64,192,75717,128,0,75779:0:0:0:0:
448,192,75809,128,0,75871:0:0:0:0:
64,192,75902,128,0,76087:0:0:0:0:
192,192,75902,128,0,75995:0:0:0:0:
320,192,75902,128,0,76087:0:0:0:0:
192,192,76087,128,0,76272:0:0:0:0:
448,192,76272,128,0,76458:0:0:0:0:
320,192,76458,128,0,77013:0:0:0:0:
64,192,77013,128,0,77198:0:0:0:0:
192,192,77198,128,0,77384:0:0:0:0:
448,192,77384,128,0,77569:0:0:0:0:
320,192,77569,128,0,77939:0:0:0:0:
64,192,77939,128,0,78124:0:0:0:0:
192,192,78124,128,0,78309:0:0:0:0:
448,192,78309,128,0,78495:0:0:0:0:
320,192,78495,128,0,78865:0:0:0:0:
64,192,78865,128,0,79050:0:0:0:0:
320,192,79050,128,0,79235:0:0:0:0:
448,192,79235,128,0,79421:0:0:0:0:
192,192,79421,128,0,79976:0:0:0:0:
64,192,79976,128,0,80161:0:0:0:0:
320,192,80161,128,0,80346:0:0:0:0:
448,192,80346,128,0,80532:0:0:0:0:
192,192,80532,128,0,80902:0:0:0:0:
64,192,80902,128,0,81087:0:0:0:0:
320,192,81087,128,0,81272:0:0:0:0:
448,192,81272,128,0,81458:0:0:0:0:
320,192,81458,1,0,0:0:0:0:
64,192,81504,1,0,0:0:0:0:
192,192,81550,128,0,81643:0:0:0:0:
320,192,81643,128,0,81735:0:0:0:0:
192,192,81735,128,0,81828:0:0:0:0:
64,192,81828,128,0,82013:0:0:0:0:
192,192,82013,128,0,82198:0:0:0:0:
448,192,82198,128,0,82384:0:0:0:0:
320,192,82384,128,0,82939:0:0:0:0:
64,192,82939,128,0,83124:0:0:0:0:
192,192,83124,128,0,83309:0:0:0:0:
448,192,83309,128,0,83495:0:0:0:0:
320,192,83495,128,0,83865:0:0:0:0:
64,192,83865,128,0,84050:0:0:0:0:
192,192,84050,128,0,84235:0:0:0:0:
448,192,84235,128,0,84421:0:0:0:0:
320,192,84421,128,0,84791:0:0:0:0:
64,192,84791,128,0,84976:0:0:0:0:
320,192,84976,128,0,85161:0:0:0:0:
448,192,85161,128,0,85346:0:0:0:0:
192,192,85346,128,0,85902:0:0:0:0:
64,192,85902,128,0,86087:0:0:0:0:
320,192,86087,1,0,0:0:0:0:
64,192,86180,1,0,0:0:0:0:
192,192,86180,1,0,0:0:0:0:
320,192,86226,1,0,0:0:0:0:
64,192,86272,1,0,0:0:0:0:
448,192,86272,1,0,0:0:0:0:
192,192,86365,128,0,86458:0:0:0:0:
320,192,86458,128,0,86643:0:0:0:0:
64,192,86550,128,0,86735:0:0:0:0:
320,192,86735,1,0,0:0:0:0:
192,192,86828,128,0,87013:0:0:0:0:
320,192,87013,128,0,87198:0:0:0:0:
64,192,87106,128,0,87291:0:0:0:0:
448,192,87198,128,0,87384:0:0:0:0:
192,192,87291,128,0,87384:0:0:0:0:
320,192,87384,1,0,0:0:0:0:
64,192,87430,1,0,0:0:0:0:
192,192,87476,128,0,87569:0:0:0:0:
320,192,87569,128,0,87661:0:0:0:0:
192,192,87661,128,0,87754:0:0:0:0:
64,192,87754,128,0,87939:0:0:0:0:
320,192,87754,128,0,87846:0:0:0:0:
448,192,87754,128,0,87939:0:0:0:0:
320,192,87939,128,0,88124:0:0:0:0:
448,192,88124,128,0,88309:0:0:0:0:
192,192,88309,128,0,88865:0:0:0:0:
64,192,88865,128,0,89050:0:0:0:0:
320,192,89050,128,0,89235:0:0:0:0:
448,192,89235,128,0,89421:0:0:0:0:
192,192,89421,128,0,89791:0:0:0:0:
64,192,89791,128,0,89976:0:0:0:0:
320,192,89976,128,0,90161:0:0:0:0:
448,192,90161,128,0,90346:0:0:0:0:
192,192,90346,128,0,90717:0:0:0:0:
64,192,90717,128,0,90902:0:0:0:0:
320,192,90902,128,0,91087:0:0:0:0:
448,192,91087,128,0,91272:0:0:0:0:
192,192,91272,128,0,91828:0:0:0:0:
64,192,91828,128,0,92013:0:0:0:0:
320,192,92013,128,0,92198:0:0:0:0:
448,192,92198,128,0,92384:0:0:0:0:
192,192,92384,128,0,92754:0:0:0:0:
64,192,92754,128,0,92939:0:0:0:0:
320,192,92939,128,0,93124:0:0:0:0:
448,192,93124,128,0,93309:0:0:0:0:
192,192,93309,128,0,93680:0:0:0:0:
320,192,93495,128,0,93680:0:0:0:0:
64,192,93495,128,0,93587:0:0:0:0:
448,192,93495,128,0,93680:0:0:0:0:
64,192,93680,128,0,93865:0:0:0:0:
320,192,93865,128,0,94050:0:0:0:0:
448,192,94050,128,0,94235:0:0:0:0:
192,192,94235,128,0,94791:0:0:0:0:
320,192,94421,1,0,0:0:0:0:
448,192,94606,1,0,0:0:0:0:
64,192,94791,128,0,94976:0:0:0:0:
320,192,94976,128,0,95161:0:0:0:0:
192,192,94976,128,0,95161:0:0:0:0:
448,192,94976,128,0,95069:0:0:0:0:
448,192,95161,128,0,95346:0:0:0:0:
192,192,95346,128,0,95717:0:0:0:0:
448,192,95532,1,0,0:0:0:0:
64,192,95717,128,0,95902:0:0:0:0:
448,192,95717,1,0,0:0:0:0:
320,192,95902,128,0,96087:0:0:0:0:
448,192,95902,1,0,0:0:0:0:
448,192,96087,128,0,96272:0:0:0:0:
64,192,96087,1,0,0:0:0:0:
320,192,96272,128,0,96643:0:0:0:0:
64,192,96272,1,0,0:0:0:0:
64,192,96458,128,0,96550:0:0:0:0:
192,192,96458,128,0,96643:0:0:0:0:
448,192,96458,128,0,96643:0:0:0:0:
64,192,96643,128,0,96735:0:0:0:0:
192,192,96735,1,0,0:0:0:0:
320,192,96828,128,0,96921:0:0:0:0:
192,192,96921,1,0,0:0:0:0:
448,192,97013,128,0,97106:0:0:0:0:
320,192,97106,1,0,0:0:0:0:
192,192,97198,128,0,97291:0:0:0:0:
64,192,97198,128,0,97384:0:0:0:0:
448,192,97198,128,0,97384:0:0:0:0:
320,192,97291,1,0,0:0:0:0:
192,192,97384,1,0,0:0:0:0:
448,192,97476,1,0,0:0:0:0:
192,192,97569,1,0,0:0:0:0:
320,192,97661,1,0,0:0:0:0:
64,192,97754,128,0,97846:0:0:0:0:
192,192,97846,1,0,0:0:0:0:
320,192,97939,128,0,98032:0:0:0:0:
64,192,97939,128,0,98032:0:0:0:0:
448,192,97939,128,0,98032:0:0:0:0:
192,192,98032,1,0,0:0:0:0:
448,192,98124,128,0,98217:0:0:0:0:
64,192,98171,1,0,0:0:0:0:
320,192,98217,1,0,0:0:0:0:
192,192,98309,128,0,98402:0:0:0:0:
64,192,98309,128,0,98495:0:0:0:0:
448,192,98309,1,0,0:0:0:0:
320,192,98402,1,0,0:0:0:0:
448,192,98448,1,0,0:0:0:0:
192,192,98495,1,0,0:0:0:0:
448,192,98587,128,0,98772:0:0:0:0:
64,192,98587,1,0,0:0:0:0:
320,192,98587,128,0,98680:0:0:0:0:
192,192,98680,1,0,0:0:0:0:
64,192,98726,1,0,0:0:0:0:
320,192,98772,1,0,0:0:0:0:
192,192,98865,1,0,0:0:0:0:
320,192,98958,128,0,99143:0:0:0:0:
64,192,99143,1,0,0:0:0:0:
192,192,99235,1,0,0:0:0:0:
192,192,99328,1,0,0:0:0:0:
320,192,99421,128,0,99606:0:0:0:0:
192,192,99606,1,0,0:0:0:0:
64,192,99606,1,0,0:0:0:0:
448,192,99667,1,0,0:0:0:0:
320,192,99729,1,0,0:0:0:0:
192,192,99791,1,0,0:0:0:0:
448,192,99853,1,0,0:0:0:0:
64,192,99914,1,0,0:0:0:0:
320,192,99976,1,0,0:0:0:0:
448,192,100038,1,0,0:0:0:0:
192,192,100100,1,0,0:0:0:0:
64,192,100161,1,0,0:0:0:0:
448,192,100223,1,0,0:0:0:0:
320,192,100223,1,0,0:0:0:0:
64,192,100285,1,0,0:0:0:0:
192,192,100346,1,0,0:0:0:0:
448,192,100346,1,0,0:0:0:0:
192,192,100439,1,0,0:0:0:0:
64,192,100485,1,0,0:0:0:0:
320,192,100532,128,0,100717:0:0:0:0:
192,192,100717,128,0,100840:0:0:0:0:
320,192,100902,1,0,0:0:0:0:
448,192,100902,1,0,0:0:0:0:
64,192,100964,1,0,0:0:0:0:
192,192,101026,1,0,0:0:0:0:
320,192,101087,1,0,0:0:0:0:
192,192,101180,1,0,0:0:0:0:
64,192,101180,1,0,0:0:0:0:
448,192,101272,1,0,0:0:0:0:
192,192,101365,1,0,0:0:0:0:
64,192,101365,1,0,0:0:0:0:
320,192,101458,1,0,0:0:0:0:
448,192,101504,1,0,0:0:0:0:
192,192,101550,1,0,0:0:0:0:
64,192,101596,1,0,0:0:0:0:
320,192,101643,1,0,0:0:0:0:
448,192,101643,1,0,0:0:0:0:
192,192,101712,1,0,0:0:0:0:
448,192,101782,1,0,0:0:0:0:
320,192,101828,1,0,0:0:0:0:
64,192,101828,1,0,0:0:0:0:
192,192,101921,128,0,102013:0:0:0:0:
320,192,102013,128,0,102106:0:0:0:0:
448,192,102106,128,0,102167:0:0:0:0:
64,192,102198,1,0,0:0:0:0:
192,192,102245,1,0,0:0:0:0:
320,192,102291,1,0,0:0:0:0:
64,192,102322,1,0,0:0:0:0:
448,192,102353,1,0,0:0:0:0:
192,192,102384,1,0,0:0:0:0:
320,192,102414,1,0,0:0:0:0:
64,192,102445,1,0,0:0:0:0:
448,192,102476,128,0,102569:0:0:0:0:
192,192,102569,1,0,0:0:0:0:
64,192,102569,128,0,102754:0:0:0:0:
320,192,102661,1,0,0:0:0:0:
192,192,102754,1,0,0:0:0:0:
320,192,102846,128,0,103032:0:0:0:0:
448,192,102846,1,0,0:0:0:0:
64,192,102939,1,0,0:0:0:0:
448,192,103032,1,0,0:0:0:0:
64,192,103124,1,0,0:0:0:0:
192,192,103124,1,0,0:0:0:0:
320,192,103217,1,0,0:0:0:0:
448,192,103309,1,0,0:0:0:0:
64,192,103309,1,0,0:0:0:0:
192,192,103402,128,0,103587:0:0:0:0:
320,192,103495,1,0,0:0:0:0:
64,192,103587,1,0,0:0:0:0:
320,192,103680,128,0,103865:0:0:0:0:
192,192,103772,128,0,103865:0:0:0:0:
448,192,103865,1,0,0:0:0:0:
192,192,103958,1,0,0:0:0:0:
64,192,103958,128,0,104328:0:0:0:0:
448,192,104050,128,0,104235:0:0:0:0:
320,192,104143,1,0,0:0:0:0:
192,192,104235,1,0,0:0:0:0:
320,192,104328,128,0,104513:0:0:0:0:
448,192,104328,1,0,0:0:0:0:
64,192,104421,1,0,0:0:0:0:
448,192,104513,1,0,0:0:0:0:
320,192,104606,1,0,0:0:0:0:
192,192,104698,1,0,0:0:0:0:
448,192,104791,1,0,0:0:0:0:
64,192,104791,1,0,0:0:0:0:
448,192,104884,1,0,0:0:0:0:
64,192,104884,1,0,0:0:0:0:
320,192,104976,1,0,0:0:0:0:
192,192,104976,1,0,0:0:0:0:
64,192,105069,1,0,0:0:0:0:
448,192,105069,1,0,0:0:0:0:
320,192,105161,1,0,0:0:0:0:
192,192,105254,1,0,0:0:0:0:
64,192,105254,1,0,0:0:0:0:
448,192,105300,1,0,0:0:0:0:
320,192,105346,1,0,0:0:0:0:
64,192,105346,1,0,0:0:0:0:
320,192,105439,1,0,0:0:0:0:
448,192,105439,1,0,0:0:0:0:
64,192,105532,1,0,0:0:0:0:
192,192,105532,1,0,0:0:0:0:
448,192,105593,1,0,0:0:0:0:
320,192,105655,1,0,0:0:0:0:
192,192,105717,1,0,0:0:0:0:
448,192,105779,1,0,0:0:0:0:
64,192,105840,1,0,0:0:0:0:
320,192,105902,1,0,0:0:0:0:
448,192,105964,1,0,0:0:0:0:
192,192,106026,1,0,0:0:0:0:
64,192,106087,1,0,0:0:0:0:
448,192,106149,1,0,0:0:0:0:
320,192,106149,1,0,0:0:0:0:
64,192,106211,1,0,0:0:0:0:
192,192,106272,1,0,0:0:0:0:
448,192,106272,128,0,106396:0:0:0:0:
320,192,106334,128,0,106396:0:0:0:0:
64,192,106828,1,0,0:0:0:0:
192,192,106828,1,0,0:0:0:0:
448,192,106890,1,0,0:0:0:0:
64,192,106951,1,0,0:0:0:0:
192,192,107013,1,0,0:0:0:0:
320,192,107106,1,0,0:0:0:0:
448,192,107106,1,0,0:0:0:0:
64,192,107198,1,0,0:0:0:0:
448,192,107229,1,0,0:0:0:0:
320,192,107260,1,0,0:0:0:0:
192,192,107291,1,0,0:0:0:0:
64,192,107291,1,0,0:0:0:0:
448,192,107384,1,0,0:0:0:0:
192,192,107430,1,0,0:0:0:0:
320,192,107476,1,0,0:0:0:0:
448,192,107522,1,0,0:0:0:0:
192,192,107569,1,0,0:0:0:0:
64,192,107569,1,0,0:0:0:0:
320,192,107661,128,0,107754:0:0:0:0:
448,192,107754,1,0,0:0:0:0:
64,192,107754,1,0,0:0:0:0:
192,192,107846,128,0,107939:0:0:0:0:
320,192,107939,128,0,108032:0:0:0:0:
64,192,108032,1,0,0:0:0:0:
192,192,108078,1,0,0:0:0:0:
320,192,108124,1,0,0:0:0:0:
448,192,108124,128,0,108248:0:0:0:0:
448,192,108309,128,0,108433:0:0:0:0:
64,192,108495,128,0,108680:0:0:0:0:
192,192,108495,128,0,108587:0:0:0:0:
320,192,108587,1,0,0:0:0:0:
448,192,108680,1,0,0:0:0:0:
192,192,108772,128,0,108865:0:0:0:0:
64,192,108772,128,0,108958:0:0:0:0:
320,192,108865,1,0,0:0:0:0:
448,192,108958,1,0,0:0:0:0:
64,192,109050,1,0,0:0:0:0:
448,192,109050,128,0,109235:0:0:0:0:
64,192,109235,128,0,109421:0:0:0:0:
192,192,109235,128,0,109328:0:0:0:0:
320,192,109328,1,0,0:0:0:0:
448,192,109421,1,0,0:0:0:0:
64,192,109513,128,0,109698:0:0:0:0:
192,192,109513,128,0,109606:0:0:0:0:
320,192,109606,1,0,0:0:0:0:
448,192,109698,1,0,0:0:0:0:
448,192,109791,128,0,109976:0:0:0:0:
64,192,109791,1,0,0:0:0:0:
192,192,109976,128,0,110069:0:0:0:0:
64,192,109976,128,0,110161:0:0:0:0:
320,192,110069,1,0,0:0:0:0:
448,192,110161,1,0,0:0:0:0:
192,192,110254,128,0,110346:0:0:0:0:
64,192,110254,128,0,110439:0:0:0:0:
320,192,110346,1,0,0:0:0:0:
448,192,110439,1,0,0:0:0:0:
64,192,110532,1,0,0:0:0:0:
448,192,110532,128,0,110809:0:0:0:0:
192,192,110809,128,0,110902:0:0:0:0:
64,192,110809,128,0,110995:0:0:0:0:
320,192,110902,1,0,0:0:0:0:
192,192,110995,1,0,0:0:0:0:
448,192,111087,128,0,111272:0:0:0:0:
320,192,111087,128,0,111458:0:0:0:0:
64,192,111272,128,0,111458:0:0:0:0:
448,192,111828,1,0,0:0:0:0:
320,192,111828,1,0,0:0:0:0:
192,192,111890,1,0,0:0:0:0:
64,192,111951,1,0,0:0:0:0:
320,192,112013,1,0,0:0:0:0:
192,192,112075,1,0,0:0:0:0:
448,192,112137,1,0,0:0:0:0:
64,192,112198,1,0,0:0:0:0:
320,192,112198,1,0,0:0:0:0:
320,192,112291,1,0,0:0:0:0:
448,192,112337,1,0,0:0:0:0:
192,192,112384,128,0,112569:0:0:0:0:
320,192,112569,128,0,112692:0:0:0:0:
64,192,112754,1,0,0:0:0:0:
192,192,112754,1,0,0:0:0:0:
64,192,112846,1,0,0:0:0:0:
448,192,112939,1,0,0:0:0:0:
448,192,113032,1,0,0:0:0:0:
320,192,113032,128,0,113309:0:0:0:0:
192,192,113309,1,0,0:0:0:0:
64,192,113309,128,0,113495:0:0:0:0:
320,192,113495,1,0,0:0:0:0:
448,192,113495,1,0,0:0:0:0:
192,192,113564,1,0,0:0:0:0:
448,192,113634,1,0,0:0:0:0:
320,192,113680,1,0,0:0:0:0:
64,192,113680,1,0,0:0:0:0:
192,192,113772,128,0,113865:0:0:0:0:
320,192,113865,128,0,113958:0:0:0:0:
448,192,113958,128,0,114019:0:0:0:0:
64,192,114050,1,0,0:0:0:0:
192,192,114096,1,0,0:0:0:0:
320,192,114143,1,0,0:0:0:0:
64,192,114174,1,0,0:0:0:0:
448,192,114205,1,0,0:0:0:0:
192,192,114235,128,0,114421:0:0:0:0:
320,192,114421,128,0,114513:0:0:0:0:
64,192,114513,1,0,0:0:0:0:
320,192,114606,1,0,0:0:0:0:
448,192,114606,1,0,0:0:0:0:
320,192,114698,1,0,0:0:0:0:
448,192,114698,1,0,0:0:0:0:
192,192,114791,128,0,114976:0:0:0:0:
64,192,114884,1,0,0:0:0:0:
320,192,114976,1,0,0:0:0:0:
448,192,114976,1,0,0:0:0:0:
192,192,115069,1,0,0:0:0:0:
64,192,115161,128,0,115346:0:0:0:0:
320,192,115161,1,0,0:0:0:0:
448,192,115254,1,0,0:0:0:0:
320,192,115346,1,0,0:0:0:0:
192,192,115408,1,0,0:0:0:0:
64,192,115470,1,0,0:0:0:0:
448,192,115532,128,0,115717:0:0:0:0:
192,192,115624,128,0,115717:0:0:0:0:
320,192,115717,1,0,0:0:0:0:
192,192,115809,1,0,0:0:0:0:
64,192,115809,128,0,116087:0:0:0:0:
448,192,115902,1,0,0:0:0:0:
320,192,115995,1,0,0:0:0:0:
448,192,116087,128,0,116272:0:0:0:0:
64,192,116180,1,0,0:0:0:0:
192,192,116180,1,0,0:0:0:0:
320,192,116272,128,0,116458:0:0:0:0:
448,192,116365,1,0,0:0:0:0:
192,192,116458,1,0,0:0:0:0:
64,192,116458,1,0,0:0:0:0:
320,192,116550,1,0,0:0:0:0:
64,192,116643,1,0,0:0:0:0:
448,192,116643,1,0,0:0:0:0:
64,192,116735,1,0,0:0:0:0:
448,192,116735,1,0,0:0:0:0:
192,192,116828,1,0,0:0:0:0:
320,192,116828,1,0,0:0:0:0:
64,192,116921,1,0,0:0:0:0:
448,192,116921,1,0,0:0:0:0:
192,192,117013,1,0,0:0:0:0:
320,192,117106,1,0,0:0:0:0:
448,192,117106,1,0,0:0:0:0:
64,192,117152,1,0,0:0:0:0:
192,192,117198,1,0,0:0:0:0:
448,192,117198,1,0,0:0:0:0:
192,192,117291,1,0,0:0:0:0:
64,192,117291,1,0,0:0:0:0:
320,192,117384,1,0,0:0:0:0:
448,192,117384,1,0,0:0:0:0:
64,192,117445,1,0,0:0:0:0:
192,192,117507,1,0,0:0:0:0:
320,192,117569,1,0,0:0:0:0:
64,192,117630,1,0,0:0:0:0:
448,192,117692,1,0,0:0:0:0:
192,192,117754,1,0,0:0:0:0:
64,192,117816,1,0,0:0:0:0:
320,192,117877,1,0,0:0:0:0:
448,192,117939,1,0,0:0:0:0:
192,192,118001,1,0,0:0:0:0:
64,192,118001,1,0,0:0:0:0:
448,192,118063,1,0,0:0:0:0:
64,192,118124,1,0,0:0:0:0:
320,192,118124,128,0,118402:0:0:0:0:
192,192,118402,128,0,118680:0:0:0:0:
448,192,118402,1,0,0:0:0:0:
320,192,118680,1,0,0:0:0:0:
448,192,118680,1,0,0:0:0:0:
64,192,118742,1,0,0:0:0:0:
448,192,118803,1,0,0:0:0:0:
320,192,118865,1,0,0:0:0:0:
192,192,118958,1,0,0:0:0:0:
64,192,118958,1,0,0:0:0:0:
448,192,119050,1,0,0:0:0:0:
64,192,119081,1,0,0:0:0:0:
192,192,119112,1,0,0:0:0:0:
320,192,119143,1,0,0:0:0:0:
448,192,119143,1,0,0:0:0:0:
64,192,119235,1,0,0:0:0:0:
320,192,119282,1,0,0:0:0:0:
192,192,119328,1,0,0:0:0:0:
64,192,119374,1,0,0:0:0:0:
320,192,119421,1,0,0:0:0:0:
448,192,119421,1,0,0:0:0:0:
192,192,119513,128,0,119606:0:0:0:0:
64,192,119606,1,0,0:0:0:0:
448,192,119606,1,0,0:0:0:0:
320,192,119698,128,0,119791:0:0:0:0:
192,192,119791,128,0,119884:0:0:0:0:
448,192,119884,1,0,0:0:0:0:
320,192,119930,1,0,0:0:0:0:
64,192,119976,128,0,120022:0:0:0:0:
64,192,120069,128,0,120115:0:0:0:0:
448,192,120161,1,0,0:0:0:0:
192,192,120208,1,0,0:0:0:0:
320,192,120254,1,0,0:0:0:0:
64,192,120300,1,0,0:0:0:0:
448,192,120346,1,0,0:0:0:0:
64,192,120439,128,0,120532:0:0:0:0:
192,192,120439,128,0,120532:0:0:0:0:
320,192,120532,1,0,0:0:0:0:
64,192,120624,128,0,120717:0:0:0:0:
192,192,120624,128,0,120809:0:0:0:0:
448,192,120717,1,0,0:0:0:0:
64,192,120809,1,0,0:0:0:0:
320,192,120902,128,0,121087:0:0:0:0:
448,192,120902,128,0,120995:0:0:0:0:
192,192,120995,1,0,0:0:0:0:
64,192,121087,128,0,123217:0:0:0:0:
448,192,121087,128,0,123309:0:0:0:0:
192,192,122106,128,0,122198:0:0:0:0:
192,192,122291,128,0,122384:0:0:0:0:
320,192,122476,128,0,122661:0:0:0:0:
320,192,122846,128,0,123309:0:0:0:0:
192,192,123309,1,0,0:0:0:0:
64,192,123309,1,0,0:0:0:0:
448,192,123371,1,0,0:0:0:0:
320,192,123433,1,0,0:0:0:0:
192,192,123495,1,0,0:0:0:0:
448,192,123556,1,0,0:0:0:0:
64,192,123618,1,0,0:0:0:0:
320,192,123680,1,0,0:0:0:0:
448,192,123742,1,0,0:0:0:0:
192,192,123803,1,0,0:0:0:0:
64,192,123865,1,0,0:0:0:0:
320,192,123927,1,0,0:0:0:0:
448,192,123927,1,0,0:0:0:0:
64,192,123988,1,0,0:0:0:0:
192,192,124050,1,0,0:0:0:0:
448,192,124050,1,0,0:0:0:0:
192,192,124143,1,0,0:0:0:0:
64,192,124189,1,0,0:0:0:0:
320,192,124235,1,0,0:0:0:0:
192,192,124282,1,0,0:0:0:0:
320,192,124359,1,0,0:0:0:0:
192,192,124451,1,0,0:0:0:0:
320,192,124575,1,0,0:0:0:0:
320,192,124745,128,0,124884:0:0:0:0:
64,192,124884,128,0,124976:0:0:0:0:
448,192,124976,128,0,125022:0:0:0:0:
448,192,125069,128,0,125115:0:0:0:0:
64,192,125161,1,0,0:0:0:0:
192,192,125161,1,0,0:0:0:0:
192,192,125254,1,0,0:0:0:0:
64,192,125254,1,0,0:0:0:0:
320,192,125346,1,0,0:0:0:0:
448,192,125346,1,0,0:0:0:0:
320,192,125439,1,0,0:0:0:0:
448,192,125439,1,0,0:0:0:0:
64,192,125532,1,0,0:0:0:0:
448,192,125532,1,0,0:0:0:0:
192,192,125593,1,0,0:0:0:0:
320,192,125655,1,0,0:0:0:0:
64,192,125717,1,0,0:0:0:0:
448,192,125779,1,0,0:0:0:0:
320,192,125840,1,0,0:0:0:0:
192,192,125902,1,0,0:0:0:0:
64,192,125995,128,0,126087:0:0:0:0:
448,192,126087,1,0,0:0:0:0:
192,192,126134,1,0,0:0:0:0:
320,192,126180,1,0,0:0:0:0:
64,192,126211,1,0,0:0:0:0:
192,192,126242,1,0,0:0:0:0:
448,192,126272,1,0,0:0:0:0:
320,192,126272,128,0,126365:0:0:0:0:
64,192,126365,1,0,0:0:0:0:
448,192,126458,1,0,0:0:0:0:
64,192,126550,1,0,0:0:0:0:
192,192,126550,128,0,126643:0:0:0:0:
320,192,126643,128,0,126735:0:0:0:0:
64,192,126735,128,0,126828:0:0:0:0:
320,192,126828,1,0,0:0:0:0:
448,192,126828,1,0,0:0:0:0:
192,192,126921,128,0,127013:0:0:0:0:
64,192,127013,1,0,0:0:0:0:
320,192,127013,1,0,0:0:0:0:
448,192,127106,128,0,127198:0:0:0:0:
192,192,127198,1,0,0:0:0:0:
320,192,127291,128,0,127384:0:0:0:0:
448,192,127384,128,0,127569:0:0:0:0:
64,192,127476,128,0,127569:0:0:0:0:
192,192,127569,128,0,127661:0:0:0:0:
320,192,127661,1,0,0:0:0:0:
448,192,127661,1,0,0:0:0:0:
64,192,127754,128,0,127939:0:0:0:0:
448,192,127846,128,0,128032:0:0:0:0:
320,192,127939,128,0,128032:0:0:0:0:
192,192,128032,1,0,0:0:0:0:
64,192,128032,1,0,0:0:0:0:
448,192,128124,1,0,0:0:0:0:
64,192,128217,1,0,0:0:0:0:
192,192,128248,1,0,0:0:0:0:
320,192,128309,1,0,0:0:0:0:
448,192,128309,1,0,0:0:0:0:
192,192,128402,1,0,0:0:0:0:
64,192,128495,1,0,0:0:0:0:
448,192,128495,1,0,0:0:0:0:
448,192,128618,1,0,0:0:0:0:
64,192,128618,1,0,0:0:0:0:
448,192,128742,1,0,0:0:0:0:
64,192,128742,1,0,0:0:0:0:
320,192,128865,1,0,0:0:0:0:
320,192,128988,1,0,0:0:0:0:
320,192,129112,1,0,0:0:0:0:
64,192,129235,1,0,0:0:0:0:
192,192,129235,1,0,0:0:0:0:
448,192,129297,1,0,0:0:0:0:
320,192,129359,1,0,0:0:0:0:
192,192,129421,1,0,0:0:0:0:
448,192,129482,1,0,0:0:0:0:
64,192,129544,1,0,0:0:0:0:
320,192,129606,1,0,0:0:0:0:
448,192,129667,1,0,0:0:0:0:
192,192,129729,1,0,0:0:0:0:
64,192,129791,1,0,0:0:0:0:
448,192,129853,1,0,0:0:0:0:
320,192,129853,1,0,0:0:0:0:
64,192,129914,1,0,0:0:0:0:
448,192,129976,128,0,130254:0:0:0:0:
192,192,129976,1,0,0:0:0:0:
64,192,130254,128,0,130532:0:0:0:0:
320,192,130254,1,0,0:0:0:0:
320,192,130532,1,0,0:0:0:0:
448,192,130532,1,0,0:0:0:0:
192,192,130593,1,0,0:0:0:0:
64,192,130655,1,0,0:0:0:0:
448,192,130717,1,0,0:0:0:0:
192,192,130809,1,0,0:0:0:0:
64,192,130809,1,0,0:0:0:0:
320,192,130902,1,0,0:0:0:0:
192,192,130933,1,0,0:0:0:0:
64,192,130964,1,0,0:0:0:0:
320,192,130995,1,0,0:0:0:0:
448,192,130995,1,0,0:0:0:0:
192,192,131087,1,0,0:0:0:0:
64,192,131134,1,0,0:0:0:0:
320,192,131180,1,0,0:0:0:0:
448,192,131226,1,0,0:0:0:0:
64,192,131272,1,0,0:0:0:0:
192,192,131272,1,0,0:0:0:0:
320,192,131365,1,0,0:0:0:0:
192,192,131411,1,0,0:0:0:0:
448,192,131458,1,0,0:0:0:0:
64,192,131458,128,0,131643:0:0:0:0:
320,192,131643,128,0,131828:0:0:0:0:
448,192,131735,128,0,131828:0:0:0:0:
192,192,131828,128,0,131890:0:0:0:0:
192,192,131951,128,0,132013:0:0:0:0:
192,192,132075,128,0,132137:0:0:0:0:
320,192,132198,128,0,132291:0:0:0:0:
448,192,132198,128,0,132384:0:0:0:0:
192,192,132291,1,0,0:0:0:0:
64,192,132384,1,0,0:0:0:0:
320,192,132476,128,0,132569:0:0:0:0:
448,192,132476,128,0,132661:0:0:0:0:
192,192,132569,1,0,0:0:0:0:
64,192,132661,1,0,0:0:0:0:
64,192,132754,128,0,132939:0:0:0:0:
448,192,132754,1,0,0:0:0:0:
320,192,132939,128,0,133032:0:0:0:0:
448,192,132939,128,0,133124:0:0:0:0:
192,192,133032,1,0,0:0:0:0:
64,192,133124,1,0,0:0:0:0:
320,192,133217,128,0,133309:0:0:0:0:
448,192,133217,128,0,133402:0:0:0:0:
192,192,133309,1,0,0:0:0:0:
64,192,133402,1,0,0:0:0:0:
64,192,133495,128,0,133680:0:0:0:0:
448,192,133495,1,0,0:0:0:0:
320,192,133680,1,0,0:0:0:0:
448,192,133680,1,0,0:0:0:0:
320,192,133865,1,0,0:0:0:0:
64,192,133865,1,0,0:0:0:0:
64,192,133958,1,0,0:0:0:0:
192,192,133958,1,0,0:0:0:0:
192,192,134143,1,0,0:0:0:0:
448,192,134143,1,0,0:0:0:0:
320,192,134235,1,0,0:0:0:0:
448,192,134235,1,0,0:0:0:0:
64,192,134421,1,0,0:0:0:0:
320,192,134421,1,0,0:0:0:0:
448,192,134467,1,0,0:0:0:0:
192,192,134513,1,0,0:0:0:0:
320,192,134559,1,0,0:0:0:0:
64,192,134606,1,0,0:0:0:0:
192,192,134652,1,0,0:0:0:0:
448,192,134698,1,0,0:0:0:0:
320,192,134745,1,0,0:0:0:0:
64,192,134791,1,0,0:0:0:0:
448,192,134837,1,0,0:0:0:0:
192,192,134884,1,0,0:0:0:0:
320,192,134930,1,0,0:0:0:0:
448,192,134976,1,0,0:0:0:0:
64,192,135022,1,0,0:0:0:0:
192,192,135069,1,0,0:0:0:0:
320,192,135115,1,0,0:0:0:0:
192,192,135161,128,0,135902:0:0:0:0:
448,192,135161,128,0,135902:0:0:0:0:
64,192,135161,128,0,135902:0:0:0:0:
64,192,140717,128,0,141087:0:0:0:0:
320,192,140717,128,0,141087:0:0:0:0:
448,192,140717,128,0,141087:0:0:0:0:
64,192,142198,128,0,142569:0:0:0:0:
192,192,142198,128,0,142569:0:0:0:0:
448,192,142198,128,0,142569:0:0:0:0:
64,192,143865,128,0,144235:0:0:0:0:
320,192,143865,128,0,144235:0:0:0:0:
448,192,143865,128,0,144235:0:0:0:0:
64,192,144606,128,0,144976:0:0:0:0:
192,192,144606,128,0,144976:0:0:0:0:
448,192,144606,128,0,144976:0:0:0:0:
320,192,145439,1,0,0:0:0:0:
192,192,145485,1,0,0:0:0:0:
64,192,145532,1,0,0:0:0:0:
320,192,145532,1,0,0:0:0:0:
448,192,145532,1,0,0:0:0:0:
320,192,145717,1,0,0:0:0:0:
64,192,145717,1,0,0:0:0:0:
448,192,145809,1,0,0:0:0:0:
192,192,145809,1,0,0:0:0:0:
64,192,145809,1,0,0:0:0:0:
192,192,145995,1,0,0:0:0:0:
448,192,145995,1,0,0:0:0:0:
64,192,146087,1,0,0:0:0:0:
320,192,146087,1,0,0:0:0:0:
448,192,146087,1,0,0:0:0:0:
64,192,146272,128,0,146643:0:0:0:0:
448,192,146272,1,0,0:0:0:0:
448,192,146643,1,0,0:0:0:0:
192,192,146689,1,0,0:0:0:0:
320,192,146735,1,0,0:0:0:0:
64,192,146782,1,0,0:0:0:0:
448,192,146828,1,0,0:0:0:0:
320,192,146859,1,0,0:0:0:0:
192,192,146890,1,0,0:0:0:0:
64,192,146921,1,0,0:0:0:0:
448,192,146951,1,0,0:0:0:0:
320,192,146982,1,0,0:0:0:0:
64,192,147013,1,0,0:0:0:0:
192,192,147013,1,0,0:0:0:0:
448,192,147075,1,0,0:0:0:0:
320,192,147137,1,0,0:0:0:0:
192,192,147198,1,0,0:0:0:0:
448,192,147260,1,0,0:0:0:0:
64,192,147322,1,0,0:0:0:0:
192,192,147384,1,0,0:0:0:0:
320,192,147445,1,0,0:0:0:0:
448,192,147507,1,0,0:0:0:0:
192,192,147569,1,0,0:0:0:0:
64,192,147569,1,0,0:0:0:0:
320,192,147630,1,0,0:0:0:0:
448,192,147630,1,0,0:0:0:0:
192,192,147692,1,0,0:0:0:0:
64,192,147754,1,0,0:0:0:0:
448,192,147754,1,0,0:0:0:0:
320,192,147939,1,0,0:0:0:0:
192,192,148124,1,0,0:0:0:0:
320,192,148309,1,0,0:0:0:0:
64,192,148495,1,0,0:0:0:0:
448,192,148495,1,0,0:0:0:0:
192,192,148680,1,0,0:0:0:0:
320,192,148865,1,0,0:0:0:0:
192,192,149050,1,0,0:0:0:0:
64,192,149235,1,0,0:0:0:0:
448,192,149235,1,0,0:0:0:0:
320,192,149421,1,0,0:0:0:0:
192,192,149606,1,0,0:0:0:0:
320,192,149791,1,0,0:0:0:0:
64,192,149976,1,0,0:0:0:0:
448,192,149976,1,0,0:0:0:0:
192,192,150161,1,0,0:0:0:0:
64,192,150346,1,0,0:0:0:0:
448,192,150346,1,0,0:0:0:0:
320,192,150532,1,0,0:0:0:0:
192,192,150624,1,0,0:0:0:0:
64,192,150717,1,0,0:0:0:0:
448,192,150717,1,0,0:0:0:0:
320,192,150809,1,0,0:0:0:0:
192,192,150902,1,0,0:0:0:0:
320,192,150995,1,0,0:0:0:0:
448,192,151087,1,0,0:0:0:0:
64,192,151087,1,0,0:0:0:0:
192,192,151180,1,0,0:0:0:0:
320,192,151272,1,0,0:0:0:0:
192,192,151365,1,0,0:0:0:0:
448,192,151458,1,0,0:0:0:0:
64,192,151458,1,0,0:0:0:0:
320,192,151550,1,0,0:0:0:0:
448,192,151643,1,0,0:0:0:0:
64,192,151643,1,0,0:0:0:0:
192,192,151735,1,0,0:0:0:0:
64,192,151828,1,0,0:0:0:0:
448,192,151828,1,0,0:0:0:0:
320,192,151921,1,0,0:0:0:0:
448,192,152013,1,0,0:0:0:0:
64,192,152013,1,0,0:0:0:0:
192,192,152106,1,0,0:0:0:0:
448,192,152291,128,0,152384:0:0:0:0:
64,192,152384,128,0,152476:0:0:0:0:
320,192,152476,128,0,152569:0:0:0:0:
448,192,152569,128,0,152661:0:0:0:0:
64,192,152661,128,0,152754:0:0:0:0:
192,192,152754,128,0,152846:0:0:0:0:
320,192,152846,128,0,152939:0:0:0:0:
64,192,152939,1,0,0:0:0:0:
192,192,152939,1,0,0:0:0:0:
448,192,153001,1,0,0:0:0:0:
320,192,153063,1,0,0:0:0:0:
64,192,153124,1,0,0:0:0:0:
448,192,153186,1,0,0:0:0:0:
192,192,153248,1,0,0:0:0:0:
64,192,153309,1,0,0:0:0:0:
320,192,153371,1,0,0:0:0:0:
192,192,153433,1,0,0:0:0:0:
64,192,153495,1,0,0:0:0:0:
320,192,153556,1,0,0:0:0:0:
448,192,153556,1,0,0:0:0:0:
64,192,153618,1,0,0:0:0:0:
192,192,153680,1,0,0:0:0:0:
448,192,153680,1,0,0:0:0:0:
64,192,153742,1,0,0:0:0:0:
448,192,153803,1,0,0:0:0:0:
192,192,153850,1,0,0:0:0:0:
320,192,153896,1,0,0:0:0:0:
64,192,153942,1,0,0:0:0:0:
192,192,153988,1,0,0:0:0:0:
320,192,154035,1,0,0:0:0:0:
448,192,154081,1,0,0:0:0:0:
192,192,154127,1,0,0:0:0:0:
64,192,154174,128,0,154390:0:0:0:0:
320,192,154328,1,0,0:0:0:0:
448,192,154390,128,0,154606:0:0:0:0:
192,192,154606,1,0,0:0:0:0:
64,192,154606,1,0,0:0:0:0:
320,192,154667,1,0,0:0:0:0:
192,192,154729,1,0,0:0:0:0:
448,192,154791,1,0,0:0:0:0:
64,192,154884,1,0,0:0:0:0:
192,192,154884,1,0,0:0:0:0:
448,192,154930,1,0,0:0:0:0:
64,192,154976,1,0,0:0:0:0:
320,192,155022,1,0,0:0:0:0:
192,192,155069,1,0,0:0:0:0:
448,192,155115,1,0,0:0:0:0:
64,192,155161,1,0,0:0:0:0:
320,192,155161,128,0,155285:0:0:0:0:
320,192,155346,128,0,155439:0:0:0:0:
192,192,155439,1,0,0:0:0:0:
64,192,155439,1,0,0:0:0:0:
448,192,155439,1,0,0:0:0:0:
320,192,155532,1,0,0:0:0:0:
192,192,155624,1,0,0:0:0:0:
64,192,155717,1,0,0:0:0:0:
320,192,155717,1,0,0:0:0:0:
448,192,155717,1,0,0:0:0:0:
448,192,155809,1,0,0:0:0:0:
192,192,155902,1,0,0:0:0:0:
64,192,155902,1,0,0:0:0:0:
320,192,155964,1,0,0:0:0:0:
448,192,156026,1,0,0:0:0:0:
192,192,156087,1,0,0:0:0:0:
320,192,156149,1,0,0:0:0:0:
64,192,156211,1,0,0:0:0:0:
192,192,156272,1,0,0:0:0:0:
448,192,156334,1,0,0:0:0:0:
320,192,156396,1,0,0:0:0:0:
192,192,156458,1,0,0:0:0:0:
64,192,156458,1,0,0:0:0:0:
320,192,156519,1,0,0:0:0:0:
192,192,156581,1,0,0:0:0:0:
64,192,156643,1,0,0:0:0:0:
448,192,156643,1,0,0:0:0:0:
320,192,156735,1,0,0:0:0:0:
64,192,156828,1,0,0:0:0:0:
448,192,156874,1,0,0:0:0:0:
192,192,156921,1,0,0:0:0:0:
320,192,156967,1,0,0:0:0:0:
64,192,157013,128,0,157059:0:0:0:0:
64,192,157106,128,0,157152:0:0:0:0:
64,192,157198,128,0,157245:0:0:0:0:
320,192,157291,1,0,0:0:0:0:
448,192,157291,1,0,0:0:0:0:
192,192,157353,1,0,0:0:0:0:
320,192,157414,1,0,0:0:0:0:
64,192,157476,1,0,0:0:0:0:
448,192,157538,1,0,0:0:0:0:
320,192,157600,1,0,0:0:0:0:
192,192,157661,128,0,157939:0:0:0:0:
64,192,157661,1,0,0:0:0:0:
448,192,157939,1,0,0:0:0:0:
320,192,157939,128,0,158124:0:0:0:0:
64,192,158124,1,0,0:0:0:0:
448,192,158124,1,0,0:0:0:0:
192,192,158217,1,0,0:0:0:0:
64,192,158217,1,0,0:0:0:0:
320,192,158309,1,0,0:0:0:0:
448,192,158309,1,0,0:0:0:0:
64,192,158356,1,0,0:0:0:0:
192,192,158402,1,0,0:0:0:0:
320,192,158448,1,0,0:0:0:0:
448,192,158495,1,0,0:0:0:0:
64,192,158587,1,0,0:0:0:0:
192,192,158587,1,0,0:0:0:0:
320,192,158680,1,0,0:0:0:0:
320,192,158772,1,0,0:0:0:0:
192,192,158865,128,0,158958:0:0:0:0:
448,192,158865,128,0,159050:0:0:0:0:
64,192,158865,128,0,159143:0:0:0:0:
320,192,158958,128,0,159235:0:0:0:0:
192,192,159050,128,0,159421:0:0:0:0:
448,192,159143,128,0,159328:0:0:0:0:
64,192,159235,128,0,159328:0:0:0:0:
320,192,159328,1,0,0:0:0:0:
64,192,159421,1,0,0:0:0:0:
320,192,159482,1,0,0:0:0:0:
448,192,159482,1,0,0:0:0:0:
192,192,159544,1,0,0:0:0:0:
64,192,159606,1,0,0:0:0:0:
448,192,159606,128,0,159698:0:0:0:0:
64,192,159791,1,0,0:0:0:0:
192,192,159791,1,0,0:0:0:0:
320,192,159837,1,0,0:0:0:0:
448,192,159884,1,0,0:0:0:0:
192,192,159930,1,0,0:0:0:0:
320,192,159976,1,0,0:0:0:0:
64,192,160022,1,0,0:0:0:0:
192,192,160069,1,0,0:0:0:0:
448,192,160115,1,0,0:0:0:0:
64,192,160161,1,0,0:0:0:0:
320,192,160254,1,0,0:0:0:0:
192,192,160300,1,0,0:0:0:0:
320,192,160346,128,0,160439:0:0:0:0:
448,192,160439,128,0,160532:0:0:0:0:
192,192,160532,1,0,0:0:0:0:
64,192,160532,1,0,0:0:0:0:
320,192,160593,1,0,0:0:0:0:
64,192,160655,1,0,0:0:0:0:
448,192,160717,1,0,0:0:0:0:
192,192,160779,1,0,0:0:0:0:
64,192,160840,1,0,0:0:0:0:
320,192,160902,1,0,0:0:0:0:
448,192,160902,1,0,0:0:0:0:
192,192,160971,1,0,0:0:0:0:
448,192,161041,1,0,0:0:0:0:
64,192,161087,1,0,0:0:0:0:
320,192,161087,128,0,161180:0:0:0:0:
192,192,161180,128,0,161272:0:0:0:0:
64,192,161272,128,0,161365:0:0:0:0:
320,192,161365,128,0,161458:0:0:0:0:
448,192,161458,1,0,0:0:0:0:
192,192,161458,1,0,0:0:0:0:
320,192,161550,128,0,161643:0:0:0:0:
64,192,161643,128,0,161735:0:0:0:0:
192,192,161735,128,0,161828:0:0:0:0:
320,192,161828,1,0,0:0:0:0:
448,192,161828,1,0,0:0:0:0:
64,192,161890,1,0,0:0:0:0:
192,192,161951,1,0,0:0:0:0:
320,192,162013,1,0,0:0:0:0:
64,192,162075,1,0,0:0:0:0:
192,192,162137,1,0,0:0:0:0:
448,192,162198,128,0,162384:0:0:0:0:
192,192,162384,1,0,0:0:0:0:
64,192,162384,1,0,0:0:0:0:
320,192,162445,1,0,0:0:0:0:
192,192,162507,1,0,0:0:0:0:
64,192,162569,1,0,0:0:0:0:
448,192,162569,1,0,0:0:0:0:
320,192,162630,1,0,0:0:0:0:
192,192,162692,1,0,0:0:0:0:
448,192,162754,1,0,0:0:0:0:
64,192,162800,1,0,0:0:0:0:
320,192,162846,1,0,0:0:0:0:
192,192,162893,1,0,0:0:0:0:
448,192,162939,128,0,162985:0:0:0:0:
448,192,163032,128,0,163078:0:0:0:0:
448,192,163124,128,0,163171:0:0:0:0:
192,192,163217,1,0,0:0:0:0:
64,192,163217,1,0,0:0:0:0:
320,192,163279,1,0,0:0:0:0:
192,192,163340,1,0,0:0:0:0:
448,192,163402,1,0,0:0:0:0:
320,192,163495,1,0,0:0:0:0:
64,192,163495,1,0,0:0:0:0:
320,192,163587,1,0,0:0:0:0:
448,192,163587,1,0,0:0:0:0:
192,192,163680,1,0,0:0:0:0:
320,192,163742,1,0,0:0:0:0:
64,192,163772,1,0,0:0:0:0:
192,192,163803,1,0,0:0:0:0:
320,192,163865,1,0,0:0:0:0:
448,192,163865,1,0,0:0:0:0:
192,192,163927,1,0,0:0:0:0:
320,192,163988,1,0,0:0:0:0:
448,192,164050,1,0,0:0:0:0:
64,192,164050,1,0,0:0:0:0:
192,192,164143,1,0,0:0:0:0:
64,192,164143,1,0,0:0:0:0:
320,192,164235,1,0,0:0:0:0:
448,192,164235,1,0,0:0:0:0:
448,192,164328,1,0,0:0:0:0:
64,192,164328,1,0,0:0:0:0:
192,192,164374,1,0,0:0:0:0:
320,192,164421,1,0,0:0:0:0:
448,192,164467,1,0,0:0:0:0:
192,192,164513,1,0,0:0:0:0:
64,192,164513,1,0,0:0:0:0:
64,192,164606,1,0,0:0:0:0:
320,192,164606,1,0,0:0:0:0:
448,192,164698,1,0,0:0:0:0:
192,192,164791,1,0,0:0:0:0:
64,192,164791,1,0,0:0:0:0:
448,192,164853,1,0,0:0:0:0:
320,192,164914,1,0,0:0:0:0:
64,192,164976,1,0,0:0:0:0:
448,192,165038,1,0,0:0:0:0:
192,192,165100,1,0,0:0:0:0:
64,192,165161,1,0,0:0:0:0:
320,192,165223,1,0,0:0:0:0:
192,192,165285,1,0,0:0:0:0:
64,192,165346,1,0,0:0:0:0:
320,192,165408,1,0,0:0:0:0:
448,192,165408,1,0,0:0:0:0:
64,192,165470,1,0,0:0:0:0:
192,192,165532,1,0,0:0:0:0:
448,192,165532,128,0,165809:0:0:0:0:
320,192,165809,1,0,0:0:0:0:
64,192,165809,128,0,166087:0:0:0:0:
192,192,166087,1,0,0:0:0:0:
448,192,166087,128,0,166365:0:0:0:0:
320,192,166365,1,0,0:0:0:0:
64,192,166365,1,0,0:0:0:0:
448,192,166458,1,0,0:0:0:0:
192,192,166504,1,0,0:0:0:0:
320,192,166550,1,0,0:0:0:0:
64,192,166596,1,0,0:0:0:0:
192,192,166643,1,0,0:0:0:0:
448,192,166643,128,0,166921:0:0:0:0:
320,192,166921,1,0,0:0:0:0:
64,192,166921,1,0,0:0:0:0:
192,192,167013,1,0,0:0:0:0:
448,192,167059,1,0,0:0:0:0:
64,192,167106,1,0,0:0:0:0:
320,192,167152,1,0,0:0:0:0:
192,192,167198,1,0,0:0:0:0:
64,192,167198,1,0,0:0:0:0:
448,192,167198,1,0,0:0:0:0:
192,192,167384,1,0,0:0:0:0:
64,192,167476,1,0,0:0:0:0:
448,192,167476,1,0,0:0:0:0:
320,192,167476,1,0,0:0:0:0:
64,192,167754,1,0,0:0:0:0:
192,192,167754,1,0,0:0:0:0:
320,192,167816,1,0,0:0:0:0:
448,192,167877,1,0,0:0:0:0:
192,192,167939,1,0,0:0:0:0:
320,192,168001,1,0,0:0:0:0:
64,192,168063,1,0,0:0:0:0:
192,192,168124,1,0,0:0:0:0:
448,192,168186,1,0,0:0:0:0:
320,192,168248,1,0,0:0:0:0:
192,192,168309,1,0,0:0:0:0:
64,192,168309,1,0,0:0:0:0:
320,192,168371,1,0,0:0:0:0:
192,192,168433,1,0,0:0:0:0:
64,192,168495,1,0,0:0:0:0:
448,192,168495,1,0,0:0:0:0:
320,192,168587,1,0,0:0:0:0:
64,192,168680,1,0,0:0:0:0:
448,192,168726,1,0,0:0:0:0:
192,192,168772,1,0,0:0:0:0:
320,192,168819,1,0,0:0:0:0:
64,192,168865,128,0,168911:0:0:0:0:
64,192,168958,128,0,169004:0:0:0:0:
64,192,169050,128,0,169096:0:0:0:0:
320,192,169143,1,0,0:0:0:0:
448,192,169143,1,0,0:0:0:0:
192,192,169205,1,0,0:0:0:0:
320,192,169266,1,0,0:0:0:0:
64,192,169328,1,0,0:0:0:0:
448,192,169390,1,0,0:0:0:0:
320,192,169451,1,0,0:0:0:0:
192,192,169513,1,0,0:0:0:0:
64,192,169513,1,0,0:0:0:0:
448,192,169606,128,0,169667:0:0:0:0:
64,192,169729,128,0,169791:0:0:0:0:
320,192,169791,1,0,0:0:0:0:
448,192,169791,1,0,0:0:0:0:
192,192,169853,128,0,169914:0:0:0:0:
64,192,169976,1,0,0:0:0:0:
448,192,169976,1,0,0:0:0:0:
192,192,170069,1,0,0:0:0:0:
64,192,170069,1,0,0:0:0:0:
448,192,170069,1,0,0:0:0:0:
320,192,170161,1,0,0:0:0:0:
448,192,170161,1,0,0:0:0:0:
64,192,170208,1,0,0:0:0:0:
192,192,170254,1,0,0:0:0:0:
320,192,170300,1,0,0:0:0:0:
448,192,170346,1,0,0:0:0:0:
64,192,170439,1,0,0:0:0:0:
192,192,170439,1,0,0:0:0:0:
320,192,170532,1,0,0:0:0:0:
320,192,170624,1,0,0:0:0:0:
448,192,170717,128,0,170902:0:0:0:0:
64,192,170717,128,0,170995:0:0:0:0:
192,192,170717,128,0,170809:0:0:0:0:
320,192,170809,128,0,171087:0:0:0:0:
192,192,170902,128,0,171272:0:0:0:0:
448,192,170995,128,0,171180:0:0:0:0:
64,192,171087,128,0,171180:0:0:0:0:
320,192,171180,1,0,0:0:0:0:
64,192,171272,1,0,0:0:0:0:
448,192,171334,1,0,0:0:0:0:
320,192,171334,1,0,0:0:0:0:
192,192,171396,1,0,0:0:0:0:
320,192,171458,1,0,0:0:0:0:
448,192,171458,1,0,0:0:0:0:
64,192,171458,128,0,171643:0:0:0:0:
320,192,171643,1,0,0:0:0:0:
448,192,171643,1,0,0:0:0:0:
192,192,171735,1,0,0:0:0:0:
64,192,171735,1,0,0:0:0:0:
448,192,171735,128,0,171921:0:0:0:0:
192,192,171921,1,0,0:0:0:0:
64,192,171921,1,0,0:0:0:0:
320,192,172013,1,0,0:0:0:0:
448,192,172013,1,0,0:0:0:0:
64,192,172013,128,0,172198:0:0:0:0:
320,192,172198,1,0,0:0:0:0:
448,192,172198,1,0,0:0:0:0:
448,192,172291,1,0,0:0:0:0:
192,192,172291,1,0,0:0:0:0:
64,192,172291,1,0,0:0:0:0:
320,192,172384,1,0,0:0:0:0:
192,192,172476,1,0,0:0:0:0:
64,192,172476,1,0,0:0:0:0:
320,192,172569,1,0,0:0:0:0:
448,192,172569,1,0,0:0:0:0:
64,192,172569,128,0,172754:0:0:0:0:
320,192,172754,1,0,0:0:0:0:
448,192,172754,1,0,0:0:0:0:
192,192,172846,1,0,0:0:0:0:
64,192,172846,1,0,0:0:0:0:
448,192,172846,128,0,173032:0:0:0:0:
320,192,172939,128,0,173032:0:0:0:0:
192,192,173032,1,0,0:0:0:0:
64,192,173032,1,0,0:0:0:0:
448,192,173124,1,0,0:0:0:0:
448,192,173217,1,0,0:0:0:0:
64,192,173309,1,0,0:0:0:0:
320,192,173309,1,0,0:0:0:0:
320,192,173402,1,0,0:0:0:0:
448,192,173495,1,0,0:0:0:0:
448,192,173587,1,0,0:0:0:0:
64,192,173680,1,0,0:0:0:0:
192,192,173680,1,0,0:0:0:0:
448,192,173742,1,0,0:0:0:0:
320,192,173803,1,0,0:0:0:0:
192,192,173865,1,0,0:0:0:0:
448,192,173927,1,0,0:0:0:0:
320,192,173988,1,0,0:0:0:0:
64,192,174050,128,0,174235:0:0:0:0:
320,192,174235,1,0,0:0:0:0:
448,192,174235,1,0,0:0:0:0:
192,192,174297,1,0,0:0:0:0:
320,192,174359,1,0,0:0:0:0:
64,192,174421,1,0,0:0:0:0:
448,192,174421,1,0,0:0:0:0:
192,192,174467,1,0,0:0:0:0:
320,192,174513,1,0,0:0:0:0:
64,192,174559,1,0,0:0:0:0:
192,192,174606,1,0,0:0:0:0:
448,192,174698,1,0,0:0:0:0:
64,192,174698,1,0,0:0:0:0:
320,192,174745,1,0,0:0:0:0:
192,192,174791,1,0,0:0:0:0:
448,192,174837,1,0,0:0:0:0:
64,192,174884,1,0,0:0:0:0:
320,192,174930,1,0,0:0:0:0:
192,192,174976,1,0,0:0:0:0:
448,192,174976,1,0,0:0:0:0:
64,192,175038,1,0,0:0:0:0:
320,192,175100,1,0,0:0:0:0:
448,192,175161,1,0,0:0:0:0:
192,192,175161,128,0,175532:0:0:0:0:
64,192,175161,128,0,175532:0:0:0:0:
448,192,175532,128,0,175809:0:0:0:0:
320,192,175624,128,0,175809:0:0:0:0:
192,192,175717,128,0,175809:0:0:0:0:
64,192,175809,128,0,175902:0:0:0:0:
192,192,175902,1,0,0:0:0:0:
320,192,175902,128,0,176272:0:0:0:0:
448,192,175902,128,0,176272:0:0:0:0:
64,192,176272,1,0,0:0:0:0:
192,192,176319,1,0,0:0:0:0:
320,192,176365,1,0,0:0:0:0:
64,192,176411,1,0,0:0:0:0:
448,192,176458,128,0,176550:0:0:0:0:
192,192,176550,128,0,176643:0:0:0:0:
64,192,176643,1,0,0:0:0:0:
320,192,176643,1,0,0:0:0:0:
448,192,176643,1,0,0:0:0:0:
64,192,176828,1,0,0:0:0:0:
192,192,177013,1,0,0:0:0:0:
448,192,177198,1,0,0:0:0:0:
64,192,177384,1,0,0:0:0:0:
320,192,177569,1,0,0:0:0:0:
192,192,177754,1,0,0:0:0:0:
448,192,177939,1,0,0:0:0:0:
64,192,178309,1,0,0:0:0:0:
192,192,178495,1,0,0:0:0:0:
448,192,178680,1,0,0:0:0:0:
64,192,178865,1,0,0:0:0:0:
320,192,179050,1,0,0:0:0:0:
192,192,179235,1,0,0:0:0:0:
448,192,179421,1,0,0:0:0:0:
64,192,179791,1,0,0:0:0:0:
192,192,179976,1,0,0:0:0:0:
448,192,180161,1,0,0:0:0:0:
64,192,180346,1,0,0:0:0:0:
320,192,180532,1,0,0:0:0:0:
192,192,180717,1,0,0:0:0:0:
448,192,180902,1,0,0:0:0:0:
64,192,181272,1,0,0:0:0:0:
192,192,181458,1,0,0:0:0:0:
448,192,181643,1,0,0:0:0:0:
64,192,181828,1,0,0:0:0:0:
320,192,182013,1,0,0:0:0:0:
192,192,182198,1,0,0:0:0:0:
448,192,182384,1,0,0:0:0:0:
64,192,182754,1,0,0:0:0:0:
192,192,182939,1,0,0:0:0:0:
448,192,183124,1,0,0:0:0:0:
64,192,183309,1,0,0:0:0:0:
320,192,183495,1,0,0:0:0:0:
192,192,183680,1,0,0:0:0:0:
448,192,183865,1,0,0:0:0:0:
64,192,184235,1,0,0:0:0:0:
192,192,184421,1,0,0:0:0:0:
448,192,184606,1,0,0:0:0:0:
64,192,184791,1,0,0:0:0:0:
320,192,184976,1,0,0:0:0:0:
192,192,185161,1,0,0:0:0:0:
448,192,185346,1,0,0:0:0:0:
64,192,185717,1,0,0:0:0:0:
192,192,185902,1,0,0:0:0:0:
320,192,185995,1,0,0:0:0:0:
448,192,186180,1,0,0:0:0:0:
64,192,186365,1,0,0:0:0:0:
320,192,186458,1,0,0:0:0:0:
192,192,186550,1,0,0:0:0:0:
448,192,186643,1,0,0:0:0:0:
320,192,186735,1,0,0:0:0:0:
192,192,186828,1,0,0:0:0:0:
64,192,186921,1,0,0:0:0:0:
320,192,187106,1,0,0:0:0:0:
64,192,187198,1,0,0:0:0:0:
192,192,187384,1,0,0:0:0:0:
320,192,187476,1,0,0:0:0:0:
448,192,187661,1,0,0:0:0:0:
64,192,187754,128,0,188124:0:0:0:0:
192,192,187816,128,0,188124:0:0:0:0:
448,192,188124,128,0,188217:0:0:0:0:
320,192,188309,128,0,188495:0:0:0:0:
64,192,188495,1,0,0:0:0:0:
448,192,188495,1,0,0:0:0:0:
192,192,188495,1,0,0:0:0:0:
320,192,188680,1,0,0:0:0:0:
320,192,188865,1,0,0:0:0:0:
64,192,188865,1,0,0:0:0:0:
448,192,188865,1,0,0:0:0:0:
192,192,188958,1,0,0:0:0:0:
320,192,189143,1,0,0:0:0:0:
64,192,189235,1,0,0:0:0:0:
192,192,189235,1,0,0:0:0:0:
448,192,189235,1,0,0:0:0:0:
192,192,189328,1,0,0:0:0:0:
320,192,189421,1,0,0:0:0:0:
192,192,189513,1,0,0:0:0:0:
64,192,189513,1,0,0:0:0:0:
448,192,189513,1,0,0:0:0:0:
448,192,189606,1,0,0:0:0:0:
192,192,189698,1,0,0:0:0:0:
320,192,189791,1,0,0:0:0:0:
64,192,189791,1,0,0:0:0:0:
448,192,189791,1,0,0:0:0:0:
320,192,189884,1,0,0:0:0:0:
192,192,189976,1,0,0:0:0:0:
448,192,189976,1,0,0:0:0:0:
64,192,189976,1,0,0:0:0:0:
64,192,190069,1,0,0:0:0:0:
320,192,190161,1,0,0:0:0:0:
192,192,190254,1,0,0:0:0:0:
448,192,190346,1,0,0:0:0:0:
64,192,190346,1,0,0:0:0:0:
320,192,190346,1,0,0:0:0:0:
192,192,190439,1,0,0:0:0:0:
320,192,190624,1,0,0:0:0:0:
448,192,190717,1,0,0:0:0:0:
192,192,190717,1,0,0:0:0:0:
64,192,190717,1,0,0:0:0:0:
448,192,190809,1,0,0:0:0:0:
192,192,190902,1,0,0:0:0:0:
448,192,190995,1,0,0:0:0:0:
64,192,190995,1,0,0:0:0:0:
320,192,190995,1,0,0:0:0:0:
64,192,191087,1,0,0:0:0:0:
320,192,191180,1,0,0:0:0:0:
448,192,191272,1,0,0:0:0:0:
64,192,191272,1,0,0:0:0:0:
192,192,191272,1,0,0:0:0:0:
192,192,191365,1,0,0:0:0:0:
320,192,191458,1,0,0:0:0:0:
64,192,191458,1,0,0:0:0:0:
448,192,191458,1,0,0:0:0:0:
192,192,191643,1,0,0:0:0:0:
320,192,191735,1,0,0:0:0:0:
64,192,191828,1,0,0:0:0:0:
448,192,191828,1,0,0:0:0:0:
192,192,191828,1,0,0:0:0:0:
320,192,191921,1,0,0:0:0:0:
192,192,192106,1,0,0:0:0:0:
64,192,192198,1,0,0:0:0:0:
320,192,192198,1,0,0:0:0:0:
448,192,192198,1,0,0:0:0:0:
320,192,192291,1,0,0:0:0:0:
192,192,192384,1,0,0:0:0:0:
64,192,192476,1,0,0:0:0:0:
448,192,192476,1,0,0:0:0:0:
320,192,192476,1,0,0:0:0:0:
64,192,192569,1,0,0:0:0:0:
320,192,192661,1,0,0:0:0:0:
64,192,192754,1,0,0:0:0:0:
448,192,192754,1,0,0:0:0:0:
192,192,192754,1,0,0:0:0:0:
192,192,192846,1,0,0:0:0:0:
448,192,192939,1,0,0:0:0:0:
64,192,192939,1,0,0:0:0:0:
320,192,192939,1,0,0:0:0:0:
448,192,193032,1,0,0:0:0:0:
192,192,193124,1,0,0:0:0:0:
320,192,193217,1,0,0:0:0:0:
192,192,193309,1,0,0:0:0:0:
448,192,193309,1,0,0:0:0:0:
64,192,193309,1,0,0:0:0:0:
320,192,193402,1,0,0:0:0:0:
192,192,193587,1,0,0:0:0:0:
448,192,193680,1,0,0:0:0:0:
64,192,193680,1,0,0:0:0:0:
320,192,193726,1,0,0:0:0:0:
64,192,193772,1,0,0:0:0:0:
448,192,193772,1,0,0:0:0:0:
192,192,193865,1,0,0:0:0:0:
320,192,193865,1,0,0:0:0:0:
192,192,193958,1,0,0:0:0:0:
64,192,193958,1,0,0:0:0:0:
448,192,194050,1,0,0:0:0:0:
192,192,194143,1,0,0:0:0:0:
64,192,194143,1,0,0:0:0:0:
320,192,194235,1,0,0:0:0:0:
192,192,194328,1,0,0:0:0:0:
64,192,194328,1,0,0:0:0:0:
320,192,194513,1,0,0:0:0:0:
448,192,194513,1,0,0:0:0:0:
192,192,194513,1,0,0:0:0:0:
320,192,194606,1,0,0:0:0:0:
448,192,194698,1,0,0:0:0:0:
192,192,194698,1,0,0:0:0:0:
64,192,194698,1,0,0:0:0:0:
192,192,194791,1,0,0:0:0:0:
320,192,194884,1,0,0:0:0:0:
64,192,194976,1,0,0:0:0:0:
192,192,194976,1,0,0:0:0:0:
448,192,194976,1,0,0:0:0:0:
320,192,195069,1,0,0:0:0:0:
64,192,195254,1,0,0:0:0:0:
320,192,195254,1,0,0:0:0:0:
448,192,195254,1,0,0:0:0:0:
448,192,195346,1,0,0:0:0:0:
192,192,195439,1,0,0:0:0:0:
448,192,195532,1,0,0:0:0:0:
64,192,195532,1,0,0:0:0:0:
320,192,195532,1,0,0:0:0:0:
192,192,195624,1,0,0:0:0:0:
448,192,195717,1,0,0:0:0:0:
64,192,195717,1,0,0:0:0:0:
320,192,195717,1,0,0:0:0:0:
192,192,195809,1,0,0:0:0:0:
320,192,195995,1,0,0:0:0:0:
448,192,195995,1,0,0:0:0:0:
64,192,195995,1,0,0:0:0:0:
320,192,196087,1,0,0:0:0:0:
448,192,196180,1,0,0:0:0:0:
192,192,196180,1,0,0:0:0:0:
64,192,196180,1,0,0:0:0:0:
64,192,196272,1,0,0:0:0:0:
448,192,196365,1,0,0:0:0:0:
192,192,196365,1,0,0:0:0:0:
320,192,196365,1,0,0:0:0:0:
320,192,196458,1,0,0:0:0:0:
64,192,196643,1,0,0:0:0:0:
192,192,196643,1,0,0:0:0:0:
448,192,196643,1,0,0:0:0:0:
448,192,196735,1,0,0:0:0:0:
192,192,196828,1,0,0:0:0:0:
320,192,196921,1,0,0:0:0:0:
448,192,196921,1,0,0:0:0:0:
64,192,196921,1,0,0:0:0:0:
64,192,197013,1,0,0:0:0:0:
320,192,197106,1,0,0:0:0:0:
448,192,197106,1,0,0:0:0:0:
448,192,197198,1,0,0:0:0:0:
192,192,197198,1,0,0:0:0:0:
64,192,197198,1,0,0:0:0:0:
320,192,197291,1,0,0:0:0:0:
192,192,197384,1,0,0:0:0:0:
320,192,197476,1,0,0:0:0:0:
448,192,197476,1,0,0:0:0:0:
64,192,197569,1,0,0:0:0:0:
320,192,197661,1,0,0:0:0:0:
448,192,197661,1,0,0:0:0:0:
320,192,197754,1,0,0:0:0:0:
192,192,197846,1,0,0:0:0:0:
64,192,197846,1,0,0:0:0:0:
448,192,197939,1,0,0:0:0:0:
64,192,198032,1,0,0:0:0:0:
192,192,198032,1,0,0:0:0:0:
192,192,198124,1,0,0:0:0:0:
320,192,198217,1,0,0:0:0:0:
448,192,198217,1,0,0:0:0:0:
320,192,198309,1,0,0:0:0:0:
448,192,198309,1,0,0:0:0:0:
192,192,198402,1,0,0:0:0:0:
64,192,198402,1,0,0:0:0:0:
192,192,198495,1,0,0:0:0:0:
64,192,198495,1,0,0:0:0:0:
320,192,198587,1,0,0:0:0:0:
448,192,198587,1,0,0:0:0:0:
320,192,198680,1,0,0:0:0:0:
448,192,198680,1,0,0:0:0:0:
192,192,198772,1,0,0:0:0:0:
64,192,198772,1,0,0:0:0:0:
64,192,198865,1,0,0:0:0:0:
448,192,198865,1,0,0:0:0:0:
192,192,198958,1,0,0:0:0:0:
320,192,199050,1,0,0:0:0:0:
448,192,199050,1,0,0:0:0:0:
64,192,199143,1,0,0:0:0:0:
320,192,199143,1,0,0:0:0:0:
192,192,199235,1,0,0:0:0:0:
64,192,199235,1,0,0:0:0:0:
320,192,199328,1,0,0:0:0:0:
448,192,199328,1,0,0:0:0:0:
448,192,199421,1,0,0:0:0:0:
64,192,199421,1,0,0:0:0:0:
192,192,199513,1,0,0:0:0:0:
320,192,199513,1,0,0:0:0:0:
64,192,199606,128,0,199884:0:0:0:0:
448,192,199606,128,0,199791:0:0:0:0:
192,192,199698,128,0,199976:0:0:0:0:
320,192,199791,128,0,200069:0:0:0:0:
448,192,199884,128,0,200069:0:0:0:0:
64,192,199976,128,0,200161:0:0:0:0:
192,192,200069,1,0,0:0:0:0:
448,192,200161,1,0,0:0:0:0:
320,192,200192,1,0,0:0:0:0:
192,192,200223,1,0,0:0:0:0:
64,192,200254,1,0,0:0:0:0:
448,192,200285,1,0,0:0:0:0:
320,192,200316,1,0,0:0:0:0:
192,192,200346,1,0,0:0:0:0:
64,192,200346,128,0,200717:0:0:0:0:
448,192,200439,128,0,200624:0:0:0:0:
320,192,200532,128,0,200624:0:0:0:0:
192,192,200624,128,0,200717:0:0:0:0:
320,192,200717,1,0,0:0:0:0:
448,192,200717,1,0,0:0:0:0:
64,192,200809,128,0,200995:0:0:0:0:
192,192,200902,128,0,200995:0:0:0:0:
448,192,200995,128,0,201087:0:0:0:0:
192,192,201087,1,0,0:0:0:0:
64,192,201087,1,0,0:0:0:0:
320,192,201180,128,0,201365:0:0:0:0:
448,192,201272,128,0,201365:0:0:0:0:
64,192,201365,128,0,201643:0:0:0:0:
448,192,201458,128,0,201735:0:0:0:0:
320,192,201458,128,0,201550:0:0:0:0:
192,192,201550,128,0,201828:0:0:0:0:
320,192,201643,128,0,201735:0:0:0:0:
64,192,201735,128,0,201828:0:0:0:0:
320,192,201828,1,0,0:0:0:0:
448,192,201828,1,0,0:0:0:0:
192,192,201921,128,0,202198:0:0:0:0:
448,192,202013,128,0,202106:0:0:0:0:
64,192,202106,128,0,202198:0:0:0:0:
320,192,202198,1,0,0:0:0:0:
448,192,202198,1,0,0:0:0:0:
64,192,202291,128,0,202476:0:0:0:0:
192,192,202384,128,0,202476:0:0:0:0:
448,192,202476,128,0,202569:0:0:0:0:
192,192,202569,1,0,0:0:0:0:
64,192,202569,1,0,0:0:0:0:
320,192,202661,128,0,202939:0:0:0:0:
64,192,202754,128,0,202846:0:0:0:0:
448,192,202846,128,0,203124:0:0:0:0:
64,192,202939,128,0,203217:0:0:0:0:
192,192,202939,128,0,203032:0:0:0:0:
320,192,203032,128,0,203309:0:0:0:0:
192,192,203124,128,0,203217:0:0:0:0:
448,192,203217,128,0,203309:0:0:0:0:
192,192,203309,1,0,0:0:0:0:
64,192,203309,128,0,203680:0:0:0:0:
448,192,203402,128,0,203587:0:0:0:0:
320,192,203495,128,0,203587:0:0:0:0:
192,192,203587,128,0,203680:0:0:0:0:
320,192,203680,1,0,0:0:0:0:
448,192,203680,1,0,0:0:0:0:
64,192,203772,128,0,203958:0:0:0:0:
192,192,203865,128,0,203958:0:0:0:0:
448,192,203958,128,0,204050:0:0:0:0:
192,192,204050,1,0,0:0:0:0:
64,192,204050,1,0,0:0:0:0:
320,192,204143,128,0,204328:0:0:0:0:
448,192,204235,128,0,204328:0:0:0:0:
64,192,204328,128,0,204606:0:0:0:0:
448,192,204421,128,0,204698:0:0:0:0:
320,192,204421,128,0,204513:0:0:0:0:
192,192,204513,128,0,204791:0:0:0:0:
320,192,204606,128,0,204698:0:0:0:0:
64,192,204698,128,0,204791:0:0:0:0:
320,192,204791,1,0,0:0:0:0:
448,192,204791,1,0,0:0:0:0:
192,192,204884,128,0,205161:0:0:0:0:
448,192,204976,128,0,205069:0:0:0:0:
64,192,205069,128,0,205161:0:0:0:0:
320,192,205161,1,0,0:0:0:0:
448,192,205161,1,0,0:0:0:0:
64,192,205254,128,0,205439:0:0:0:0:
192,192,205346,128,0,205439:0:0:0:0:
448,192,205439,128,0,205532:0:0:0:0:
192,192,205532,1,0,0:0:0:0:
64,192,205532,1,0,0:0:0:0:
320,192,205624,128,0,205809:0:0:0:0:
64,192,205717,128,0,205902:0:0:0:0:
192,192,205809,128,0,206180:0:0:0:0:
320,192,205902,128,0,206087:0:0:0:0:
448,192,205902,128,0,205995:0:0:0:0:
64,192,205995,128,0,206180:0:0:0:0:
448,192,206087,128,0,206272:0:0:0:0:
320,192,206180,128,0,206272:0:0:0:0:
192,192,206272,1,0,0:0:0:0:
64,192,206272,128,0,206643:0:0:0:0:
448,192,206365,128,0,206550:0:0:0:0:
320,192,206458,128,0,206550:0:0:0:0:
192,192,206550,128,0,206643:0:0:0:0:
320,192,206643,1,0,0:0:0:0:
448,192,206643,1,0,0:0:0:0:
64,192,206735,128,0,206921:0:0:0:0:
192,192,206828,128,0,206921:0:0:0:0:
448,192,206921,128,0,207013:0:0:0:0:
192,192,207013,1,0,0:0:0:0:
64,192,207013,1,0,0:0:0:0:
320,192,207106,128,0,207291:0:0:0:0:
448,192,207198,128,0,207291:0:0:0:0:
64,192,207291,128,0,207569:0:0:0:0:
448,192,207384,128,0,207661:0:0:0:0:
320,192,207384,128,0,207476:0:0:0:0:
192,192,207476,128,0,207754:0:0:0:0:
320,192,207569,128,0,207661:0:0:0:0:
64,192,207661,128,0,207754:0:0:0:0:
320,192,207754,1,0,0:0:0:0:
448,192,207754,1,0,0:0:0:0:
192,192,207846,128,0,208124:0:0:0:0:
448,192,207939,128,0,208032:0:0:0:0:
64,192,208032,128,0,208124:0:0:0:0:
320,192,208124,1,0,0:0:0:0:
448,192,208124,1,0,0:0:0:0:
64,192,208217,128,0,208402:0:0:0:0:
192,192,208309,128,0,208402:0:0:0:0:
448,192,208402,128,0,208495:0:0:0:0:
192,192,208495,1,0,0:0:0:0:
64,192,208495,1,0,0:0:0:0:
320,192,208587,128,0,208865:0:0:0:0:
64,192,208680,128,0,208772:0:0:0:0:
448,192,208772,128,0,209050:0:0:0:0:
64,192,208865,128,0,209143:0:0:0:0:
192,192,208865,128,0,208958:0:0:0:0:
320,192,208958,128,0,209235:0:0:0:0:
192,192,209050,128,0,209143:0:0:0:0:
448,192,209143,128,0,209235:0:0:0:0:
192,192,209235,1,0,0:0:0:0:
64,192,209235,128,0,209606:0:0:0:0:
448,192,209328,128,0,209513:0:0:0:0:
320,192,209421,128,0,209513:0:0:0:0:
192,192,209513,128,0,209606:0:0:0:0:
320,192,209606,1,0,0:0:0:0:
448,192,209606,1,0,0:0:0:0:
64,192,209698,128,0,209884:0:0:0:0:
192,192,209791,128,0,209884:0:0:0:0:
448,192,209884,128,0,209976:0:0:0:0:
192,192,209976,1,0,0:0:0:0:
64,192,209976,1,0,0:0:0:0:
320,192,210069,128,0,210254:0:0:0:0:
448,192,210161,128,0,210254:0:0:0:0:
64,192,210254,128,0,210532:0:0:0:0:
448,192,210346,128,0,210624:0:0:0:0:
320,192,210346,128,0,210439:0:0:0:0:
192,192,210439,128,0,210717:0:0:0:0:
320,192,210532,128,0,210624:0:0:0:0:
64,192,210624,128,0,210717:0:0:0:0:
448,192,210717,128,0,210902:0:0:0:0:
320,192,210717,1,0,0:0:0:0:
192,192,210809,128,0,210995:0:0:0:0:
64,192,210902,128,0,210995:0:0:0:0:
448,192,210995,128,0,211087:0:0:0:0:
192,192,211087,128,0,211272:0:0:0:0:
64,192,211087,1,0,0:0:0:0:
320,192,211180,128,0,211365:0:0:0:0:
64,192,211272,128,0,211550:0:0:0:0:
192,192,211365,128,0,211458:0:0:0:0:
448,192,211458,128,0,211643:0:0:0:0:
320,192,211458,1,0,0:0:0:0:
192,192,211550,128,0,211828:0:0:0:0:
64,192,211643,128,0,211735:0:0:0:0:
448,192,211735,128,0,211828:0:0:0:0:
320,192,211828,1,0,0:0:0:0:
64,192,211828,1,0,0:0:0:0:
192,192,212013,128,0,212198:0:0:0:0:
64,192,212106,128,0,212198:0:0:0:0:
320,192,212198,128,0,212569:0:0:0:0:
64,192,212569,1,0,0:0:0:0:
192,192,212569,1,0,0:0:0:0:
448,192,212569,1,0,0:0:0:0:
64,192,212661,128,0,212846:0:0:0:0:
192,192,212754,128,0,212846:0:0:0:0:
448,192,212846,128,0,212939:0:0:0:0:
192,192,212939,1,0,0:0:0:0:
64,192,212939,1,0,0:0:0:0:
320,192,213032,128,0,213217:0:0:0:0:
448,192,213124,128,0,213217:0:0:0:0:
64,192,213217,128,0,213495:0:0:0:0:
192,192,213217,1,0,0:0:0:0:
448,192,213309,128,0,213402:0:0:0:0:
192,192,213402,128,0,213680:0:0:0:0:
320,192,213495,128,0,213587:0:0:0:0:
448,192,213495,1,0,0:0:0:0:
64,192,213587,128,0,213680:0:0:0:0:
320,192,213680,1,0,0:0:0:0:
448,192,213680,1,0,0:0:0:0:
192,192,213772,128,0,214050:0:0:0:0:
448,192,213865,128,0,213958:0:0:0:0:
64,192,213958,128,0,214050:0:0:0:0:
320,192,214050,1,0,0:0:0:0:
448,192,214050,1,0,0:0:0:0:
64,192,214143,128,0,214328:0:0:0:0:
192,192,214235,128,0,214328:0:0:0:0:
448,192,214328,128,0,214421:0:0:0:0:
192,192,214421,1,0,0:0:0:0:
64,192,214421,1,0,0:0:0:0:
320,192,214513,128,0,214606:0:0:0:0:
64,192,214606,128,0,214698:0:0:0:0:
448,192,214698,128,0,214976:0:0:0:0:
320,192,214698,1,0,0:0:0:0:
64,192,214791,128,0,214884:0:0:0:0:
320,192,214884,128,0,215161:0:0:0:0:
192,192,214976,128,0,215069:0:0:0:0:
64,192,214976,1,0,0:0:0:0:
448,192,215069,128,0,215161:0:0:0:0:
192,192,215161,1,0,0:0:0:0:
64,192,215161,128,0,215532:0:0:0:0:
448,192,215254,128,0,215439:0:0:0:0:
320,192,215346,128,0,215439:0:0:0:0:
192,192,215439,128,0,215532:0:0:0:0:
320,192,215532,1,0,0:0:0:0:
448,192,215532,1,0,0:0:0:0:
64,192,215624,128,0,215809:0:0:0:0:
192,192,215717,128,0,215809:0:0:0:0:
448,192,215809,128,0,215902:0:0:0:0:
192,192,215902,1,0,0:0:0:0:
64,192,215902,1,0,0:0:0:0:
320,192,215995,128,0,216180:0:0:0:0:
448,192,216087,128,0,216180:0:0:0:0:
64,192,216180,128,0,216458:0:0:0:0:
192,192,216180,1,0,0:0:0:0:
448,192,216272,128,0,216365:0:0:0:0:
192,192,216365,128,0,216643:0:0:0:0:
320,192,216458,128,0,216550:0:0:0:0:
448,192,216458,1,0,0:0:0:0:
64,192,216550,128,0,216643:0:0:0:0:
320,192,216643,1,0,0:0:0:0:
448,192,216643,1,0,0:0:0:0:
192,192,216735,128,0,217013:0:0:0:0:
448,192,216828,128,0,216921:0:0:0:0:
64,192,216921,128,0,217013:0:0:0:0:
320,192,217013,1,0,0:0:0:0:
448,192,217013,1,0,0:0:0:0:
64,192,217106,128,0,217291:0:0:0:0:
192,192,217198,128,0,217291:0:0:0:0:
448,192,217291,128,0,217384:0:0:0:0:
64,192,217384,1,0,0:0:0:0:
320,192,217384,1,0,0:0:0:0:
448,192,217476,1,0,0:0:0:0:
320,192,217476,1,0,0:0:0:0:
192,192,217569,1,0,0:0:0:0:
320,192,217661,1,0,0:0:0:0:
448,192,217661,1,0,0:0:0:0:
64,192,217754,1,0,0:0:0:0:
192,192,217754,1,0,0:0:0:0:
64,192,217846,1,0,0:0:0:0:
192,192,217846,1,0,0:0:0:0:
448,192,217939,1,0,0:0:0:0:
320,192,217939,1,0,0:0:0:0:
192,192,218032,1,0,0:0:0:0:
64,192,218124,128,0,218495:0:0:0:0:
320,192,218124,1,0,0:0:0:0:
448,192,218124,128,0,218402:0:0:0:0:
320,192,218309,128,0,218495:0:0:0:0:
192,192,218402,128,0,218495:0:0:0:0:
448,192,218495,1,0,0:0:0:0:
320,192,218587,128,0,218680:0:0:0:0:
448,192,218680,1,0,0:0:0:0:
64,192,218742,1,0,0:0:0:0:
192,192,218742,1,0,0:0:0:0:
448,192,218803,1,0,0:0:0:0:
320,192,218865,1,0,0:0:0:0:
64,192,218865,1,0,0:0:0:0:
192,192,218958,128,0,219235:0:0:0:0:
448,192,219050,128,0,219143:0:0:0:0:
320,192,219050,1,0,0:0:0:0:
64,192,219143,128,0,219421:0:0:0:0:
448,192,219235,128,0,219513:0:0:0:0:
192,192,219328,128,0,219606:0:0:0:0:
320,192,219421,128,0,219606:0:0:0:0:
64,192,219513,128,0,219606:0:0:0:0:
448,192,219606,1,0,0:0:0:0:
192,192,219698,128,0,219791:0:0:0:0:
448,192,219791,128,0,220069:0:0:0:0:
64,192,219884,128,0,219976:0:0:0:0:
320,192,219976,128,0,220069:0:0:0:0:
64,192,220069,128,0,220254:0:0:0:0:
448,192,220161,1,0,0:0:0:0:
320,192,220161,128,0,220346:0:0:0:0:
192,192,220254,128,0,220346:0:0:0:0:
64,192,220346,1,0,0:0:0:0:
448,192,220346,1,0,0:0:0:0:
320,192,220439,128,0,220717:0:0:0:0:
64,192,220532,128,0,220624:0:0:0:0:
448,192,220624,128,0,220902:0:0:0:0:
64,192,220717,128,0,220995:0:0:0:0:
320,192,220809,128,0,221087:0:0:0:0:
192,192,220902,128,0,220995:0:0:0:0:
448,192,220995,128,0,221087:0:0:0:0:
192,192,221087,1,0,0:0:0:0:
64,192,221087,128,0,221458:0:0:0:0:
448,192,221180,128,0,221365:0:0:0:0:
320,192,221272,128,0,221458:0:0:0:0:
192,192,221365,128,0,221458:0:0:0:0:
448,192,221458,1,0,0:0:0:0:
64,192,221550,128,0,221735:0:0:0:0:
192,192,221643,128,0,221828:0:0:0:0:
448,192,221735,128,0,221828:0:0:0:0:
64,192,221828,1,0,0:0:0:0:
320,192,221828,1,0,0:0:0:0:
192,192,221921,128,0,222198:0:0:0:0:
448,192,222013,128,0,222106:0:0:0:0:
64,192,222106,128,0,222384:0:0:0:0:
448,192,222198,128,0,222476:0:0:0:0:
192,192,222291,128,0,222384:0:0:0:0:
320,192,222384,128,0,222569:0:0:0:0:
64,192,222476,128,0,222569:0:0:0:0:
192,192,222476,1,0,0:0:0:0:
448,192,222569,128,0,222754:0:0:0:0:
192,192,222661,128,0,222846:0:0:0:0:
64,192,222754,128,0,222939:0:0:0:0:
448,192,222846,128,0,222939:0:0:0:0:
320,192,222846,1,0,0:0:0:0:
192,192,222939,128,0,223032:0:0:0:0:
320,192,223032,128,0,223124:0:0:0:0:
192,192,223124,1,0,0:0:0:0:
64,192,223124,128,0,223217:0:0:0:0:
320,192,223217,1,0,0:0:0:0:
64,192,223309,1,0,0:0:0:0:
448,192,223309,1,0,0:0:0:0:
64,192,223402,1,0,0:0:0:0:
192,192,223402,1,0,0:0:0:0:
448,192,223495,1,0,0:0:0:0:
320,192,223495,1,0,0:0:0:0:
192,192,223587,1,0,0:0:0:0:
64,192,223680,1,0,0:0:0:0:
448,192,223680,1,0,0:0:0:0:
320,192,223772,1,0,0:0:0:0:
192,192,223772,1,0,0:0:0:0:
64,192,223865,1,0,0:0:0:0:
448,192,223865,1,0,0:0:0:0:
320,192,223958,1,0,0:0:0:0:
64,192,224050,1,0,0:0:0:0:
192,192,224050,1,0,0:0:0:0:
448,192,224050,1,0,0:0:0:0:
320,192,224235,1,0,0:0:0:0:
64,192,224328,1,0,0:0:0:0:
64,192,224421,1,0,0:0:0:0:
448,192,224421,1,0,0:0:0:0:
192,192,224513,1,0,0:0:0:0:
320,192,224606,1,0,0:0:0:0:
320,192,224698,1,0,0:0:0:0:
192,192,224791,1,0,0:0:0:0:
64,192,224791,1,0,0:0:0:0:
320,192,224884,1,0,0:0:0:0:
192,192,224976,1,0,0:0:0:0:
448,192,225069,1,0,0:0:0:0:
320,192,225161,1,0,0:0:0:0:
448,192,225161,1,0,0:0:0:0:
64,192,225254,1,0,0:0:0:0:
192,192,225346,1,0,0:0:0:0:
448,192,225346,1,0,0:0:0:0:
192,192,225439,1,0,0:0:0:0:
320,192,225532,1,0,0:0:0:0:
448,192,225532,1,0,0:0:0:0:
64,192,225624,1,0,0:0:0:0:
192,192,225717,1,0,0:0:0:0:
448,192,225809,1,0,0:0:0:0:
64,192,225902,1,0,0:0:0:0:
448,192,225902,1,0,0:0:0:0:
192,192,225995,1,0,0:0:0:0:
320,192,226087,1,0,0:0:0:0:
320,192,226180,1,0,0:0:0:0:
64,192,226272,1,0,0:0:0:0:
192,192,226272,1,0,0:0:0:0:
448,192,226365,1,0,0:0:0:0:
192,192,226458,1,0,0:0:0:0:
64,192,226550,1,0,0:0:0:0:
64,192,226643,1,0,0:0:0:0:
448,192,226643,1,0,0:0:0:0:
320,192,226735,1,0,0:0:0:0:
192,192,226828,1,0,0:0:0:0:
192,192,226921,1,0,0:0:0:0:
448,192,226921,1,0,0:0:0:0:
448,192,227013,1,0,0:0:0:0:
320,192,227013,1,0,0:0:0:0:
64,192,227106,1,0,0:0:0:0:
192,192,227198,1,0,0:0:0:0:
448,192,227291,1,0,0:0:0:0:
448,192,227384,1,0,0:0:0:0:
64,192,227384,1,0,0:0:0:0:
192,192,227476,1,0,0:0:0:0:
320,192,227569,1,0,0:0:0:0:
320,192,227661,1,0,0:0:0:0:
192,192,227754,1,0,0:0:0:0:
64,192,227754,1,0,0:0:0:0:
448,192,227846,1,0,0:0:0:0:
320,192,227939,1,0,0:0:0:0:
64,192,228032,1,0,0:0:0:0:
192,192,228124,1,0,0:0:0:0:
64,192,228124,1,0,0:0:0:0:
448,192,228217,1,0,0:0:0:0:
320,192,228309,1,0,0:0:0:0:
320,192,228402,1,0,0:0:0:0:
192,192,228495,1,0,0:0:0:0:
64,192,228495,1,0,0:0:0:0:
448,192,228587,1,0,0:0:0:0:
320,192,228680,1,0,0:0:0:0:
64,192,228772,1,0,0:0:0:0:
448,192,228865,1,0,0:0:0:0:
64,192,228865,1,0,0:0:0:0:
320,192,228958,1,0,0:0:0:0:
192,192,229050,1,0,0:0:0:0:
320,192,229143,1,0,0:0:0:0:
448,192,229143,1,0,0:0:0:0:
192,192,229189,1,0,0:0:0:0:
64,192,229235,1,0,0:0:0:0:
448,192,229235,1,0,0:0:0:0:
64,192,229421,1,0,0:0:0:0:
192,192,229421,1,0,0:0:0:0:
448,192,229513,1,0,0:0:0:0:
192,192,229513,1,0,0:0:0:0:
320,192,229606,1,0,0:0:0:0:
64,192,229698,1,0,0:0:0:0:
448,192,229698,1,0,0:0:0:0:
64,192,229791,1,0,0:0:0:0:
448,192,229791,1,0,0:0:0:0:
192,192,229884,1,0,0:0:0:0:
64,192,229976,1,0,0:0:0:0:
448,192,229976,1,0,0:0:0:0:
320,192,229976,128,0,230532:0:0:0:0:
192,192,230161,1,0,0:0:0:0:
64,192,230254,1,0,0:0:0:0:
192,192,230439,1,0,0:0:0:0:
448,192,230532,1,0,0:0:0:0:
192,192,230593,1,0,0:0:0:0:
64,192,230593,1,0,0:0:0:0:
448,192,230655,1,0,0:0:0:0:
320,192,230717,1,0,0:0:0:0:
64,192,230717,1,0,0:0:0:0:
64,192,230809,1,0,0:0:0:0:
64,192,230902,1,0,0:0:0:0:
64,192,230995,1,0,0:0:0:0:
448,192,231087,1,0,0:0:0:0:
448,192,231180,1,0,0:0:0:0:
448,192,231272,1,0,0:0:0:0:
448,192,231365,1,0,0:0:0:0:
192,192,231458,1,0,0:0:0:0:
192,192,231550,128,0,231643:0:0:0:0:
320,192,231643,1,0,0:0:0:0:
448,192,231643,128,0,232013:0:0:0:0:
64,192,231735,1,0,0:0:0:0:
192,192,231828,1,0,0:0:0:0:
320,192,231921,1,0,0:0:0:0:
192,192,232013,1,0,0:0:0:0:
64,192,232013,1,0,0:0:0:0:
448,192,232106,1,0,0:0:0:0:
320,192,232198,1,0,0:0:0:0:
64,192,232198,1,0,0:0:0:0:
192,192,232291,1,0,0:0:0:0:
320,192,232384,128,0,232569:0:0:0:0:
64,192,232569,1,0,0:0:0:0:
192,192,232569,1,0,0:0:0:0:
448,192,232661,1,0,0:0:0:0:
64,192,232754,128,0,232939:0:0:0:0:
192,192,232846,1,0,0:0:0:0:
320,192,232939,1,0,0:0:0:0:
448,192,232939,128,0,233309:0:0:0:0:
192,192,233124,1,0,0:0:0:0:
320,192,233217,1,0,0:0:0:0:
192,192,233309,1,0,0:0:0:0:
64,192,233309,128,0,233587:0:0:0:0:
448,192,233402,1,0,0:0:0:0:
320,192,233587,1,0,0:0:0:0:
448,192,233587,1,0,0:0:0:0:
192,192,233634,1,0,0:0:0:0:
64,192,233680,1,0,0:0:0:0:
448,192,233680,1,0,0:0:0:0:
320,192,233772,1,0,0:0:0:0:
320,192,233865,128,0,233958:0:0:0:0:
192,192,234050,128,0,234328:0:0:0:0:
448,192,234143,1,0,0:0:0:0:
64,192,234235,1,0,0:0:0:0:
320,192,234328,1,0,0:0:0:0:
448,192,234328,128,0,234606:0:0:0:0:
192,192,234513,1,0,0:0:0:0:
320,192,234606,1,0,0:0:0:0:
192,192,234698,1,0,0:0:0:0:
64,192,234698,1,0,0:0:0:0:
448,192,234884,1,0,0:0:0:0:
64,192,234976,1,0,0:0:0:0:
192,192,234976,128,0,235161:0:0:0:0:
320,192,235069,1,0,0:0:0:0:
64,192,235161,1,0,0:0:0:0:
448,192,235161,1,0,0:0:0:0:
448,192,235254,1,0,0:0:0:0:
320,192,235254,1,0,0:0:0:0:
192,192,235346,1,0,0:0:0:0:
64,192,235346,1,0,0:0:0:0:
192,192,235439,1,0,0:0:0:0:
64,192,235439,1,0,0:0:0:0:
448,192,235532,128,0,235809:0:0:0:0:
320,192,235532,128,0,235624:0:0:0:0:
192,192,235624,128,0,235809:0:0:0:0:
320,192,235717,128,0,235809:0:0:0:0:
64,192,235809,128,0,235902:0:0:0:0:
192,192,235902,1,0,0:0:0:0:
320,192,235902,1,0,0:0:0:0:
448,192,235902,1,0,0:0:0:0:
320,192,236087,1,0,0:0:0:0:
64,192,236180,1,0,0:0:0:0:
64,192,236272,1,0,0:0:0:0:
448,192,236272,1,0,0:0:0:0:
192,192,236365,1,0,0:0:0:0:
320,192,236458,1,0,0:0:0:0:
320,192,236550,1,0,0:0:0:0:
192,192,236643,1,0,0:0:0:0:
64,192,236643,1,0,0:0:0:0:
320,192,236735,1,0,0:0:0:0:
192,192,236828,1,0,0:0:0:0:
448,192,236921,1,0,0:0:0:0:
320,192,237013,1,0,0:0:0:0:
448,192,237013,1,0,0:0:0:0:
64,192,237106,1,0,0:0:0:0:
192,192,237198,1,0,0:0:0:0:
448,192,237198,1,0,0:0:0:0:
192,192,237291,1,0,0:0:0:0:
320,192,237384,1,0,0:0:0:0:
448,192,237384,1,0,0:0:0:0:
64,192,237476,1,0,0:0:0:0:
192,192,237569,1,0,0:0:0:0:
448,192,237661,1,0,0:0:0:0:
64,192,237754,1,0,0:0:0:0:
448,192,237754,1,0,0:0:0:0:
192,192,237846,1,0,0:0:0:0:
320,192,237939,1,0,0:0:0:0:
320,192,238032,1,0,0:0:0:0:
64,192,238124,1,0,0:0:0:0:
192,192,238124,1,0,0:0:0:0:
448,192,238217,1,0,0:0:0:0:
192,192,238309,1,0,0:0:0:0:
64,192,238402,1,0,0:0:0:0:
64,192,238495,1,0,0:0:0:0:
448,192,238495,1,0,0:0:0:0:
320,192,238587,1,0,0:0:0:0:
192,192,238680,1,0,0:0:0:0:
192,192,238772,1,0,0:0:0:0:
448,192,238772,1,0,0:0:0:0:
64,192,238772,1,0,0:0:0:0:
448,192,238865,1,0,0:0:0:0:
320,192,238865,1,0,0:0:0:0:
192,192,238958,1,0,0:0:0:0:
320,192,239050,1,0,0:0:0:0:
448,192,239050,1,0,0:0:0:0:
320,192,239143,1,0,0:0:0:0:
64,192,239143,1,0,0:0:0:0:
448,192,239235,1,0,0:0:0:0:
64,192,239235,1,0,0:0:0:0:
192,192,239328,1,0,0:0:0:0:
320,192,239421,1,0,0:0:0:0:
320,192,239513,1,0,0:0:0:0:
192,192,239606,1,0,0:0:0:0:
64,192,239606,1,0,0:0:0:0:
448,192,239698,1,0,0:0:0:0:
320,192,239791,1,0,0:0:0:0:
64,192,239884,1,0,0:0:0:0:
192,192,239976,1,0,0:0:0:0:
64,192,239976,1,0,0:0:0:0:
320,192,240115,1,0,0:0:0:0:
448,192,240115,1,0,0:0:0:0:
448,192,240254,1,0,0:0:0:0:
320,192,240254,1,0,0:0:0:0:
448,192,240346,1,0,0:0:0:0:
192,192,240346,1,0,0:0:0:0:
64,192,240346,1,0,0:0:0:0:
192,192,240532,1,0,0:0:0:0:
64,192,240624,1,0,0:0:0:0:
448,192,240624,1,0,0:0:0:0:
320,192,240717,1,0,0:0:0:0:
192,192,240809,1,0,0:0:0:0:
64,192,240809,1,0,0:0:0:0:
64,192,240902,1,0,0:0:0:0:
192,192,240902,128,0,241087:0:0:0:0:
64,192,241087,1,0,0:0:0:0:
448,192,241087,1,0,0:0:0:0:
64,192,241180,1,0,0:0:0:0:
448,192,241180,1,0,0:0:0:0:
320,192,241272,128,0,241365:0:0:0:0:
192,192,241365,128,0,241458:0:0:0:0:
64,192,241458,1,0,0:0:0:0:
448,192,241458,1,0,0:0:0:0:
320,192,241458,128,0,242198:0:0:0:0:
192,192,241643,1,0,0:0:0:0:
448,192,241735,1,0,0:0:0:0:
64,192,241828,1,0,0:0:0:0:
192,192,242013,1,0,0:0:0:0:
64,192,242106,1,0,0:0:0:0:
448,192,242198,1,0,0:0:0:0:
448,192,242291,1,0,0:0:0:0:
448,192,242384,1,0,0:0:0:0:
192,192,242445,1,0,0:0:0:0:
64,192,242445,1,0,0:0:0:0:
448,192,242507,1,0,0:0:0:0:
320,192,242569,1,0,0:0:0:0:
64,192,242569,1,0,0:0:0:0:
64,192,242661,1,0,0:0:0:0:
448,192,242754,1,0,0:0:0:0:
320,192,242754,1,0,0:0:0:0:
64,192,242846,1,0,0:0:0:0:
448,192,242939,1,0,0:0:0:0:
192,192,242985,1,0,0:0:0:0:
320,192,243032,1,0,0:0:0:0:
64,192,243078,1,0,0:0:0:0:
448,192,243124,1,0,0:0:0:0:
448,192,243217,1,0,0:0:0:0:
192,192,243309,1,0,0:0:0:0:
192,192,243402,128,0,243495:0:0:0:0:
320,192,243495,1,0,0:0:0:0:
448,192,243495,128,0,243865:0:0:0:0:
64,192,243587,1,0,0:0:0:0:
192,192,243680,1,0,0:0:0:0:
320,192,243772,1,0,0:0:0:0:
192,192,243865,1,0,0:0:0:0:
64,192,243865,1,0,0:0:0:0:
448,192,243958,1,0,0:0:0:0:
320,192,244050,1,0,0:0:0:0:
64,192,244050,1,0,0:0:0:0:
192,192,244143,1,0,0:0:0:0:
320,192,244235,128,0,244421:0:0:0:0:
64,192,244421,1,0,0:0:0:0:
448,192,244513,1,0,0:0:0:0:
64,192,244606,1,0,0:0:0:0:
448,192,244667,1,0,0:0:0:0:
64,192,244729,1,0,0:0:0:0:
320,192,244791,128,0,244976:0:0:0:0:
192,192,244976,1,0,0:0:0:0:
448,192,244976,1,0,0:0:0:0:
64,192,244976,1,0,0:0:0:0:
320,192,245069,1,0,0:0:0:0:
192,192,245161,1,0,0:0:0:0:
64,192,245254,1,0,0:0:0:0:
320,192,245254,1,0,0:0:0:0:
448,192,245254,1,0,0:0:0:0:
192,192,245346,1,0,0:0:0:0:
320,192,245439,1,0,0:0:0:0:
192,192,245532,1,0,0:0:0:0:
448,192,245532,1,0,0:0:0:0:
64,192,245532,1,0,0:0:0:0:
320,192,245624,1,0,0:0:0:0:
64,192,245717,128,0,246087:0:0:0:0:
448,192,245902,128,0,245995:0:0:0:0:
192,192,245995,128,0,246087:0:0:0:0:
320,192,246087,128,0,246180:0:0:0:0:
192,192,246180,1,0,0:0:0:0:
64,192,246180,1,0,0:0:0:0:
448,192,246296,128,0,246458:0:0:0:0:
320,192,246365,128,0,246458:0:0:0:0:
64,192,246458,1,0,0:0:0:0:
448,192,246550,1,0,0:0:0:0:
320,192,246550,128,0,246735:0:0:0:0:
192,192,246643,128,0,246735:0:0:0:0:
64,192,246735,128,0,246828:0:0:0:0:
320,192,246828,1,0,0:0:0:0:
448,192,246828,1,0,0:0:0:0:
320,192,246921,1,0,0:0:0:0:
448,192,246921,1,0,0:0:0:0:
448,192,247013,1,0,0:0:0:0:
64,192,247013,1,0,0:0:0:0:
192,192,247106,1,0,0:0:0:0:
64,192,247198,128,0,247384:0:0:0:0:
192,192,247384,128,0,247476:0:0:0:0:
320,192,247476,128,0,247569:0:0:0:0:
192,192,247569,128,0,247661:0:0:0:0:
448,192,247661,128,0,247754:0:0:0:0:
64,192,247754,1,0,0:0:0:0:
192,192,247846,1,0,0:0:0:0:
320,192,247846,1,0,0:0:0:0:
448,192,247846,1,0,0:0:0:0:
64,192,247939,1,0,0:0:0:0:
192,192,248032,1,0,0:0:0:0:
448,192,248032,1,0,0:0:0:0:
320,192,248032,1,0,0:0:0:0:
320,192,248124,1,0,0:0:0:0:
192,192,248217,1,0,0:0:0:0:
448,192,248309,1,0,0:0:0:0:
64,192,248309,1,0,0:0:0:0:
320,192,248309,1,0,0:0:0:0:
192,192,248402,1,0,0:0:0:0:
448,192,248587,1,0,0:0:0:0:
64,192,248587,1,0,0:0:0:0:
192,192,248587,1,0,0:0:0:0:
64,192,248680,1,0,0:0:0:0:
320,192,248772,1,0,0:0:0:0:
192,192,248865,1,0,0:0:0:0:
64,192,248865,1,0,0:0:0:0:
448,192,248865,1,0,0:0:0:0:
320,192,248958,1,0,0:0:0:0:
192,192,249050,1,0,0:0:0:0:
64,192,249050,1,0,0:0:0:0:
448,192,249050,1,0,0:0:0:0:
320,192,249143,1,0,0:0:0:0:
448,192,249328,1,0,0:0:0:0:
64,192,249328,1,0,0:0:0:0:
192,192,249328,1,0,0:0:0:0:
192,192,249421,1,0,0:0:0:0:
320,192,249513,1,0,0:0:0:0:
448,192,249513,1,0,0:0:0:0:
64,192,249513,1,0,0:0:0:0:
448,192,249606,1,0,0:0:0:0:
64,192,249698,1,0,0:0:0:0:
192,192,249698,1,0,0:0:0:0:
320,192,249698,1,0,0:0:0:0:
192,192,249791,1,0,0:0:0:0:
320,192,249884,1,0,0:0:0:0:
64,192,249976,1,0,0:0:0:0:
192,192,249976,1,0,0:0:0:0:
448,192,249976,1,0,0:0:0:0:
448,192,250069,1,0,0:0:0:0:
192,192,250161,1,0,0:0:0:0:
64,192,250254,1,0,0:0:0:0:
320,192,250254,1,0,0:0:0:0:
448,192,250254,1,0,0:0:0:0:
64,192,250346,1,0,0:0:0:0:
320,192,250439,1,0,0:0:0:0:
448,192,250439,1,0,0:0:0:0:
448,192,250532,1,0,0:0:0:0:
192,192,250532,1,0,0:0:0:0:
64,192,250532,1,0,0:0:0:0:
320,192,250624,1,0,0:0:0:0:
192,192,250717,1,0,0:0:0:0:
64,192,250809,1,0,0:0:0:0:
320,192,250809,1,0,0:0:0:0:
448,192,250809,1,0,0:0:0:0:
320,192,250902,1,0,0:0:0:0:
192,192,250995,1,0,0:0:0:0:
64,192,250995,1,0,0:0:0:0:
448,192,250995,1,0,0:0:0:0:
64,192,251087,1,0,0:0:0:0:
320,192,251180,1,0,0:0:0:0:
448,192,251180,1,0,0:0:0:0:
192,192,251180,1,0,0:0:0:0:
448,192,251272,1,0,0:0:0:0:
192,192,251365,1,0,0:0:0:0:
64,192,251365,1,0,0:0:0:0:
320,192,251365,1,0,0:0:0:0:
192,192,251458,1,0,0:0:0:0:
320,192,251550,1,0,0:0:0:0:
448,192,251550,1,0,0:0:0:0:
320,192,251643,1,0,0:0:0:0:
448,192,251643,1,0,0:0:0:0:
192,192,251735,1,0,0:0:0:0:
64,192,251735,1,0,0:0:0:0:
64,192,251828,1,0,0:0:0:0:
192,192,251828,1,0,0:0:0:0:
320,192,251921,1,0,0:0:0:0:
448,192,251921,1,0,0:0:0:0:
448,192,252013,1,0,0:0:0:0:
320,192,252013,1,0,0:0:0:0:
64,192,252106,1,0,0:0:0:0:
192,192,252106,1,0,0:0:0:0:
64,192,252198,1,0,0:0:0:0:
448,192,252198,1,0,0:0:0:0:
192,192,252291,1,0,0:0:0:0:
320,192,252384,1,0,0:0:0:0:
448,192,252384,1,0,0:0:0:0:
320,192,252476,1,0,0:0:0:0:
64,192,252476,1,0,0:0:0:0:
64,192,252569,1,0,0:0:0:0:
192,192,252569,1,0,0:0:0:0:
320,192,252661,1,0,0:0:0:0:
448,192,252661,1,0,0:0:0:0:
448,192,252754,1,0,0:0:0:0:
64,192,252754,1,0,0:0:0:0:
192,192,252846,1,0,0:0:0:0:
320,192,252846,1,0,0:0:0:0:
448,192,252939,128,0,253124:0:0:0:0:
64,192,252939,128,0,253217:0:0:0:0:
320,192,253032,128,0,253402:0:0:0:0:
192,192,253124,128,0,253309:0:0:0:0:
448,192,253217,128,0,253402:0:0:0:0:
64,192,253309,128,0,253495:0:0:0:0:
192,192,253402,1,0,0:0:0:0:
448,192,253495,1,0,0:0:0:0:
320,192,253526,1,0,0:0:0:0:
192,192,253556,1,0,0:0:0:0:
64,192,253587,1,0,0:0:0:0:
448,192,253618,1,0,0:0:0:0:
320,192,253649,1,0,0:0:0:0:
192,192,253680,1,0,0:0:0:0:
64,192,253680,128,0,253865:0:0:0:0:
192,192,253865,128,0,254050:0:0:0:0:
448,192,254050,128,0,254235:0:0:0:0:
320,192,254235,128,0,254606:0:0:0:0:
64,192,254606,128,0,254791:0:0:0:0:
192,192,254791,128,0,254976:0:0:0:0:
448,192,254976,128,0,255161:0:0:0:0:
320,192,255161,128,0,255532:0:0:0:0:
64,192,255532,128,0,255717:0:0:0:0:
192,192,255717,128,0,255902:0:0:0:0:
448,192,255902,128,0,256087:0:0:0:0:
320,192,256087,128,0,256458:0:0:0:0:
64,192,256458,128,0,256643:0:0:0:0:
192,192,256643,128,0,256828:0:0:0:0:
448,192,256828,128,0,257013:0:0:0:0:
320,192,257013,128,0,257384:0:0:0:0:
64,192,257384,128,0,257569:0:0:0:0:
192,192,257569,128,0,257754:0:0:0:0:
448,192,257754,128,0,257939:0:0:0:0:
192,192,257939,1,0,0:0:0:0:
64,192,257939,1,0,0:0:0:0:
192,192,258032,1,0,0:0:0:0:
64,192,258032,1,0,0:0:0:0:
64,192,258124,1,0,0:0:0:0:
320,192,258124,1,0,0:0:0:0:
448,192,258171,1,0,0:0:0:0:
192,192,258217,1,0,0:0:0:0:
320,192,258263,1,0,0:0:0:0:
448,192,258309,128,0,258495:0:0:0:0:
64,192,258495,1,0,0:0:0:0:
64,192,258587,1,0,0:0:0:0:
320,192,258680,128,0,258865:0:0:0:0:
192,192,258865,1,0,0:0:0:0:
64,192,258927,128,0,258988:0:0:0:0:
448,192,259050,128,0,259174:0:0:0:0:
192,192,259235,1,0,0:0:0:0:
320,192,259328,1,0,0:0:0:0:
448,192,259421,128,0,259490:0:0:0:0:
64,192,259490,128,0,259583:0:0:0:0:
