osu file format v14

[General]
AudioFilename: audio.mp3
AudioLeadIn: 0
PreviewTime: 81144
Countdown: 1
SampleSet: Normal
StackLeniency: 0.7
Mode: 1
LetterboxInBreaks: 0
WidescreenStoryboard: 0

[Editor]
DistanceSpacing: 1.3
BeatDivisor: 4
GridSize: 32
TimelineZoom: 2.799999

[Metadata]
Title:Proluvies
TitleUnicode:Proluvies
Artist:Camellia
ArtistUnicode:かめりあ
Creator:_DUSK_
Version:Inner Oni
Source:REFLEC BEAT groovin'!!
Tags:Drumstep Electronic Masaya Oya 大箭マサヤ Cametek Dubstep zetera
BeatmapID:1611526
BeatmapSetID:766605

[Difficulty]
HPDrainRate:6
CircleSize:4
OverallDifficulty:6.5
ApproachRate:9
SliderMultiplier:1.4
SliderTickRate:1

[Events]
//Background and Video events
0,0,"bg.jpg",0,0
//Break Periods
//Storyboard Layer 0 (Background)
//Storyboard Layer 1 (Fail)
//Storyboard Layer 2 (Pass)
//Storyboard Layer 3 (Foreground)
//Storyboard Sound Samples

[TimingPoints]
4941,370.37037037037,4,1,0,50,1,0
11978,-99.009900990099,4,1,0,50,0,0
12163,-98.0392156862745,4,1,0,50,0,0
12348,-97.0873786407767,4,1,0,50,0,0
12533,-96.1538461538461,4,1,0,50,0,0
12903,-95.2380952380952,4,1,0,50,0,0
13089,-94.3396226415094,4,1,0,50,0,0
13274,-93.4579439252336,4,1,0,50,0,0
13459,-92.5925925925926,4,1,0,50,0,0
13829,-91.743119266055,4,1,0,50,0,0
14015,-90.9090909090909,4,1,0,50,0,0
14200,-90.0900900900901,4,1,0,50,0,0
14385,-89.2857142857143,4,1,0,50,0,0
14940,-88.4955752212389,4,1,0,50,0,0
16978,-89.2857142857143,4,1,0,50,0,0
17163,-90.0900900900901,4,1,0,50,0,0
17348,-90.9090909090909,4,1,0,50,0,0
17903,-91.743119266055,4,1,0,50,0,0
18089,-92.5925925925926,4,1,0,50,0,0
18274,-93.4579439252336,4,1,0,50,0,0
18459,-94.3396226415094,4,1,0,50,0,0
18829,-95.2380952380952,4,1,0,50,0,0
19015,-96.1538461538461,4,1,0,50,0,0
19200,-97.0873786407767,4,1,0,50,0,0
19478,-98.0392156862745,4,1,0,50,0,0
19755,-99.009900990099,4,1,0,50,0,0
19940,-100,4,1,0,50,0,0
24015,-99.009900990099,4,1,0,50,0,0
24200,-98.0392156862745,4,1,0,50,0,0
24385,-97.0873786407767,4,1,0,50,0,0
24570,-96.1538461538461,4,1,0,50,0,0
24755,-95.2380952380952,4,1,0,50,0,0
24940,-94.3396226415094,4,1,0,50,0,0
25126,-93.4579439252336,4,1,0,50,0,0
25311,-92.5925925925926,4,1,0,50,0,0
25496,-91.743119266055,4,1,0,50,0,0
25681,-90.9090909090909,4,1,0,50,0,0
25774,-90.0900900900901,4,1,0,50,0,0
25866,-89.2857142857143,4,1,0,50,0,0
25959,-88.4955752212389,4,1,0,50,0,0
26052,-87.719298245614,4,1,0,50,0,0
26144,-86.9565217391304,4,1,0,50,0,0
26237,-86.2068965517241,4,1,0,50,0,0
26329,-85.4700854700855,4,1,0,50,0,0
26422,-84.7457627118644,4,1,0,50,0,0
26515,-84.0336134453781,4,1,0,50,0,0
26607,-83.3333333333333,4,1,0,50,0,0
26700,-82.6446280991736,4,1,0,50,0,0
26792,-81.9672131147541,4,1,0,50,0,0
26885,-81.3008130081301,4,1,0,50,0,0
26978,-80.6451612903226,4,1,0,50,0,0
27070,-80,4,1,0,50,0,0
27163,-79.3650793650794,4,1,0,50,0,0
27255,-78.7401574803149,4,1,0,50,0,0
27348,-78.125,4,1,0,50,0,0
27440,-77.5193798449612,4,1,0,50,0,0
27533,-76.9230769230769,4,1,0,50,0,0
27626,-76.3358778625954,4,1,0,50,0,0
27718,-75.7575757575758,4,1,0,50,0,0
27811,-75.187969924812,4,1,0,50,0,0
27903,-74.6268656716418,4,1,0,50,0,0
27996,-74.0740740740741,4,1,0,50,0,0
28089,-73.5294117647059,4,1,0,50,0,0
28181,-72.992700729927,4,1,0,50,0,0
28274,-72.463768115942,4,1,0,50,0,0
28366,-71.9424460431655,4,1,0,50,0,0
28459,-71.4285714285714,4,1,0,50,0,0
28552,-70.9219858156028,4,1,0,50,0,0
28644,-70.4225352112676,4,1,0,50,0,0
28829,-71.4285714285714,4,1,0,50,0,0
29015,-72.463768115942,4,1,0,50,0,0
29200,-73.5294117647059,4,1,0,50,0,0
29385,-74.6268656716418,4,1,0,50,0,0
29570,-75.7575757575758,4,1,0,50,0,0
29755,-76.9230769230769,4,1,0,50,0,0
29940,-78.125,4,1,0,50,0,0
30126,-79.3650793650794,4,1,0,50,0,0
30311,-80.6451612903226,4,1,0,50,0,0
30496,-81.9672131147541,4,1,0,50,0,0
30681,-83.3333333333333,4,1,0,50,0,0
30866,-84.7457627118644,4,1,0,50,0,0
31052,-86.2068965517241,4,1,0,50,0,0
31237,-87.719298245614,4,1,0,50,0,0
31422,-89.2857142857143,4,1,0,50,0,0
31607,-87.719298245614,4,1,0,50,0,0
31700,-86.2068965517241,4,1,0,50,0,0
31792,-84.7457627118644,4,1,0,50,0,0
31885,-83.3333333333333,4,1,0,50,0,0
31978,-81.9672131147541,4,1,0,50,0,0
32070,-80.6451612903226,4,1,0,50,0,0
32163,-79.3650793650794,4,1,0,50,0,0
32255,-78.125,4,1,0,50,0,0
32348,-76.9230769230769,4,1,0,50,0,0
32440,-75.7575757575758,4,1,0,50,0,0
32533,-74.6268656716418,4,1,0,50,0,0
32626,-73.5294117647059,4,1,0,50,0,0
32718,-72.463768115942,4,1,0,50,0,0
32811,-71.4285714285714,4,1,0,50,0,0
32903,-70.4225352112676,4,1,0,50,0,0
32996,-69.4444444444444,4,1,0,50,0,0
33089,-68.4931506849315,4,1,0,50,0,0
33181,-67.5675675675676,4,1,0,50,0,0
33274,-66.6666666666667,4,1,0,50,0,0
33366,-65.7894736842105,4,1,0,50,0,0
33459,-64.9350649350649,4,1,0,50,0,0
33552,-64.1025641025641,4,1,0,50,0,0
33644,-63.2911392405063,4,1,0,50,0,0
33737,-62.5,4,1,0,50,0,0
33829,-61.7283950617284,4,1,0,50,0,0
34570,-66.6666666666667,4,1,0,100,0,0
35126,-90.9090909090909,4,1,0,100,0,0
58459,-92.5925925925926,4,1,0,50,0,0
58644,-94.3396226415094,4,1,0,50,0,0
58829,-96.1538461538461,4,1,0,50,0,0
59015,-98.0392156862745,4,1,0,50,0,0
59200,-100,4,1,0,50,0,0
69200,-99.009900990099,4,1,0,100,0,0
69385,-98.0392156862745,4,1,0,100,0,0
69447,-97.0873786407767,4,1,0,100,0,0
69508,-96.1538461538461,4,1,0,100,0,0
69570,-95.2380952380952,4,1,0,100,0,0
69632,-94.3396226415094,4,1,0,100,0,0
69694,-93.4579439252336,4,1,0,100,0,0
69755,-92.5925925925926,4,1,0,100,0,0
69940,-91.743119266055,4,1,0,100,0,0
70126,-90.9090909090909,4,1,0,100,0,0
81144,-90.0900900900901,4,1,0,100,0,0
81237,-89.2857142857143,4,1,0,100,0,0
81329,-88.4955752212389,4,1,0,100,0,0
81422,-87.719298245614,4,1,0,100,0,0
81515,-86.9565217391304,4,1,0,100,0,0
81607,-86.2068965517241,4,1,0,100,0,0
81700,-85.4700854700855,4,1,0,100,0,0
81792,-84.7457627118644,4,1,0,100,0,0
81885,-84.0336134453781,4,1,0,100,0,0
81978,-83.3333333333333,4,1,0,100,0,1
92811,-84.0336134453781,4,1,0,100,0,1
92903,-84.7457627118644,4,1,0,100,0,1
92996,-85.4700854700855,4,1,0,100,0,1
93089,-86.2068965517241,4,1,0,100,0,1
93181,-86.9565217391304,4,1,0,100,0,1
93274,-87.719298245614,4,1,0,100,0,1
93366,-88.4955752212389,4,1,0,100,0,1
93459,-89.2857142857143,4,1,0,100,0,1
93644,-88.4955752212389,4,1,0,100,0,1
93829,-87.719298245614,4,1,0,100,0,0
93891,-86.9565217391304,4,1,0,100,0,0
93953,-86.2068965517241,4,1,0,100,0,0
94015,-85.4700854700855,4,1,0,100,0,0
94076,-84.7457627118644,4,1,0,100,0,0
94138,-84.0336134453781,4,1,0,100,0,0
94200,-83.3333333333333,4,1,0,100,0,1
98922,-84.0336134453781,4,1,0,100,0,1
99015,-84.7457627118644,4,1,0,100,0,1
99107,-85.4700854700855,4,1,0,100,0,1
99200,-86.2068965517241,4,1,0,100,0,1
99292,-86.9565217391304,4,1,0,100,0,1
99385,-87.719298245614,4,1,0,100,0,1
99478,-88.4955752212389,4,1,0,100,0,1
99570,-89.2857142857143,4,1,0,100,0,1
99663,-90.0900900900901,4,1,0,100,0,1
99755,-90.9090909090909,4,1,0,100,0,0
105866,-92.5925925925926,4,1,0,50,0,0
106052,-94.3396226415094,4,1,0,50,0,0
106237,-96.1538461538461,4,1,0,50,0,0
106607,-98.0392156862745,4,1,0,50,0,0
106792,-100,4,1,0,50,0,0
108459,-98.0392156862745,4,1,0,50,0,0
108644,-96.1538461538461,4,1,0,50,0,0
108829,-94.3396226415094,4,1,0,50,0,0
109015,-92.5925925925926,4,1,0,50,0,0
109385,-90.9090909090909,4,1,0,50,0,0
109940,-90.9090909090909,4,1,0,100,0,0

[HitObjects]
256,192,4940,5,0,0:0:0:0:
256,192,5126,1,0,0:0:0:0:
256,192,5311,1,8,0:0:0:0:
256,192,5496,1,0,0:0:0:0:
256,192,6052,1,0,0:0:0:0:
256,192,6237,1,0,0:0:0:0:
256,192,6422,1,8,0:0:0:0:
256,192,6607,1,8,0:0:0:0:
256,192,6978,1,0,0:0:0:0:
256,192,7163,1,8,0:0:0:0:
256,192,7348,1,8,0:0:0:0:
256,192,7533,1,0,0:0:0:0:
256,192,7903,1,0,0:0:0:0:
256,192,8089,1,0,0:0:0:0:
256,192,8274,1,8,0:0:0:0:
256,192,8459,1,0,0:0:0:0:
256,192,9015,1,0,0:0:0:0:
256,192,9200,1,0,0:0:0:0:
256,192,9385,1,8,0:0:0:0:
256,192,9570,1,8,0:0:0:0:
256,192,9940,1,0,0:0:0:0:
256,192,10126,1,8,0:0:0:0:
256,192,10311,1,0,0:0:0:0:
256,192,10496,1,8,0:0:0:0:
256,192,10589,1,0,0:0:0:0:
256,192,10681,1,8,0:0:0:0:
256,192,10774,1,8,0:0:0:0:
256,192,10866,1,0,0:0:0:0:
256,192,11052,1,0,0:0:0:0:
256,192,11237,1,8,0:0:0:0:
256,192,11422,1,8,0:0:0:0:
256,192,11978,1,0,0:0:0:0:
256,192,12163,1,8,0:0:0:0:
256,192,12348,1,0,0:0:0:0:
256,192,12533,1,8,0:0:0:0:
256,192,12903,1,0,0:0:0:0:
256,192,13089,1,8,0:0:0:0:
256,192,13274,1,8,0:0:0:0:
256,192,13459,1,0,0:0:0:0:
256,192,13829,1,0,0:0:0:0:
256,192,14015,1,0,0:0:0:0:
256,192,14200,1,8,0:0:0:0:
256,192,14385,1,8,0:0:0:0:
256,192,14940,1,8,0:0:0:0:
256,192,15126,5,0,0:0:0:0:
256,192,15218,1,0,0:0:0:0:
256,192,15311,1,8,0:0:0:0:
256,192,15496,1,8,0:0:0:0:
256,192,15589,1,0,0:0:0:0:
256,192,15681,1,8,0:0:0:0:
256,192,15774,1,8,0:0:0:0:
256,192,15866,1,0,0:0:0:0:
256,192,15928,1,0,0:0:0:0:
256,192,15990,1,0,0:0:0:0:
256,192,16052,1,8,0:0:0:0:
256,192,16144,1,0,0:0:0:0:
256,192,16237,1,0,0:0:0:0:
256,192,16329,1,8,0:0:0:0:
256,192,16422,1,0,0:0:0:0:
256,192,16515,1,0,0:0:0:0:
256,192,16607,1,8,0:0:0:0:
256,192,16669,1,8,0:0:0:0:
256,192,16731,1,8,0:0:0:0:
256,192,16792,1,0,0:0:0:0:
256,192,16978,1,0,0:0:0:0:
256,192,17163,1,8,0:0:0:0:
256,192,17348,1,0,0:0:0:0:
256,192,17903,1,0,0:0:0:0:
256,192,18089,1,0,0:0:0:0:
256,192,18274,1,8,0:0:0:0:
256,192,18459,1,8,0:0:0:0:
256,192,18829,1,0,0:0:0:0:
256,192,19015,1,8,0:0:0:0:
256,192,19200,1,4,0:0:0:0:
256,192,19478,1,4,0:0:0:0:
256,192,19755,1,4,0:0:0:0:
256,192,19940,1,0,0:0:0:0:
256,192,20126,1,8,0:0:0:0:
256,192,20311,1,8,0:0:0:0:
256,192,20866,1,0,0:0:0:0:
256,192,21052,1,8,0:0:0:0:
256,192,21237,1,0,0:0:0:0:
256,192,21422,1,8,0:0:0:0:
256,192,21978,1,8,0:0:0:0:
256,192,22163,5,4,0:0:0:0:
256,192,22440,1,4,0:0:0:0:
256,192,22718,1,4,0:0:0:0:
256,192,22903,1,0,0:0:0:0:
256,192,23089,1,8,0:0:0:0:
256,192,23274,1,8,0:0:0:0:
256,192,24015,1,12,0:0:0:0:
256,192,24200,5,0,0:0:0:0:
256,192,24385,1,0,0:0:0:0:
256,192,24570,1,0,0:0:0:0:
256,192,24755,1,0,0:0:0:0:
256,192,24940,1,0,0:0:0:0:
256,192,25126,1,0,0:0:0:0:
256,192,25311,1,0,0:0:0:0:
256,192,25496,1,12,0:0:0:0:
256,192,25681,5,8,0:0:0:0:
256,192,25774,1,0,0:0:0:0:
256,192,25866,1,0,0:0:0:0:
256,192,25959,1,0,0:0:0:0:
256,192,26052,1,0,0:0:0:0:
256,192,26144,1,0,0:0:0:0:
256,192,26237,1,8,0:0:0:0:
256,192,26329,1,0,0:0:0:0:
256,192,26422,1,0,0:0:0:0:
256,192,26515,1,0,0:0:0:0:
256,192,26607,1,0,0:0:0:0:
256,192,26700,1,0,0:0:0:0:
256,192,26792,1,0,0:0:0:0:
256,192,26885,1,0,0:0:0:0:
256,192,26978,1,8,0:0:0:0:
256,192,27070,1,0,0:0:0:0:
256,192,27163,1,0,0:0:0:0:
256,192,27255,1,0,0:0:0:0:
256,192,27348,1,8,0:0:0:0:
256,192,27440,1,0,0:0:0:0:
256,192,27533,1,0,0:0:0:0:
256,192,27626,1,8,0:0:0:0:
256,192,27718,1,0,0:0:0:0:
256,192,27811,1,0,0:0:0:0:
256,192,27903,1,8,0:0:0:0:
256,192,27996,1,0,0:0:0:0:
256,192,28089,1,8,0:0:0:0:
256,192,28181,1,8,0:0:0:0:
256,192,28274,1,0,0:0:0:0:
256,192,28366,1,8,0:0:0:0:
256,192,28459,1,8,0:0:0:0:
256,192,28552,1,0,0:0:0:0:
256,192,28644,1,0,0:0:0:0:
256,192,28829,1,0,0:0:0:0:
256,192,29014,1,0,0:0:0:0:
256,192,29200,1,8,0:0:0:0:
256,192,29385,1,8,0:0:0:0:
256,192,29570,1,8,0:0:0:0:
256,192,29755,1,0,0:0:0:0:
256,192,29940,1,0,0:0:0:0:
256,192,30126,1,8,0:0:0:0:
256,192,30311,1,0,0:0:0:0:
256,192,30496,1,8,0:0:0:0:
256,192,30681,1,0,0:0:0:0:
256,192,30866,1,0,0:0:0:0:
256,192,31051,1,8,0:0:0:0:
256,192,31236,1,8,0:0:0:0:
256,192,31421,1,0,0:0:0:0:
256,192,31607,1,0,0:0:0:0:
256,192,31700,1,0,0:0:0:0:
256,192,31792,1,0,0:0:0:0:
256,192,31885,1,0,0:0:0:0:
256,192,31978,1,8,0:0:0:0:
256,192,32070,1,8,0:0:0:0:
256,192,32163,1,8,0:0:0:0:
256,192,32255,1,8,0:0:0:0:
256,192,32348,1,0,0:0:0:0:
256,192,32440,1,0,0:0:0:0:
256,192,32533,1,0,0:0:0:0:
256,192,32626,1,0,0:0:0:0:
256,192,32718,1,8,0:0:0:0:
256,192,32811,1,8,0:0:0:0:
256,192,32903,1,8,0:0:0:0:
256,192,32996,1,8,0:0:0:0:
256,192,33089,1,0,0:0:0:0:
256,192,33181,1,0,0:0:0:0:
256,192,33274,1,8,0:0:0:0:
256,192,33366,1,8,0:0:0:0:
256,192,33459,1,0,0:0:0:0:
256,192,33552,1,0,0:0:0:0:
256,192,33644,1,8,0:0:0:0:
256,192,33737,1,0,0:0:0:0:
256,192,33829,1,8,0:0:0:0:
256,192,34570,1,12,0:0:0:0:
256,192,35126,1,0,0:0:0:0:
256,192,35187,1,0,0:0:0:0:
256,192,35249,1,0,0:0:0:0:
256,192,35311,1,8,0:0:0:0:
256,192,35496,1,0,0:0:0:0:
256,192,36237,1,0,0:0:0:0:
256,192,36422,1,8,0:0:0:0:
256,192,36607,1,0,0:0:0:0:
256,192,36792,1,8,0:0:0:0:
256,192,36839,1,8,0:0:0:0:
256,192,36978,1,8,0:0:0:0:
256,192,37025,1,8,0:0:0:0:
256,192,37163,1,8,0:0:0:0:
256,192,37255,1,0,0:0:0:0:
256,192,37348,1,8,0:0:0:0:
256,192,37440,1,8,0:0:0:0:
256,192,37533,1,4,0:0:0:0:
256,192,38089,1,0,0:0:0:0:
256,192,38274,1,8,0:0:0:0:
256,192,38459,1,0,0:0:0:0:
256,192,38521,1,0,0:0:0:0:
256,192,38582,1,0,0:0:0:0:
256,192,38644,1,8,0:0:0:0:
256,192,38737,1,8,0:0:0:0:
256,192,38829,1,8,0:0:0:0:
256,192,38922,1,0,0:0:0:0:
256,192,39292,1,0,0:0:0:0:
256,192,39385,1,8,0:0:0:0:
256,192,39477,1,0,0:0:0:0:
256,192,39570,1,0,0:0:0:0:
256,192,39662,1,0,0:0:0:0:
256,192,39755,1,8,0:0:0:0:
256,192,39848,1,8,0:0:0:0:
256,192,39940,1,0,0:0:0:0:
256,192,40126,1,8,0:0:0:0:
256,192,40218,1,0,0:0:0:0:
256,192,40311,1,8,0:0:0:0:
256,192,40403,1,8,0:0:0:0:
256,192,40496,1,0,0:0:0:0:
256,192,40558,1,0,0:0:0:0:
256,192,40620,1,0,0:0:0:0:
256,192,40681,1,8,0:0:0:0:
256,192,40774,1,8,0:0:0:0:
256,192,40866,1,0,0:0:0:0:
256,192,40959,1,0,0:0:0:0:
256,192,41052,1,8,0:0:0:0:
256,192,41113,1,8,0:0:0:0:
256,192,41175,1,8,0:0:0:0:
256,192,41237,1,0,0:0:0:0:
256,192,41422,1,0,0:0:0:0:
256,192,41515,1,8,0:0:0:0:
256,192,41607,1,0,0:0:0:0:
256,192,41700,1,0,0:0:0:0:
256,192,41792,1,8,0:0:0:0:
256,192,41978,1,0,0:0:0:0:
256,192,42070,1,8,0:0:0:0:
256,192,42163,1,0,0:0:0:0:
256,192,42348,1,8,0:0:0:0:
256,192,42533,1,0,0:0:0:0:
256,192,42718,1,8,0:0:0:0:
256,192,42811,1,0,0:0:0:0:
256,192,42903,1,8,0:0:0:0:
256,192,43089,1,8,0:0:0:0:
256,192,43212,1,8,0:0:0:0:
256,192,43336,1,8,0:0:0:0:
256,192,43459,1,4,0:0:0:0:
256,192,44015,1,0,0:0:0:0:
256,192,44200,1,8,0:0:0:0:
256,192,44385,1,0,0:0:0:0:
256,192,44447,1,0,0:0:0:0:
256,192,44508,1,0,0:0:0:0:
256,192,44570,1,8,0:0:0:0:
256,192,44663,1,8,0:0:0:0:
256,192,44755,1,8,0:0:0:0:
256,192,44848,1,0,0:0:0:0:
256,192,45126,1,8,0:0:0:0:
256,192,45218,1,0,0:0:0:0:
256,192,45496,1,0,0:0:0:0:
256,192,45681,1,8,0:0:0:0:
256,192,45774,1,0,0:0:0:0:
256,192,45866,1,0,0:0:0:0:
256,192,45959,1,8,0:0:0:0:
256,192,46052,1,0,0:0:0:0:
256,192,46144,1,0,0:0:0:0:
256,192,46237,1,8,0:0:0:0:
256,192,46329,1,0,0:0:0:0:
256,192,46422,1,12,0:0:0:0:
256,192,46978,1,0,0:0:0:0:
256,192,47039,1,0,0:0:0:0:
256,192,47101,1,0,0:0:0:0:
256,192,47163,1,8,0:0:0:0:
256,192,47348,1,0,0:0:0:0:
256,192,47440,1,8,0:0:0:0:
256,192,47626,1,0,0:0:0:0:
256,192,47718,1,8,0:0:0:0:
256,192,47903,1,0,0:0:0:0:
256,192,47996,1,8,0:0:0:0:
256,192,48089,1,0,0:0:0:0:
256,192,48274,1,8,0:0:0:0:
256,192,48459,1,0,0:0:0:0:
256,192,48644,1,8,0:0:0:0:
256,192,48829,1,8,0:0:0:0:
256,192,49015,1,0,0:0:0:0:
256,192,49076,1,0,0:0:0:0:
256,192,49138,1,0,0:0:0:0:
256,192,49200,1,8,0:0:0:0:
256,192,49385,1,4,0:0:0:0:
256,192,49940,1,0,0:0:0:0:
256,192,50126,1,8,0:0:0:0:
256,192,50311,1,0,0:0:0:0:
256,192,50496,1,8,0:0:0:0:
256,192,50589,1,8,0:0:0:0:
256,192,50681,1,8,0:0:0:0:
256,192,50774,1,0,0:0:0:0:
256,192,51052,1,0,0:0:0:0:
256,192,51144,1,0,0:0:0:0:
256,192,51237,1,8,0:0:0:0:
256,192,51360,1,0,0:0:0:0:
256,192,51484,1,0,0:0:0:0:
256,192,51607,1,8,0:0:0:0:
256,192,51700,1,8,0:0:0:0:
256,192,51792,1,0,0:0:0:0:
256,192,51885,1,0,0:0:0:0:
256,192,51978,1,8,0:0:0:0:
256,192,52070,1,0,0:0:0:0:
256,192,52163,1,8,0:0:0:0:
256,192,52255,1,0,0:0:0:0:
256,192,52348,1,8,0:0:0:0:
256,192,52440,1,8,0:0:0:0:
256,192,52533,1,8,0:0:0:0:
256,192,52626,1,8,0:0:0:0:
256,192,52718,1,4,0:0:0:0:
256,192,53089,1,8,0:0:0:0:
256,192,53274,1,0,0:0:0:0:
256,192,53366,1,8,0:0:0:0:
256,192,53552,1,0,0:0:0:0:
256,192,53644,1,8,0:0:0:0:
256,192,53829,1,0,0:0:0:0:
256,192,53922,1,8,0:0:0:0:
256,192,54015,1,0,0:0:0:0:
256,192,54200,1,8,0:0:0:0:
256,192,54385,1,0,0:0:0:0:
256,192,54570,1,8,0:0:0:0:
256,192,54616,1,8,0:0:0:0:
256,192,54755,1,8,0:0:0:0:
256,192,54802,1,8,0:0:0:0:
256,192,54940,1,0,0:0:0:0:
256,192,55064,1,8,0:0:0:0:
256,192,55187,1,8,0:0:0:0:
256,192,55311,1,4,0:0:0:0:
256,192,55866,1,0,0:0:0:0:
256,192,56052,1,8,0:0:0:0:
224,192,56299,1,8,0:0:0:0:
224,192,56545,1,8,0:0:0:0:
224,192,56792,1,4,0:0:0:0:
224,192,57163,1,8,0:0:0:0:
224,192,57255,1,8,0:0:0:0:
224,192,57348,1,0,0:0:0:0:
224,192,57440,1,0,0:0:0:0:
224,192,57533,1,12,0:0:0:0:
256,192,57903,5,8,0:0:0:0:
256,192,57965,1,8,0:0:0:0:
256,192,58027,1,8,0:0:0:0:
256,192,58089,1,0,0:0:0:0:
256,192,58150,1,0,0:0:0:0:
256,192,58212,1,0,0:0:0:0:
256,192,58274,1,8,0:0:0:0:
256,192,58459,5,0,0:0:0:0:
256,192,58644,1,0,0:0:0:0:
256,192,58829,1,0,0:0:0:0:
256,192,59015,1,8,0:0:0:0:
256,192,59200,1,8,0:0:0:0:
256,192,59385,1,0,0:0:0:0:
256,192,59570,1,8,0:0:0:0:
256,192,59940,1,0,0:0:0:0:
256,192,60126,1,8,0:0:0:0:
256,192,60311,1,0,0:0:0:0:
256,192,60496,1,8,0:0:0:0:
256,192,60681,1,8,0:0:0:0:
256,192,60866,1,0,0:0:0:0:
256,192,61052,1,8,0:0:0:0:
256,192,61422,1,0,0:0:0:0:
256,192,61607,1,0,0:0:0:0:
256,192,61792,1,8,0:0:0:0:
256,192,61978,1,8,0:0:0:0:
256,192,62163,1,0,0:0:0:0:
256,192,62348,1,8,0:0:0:0:
256,192,62533,1,8,0:0:0:0:
256,192,62903,1,0,0:0:0:0:
256,192,63089,1,0,0:0:0:0:
256,192,63274,1,8,0:0:0:0:
256,192,63459,1,0,0:0:0:0:
256,192,63644,1,0,0:0:0:0:
256,192,63829,1,8,0:0:0:0:
256,192,64015,1,8,0:0:0:0:
256,192,64385,1,0,0:0:0:0:
256,192,64570,1,8,0:0:0:0:
256,192,64755,1,8,0:0:0:0:
256,192,64940,1,0,0:0:0:0:
256,192,65126,1,8,0:0:0:0:
256,192,65311,1,0,0:0:0:0:
256,192,65496,1,8,0:0:0:0:
256,192,65866,1,8,0:0:0:0:
256,192,66052,1,8,0:0:0:0:
256,192,66237,1,0,0:0:0:0:
256,192,66422,1,8,0:0:0:0:
256,192,66607,1,8,0:0:0:0:
256,192,66792,1,0,0:0:0:0:
256,192,66978,1,8,0:0:0:0:
256,192,67348,1,0,0:0:0:0:
256,192,67533,1,0,0:0:0:0:
256,192,67718,1,8,0:0:0:0:
256,192,67903,1,8,0:0:0:0:
256,192,68089,1,8,0:0:0:0:
256,192,68274,1,0,0:0:0:0:
256,192,68459,1,8,0:0:0:0:
256,192,68829,1,0,0:0:0:0:
256,192,69015,1,8,0:0:0:0:
256,192,69200,1,0,0:0:0:0:
256,192,69385,1,8,0:0:0:0:
256,192,69447,1,8,0:0:0:0:
256,192,69508,1,8,0:0:0:0:
256,192,69570,1,0,0:0:0:0:
256,192,69632,1,0,0:0:0:0:
256,192,69694,1,0,0:0:0:0:
256,192,69755,1,8,0:0:0:0:
256,192,69940,1,0,0:0:0:0:
256,192,70126,1,0,0:0:0:0:
256,192,70496,1,0,0:0:0:0:
256,192,70866,1,0,0:0:0:0:
256,192,71144,1,0,0:0:0:0:
256,192,71422,1,0,0:0:0:0:
256,192,71607,1,0,0:0:0:0:
256,192,71978,1,0,0:0:0:0:
256,192,72348,1,0,0:0:0:0:
256,192,72626,1,0,0:0:0:0:
256,192,72903,1,0,0:0:0:0:
256,192,73089,1,0,0:0:0:0:
256,192,73459,1,0,0:0:0:0:
256,192,73829,1,0,0:0:0:0:
256,192,74107,1,0,0:0:0:0:
256,192,74385,1,0,0:0:0:0:
256,192,74570,1,0,0:0:0:0:
256,192,74940,1,0,0:0:0:0:
256,192,75311,1,0,0:0:0:0:
256,192,75357,1,0,0:0:0:0:
256,192,75403,1,0,0:0:0:0:
256,192,75496,1,0,0:0:0:0:
256,192,75589,1,8,0:0:0:0:
256,192,75774,1,0,0:0:0:0:
256,192,75959,1,0,0:0:0:0:
256,192,76144,1,0,0:0:0:0:
256,192,76329,1,8,0:0:0:0:
256,192,76607,1,0,0:0:0:0:
256,192,76885,1,0,0:0:0:0:
256,192,77163,1,0,0:0:0:0:
256,192,77348,1,0,0:0:0:0:
256,192,77440,1,8,0:0:0:0:
256,192,77626,1,0,0:0:0:0:
256,192,77811,1,0,0:0:0:0:
256,192,77996,1,0,0:0:0:0:
256,192,78274,1,0,0:0:0:0:
256,192,78552,1,0,0:0:0:0:
256,192,78737,1,0,0:0:0:0:
256,192,78829,1,8,0:0:0:0:
256,192,79107,1,0,0:0:0:0:
256,192,79292,1,0,0:0:0:0:
256,192,79478,1,8,0:0:0:0:
256,192,79663,1,8,0:0:0:0:
256,192,79848,1,8,0:0:0:0:
256,192,79940,1,0,0:0:0:0:
256,192,80033,1,0,0:0:0:0:
256,192,80126,1,0,0:0:0:0:
256,192,80218,1,8,0:0:0:0:
256,192,80311,1,0,0:0:0:0:
256,192,80403,1,0,0:0:0:0:
256,192,80496,5,8,0:0:0:0:
256,192,80589,1,0,0:0:0:0:
256,192,80681,1,0,0:0:0:0:
256,192,80774,1,8,0:0:0:0:
256,192,80866,1,0,0:0:0:0:
256,192,80959,1,0,0:0:0:0:
256,192,81052,1,8,0:0:0:0:
256,192,81144,1,0,0:0:0:0:
256,192,81237,1,8,0:0:0:0:
256,192,81329,1,0,0:0:0:0:
256,192,81422,1,0,0:0:0:0:
256,192,81515,1,0,0:0:0:0:
256,192,81607,1,8,0:0:0:0:
256,192,81700,1,8,0:0:0:0:
256,192,81792,1,0,0:0:0:0:
256,192,81885,1,0,0:0:0:0:
256,192,81978,1,12,0:0:0:0:
256,192,82163,1,8,0:0:0:0:
256,192,82255,1,0,0:0:0:0:
256,192,82348,1,0,0:0:0:0:
256,192,82440,1,8,0:0:0:0:
256,192,82533,1,0,0:0:0:0:
256,192,82626,1,8,0:0:0:0:
256,192,82718,1,0,0:0:0:0:
256,192,82811,1,8,0:0:0:0:
256,192,82903,1,8,0:0:0:0:
256,192,82996,1,0,0:0:0:0:
256,192,83089,1,8,0:0:0:0:
256,192,83274,1,0,0:0:0:0:
256,192,83459,1,8,0:0:0:0:
256,192,83552,1,8,0:0:0:0:
256,192,83644,1,0,0:0:0:0:
256,192,83737,1,0,0:0:0:0:
256,192,83829,1,8,0:0:0:0:
256,192,83922,1,0,0:0:0:0:
256,192,84015,1,8,0:0:0:0:
256,192,84107,1,8,0:0:0:0:
256,192,84200,1,0,0:0:0:0:
256,192,84292,1,0,0:0:0:0:
256,192,84385,1,8,0:0:0:0:
256,192,84478,1,8,0:0:0:0:
256,192,84570,1,0,0:0:0:0:
256,192,84663,1,8,0:0:0:0:
256,192,84755,1,0,0:0:0:0:
256,192,84848,1,0,0:0:0:0:
256,192,84940,1,8,0:0:0:0:
256,192,85126,1,0,0:0:0:0:
256,192,85218,1,8,0:0:0:0:
256,192,85311,1,0,0:0:0:0:
256,192,85403,1,0,0:0:0:0:
256,192,85496,1,0,0:0:0:0:
256,192,85589,1,8,0:0:0:0:
256,192,85774,1,0,0:0:0:0:
256,192,85866,1,8,0:0:0:0:
256,192,85959,1,0,0:0:0:0:
256,192,86052,1,8,0:0:0:0:
256,192,86144,1,8,0:0:0:0:
256,192,86237,1,0,0:0:0:0:
256,192,86329,1,8,0:0:0:0:
256,192,86422,1,0,0:0:0:0:
256,192,86607,1,8,0:0:0:0:
256,192,86700,1,8,0:0:0:0:
256,192,86792,1,0,0:0:0:0:
256,192,86978,1,8,0:0:0:0:
256,192,87070,1,0,0:0:0:0:
256,192,87255,1,8,0:0:0:0:
256,192,87348,1,0,0:0:0:0:
256,192,87440,1,0,0:0:0:0:
256,192,87533,1,8,0:0:0:0:
256,192,87626,1,8,0:0:0:0:
256,192,87718,1,8,0:0:0:0:
256,192,87811,1,0,0:0:0:0:
256,192,87903,1,8,0:0:0:0:
256,192,88089,1,0,0:0:0:0:
256,192,88181,1,0,0:0:0:0:
256,192,88274,1,8,0:0:0:0:
256,192,88366,1,0,0:0:0:0:
256,192,88459,1,8,0:0:0:0:
256,192,88552,1,8,0:0:0:0:
256,192,88644,1,0,0:0:0:0:
256,192,88737,1,0,0:0:0:0:
256,192,88829,1,8,0:0:0:0:
256,192,88922,1,0,0:0:0:0:
256,192,89015,1,8,0:0:0:0:
256,192,89107,1,8,0:0:0:0:
256,192,89200,1,0,0:0:0:0:
256,192,89292,1,0,0:0:0:0:
256,192,89385,1,8,0:0:0:0:
256,192,89570,1,8,0:0:0:0:
256,192,89663,1,0,0:0:0:0:
256,192,89755,1,8,0:0:0:0:
256,192,89848,1,8,0:0:0:0:
256,192,89940,1,0,0:0:0:0:
256,192,90033,1,8,0:0:0:0:
256,192,90126,1,0,0:0:0:0:
256,192,90218,1,8,0:0:0:0:
256,192,90403,1,0,0:0:0:0:
256,192,90496,1,8,0:0:0:0:
256,192,90589,1,8,0:0:0:0:
256,192,90681,1,0,0:0:0:0:
256,192,90774,1,0,0:0:0:0:
256,192,90866,1,8,0:0:0:0:
256,192,91052,1,0,0:0:0:0:
256,192,91144,1,8,0:0:0:0:
256,192,91237,1,8,0:0:0:0:
256,192,91422,1,8,0:0:0:0:
256,192,91515,1,0,0:0:0:0:
256,192,91700,1,8,0:0:0:0:
256,192,91792,1,0,0:0:0:0:
256,192,91885,1,0,0:0:0:0:
256,192,91978,1,8,0:0:0:0:
256,192,92070,1,8,0:0:0:0:
256,192,92163,1,8,0:0:0:0:
256,192,92255,1,0,0:0:0:0:
256,192,92348,1,8,0:0:0:0:
256,192,92626,1,0,0:0:0:0:
256,192,92718,1,8,0:0:0:0:
256,192,92811,1,8,0:0:0:0:
256,192,92903,1,0,0:0:0:0:
256,192,92996,1,0,0:0:0:0:
256,192,93089,1,8,0:0:0:0:
256,192,93181,1,8,0:0:0:0:
256,192,93274,1,0,0:0:0:0:
256,192,93366,1,0,0:0:0:0:
256,192,93459,1,8,0:0:0:0:
256,192,93644,1,0,0:0:0:0:
256,192,93829,1,8,0:0:0:0:
256,192,93891,1,8,0:0:0:0:
256,192,93953,1,8,0:0:0:0:
256,192,94015,1,0,0:0:0:0:
256,192,94076,1,0,0:0:0:0:
256,192,94138,1,0,0:0:0:0:
256,192,94200,1,8,0:0:0:0:
256,192,94292,1,8,0:0:0:0:
256,192,94385,1,0,0:0:0:0:
256,192,94478,1,0,0:0:0:0:
256,192,94570,1,8,0:0:0:0:
256,192,94663,1,0,0:0:0:0:
256,192,94755,1,0,0:0:0:0:
256,192,94848,1,8,0:0:0:0:
256,192,94940,1,0,0:0:0:0:
256,192,95033,1,0,0:0:0:0:
256,192,95126,1,8,0:0:0:0:
256,192,95218,1,0,0:0:0:0:
256,192,95311,1,8,0:0:0:0:
256,192,95496,1,0,0:0:0:0:
256,192,95589,1,0,0:0:0:0:
256,192,95681,1,8,0:0:0:0:
256,192,95866,1,8,0:0:0:0:
256,192,95959,1,0,0:0:0:0:
256,192,96052,1,8,0:0:0:0:
256,192,96144,1,8,0:0:0:0:
256,192,96237,1,0,0:0:0:0:
256,192,96329,1,8,0:0:0:0:
256,192,96515,1,8,0:0:0:0:
256,192,96607,1,0,0:0:0:0:
256,192,96700,1,0,0:0:0:0:
256,192,96792,1,8,0:0:0:0:
256,192,96978,1,8,0:0:0:0:
256,192,97070,1,8,0:0:0:0:
256,192,97163,1,0,0:0:0:0:
256,192,97348,1,8,0:0:0:0:
256,192,97440,1,0,0:0:0:0:
256,192,97533,1,8,0:0:0:0:
256,192,97626,1,8,0:0:0:0:
256,192,97718,1,0,0:0:0:0:
256,192,97811,1,8,0:0:0:0:
256,192,97903,1,8,0:0:0:0:
256,192,97996,1,0,0:0:0:0:
256,192,98089,1,8,0:0:0:0:
256,192,98181,1,0,0:0:0:0:
256,192,98274,1,0,0:0:0:0:
256,192,98459,1,8,0:0:0:0:
256,192,98552,1,8,0:0:0:0:
256,192,98644,1,0,0:0:0:0:
256,192,98829,1,8,0:0:0:0:
256,192,98922,1,0,0:0:0:0:
256,192,99015,1,8,0:0:0:0:
256,192,99107,1,0,0:0:0:0:
256,192,99200,1,8,0:0:0:0:
256,192,99292,1,0,0:0:0:0:
256,192,99385,1,0,0:0:0:0:
256,192,99478,1,8,0:0:0:0:
256,192,99570,1,8,0:0:0:0:
256,192,99663,1,8,0:0:0:0:
256,192,99755,5,0,0:0:0:0:
256,192,100373,1,0,0:0:0:0:
256,192,100434,1,0,0:0:0:0:
256,192,100496,1,8,0:0:0:0:
256,192,100681,1,0,0:0:0:0:
256,192,100866,1,0,0:0:0:0:
256,192,101052,1,8,0:0:0:0:
256,192,101422,1,0,0:0:0:0:
256,192,101607,1,8,0:0:0:0:
256,192,101792,1,0,0:0:0:0:
256,192,101978,1,8,0:0:0:0:
256,192,102163,1,0,0:0:0:0:
256,192,102348,1,0,0:0:0:0:
256,192,102440,1,8,0:0:0:0:
256,192,102533,1,0,0:0:0:0:
256,192,102626,1,0,0:0:0:0:
256,192,102718,1,8,0:0:0:0:
256,192,103274,1,0,0:0:0:0:
256,192,103459,1,8,0:0:0:0:
256,192,103644,1,0,0:0:0:0:
256,192,103829,1,0,0:0:0:0:
256,192,104015,1,8,0:0:0:0:
256,192,104385,1,0,0:0:0:0:
256,192,104478,1,0,0:0:0:0:
256,192,104570,1,8,0:0:0:0:
256,192,104755,1,0,0:0:0:0:
256,192,104940,1,8,0:0:0:0:
256,192,105033,1,0,0:0:0:0:
256,192,105126,1,0,0:0:0:0:
256,192,105218,1,8,0:0:0:0:
256,192,105311,1,8,0:0:0:0:
256,192,105403,1,0,0:0:0:0:
256,192,105496,1,8,0:0:0:0:
256,192,105589,1,0,0:0:0:0:
256,192,105681,1,12,0:0:0:0:
256,192,105866,1,0,0:0:0:0:
256,192,106052,1,8,0:0:0:0:
256,192,106237,1,0,0:0:0:0:
256,192,106607,1,0,0:0:0:0:
256,192,106792,1,0,0:0:0:0:
256,192,106978,1,8,0:0:0:0:
256,192,107163,1,0,0:0:0:0:
256,192,107533,1,0,0:0:0:0:
256,192,107718,1,0,0:0:0:0:
256,192,107903,1,8,0:0:0:0:
256,192,108089,1,8,0:0:0:0:
256,192,108459,1,0,0:0:0:0:
256,192,108644,1,8,0:0:0:0:
256,192,108829,1,0,0:0:0:0:
256,192,109015,1,8,0:0:0:0:
256,192,109385,1,0,0:0:0:0:
256,192,109570,1,0,0:0:0:0:
256,192,109755,1,8,0:0:0:0:
256,192,109940,1,0,0:0:0:0:
256,192,110033,1,0,0:0:0:0:
256,192,110126,1,8,0:0:0:0:
256,192,110187,1,0,0:0:0:0:
256,192,110249,1,0,0:0:0:0:
256,192,110311,1,8,0:0:0:0:
256,192,110403,1,0,0:0:0:0:
256,192,110496,1,8,0:0:0:0:
256,192,110589,1,8,0:0:0:0:
256,192,110681,1,0,0:0:0:0:
256,192,110743,1,0,0:0:0:0:
256,192,110805,1,0,0:0:0:0:
256,192,110866,1,8,0:0:0:0:
256,192,111052,1,8,0:0:0:0:
256,192,111237,1,0,0:0:0:0:
256,192,111329,1,8,0:0:0:0:
