osu file format v14

[General]
AudioFilename: audio.mp3
AudioLeadIn: 0
PreviewTime: 81874
Countdown: 1
SampleSet: None
StackLeniency: 0.7
Mode: 0
LetterboxInBreaks: 0
WidescreenStoryboard: 1

[Editor]
Bookmarks: 16041,41596,58263,102985,110300
DistanceSpacing: 1.1
BeatDivisor: 4
GridSize: 32
TimelineZoom: 2.6

[Metadata]
Title:Proluvies
TitleUnicode:Proluvies
Artist:Camellia
ArtistUnicode:かめりあ
Creator:Lokidoki
Version:Insane
Source:
Tags:
BeatmapID:1701345
BeatmapSetID:808489

[Difficulty]
HPDrainRate:5.1
CircleSize:4
OverallDifficulty:6.3
ApproachRate:9.1
SliderMultiplier:1.7
SliderTickRate:1

[Events]
//Background and Video events
0,0,"62991712_p0_master1200.jpg",0,0
//Break Periods
2,16981,18605
2,19944,21568
//Storyboard Layer 0 (Background)
//Storyboard Layer 1 (Fail)
//Storyboard Layer 2 (Pass)
//Storyboard Layer 3 (Foreground)
//Storyboard Sound Samples

[TimingPoints]
4930,370.37037037037,4,1,0,10,1,0
16781,-133.333333333333,4,1,0,10,0,0
19189,-100,4,1,0,10,0,0
34559,-133.333333333333,4,1,0,10,0,0
35207,-50,4,1,0,10,0,0
36781,-133.333333333333,4,1,0,10,0,0
37522,-133.333333333333,4,1,0,10,0,0
38263,-50,4,1,0,10,0,0
38633,-100,4,1,0,10,0,0
40485,-133.333333333333,4,1,0,10,0,0
41411,-100,4,1,0,10,0,0
41781,-133.333333333333,4,1,0,10,0,0
42152,-100,4,1,0,10,0,0
42707,-133.333333333333,4,1,0,10,0,0
44374,-50,4,1,0,10,0,0
44559,-100,4,1,0,10,0,0
46411,-133.333333333333,4,1,0,10,0,0
47059,-50,4,1,0,10,0,0
48078,-100,4,1,0,10,0,0
49374,-133.333333333333,4,1,0,10,0,0
50300,-50,4,1,0,10,0,0
50485,-100,4,1,0,10,0,0
52707,-133.333333333333,4,1,0,10,0,0
53078,-50,4,1,0,10,0,0
54096,-100,4,1,0,10,0,0
55300,-133.333333333333,4,1,0,10,0,0
58078,-50,4,1,0,10,0,0
70115,-100,4,1,0,10,0,0
81689,-100,4,1,0,10,0,0
81967,-66.6666666666667,4,1,0,10,0,0
93818,-100,4,1,0,10,0,0
94189,-66.6666666666667,4,1,0,10,0,0
99744,-133.333333333333,4,1,0,10,0,0
109929,-100,4,1,0,10,0,0

[HitObjects]
75,306,16041,5,0,0:0:0:0:
124,219,16226,1,0,0:0:0:0:
66,140,16411,2,0,L|1:149,2,42.5
123,78,16689,1,0,0:0:0:0:
123,78,16781,1,0,0:0:0:0:
229,131,19189,5,0,0:0:0:0:
324,195,19467,1,0,0:0:0:0:
220,245,19744,1,0,0:0:0:0:
218,114,22152,5,0,0:0:0:0:
341,198,22430,1,0,0:0:0:0:
207,263,22707,1,0,0:0:0:0:
251,192,24004,5,0,0:0:0:0:
193,276,24189,6,0,L|204:366,2,85
107,225,24744,1,0,0:0:0:0:
107,225,24929,2,0,L|118:135,2,85
25,312,25485,5,0,0:0:0:0:
132,214,25670,5,0,0:0:0:0:
156,200,25762,1,0,0:0:0:0:
184,193,25855,1,0,0:0:0:0:
212,193,25947,1,0,0:0:0:0:
239,204,26041,2,0,L|235:159,1,42.5
294,91,26226,5,0,0:0:0:0:
318,77,26318,1,0,0:0:0:0:
346,70,26411,1,0,0:0:0:0:
374,70,26503,1,0,0:0:0:0:
401,81,26597,2,0,L|397:36,1,42.5
482,145,26781,2,0,L|486:100,1,42.5
387,218,26967,6,0,L|383:173,1,42.5
272,285,27152,1,0,0:0:0:0:
272,285,27244,1,0,0:0:0:0:
272,285,27337,2,0,P|294:258|324:249,1,42.5
206,165,27522,1,0,0:0:0:0:
206,165,27615,2,0,P|218:197|211:228,1,42.5
141,303,27800,1,0,0:0:0:0:
141,303,27892,6,0,L|148:252,1,42.5
80,186,28078,1,0,0:0:0:0:
80,186,28170,2,0,L|73:135,1,42.5
138,63,28355,2,0,L|146:15,3,42.5
256,192,28726,12,0,33818,0:0:0:0:
161,294,34559,6,0,B|191:248|167:190|167:190|130:219|150:257,1,159.375006079674
175,373,35207,2,0,P|211:362|220:339,2,42.5
254,149,35439,6,0,B|307:172|307:172|301:162|301:162|397:202|397:202|357:160,1,212.5
68,60,36226,5,0,0:0:0:0:
80,152,36411,1,0,0:0:0:0:
92,245,36596,1,0,0:0:0:0:
167,308,36781,6,0,P|186:279|190:258,1,31.8750012159348
190,159,36967,2,0,P|205:189|221:203,1,31.8750012159348
312,242,37152,2,0,P|277:240|257:247,3,31.8750012159348
261,331,37522,6,0,B|294:326|294:326|317:335|317:335|325:343|325:343|333:335|333:335|391:322,1,127.499996109009
461,308,38078,1,0,0:0:0:0:
352,220,38263,6,0,B|285:169|321:50|392:68|457:127|381:164,1,255
311,290,38633,6,0,P|276:271|261:248,1,42.5
228,199,38818,1,0,0:0:0:0:
228,199,38911,2,0,L|247:344,1,127.5
146,362,39281,6,0,L|154:318,2,42.5
71,279,39559,1,0,0:0:0:0:
71,279,39652,2,0,L|63:235,1,42.5
121,158,39837,1,0,0:0:0:0:
121,158,39929,6,0,B|86:131|86:131|49:146,1,85
171,80,40207,2,0,B|206:107|206:107|243:92,1,85
342,34,40485,5,0,0:0:0:0:
343,59,40577,1,0,0:0:0:0:
344,84,40670,1,0,0:0:0:0:
345,110,40762,1,0,0:0:0:0:
347,136,40855,2,0,P|369:132|386:122,1,31.8750012159348
310,221,41041,5,0,0:0:0:0:
310,221,41133,2,0,L|314:246,2,15.9375006079674
204,204,41411,6,0,P|210:173|233:152,1,42.5
186,152,41596,2,0,P|212:134|243:135,1,42.5
205,109,41781,1,0,0:0:0:0:
204,306,41967,5,0,0:0:0:0:
204,306,42059,1,0,0:0:0:0:
204,306,42152,2,0,B|178:319|178:319|123:299,1,85
78,212,42522,1,0,0:0:0:0:
122,96,42707,6,0,P|118:70|105:52,1,31.8750012159348
216,164,42892,2,0,L|180:149,1,31.8750012159348
77,198,43078,2,0,L|107:174,3,31.8750012159348
162,252,43448,6,0,B|154:281|154:281|166:300|166:300|154:341|154:341|146:347|146:347|150:357|150:357|145:386,1,127.500004863739
232,356,44004,1,0,0:0:0:0:
