osu file format v14

[General]
AudioFilename: audio.mp3
AudioLeadIn: 0
PreviewTime: 292850
Countdown: 0
SampleSet: None
StackLeniency: 0.7
Mode: 3
LetterboxInBreaks: 0
SpecialStyle: 0
WidescreenStoryboard: 1

[Editor]
Bookmarks: 975,29775,38575,52175,68202,80093,83598,95771,106742,117713,125942,139181,152588,155552,171054,180299,182418,190251,204907,221452,248465,275290,293330,311570,326930,338078,341362,350962,357033,361215,363860,368830,373421,378938,387665,404574
DistanceSpacing: 0.8
BeatDivisor: 4
GridSize: 32
TimelineZoom: 3.899998

[Metadata]
Title:Parallel Universe Shifter Training
TitleUnicode:Parallel Universe Shifter Training
Artist:Camellia
ArtistUnicode:Camellia
Creator:ytGrapeFrootZ34
Version:wtf
Source:osu!mania 4K World Cup 2023
Tags:
BeatmapID:4371383
BeatmapSetID:2086353

[Difficulty]
HPDrainRate:8.3
CircleSize:4
OverallDifficulty:7.7
ApproachRate:5
SliderMultiplier:1.4
SliderTickRate:1

[Events]
//Background and Video events
0,0,"Camellia_ParallelUniverseShifter_Jacket_2732x1536.jpg",0,0
//Break Periods
2,29975,32975
//Storyboard Layer 0 (Background)
//Storyboard Layer 1 (Fail)
//Storyboard Layer 2 (Pass)
//Storyboard Layer 3 (Foreground)
//Storyboard Layer 4 (Overlay)
//Storyboard Sound Samples

[TimingPoints]
975,400,4,1,1,30,1,0
7375,-100,4,1,1,60,0,0
13775,-100,4,1,1,40,0,0
19775,-100,4,1,1,50,0,0
20175,-100,4,1,1,60,0,0
29775,-100,4,1,1,40,0,0
34575,-100,4,1,1,50,0,0
38575,-100,4,1,1,40,0,0
39375,-100,4,1,1,60,0,0
52975,413.793103448276,4,1,1,60,1,8
52975,-97.0873786407767,4,1,1,60,0,8
53803,428.571428571429,4,1,1,60,1,0
53803,-93.4579439252336,4,1,1,60,0,0
54660,444.444444444444,4,1,1,60,1,8
54660,-90.0900900900901,4,1,1,60,0,8
55549,461.538461538462,4,1,1,60,1,0
55549,-86.9565217391304,4,1,1,60,0,0
56472,480,4,1,1,60,1,8
56472,-83.3333333333333,4,1,1,60,0,8
57432,500,4,1,1,60,1,0
57432,-80,4,1,1,60,0,0
58432,521.739130434783,4,1,1,60,1,8
58432,-76.9230769230769,4,1,1,60,0,8
59475,545.454545454546,4,1,1,60,1,0
59475,-73.5294117647059,4,1,1,60,0,0
66020,-73.5294117647059,4,1,1,50,0,0
68202,-73.5294117647059,4,1,1,60,0,1
68748,540.540540540541,4,1,1,60,1,9
68748,-74.0740740740741,4,1,1,60,0,9
69288,535.714285714286,4,1,1,60,1,9
69288,-74.6268656716418,4,1,1,60,0,9
69824,530.973451327434,4,1,1,60,1,9
69824,-75.187969924812,4,1,1,60,0,9
70355,526.315789473684,4,1,1,60,1,1
70355,-75.7575757575758,4,1,1,60,0,1
70881,521.739130434783,4,1,1,60,1,9
70881,-76.9230769230769,4,1,1,60,0,9
71403,517.241379310345,4,1,1,60,1,9
71403,-77.5193798449612,4,1,1,60,0,9
71920,512.820512820513,4,1,1,60,1,9
71920,-78.125,4,1,1,60,0,9
72433,508.474576271186,4,1,1,60,1,1
72433,-78.740157480315,4,1,1,60,0,1
72942,504.201680672269,4,1,1,60,1,9
72942,-79.3650793650794,4,1,1,60,0,9
73446,500,4,1,1,60,1,9
73446,-80,4,1,1,60,0,9
73946,495.867768595041,4,1,1,60,1,9
73946,-80.6451612903226,4,1,1,60,0,9
74442,491.803278688525,4,1,1,60,1,1
74442,-81.3008130081301,4,1,1,60,0,1
74934,487.80487804878,4,1,1,60,1,9
74934,-81.9672131147541,4,1,1,60,0,9
75421,483.870967741935,4,1,1,60,1,9
75421,-82.6446280991736,4,1,1,60,0,9
75905,480,4,1,1,60,1,9
75905,-83.3333333333333,4,1,1,60,0,9
76385,476.190476190476,4,1,1,60,1,1
76385,-84.0336134453782,4,1,1,60,0,1
76861,472.44094488189,4,1,1,60,1,9
76861,-84.7457627118644,4,1,1,60,0,9
77334,468.75,4,1,1,60,1,9
77334,-85.4700854700855,4,1,1,60,0,9
77803,465.116279069767,4,1,1,60,1,9
77803,-86.2068965517241,4,1,1,60,0,9
78268,461.538461538462,4,1,1,60,1,1
78268,-86.9565217391304,4,1,1,60,0,1
78729,458.015267175573,4,1,1,60,1,9
78729,-86.9565217391304,4,1,1,60,0,9
79187,454.545454545455,4,1,1,60,1,9
79187,-87.719298245614,4,1,1,60,0,9
79642,451.127819548872,4,1,1,60,1,9
79642,-88.495575221239,4,1,1,60,0,9
80093,447.761194029851,4,1,1,40,1,0
80093,-89.2857142857143,4,1,1,40,0,0
80988,-89.2857142857143,4,1,1,50,0,0
81884,428.571428571429,4,1,1,50,1,0
81884,-93.4579439252336,4,1,1,50,0,0
83169,-93.4579439252336,4,1,1,40,0,0
83598,-93.4579439252336,4,1,1,60,0,1
84027,425.531914893617,4,1,1,60,1,9
84027,-94.3396226415094,4,1,1,60,0,9
84452,413.793103448276,4,1,1,60,1,9
84452,-97.0873786407767,4,1,1,60,0,9
84866,410.958904109589,4,1,1,60,1,9
84866,-97.0873786407767,4,1,1,60,0,9
85277,408.163265306122,4,1,1,60,1,1
85277,-98.0392156862745,4,1,1,60,0,1
85685,405.405405405405,4,1,1,60,1,9
85685,-99.009900990099,4,1,1,60,0,9
86091,402.684563758389,4,1,1,60,1,9
86091,-99.009900990099,4,1,1,60,0,9
86493,400,4,1,1,60,1,9
86893,397.350993377483,4,1,1,60,1,1
86893,-101.010101010101,4,1,1,60,0,1
87291,394.736842105263,4,1,1,60,1,9
87291,-101.010101010101,4,1,1,60,0,9
87686,392.156862745098,4,1,1,60,1,9
87686,-102.040816326531,4,1,1,60,0,9
88078,389.61038961039,4,1,1,60,1,9
88078,-103.092783505155,4,1,1,60,0,9
88467,387.096774193548,4,1,1,60,1,1
88467,-103.092783505155,4,1,1,60,0,1
88854,384.615384615385,4,1,1,60,1,9
88854,-104.166666666667,4,1,1,60,0,9
89239,382.165605095541,4,1,1,60,1,9
89239,-104.166666666667,4,1,1,60,0,9
89621,379.746835443038,4,1,1,60,1,9
89621,-105.263157894737,4,1,1,60,0,9
90001,377.358490566038,4,1,1,60,1,1
90001,-106.382978723404,4,1,1,60,0,1
90378,375,4,1,1,60,1,9
90378,-106.382978723404,4,1,1,60,0,9
90753,372.670807453416,4,1,1,60,1,9
90753,-107.52688172043,4,1,1,60,0,9
91126,370.37037037037,4,1,1,60,1,9
91126,-107.52688172043,4,1,1,60,0,9
91496,368.098159509202,4,1,1,60,1,1
91496,-108.695652173913,4,1,1,60,0,1
91864,365.853658536585,4,1,1,60,1,9
91864,-109.89010989011,4,1,1,60,0,9
92230,363.636363636364,4,1,1,60,1,9
92230,-109.89010989011,4,1,1,60,0,9
92594,361.44578313253,4,1,1,60,1,9
92594,-111.111111111111,4,1,1,60,0,9
92955,359.281437125748,4,1,1,60,1,1
92955,-111.111111111111,4,1,1,60,0,1
93315,357.142857142857,4,1,1,60,1,9
93315,-112.359550561798,4,1,1,60,0,9
93672,355.029585798817,4,1,1,60,1,9
93672,-112.359550561798,4,1,1,60,0,9
94027,352.941176470588,4,1,1,60,1,9
94027,-113.636363636364,4,1,1,60,0,9
94380,350.877192982456,4,1,1,60,1,1
94380,-113.636363636364,4,1,1,60,0,1
94731,348.837209302326,4,1,1,60,1,9
94731,-114.942528735632,4,1,1,60,0,9
95079,346.820809248555,4,1,1,60,1,9
95079,-114.942528735632,4,1,1,60,0,9
95426,344.827586206897,4,1,1,60,1,9
95426,-116.279069767442,4,1,1,60,0,9
95771,342.857142857143,4,1,1,45,1,0
95771,-116.279069767442,4,1,1,45,0,0
103999,-116.279069767442,4,1,1,50,0,0
105371,-116.279069767442,4,1,1,55,0,0
106742,-116.279069767442,4,1,1,60,0,0
117713,-116.279069767442,4,1,1,50,0,0
123199,-116.279069767442,4,1,1,40,0,0
123885,-116.279069767442,4,1,1,50,0,0
125599,-116.279069767442,4,1,1,40,0,0
125942,-116.279069767442,4,1,1,60,0,0
126628,352.941176470588,4,1,1,60,1,8
126628,-113.636363636364,4,1,1,60,0,8
127334,363.636363636364,4,1,1,60,1,0
127334,-109.89010989011,4,1,1,60,0,0
128061,375,4,1,1,60,1,8
128061,-106.382978723404,4,1,1,60,0,8
128811,387.096774193548,4,1,1,60,1,0
128811,-103.092783505155,4,1,1,60,0,0
129586,400,4,1,1,60,1,8
130386,413.793103448276,4,1,1,60,1,0
130386,-97.0873786407767,4,1,1,60,0,0
131213,428.571428571429,4,1,1,60,1,8
131213,-93.4579439252336,4,1,1,60,0,8
132070,444.444444444444,4,1,1,60,1,0
132070,-90.0900900900901,4,1,1,60,0,0
137403,-90.0900900900901,4,1,1,40,0,0
138736,-90.0900900900901,4,1,1,50,0,0
139181,-90.0900900900901,4,1,1,60,0,0
139514,-90.0900900900901,4,1,1,40,0,0
142736,-90.0900900900901,4,1,1,60,0,0
143070,-90.0900900900901,4,1,1,50,0,0
143181,441.176470588235,4,1,1,50,1,8
143181,-90.9090909090909,4,1,1,50,0,8
143623,437.956204379562,4,1,1,50,1,8
143623,-91.743119266055,4,1,1,50,0,8
144061,434.782608695652,4,1,1,50,1,8
144061,-91.743119266055,4,1,1,50,0,8
144495,431.654676258993,4,1,1,50,1,0
144495,-92.5925925925926,4,1,1,50,0,0
144927,428.571428571429,4,1,1,50,1,8
144927,-93.4579439252336,4,1,1,50,0,8
145356,425.531914893617,4,1,1,50,1,8
145356,-94.3396226415094,4,1,1,50,0,8
145781,422.535211267606,4,1,1,50,1,8
145781,-94.3396226415094,4,1,1,50,0,8
146204,419.58041958042,4,1,1,60,1,0
146204,-95.2380952380952,4,1,1,60,0,0
146518,-95.2380952380952,4,1,1,50,0,0
146623,416.666666666667,4,1,1,50,1,8
146623,-96.1538461538461,4,1,1,50,0,8
147040,413.793103448276,4,1,1,50,1,8
147040,-97.0873786407767,4,1,1,50,0,8
147454,410.958904109589,4,1,1,50,1,8
147454,-97.0873786407767,4,1,1,50,0,8
147865,408.163265306122,4,1,1,50,1,0
147865,-98.0392156862745,4,1,1,50,0,0
148273,405.405405405405,4,1,1,50,1,8
148273,-99.009900990099,4,1,1,50,0,8
148678,402.684563758389,4,1,1,50,1,8
148678,-99.009900990099,4,1,1,50,0,8
149081,400,4,1,1,50,1,8
149481,397.350993377483,4,1,1,50,1,0
149481,-101.010101010101,4,1,1,50,0,0
149779,-101.010101010101,4,1,1,50,0,0
149878,394.736842105263,4,1,1,50,1,8
149878,-101.010101010101,4,1,1,50,0,8
150273,392.156862745098,4,1,1,50,1,8
150273,-102.040816326531,4,1,1,50,0,8
150665,389.61038961039,4,1,1,50,1,8
150665,-103.092783505155,4,1,1,50,0,8
151055,387.096774193548,4,1,1,55,1,0
151055,-103.092783505155,4,1,1,55,0,0
151442,384.615384615385,4,1,1,55,1,8
151442,-104.166666666667,4,1,1,55,0,8
151826,382.165605095541,4,1,1,55,1,8
151826,-104.166666666667,4,1,1,55,0,8
152209,379.746835443038,4,1,1,55,1,8
152209,-105.263157894737,4,1,1,55,0,8
152588,377.358490566038,4,1,1,40,1,0
152588,-106.382978723404,4,1,1,40,0,0
153342,-106.382978723404,4,1,1,50,0,0
154098,363.636363636364,4,1,1,50,1,0
154098,-109.89010989011,4,1,1,50,0,0
155188,-109.89010989011,4,1,1,40,0,0
155552,-109.89010989011,4,1,1,60,0,1
155916,361.44578313253,4,1,1,60,1,9
155916,-111.111111111111,4,1,1,60,0,9
156277,359.281437125748,4,1,1,60,1,9
156277,-111.111111111111,4,1,1,60,0,9
156637,357.142857142857,4,1,1,60,1,9
156637,-112.359550561798,4,1,1,60,0,9
156994,355.029585798817,4,1,1,60,1,1
156994,-112.359550561798,4,1,1,60,0,1
157349,352.941176470588,4,1,1,60,1,9
157349,-113.636363636364,4,1,1,60,0,9
157702,350.877192982456,4,1,1,60,1,9
157702,-113.636363636364,4,1,1,60,0,9
158053,348.837209302326,4,1,1,60,1,9
158053,-114.942528735632,4,1,1,60,0,9
158402,346.820809248555,4,1,1,60,1,1
158402,-114.942528735632,4,1,1,60,0,1
158748,344.827586206897,4,1,1,60,1,9
158748,-116.279069767442,4,1,1,60,0,9
159093,342.857142857143,4,1,1,60,1,9
159093,-116.279069767442,4,1,1,60,0,9
159436,340.909090909091,4,1,1,60,1,9
159436,-117.647058823529,4,1,1,60,0,9
159777,338.983050847458,4,1,1,60,1,1
159777,-117.647058823529,4,1,1,60,0,1
160116,337.078651685393,4,1,1,60,1,9
160116,-119.047619047619,4,1,1,60,0,9
160453,335.195530726257,4,1,1,60,1,9
160453,-119.047619047619,4,1,1,60,0,9
160788,333.333333333333,4,1,1,60,1,9
160788,-120.481927710843,4,1,1,60,0,9
161122,331.491712707182,4,1,1,60,1,1
161122,-120.481927710843,4,1,1,60,0,1
161453,329.67032967033,4,1,1,60,1,9
161453,-121.951219512195,4,1,1,60,0,9
161783,327.868852459016,4,1,1,60,1,9
161783,-121.951219512195,4,1,1,60,0,9
162111,326.086956521739,4,1,1,60,1,9
162111,-121.951219512195,4,1,1,60,0,9
162437,324.324324324324,4,1,1,60,1,1
162437,-123.456790123457,4,1,1,60,0,1
162761,322.58064516129,4,1,1,60,1,9
162761,-123.456790123457,4,1,1,60,0,9
163084,320.855614973262,4,1,1,60,1,9
163084,-125,4,1,1,60,0,9
163404,319.148936170213,4,1,1,60,1,9
163404,-125,4,1,1,60,0,9
163724,317.460317460317,4,1,1,60,1,1
163724,-126.582278481013,4,1,1,60,0,1
164041,315.789473684211,4,1,1,60,1,9
164041,-126.582278481013,4,1,1,60,0,9
164357,314.13612565445,4,1,1,60,1,9
164357,-126.582278481013,4,1,1,60,0,9
164671,312.5,4,1,1,60,1,9
164671,-128.205128205128,4,1,1,60,0,9
164983,310.880829015544,4,1,1,60,1,1
164983,-128.205128205128,4,1,1,60,0,1
165294,309.278350515464,4,1,1,60,1,9
165294,-129.87012987013,4,1,1,60,0,9
165604,307.692307692308,4,1,1,60,1,9
165604,-129.87012987013,4,1,1,60,0,9
165911,306.122448979592,4,1,1,60,1,9
165911,-129.87012987013,4,1,1,60,0,9
166217,304.568527918782,4,1,1,60,1,0
166217,-131.578947368421,4,1,1,60,0,0
168654,300,4,1,1,60,1,1
168654,-133.333333333333,4,1,1,60,0,1
170454,-133.333333333333,4,1,1,50,0,0
173304,-133.333333333333,4,1,1,60,0,0
173454,-133.333333333333,4,1,1,60,0,1
173754,298.507462686567,4,1,1,60,1,9
173754,-133.333333333333,4,1,1,60,0,9
174351,297.029702970297,4,1,1,60,1,9
174351,-135.135135135135,4,1,1,60,0,9
174648,295.566502463054,4,1,1,60,1,1
174648,-135.135135135135,4,1,1,60,0,1
174944,294.117647058824,4,1,1,60,1,9
174944,-135.135135135135,4,1,1,60,0,9
175238,292.682926829268,4,1,1,60,1,9
175238,-136.986301369863,4,1,1,60,0,9
175530,291.26213592233,4,1,1,60,1,9
175530,-136.986301369863,4,1,1,60,0,9
175822,289.855072463768,4,1,1,60,1,1
175822,-138.888888888889,4,1,1,60,0,1
176112,288.461538461538,4,1,1,60,1,9
176112,-138.888888888889,4,1,1,60,0,9
176400,287.081339712919,4,1,1,60,1,9
176400,-138.888888888889,4,1,1,60,0,9
176687,285.714285714286,4,1,1,60,1,9
176687,-140.845070422535,4,1,1,60,0,9
176973,284.36018957346,4,1,1,60,1,1
176973,-140.845070422535,4,1,1,60,0,1
177257,283.018867924528,4,1,1,60,1,9
177257,-140.845070422535,4,1,1,60,0,9
177540,281.69014084507,4,1,1,60,1,9
177540,-142.857142857143,4,1,1,60,0,9
177822,280.373831775701,4,1,1,60,1,9
177822,-142.857142857143,4,1,1,60,0,9
178102,279.06976744186,4,1,1,60,1,1
178102,-142.857142857143,4,1,1,60,0,1
178381,277.777777777778,4,1,1,60,1,9
178381,-144.927536231884,4,1,1,60,0,9
178659,276.497695852535,4,1,1,60,1,9
178659,-144.927536231884,4,1,1,60,0,9
178936,275.229357798165,4,1,1,60,1,9
178936,-144.927536231884,4,1,1,60,0,9
179211,273.972602739726,4,1,1,60,1,1
179211,-147.058823529412,4,1,1,60,0,1
179485,272.727272727273,4,1,1,60,1,9
179485,-147.058823529412,4,1,1,60,0,9
179757,271.493212669683,4,1,1,60,1,9
179757,-147.058823529412,4,1,1,60,0,9
180029,270.27027027027,4,1,1,60,1,9
180029,-147.058823529412,4,1,1,60,0,9
180299,269.058295964126,4,1,1,40,1,0
180299,-149.253731343284,4,1,1,40,0,0
180837,-149.253731343284,4,1,1,50,0,0
181375,260.869565217391,4,1,1,55,1,0
181375,-153.846153846154,4,1,1,55,0,0
181896,-153.846153846154,4,1,1,40,0,0
182418,-153.846153846154,4,1,1,60,0,1
182680,259.74025974026,4,1,1,60,1,9
182680,-153.846153846154,4,1,1,60,0,9
182940,258.620689655172,4,1,1,60,1,9
182940,-153.846153846154,4,1,1,60,0,9
183198,257.510729613734,4,1,1,60,1,9
183198,-156.25,4,1,1,60,0,9
183456,256.410256410256,4,1,1,60,1,1
183456,-156.25,4,1,1,60,0,1
183712,255.31914893617,4,1,1,60,1,9
183712,-156.25,4,1,1,60,0,9
183967,254.237288135593,4,1,1,60,1,9
183967,-156.25,4,1,1,60,0,9
184222,253.164556962025,4,1,1,60,1,9
184222,-158.730158730159,4,1,1,60,0,9
184475,252.100840336134,4,1,1,60,1,1
184475,-158.730158730159,4,1,1,60,0,1
184727,251.046025104603,4,1,1,60,1,9
184727,-158.730158730159,4,1,1,60,0,9
184978,250,4,1,1,60,1,9
184978,-158.730158730159,4,1,1,60,0,9
185228,248.96265560166,4,1,1,60,1,9
185228,-161.290322580645,4,1,1,60,0,9
185477,247.933884297521,4,1,1,60,1,1
185477,-161.290322580645,4,1,1,60,0,1
185725,246.913580246914,4,1,1,60,1,9
185725,-161.290322580645,4,1,1,60,0,9
185972,245.901639344262,4,1,1,60,1,9
185972,-163.934426229508,4,1,1,60,0,9
186218,244.897959183673,4,1,1,60,1,9
186218,-163.934426229508,4,1,1,60,0,9
186463,243.90243902439,4,1,1,60,1,1
186463,-163.934426229508,4,1,1,60,0,1
186706,242.914979757085,4,1,1,60,1,9
186706,-163.934426229508,4,1,1,60,0,9
186949,241.935483870968,4,1,1,60,1,9
186949,-166.666666666667,4,1,1,60,0,9
187191,240.963855421687,4,1,1,60,1,9
187191,-166.666666666667,4,1,1,60,0,9
187432,240,4,1,1,60,1,1
187432,-166.666666666667,4,1,1,60,0,1
187672,239.043824701195,4,1,1,60,1,9
187672,-166.666666666667,4,1,1,60,0,9
187911,238.095238095238,4,1,1,60,1,9
187911,-166.666666666667,4,1,1,60,0,9
188149,237.154150197628,4,1,1,60,1,9
188149,-169.491525423729,4,1,1,60,0,9
188387,236.220472440945,4,1,1,60,1,1
188387,-169.491525423729,4,1,1,60,0,1
188623,235.294117647059,4,1,1,60,1,9
188623,-169.491525423729,4,1,1,60,0,9
188858,234.375,4,1,1,60,1,9
188858,-169.491525423729,4,1,1,60,0,9
189092,233.463035019455,4,1,1,60,1,9
189092,-172.413793103448,4,1,1,60,0,9
189326,232.558139534884,4,1,1,60,1,1
189326,-172.413793103448,4,1,1,60,0,1
189559,231.660231660232,4,1,1,60,1,9
189559,-172.413793103448,4,1,1,60,0,9
189790,230.769230769231,4,1,1,60,1,9
189790,-172.413793103448,4,1,1,60,0,9
190021,229.885057471264,4,1,1,60,1,9
190021,-175.438596491228,4,1,1,60,0,9
190251,229.007633587786,4,1,1,50,1,0
190251,-175.438596491228,4,1,1,50,0,0
196663,-175.438596491228,4,1,1,55,0,0
197579,-175.438596491228,4,1,1,60,0,0
215900,230.769230769231,4,1,1,60,1,0
215900,-172.413793103448,4,1,1,60,0,0
216130,240,4,1,1,60,1,8
216130,-166.666666666667,4,1,1,60,0,8
216370,250,4,1,1,60,1,8
216370,-158.730158730159,4,1,1,60,0,8
216620,260.869565217391,4,1,1,60,1,8
216620,-153.846153846154,4,1,1,60,0,8
216881,272.727272727273,4,1,1,60,1,0
216881,-147.058823529412,4,1,1,60,0,0
217154,285.714285714286,4,1,1,60,1,8
217154,-140.845070422535,4,1,1,60,0,8
217440,300,4,1,1,60,1,8
217440,-133.333333333333,4,1,1,60,0,8
217740,315.789473684211,4,1,1,60,1,8
217740,-126.582278481013,4,1,1,60,0,8
218056,333.333333333333,4,1,1,60,1,0
218056,-120.481927710843,4,1,1,60,0,0
218389,352.941176470588,4,1,1,60,1,8
218389,-113.636363636364,4,1,1,60,0,8
218742,375,4,1,1,60,1,8
218742,-106.382978723404,4,1,1,60,0,8
219117,400,4,1,1,60,1,8
219517,428.571428571429,4,1,1,60,1,0
219517,-93.4579439252336,4,1,1,60,0,0
219945,461.538461538462,4,1,1,60,1,8
219945,-86.9565217391304,4,1,1,60,0,8
220407,500,4,1,1,60,1,8
220407,-80,4,1,1,60,0,8
220907,545.454545454546,4,1,1,60,1,8
220907,-73.5294117647059,4,1,1,60,0,8
221452,600,4,1,1,60,1,0
221452,-66.6666666666667,4,1,1,60,0,0
222052,-66.6666666666667,4,1,1,55,0,0
222652,-66.6666666666667,4,1,1,50,0,0
223252,-66.6666666666667,4,1,1,45,0,0
223852,-66.6666666666667,4,1,1,40,0,0
224452,-66.6666666666667,4,1,1,35,0,0
225052,-66.6666666666667,4,1,1,30,0,0
231052,571.428571428571,4,1,1,30,1,0
231052,-69.9300699300699,4,1,1,30,0,0
233338,545.454545454546,4,1,1,30,1,0
233338,-73.5294117647059,4,1,1,30,0,0
235520,521.739130434783,4,1,1,35,1,0
235520,-76.9230769230769,4,1,1,35,0,0
237607,500,4,1,1,35,1,0
237607,-80,4,1,1,35,0,0
239607,480,4,1,1,50,1,0
239607,-83.3333333333333,4,1,1,50,0,0
241527,461.538461538462,4,1,1,50,1,0
241527,-86.9565217391304,4,1,1,50,0,0
243373,444.444444444444,4,1,1,55,1,0
243373,-90.0900900900901,4,1,1,55,0,0
245151,428.571428571429,4,1,1,55,1,0
245151,-93.4579439252336,4,1,1,55,0,0
246865,400,4,1,1,60,1,0
248465,-100,4,1,1,50,0,0
262865,397.350993377483,4,1,1,50,1,0
262865,-101.010101010101,4,1,1,50,0,0
264455,394.736842105263,4,1,1,50,1,0
264455,-101.010101010101,4,1,1,50,0,0
266033,392.156862745098,4,1,1,50,1,0
266033,-102.040816326531,4,1,1,50,0,0
267602,389.61038961039,4,1,1,50,1,0
267602,-103.092783505155,4,1,1,50,0,0
269161,387.096774193548,4,1,1,50,1,0
269161,-103.092783505155,4,1,1,50,0,0
270709,384.615384615385,4,1,1,50,1,0
270709,-104.166666666667,4,1,1,50,0,0
272247,382.165605095541,4,1,1,50,1,0
272247,-104.166666666667,4,1,1,50,0,0
273776,379.746835443038,4,1,1,50,1,0
273776,-105.263157894737,4,1,1,50,0,0
274536,377.358490566038,4,1,1,50,1,8
274536,-106.382978723404,4,1,1,50,0,8
275290,375,4,1,1,50,1,0
275290,-106.382978723404,4,1,1,50,0,0
276040,363.636363636364,4,1,1,50,1,8
276040,-109.89010989011,4,1,1,50,0,8
276768,352.941176470588,4,1,1,50,1,0
276768,-113.636363636364,4,1,1,50,0,0
277473,342.857142857143,4,1,1,50,1,8
277473,-116.279069767442,4,1,1,50,0,8
278159,333.333333333333,4,1,1,55,1,0
278159,-120.481927710843,4,1,1,55,0,0
278826,315.789473684211,4,1,1,55,1,8
278826,-126.582278481013,4,1,1,55,0,8
279457,300,4,1,1,55,1,0
279457,-133.333333333333,4,1,1,55,0,0
280057,285.714285714286,4,1,1,55,1,8
280057,-140.845070422535,4,1,1,55,0,8
280629,272.727272727273,4,1,1,60,1,0
280629,-147.058823529412,4,1,1,60,0,0
281174,266.666666666667,4,1,1,60,1,8
281174,-149.253731343284,4,1,1,60,0,8
281708,260.869565217391,4,1,1,60,1,0
281708,-153.846153846154,4,1,1,60,0,0
282229,255.31914893617,4,1,1,60,1,8
282229,-156.25,4,1,1,60,0,8
282740,250,4,1,1,60,1,0
282740,-158.730158730159,4,1,1,60,0,0
283240,244.897959183673,4,1,1,60,1,8
283240,-163.934426229508,4,1,1,60,0,8
283730,240,4,1,1,60,1,0
283730,-166.666666666667,4,1,1,60,0,0
291410,-166.666666666667,4,1,1,40,0,0
291890,-166.666666666667,4,1,1,45,0,0
292370,-166.666666666667,4,1,1,50,0,0
292850,-166.666666666667,4,1,1,55,0,0
293090,-166.666666666667,4,1,1,60,0,0
293330,-166.666666666667,4,1,1,60,0,1
304850,-166.666666666667,4,1,1,60,0,0
305090,-166.666666666667,4,1,1,45,0,0
305330,-166.666666666667,4,1,1,60,0,0
305570,-166.666666666667,4,1,1,45,0,0
305810,-166.666666666667,4,1,1,60,0,0
306530,-166.666666666667,4,1,1,45,0,0
306890,-166.666666666667,4,1,1,60,0,0
311570,-166.666666666667,4,1,1,60,0,1
326930,-166.666666666667,4,1,1,40,0,0
329810,-166.666666666667,4,1,1,45,0,0
330770,-166.666666666667,4,1,1,50,0,0
331730,-166.666666666667,4,1,1,55,0,0
332690,235.294117647059,4,1,1,60,1,1
332690,-169.491525423729,4,1,1,60,0,1
333631,230.769230769231,4,1,1,60,1,1
333631,-172.413793103448,4,1,1,60,0,1
334554,226.415094339623,4,1,1,60,1,1
334554,-175.438596491228,4,1,1,60,0,1
335460,222.222222222222,4,1,1,60,1,1
335460,-178.571428571429,4,1,1,60,0,1
336349,218.181818181818,4,1,1,60,1,1
336349,-181.818181818182,4,1,1,60,0,1
337221,214.285714285714,4,1,1,60,1,1
337221,-185.185185185185,4,1,1,60,0,1
338078,210.526315789474,4,1,1,40,1,0
338078,-188.679245283019,4,1,1,40,0,0
338921,206.896551724138,4,1,1,50,1,0
338921,-192.307692307692,4,1,1,50,0,0
339748,203.389830508475,4,1,1,50,1,0
339748,-196.078431372549,4,1,1,50,0,0
340562,200,4,1,1,50,1,0
340562,-200,4,1,1,50,0,0
340962,-200,4,1,1,40,0,0
341362,-200,4,1,1,60,0,0
347762,-200,4,1,1,45,0,0
348562,-200,4,1,1,50,0,0
349362,-200,4,1,1,55,0,0
350162,-200,4,1,1,60,0,0
350962,199.335548172757,4,1,1,60,1,1
350962,-200,4,1,1,60,0,1
351161,198.675496688741,4,1,1,60,1,9
351161,-200,4,1,1,60,0,9
351360,198.019801980197,4,1,1,60,1,9
351360,-200,4,1,1,60,0,9
351558,197.36842105263,4,1,1,60,1,9
351558,-204.081632653061,4,1,1,60,0,9
351755,196.721311475409,4,1,1,60,1,1
351755,-204.081632653061,4,1,1,60,0,1
351952,196.078431372548,4,1,1,60,1,9
351952,-204.081632653061,4,1,1,60,0,9
352148,195.43973941368,4,1,1,60,1,9
352148,-204.081632653061,4,1,1,60,0,9
352343,194.805194805194,4,1,1,60,1,9
352343,-204.081632653061,4,1,1,60,0,9
352538,194.174757281553,4,1,1,60,1,1
352538,-204.081632653061,4,1,1,60,0,1
352732,193.548387096774,4,1,1,60,1,9
352732,-208.333333333333,4,1,1,60,0,9
352926,192.926045016077,4,1,1,60,1,9
352926,-208.333333333333,4,1,1,60,0,9
353119,192.307692307692,4,1,1,60,1,9
353119,-208.333333333333,4,1,1,60,0,9
353311,191.693290734824,4,1,1,60,1,1
353311,-208.333333333333,4,1,1,60,0,1
353503,191.08280254777,4,1,1,60,1,9
353503,-208.333333333333,4,1,1,60,0,9
353694,190.47619047619,4,1,1,60,1,9
353694,-208.333333333333,4,1,1,60,0,9
353884,189.873417721518,4,1,1,60,1,9
353884,-212.765957446809,4,1,1,60,0,9
354074,189.274447949526,4,1,1,60,1,0
354074,-212.765957446809,4,1,1,60,0,0
354263,188.679245283018,4,1,1,60,1,8
354263,-212.765957446809,4,1,1,60,0,8
354452,188.08777429467,4,1,1,60,1,8
354452,-212.765957446809,4,1,1,60,0,8
354640,187.499999999999,4,1,1,60,1,8
354640,-212.765957446809,4,1,1,60,0,8
354828,186.915887850467,4,1,1,60,1,0
354828,-212.765957446809,4,1,1,60,0,0
355015,186.335403726707,4,1,1,60,1,8
355015,-212.765957446809,4,1,1,60,0,8
355201,185.758513931888,4,1,1,60,1,8
355201,-217.391304347826,4,1,1,60,0,8
355387,185.185185185185,4,1,1,60,1,8
355387,-217.391304347826,4,1,1,60,0,8
355572,184.615384615384,4,1,1,60,1,0
355572,-217.391304347826,4,1,1,60,0,0
355757,184.049079754601,4,1,1,60,1,8
355757,-217.391304347826,4,1,1,60,0,8
355941,183.48623853211,4,1,1,60,1,8
355941,-217.391304347826,4,1,1,60,0,8
356124,182.926829268292,4,1,1,60,1,8
356124,-217.391304347826,4,1,1,60,0,8
356307,182.370820668692,4,1,1,60,1,0
356307,-217.391304347826,4,1,1,60,0,0
356489,181.818181818181,4,1,1,60,1,8
356489,-222.222222222222,4,1,1,60,0,8
356671,181.268882175226,4,1,1,60,1,8
356671,-222.222222222222,4,1,1,60,0,8
356852,180.722891566265,4,1,1,60,1,8
356852,-222.222222222222,4,1,1,60,0,8
357033,180.18018018018,4,1,1,60,1,1
357033,-222.222222222222,4,1,1,60,0,1
357213,179.640718562874,4,1,1,60,1,9
357213,-222.222222222222,4,1,1,60,0,9
357393,179.10447761194,4,1,1,60,1,9
357393,-222.222222222222,4,1,1,60,0,9
357572,178.571428571428,4,1,1,60,1,9
357572,-222.222222222222,4,1,1,60,0,9
357751,178.041543026706,4,1,1,60,1,1
357751,-222.222222222222,4,1,1,60,0,1
357929,177.514792899408,4,1,1,60,1,9
357929,-227.272727272727,4,1,1,60,0,9
358106,176.991150442477,4,1,1,60,1,9
358106,-227.272727272727,4,1,1,60,0,9
358283,176.470588235294,4,1,1,60,1,9
358283,-227.272727272727,4,1,1,60,0,9
358460,175.953079178886,4,1,1,60,1,1
358460,-227.272727272727,4,1,1,60,0,1
358636,175.438596491228,4,1,1,60,1,9
358636,-227.272727272727,4,1,1,60,0,9
358811,174.927113702624,4,1,1,60,1,9
358811,-227.272727272727,4,1,1,60,0,9
358986,174.418604651163,4,1,1,60,1,9
358986,-227.272727272727,4,1,1,60,0,9
359160,173.913043478261,4,1,1,60,1,1
359160,-232.558139534884,4,1,1,60,0,1
359334,173.410404624277,4,1,1,60,1,9
359334,-232.558139534884,4,1,1,60,0,9
359508,172.910662824207,4,1,1,60,1,9
359508,-232.558139534884,4,1,1,60,0,9
359681,172.413793103448,4,1,1,60,1,9
359681,-232.558139534884,4,1,1,60,0,9
359853,171.919770773638,4,1,1,60,1,0
359853,-232.558139534884,4,1,1,60,0,0
360025,171.428571428571,4,1,1,60,1,8
360025,-232.558139534884,4,1,1,60,0,8
360196,170.94017094017,4,1,1,60,1,8
360196,-232.558139534884,4,1,1,60,0,8
360367,170.454545454545,4,1,1,60,1,8
360367,-232.558139534884,4,1,1,60,0,8
360538,169.971671388101,4,1,1,60,1,0
360538,-238.095238095238,4,1,1,60,0,0
360708,169.491525423728,4,1,1,60,1,8
360708,-238.095238095238,4,1,1,60,0,8
360877,169.014084507042,4,1,1,60,1,8
360877,-238.095238095238,4,1,1,60,0,8
361046,168.539325842696,4,1,1,60,1,8
361046,-238.095238095238,4,1,1,60,0,8
361215,168.067226890756,4,1,1,40,1,0
361215,-238.095238095238,4,1,1,40,0,0
361887,166.666666666666,4,1,1,50,1,0
361887,-238.095238095238,4,1,1,50,0,0
362554,164.383561643835,4,1,1,50,1,0
362554,-243.90243902439,4,1,1,50,0,0
363211,162.162162162162,4,1,1,40,1,0
363211,-243.90243902439,4,1,1,40,0,0
363535,-243.90243902439,4,1,1,60,0,0
363860,161.725067385445,4,1,1,60,1,1
363860,-250,4,1,1,60,0,1
364022,161.290322580645,4,1,1,60,1,9
364022,-250,4,1,1,60,0,9
364183,160.857908847185,4,1,1,60,1,9
364183,-250,4,1,1,60,0,9
364344,160.427807486631,4,1,1,60,1,9
364344,-250,4,1,1,60,0,9
364504,160,4,1,1,60,1,1
364504,-250,4,1,1,60,0,1
364664,159.574468085106,4,1,1,60,1,9
364664,-250,4,1,1,60,0,9
364824,159.151193633952,4,1,1,60,1,9
364824,-250,4,1,1,60,0,9
364983,158.730158730159,4,1,1,60,1,9
364983,-250,4,1,1,60,0,9
365142,158.311345646438,4,1,1,60,1,1
365142,-250,4,1,1,60,0,1
365300,157.894736842105,4,1,1,60,1,9
365300,-256.410256410256,4,1,1,60,0,9
365458,157.48031496063,4,1,1,60,1,9
365458,-256.410256410256,4,1,1,60,0,9
365615,157.068062827225,4,1,1,60,1,9
365615,-256.410256410256,4,1,1,60,0,9
365772,156.657963446475,4,1,1,60,1,1
365772,-256.410256410256,4,1,1,60,0,1
365929,156.25,4,1,1,60,1,9
365929,-256.410256410256,4,1,1,60,0,9
366085,155.844155844156,4,1,1,60,1,9
366085,-256.410256410256,4,1,1,60,0,9
366241,155.440414507772,4,1,1,60,1,9
366241,-256.410256410256,4,1,1,60,0,9
366397,155.038759689922,4,1,1,60,1,1
366397,-256.410256410256,4,1,1,60,0,1
366552,154.639175257732,4,1,1,60,1,9
366552,-256.410256410256,4,1,1,60,0,9
366706,154.241645244216,4,1,1,60,1,9
366706,-256.410256410256,4,1,1,60,0,9
366861,153.846153846154,4,1,1,60,1,9
366861,-263.157894736842,4,1,1,60,0,9
367014,153.452685421995,4,1,1,60,1,1
367014,-263.157894736842,4,1,1,60,0,1
367168,153.061224489796,4,1,1,60,1,9
367168,-263.157894736842,4,1,1,60,0,9
367321,152.671755725191,4,1,1,60,1,9
367321,-263.157894736842,4,1,1,60,0,9
367474,152.284263959391,4,1,1,60,1,9
367474,-263.157894736842,4,1,1,60,0,9
367626,151.898734177215,4,1,1,60,1,0
367626,-263.157894736842,4,1,1,60,0,0
367778,151.515151515152,4,1,1,60,1,8
367778,-263.157894736842,4,1,1,60,0,8
367929,151.133501259446,4,1,1,60,1,8
367929,-263.157894736842,4,1,1,60,0,8
368080,150.753768844221,4,1,1,60,1,8
368080,-263.157894736842,4,1,1,60,0,8
368231,150.375939849624,4,1,1,60,1,0
368231,-263.157894736842,4,1,1,60,0,0
368382,150,4,1,1,60,1,8
368382,-263.157894736842,4,1,1,60,0,8
368532,149.625935162095,4,1,1,60,1,8
368532,-270.27027027027,4,1,1,60,0,8
368681,149.253731343284,4,1,1,60,1,8
368681,-270.27027027027,4,1,1,60,0,8
368830,148.883374689827,4,1,1,60,1,1
368830,-270.27027027027,4,1,1,60,0,1
368979,148.514851485149,4,1,1,60,1,9
368979,-270.27027027027,4,1,1,60,0,9
369128,148.148148148149,4,1,1,60,1,9
369128,-270.27027027027,4,1,1,60,0,9
369276,147.783251231527,4,1,1,60,1,9
369276,-270.27027027027,4,1,1,60,0,9
369424,147.420147420147,4,1,1,60,1,1
369424,-270.27027027027,4,1,1,60,0,1
369571,147.058823529411,4,1,1,60,1,9
369571,-270.27027027027,4,1,1,60,0,9
369718,146.699266503667,4,1,1,60,1,9
369718,-270.27027027027,4,1,1,60,0,9
369865,146.341463414633,4,1,1,60,1,9
369865,-270.27027027027,4,1,1,60,0,9
370011,145.985401459853,4,1,1,60,1,1
370011,-277.777777777778,4,1,1,60,0,1
370157,145.631067961164,4,1,1,60,1,9
370157,-277.777777777778,4,1,1,60,0,9
370303,145.278450363195,4,1,1,60,1,9
370303,-277.777777777778,4,1,1,60,0,9
370448,144.927536231883,4,1,1,60,1,9
370448,-277.777777777778,4,1,1,60,0,9
370593,144.578313253011,4,1,1,60,1,1
370593,-277.777777777778,4,1,1,60,0,1
370738,144.230769230768,4,1,1,60,1,9
370738,-277.777777777778,4,1,1,60,0,9
370882,143.88489208633,4,1,1,60,1,9
370882,-277.777777777778,4,1,1,60,0,9
371026,143.540669856458,4,1,1,60,1,9
371026,-277.777777777778,4,1,1,60,0,9
371169,143.198090692123,4,1,1,60,1,1
371169,-277.777777777778,4,1,1,60,0,1
371313,142.857142857142,4,1,1,60,1,9
371313,-277.777777777778,4,1,1,60,0,9
371455,142.51781472684,4,1,1,60,1,9
371455,-277.777777777778,4,1,1,60,0,9
371598,142.180094786729,4,1,1,60,1,9
371598,-277.777777777778,4,1,1,60,0,9
371740,141.843971631205,4,1,1,60,1,1
371740,-285.714285714286,4,1,1,60,0,1
371882,141.509433962263,4,1,1,60,1,9
371882,-285.714285714286,4,1,1,60,0,9
372023,141.176470588234,4,1,1,60,1,9
372023,-285.714285714286,4,1,1,60,0,9
372165,140.845070422534,4,1,1,60,1,9
372165,-285.714285714286,4,1,1,60,0,9
372306,140.515222482435,4,1,1,60,1,1
372306,-285.714285714286,4,1,1,60,0,1
372446,140.186915887849,4,1,1,60,1,9
372446,-285.714285714286,4,1,1,60,0,9
372586,139.860139860139,4,1,1,60,1,9
372586,-285.714285714286,4,1,1,60,0,9
372726,139.534883720929,4,1,1,60,1,9
372726,-285.714285714286,4,1,1,60,0,9
372866,139.21113689095,4,1,1,60,1,1
372866,-285.714285714286,4,1,1,60,0,1
373005,138.888888888888,4,1,1,60,1,9
373005,-285.714285714286,4,1,1,60,0,9
373144,138.568129330253,4,1,1,60,1,9
373144,-285.714285714286,4,1,1,60,0,9
373282,138.248847926266,4,1,1,60,1,8
373282,-285.714285714286,4,1,1,60,0,8
373421,137.931034482757,4,1,1,60,1,1
373421,-294.117647058824,4,1,1,60,0,1
377834,-294.117647058824,4,1,1,60,0,0
378938,136.363636363636,4,1,1,60,1,1
378938,-294.117647058824,4,1,1,60,0,1
387119,-294.117647058824,4,1,1,60,0,0
387665,-294.117647058824,4,1,1,60,0,1
396392,-294.117647058824,4,1,1,60,0,0
400210,-294.117647058824,4,1,1,45,0,0
404028,-294.117647058824,4,1,1,50,0,0
404301,-294.117647058824,4,1,1,55,0,0
404574,-294.117647058824,4,1,1,60,0,1
404710,139.53488372093,4,1,1,60,1,9
404710,-285.714285714286,4,1,1,60,0,9
404850,142.857142857143,4,1,1,60,1,9
404850,-277.777777777778,4,1,1,60,0,9
404993,146.341463414634,4,1,1,60,1,9
404993,-270.27027027027,4,1,1,60,0,9
405139,150,4,1,1,60,1,1
405139,-263.157894736842,4,1,1,60,0,1
405289,153.846153846154,4,1,1,60,1,9
405289,-263.157894736842,4,1,1,60,0,9
405443,157.894736842105,4,1,1,60,1,9
405443,-256.410256410256,4,1,1,60,0,9
405601,162.162162162162,4,1,1,60,1,9
405601,-243.90243902439,4,1,1,60,0,9
405763,166.666666666667,4,1,1,60,1,1
405763,-238.095238095238,4,1,1,60,0,1
405930,171.428571428571,4,1,1,60,1,9
405930,-232.558139534884,4,1,1,60,0,9
406101,176.470588235294,4,1,1,60,1,9
406101,-227.272727272727,4,1,1,60,0,9
406278,181.818181818182,4,1,1,60,1,9
406278,-222.222222222222,4,1,1,60,0,9
406460,187.5,4,1,1,60,1,1
406460,-212.765957446809,4,1,1,60,0,1
406647,193.548387096774,4,1,1,60,1,9
406647,-208.333333333333,4,1,1,60,0,9
406841,200,4,1,1,60,1,9
406841,-200,4,1,1,60,0,9
407041,203.389830508475,4,1,1,60,1,9
407041,-196.078431372549,4,1,1,60,0,9
407244,206.896551724138,4,1,1,60,1,1
407244,-192.307692307692,4,1,1,60,0,1
407451,210.526315789474,4,1,1,60,1,9
407451,-188.679245283019,4,1,1,60,0,9
407661,214.285714285714,4,1,1,60,1,9
407661,-185.185185185185,4,1,1,60,0,9
407876,218.181818181818,4,1,1,60,1,9
407876,-181.818181818182,4,1,1,60,0,9
408094,222.222222222222,4,1,1,60,1,1
408094,-178.571428571429,4,1,1,60,0,1
408316,226.415094339623,4,1,1,60,1,9
408316,-175.438596491228,4,1,1,60,0,9
408542,230.769230769231,4,1,1,60,1,9
408542,-172.413793103448,4,1,1,60,0,9
408773,235.294117647059,4,1,1,60,1,9
408773,-169.491525423729,4,1,1,60,0,9
409009,240,4,1,1,60,1,1
409009,-166.666666666667,4,1,1,60,0,1
409249,244.897959183673,4,1,1,60,1,9
409249,-163.934426229508,4,1,1,60,0,9
409493,250,4,1,1,60,1,9
409493,-158.730158730159,4,1,1,60,0,9
409743,255.31914893617,4,1,1,60,1,9
409743,-156.25,4,1,1,60,0,9
409999,260.869565217391,4,1,1,60,1,1
409999,-153.846153846154,4,1,1,60,0,1
410260,266.666666666667,4,1,1,60,1,9
410260,-149.253731343284,4,1,1,60,0,9
410526,272.727272727273,4,1,1,60,1,9
410526,-147.058823529412,4,1,1,60,0,9
410799,279.06976744186,4,1,1,60,1,9
410799,-142.857142857143,4,1,1,60,0,9
411078,285.714285714286,4,1,1,60,1,1
411078,-140.845070422535,4,1,1,60,0,1
411364,292.682926829268,4,1,1,60,1,9
411364,-136.986301369863,4,1,1,60,0,9
411656,300,4,1,1,60,1,9
411656,-133.333333333333,4,1,1,60,0,9
411956,307.692307692308,4,1,1,60,1,9
411956,-129.87012987013,4,1,1,60,0,9
412264,315.789473684211,4,1,1,30,1,0
412264,-126.582278481013,4,1,1,30,0,0
415421,-126.582278481013,4,1,1,40,0,0
416369,-126.582278481013,4,1,1,45,0,0
417316,-126.582278481013,4,1,1,50,0,0
419842,-126.582278481013,4,1,1,45,0,0
422369,-126.582278481013,4,1,1,40,0,0

[HitObjects]
64,192,338078,5,0,0:0:0:0:
192,192,338183,1,0,0:0:0:0:
320,192,338288,1,0,0:0:0:0:
448,192,338393,1,0,0:0:0:0:
64,192,338499,1,0,0:0:0:0:
320,192,338534,1,0,0:0:0:0:
192,192,338569,1,0,0:0:0:0:
448,192,338656,1,0,0:0:0:0:
192,192,338692,1,0,0:0:0:0:
320,192,338727,1,0,0:0:0:0:
448,192,338762,1,0,0:0:0:0:
64,192,338814,1,0,0:0:0:0:
320,192,338849,1,0,0:0:0:0:
192,192,338885,1,0,0:0:0:0:
64,192,338921,128,0,339076:0:0:0:0:
448,192,338972,128,0,339024:0:0:0:0:
192,192,339007,128,0,339145:0:0:0:0:
320,192,339041,128,0,339110:0:0:0:0:
448,192,339076,128,0,339231:0:0:0:0:
64,192,339127,128,0,339179:0:0:0:0:
320,192,339162,128,0,339300:0:0:0:0:
192,192,339196,128,0,339265:0:0:0:0:
64,192,339231,128,0,339386:0:0:0:0:
448,192,339283,128,0,339334:0:0:0:0:
192,192,339317,128,0,339455:0:0:0:0:
320,192,339352,128,0,339421:0:0:0:0:
448,192,339386,128,0,339541:0:0:0:0:
64,192,339438,128,0,339489:0:0:0:0:
320,192,339472,128,0,339610:0:0:0:0:
192,192,339507,128,0,339576:0:0:0:0:
64,192,339541,128,0,339696:0:0:0:0:
448,192,339593,128,0,339645:0:0:0:0:
192,192,339627,128,0,339764:0:0:0:0:
320,192,339662,128,0,339731:0:0:0:0:
448,192,339696,128,0,339849:0:0:0:0:
64,192,339748,128,0,339798:0:0:0:0:
320,192,339781,128,0,339917:0:0:0:0:
192,192,339815,128,0,339883:0:0:0:0:
64,192,339849,128,0,340002:0:0:0:0:
448,192,339900,128,0,339951:0:0:0:0:
192,192,339934,128,0,340070:0:0:0:0:
320,192,339968,128,0,340036:0:0:0:0:
448,192,340002,128,0,340154:0:0:0:0:
64,192,340053,128,0,340103:0:0:0:0:
320,192,340086,128,0,340222:0:0:0:0:
192,192,340120,128,0,340188:0:0:0:0:
64,192,340154,128,0,340307:0:0:0:0:
448,192,340205,128,0,340256:0:0:0:0:
192,192,340239,128,0,340375:0:0:0:0:
320,192,340273,128,0,340341:0:0:0:0:
448,192,340307,128,0,340459:0:0:0:0:
64,192,340358,128,0,340409:0:0:0:0:
320,192,340392,128,0,340527:0:0:0:0:
192,192,340425,128,0,340493:0:0:0:0:
64,192,340459,128,0,340612:0:0:0:0:
448,192,340510,128,0,340561:0:0:0:0:
192,192,340544,128,0,340678:0:0:0:0:
320,192,340578,128,0,340645:0:0:0:0:
448,192,340612,128,0,340762:0:0:0:0:
64,192,340662,128,0,340712:0:0:0:0:
320,192,340695,128,0,340862:0:0:0:0:
192,192,340728,128,0,340812:0:0:0:0:
64,192,340762,128,0,340912:0:0:0:0:
448,192,340812,128,0,340962:0:0:0:0:
192,192,340862,128,0,340962:0:0:0:0:
320,192,340912,128,0,340962:0:0:0:0:
64,192,340962,128,0,341095:0:0:0:0:
448,192,341028,128,0,341128:0:0:0:0:
192,192,341095,1,0,0:0:0:0:
64,192,341162,128,0,341362:0:0:0:0:
192,192,341262,128,0,341312:0:0:0:0:
320,192,341362,128,0,341412:0:0:0:0:
448,192,341362,128,0,341512:0:0:0:0:
192,192,341362,128,0,341562:0:0:0:0:
320,192,341462,1,0,0:0:0:0:
64,192,341462,1,0,0:0:0:0:
320,192,341562,1,0,0:0:0:0:
64,192,341562,1,0,0:0:0:0:
448,192,341662,1,0,0:0:0:0:
192,192,341662,1,0,0:0:0:0:
320,192,341762,1,0,0:0:0:0:
64,192,341762,1,0,0:0:0:0:
320,192,341862,1,0,0:0:0:0:
64,192,341862,1,0,0:0:0:0:
320,192,341962,1,0,0:0:0:0:
192,192,341962,1,0,0:0:0:0:
448,192,342062,1,0,0:0:0:0:
320,192,342062,1,0,0:0:0:0:
64,192,342062,1,0,0:0:0:0:
64,192,342162,1,0,0:0:0:0:
192,192,342195,1,0,0:0:0:0:
320,192,342228,1,0,0:0:0:0:
64,192,342262,1,0,0:0:0:0:
448,192,342262,1,0,0:0:0:0:
448,192,342312,1,0,0:0:0:0:
320,192,342362,128,0,342412:0:0:0:0:
192,192,342362,128,0,342462:0:0:0:0:
64,192,342362,128,0,342412:0:0:0:0:
320,192,342462,1,0,0:0:0:0:
64,192,342462,1,0,0:0:0:0:
320,192,342562,1,0,0:0:0:0:
192,192,342562,1,0,0:0:0:0:
448,192,342662,128,0,342762:0:0:0:0:
192,192,342662,128,0,342712:0:0:0:0:
64,192,342662,128,0,342762:0:0:0:0:
320,192,342762,1,0,0:0:0:0:
192,192,342762,1,0,0:0:0:0:
192,192,342862,1,0,0:0:0:0:
448,192,342862,1,0,0:0:0:0:
64,192,342895,1,0,0:0:0:0:
320,192,342962,128,0,343012:0:0:0:0:
448,192,342962,128,0,343112:0:0:0:0:
192,192,342962,128,0,343162:0:0:0:0:
320,192,343062,1,0,0:0:0:0:
64,192,343062,1,0,0:0:0:0:
320,192,343162,1,0,0:0:0:0:
64,192,343162,1,0,0:0:0:0:
448,192,343262,1,0,0:0:0:0:
192,192,343262,1,0,0:0:0:0:
320,192,343362,1,0,0:0:0:0:
64,192,343362,1,0,0:0:0:0:
320,192,343462,1,0,0:0:0:0:
64,192,343462,1,0,0:0:0:0:
320,192,343562,1,0,0:0:0:0:
192,192,343562,1,0,0:0:0:0:
448,192,343662,1,0,0:0:0:0:
320,192,343662,1,0,0:0:0:0:
64,192,343662,1,0,0:0:0:0:
64,192,343762,1,0,0:0:0:0:
192,192,343795,1,0,0:0:0:0:
320,192,343828,1,0,0:0:0:0:
64,192,343862,1,0,0:0:0:0:
448,192,343862,1,0,0:0:0:0:
448,192,343912,1,0,0:0:0:0:
320,192,343962,128,0,344012:0:0:0:0:
192,192,343962,128,0,344062:0:0:0:0:
64,192,343962,128,0,344012:0:0:0:0:
320,192,344062,1,0,0:0:0:0:
64,192,344062,1,0,0:0:0:0:
320,192,344162,1,0,0:0:0:0:
192,192,344162,1,0,0:0:0:0:
448,192,344262,128,0,344362:0:0:0:0:
192,192,344262,128,0,344312:0:0:0:0:
64,192,344262,128,0,344362:0:0:0:0:
320,192,344362,1,0,0:0:0:0:
192,192,344362,1,0,0:0:0:0:
192,192,344462,1,0,0:0:0:0:
448,192,344462,1,0,0:0:0:0:
64,192,344495,1,0,0:0:0:0:
448,192,344562,1,0,0:0:0:0:
320,192,344562,1,0,0:0:0:0:
192,192,344562,1,0,0:0:0:0:
64,192,344612,1,0,0:0:0:0:
448,192,344662,1,0,0:0:0:0:
192,192,344712,1,0,0:0:0:0:
448,192,344762,1,0,0:0:0:0:
192,192,344812,1,0,0:0:0:0:
64,192,344862,1,0,0:0:0:0:
320,192,344862,1,0,0:0:0:0:
192,192,344912,1,0,0:0:0:0:
448,192,344962,1,0,0:0:0:0:
320,192,344962,1,0,0:0:0:0:
64,192,345012,1,0,0:0:0:0:
448,192,345062,1,0,0:0:0:0:
64,192,345112,1,0,0:0:0:0:
192,192,345162,1,0,0:0:0:0:
320,192,345162,1,0,0:0:0:0:
64,192,345212,1,0,0:0:0:0:
448,192,345262,1,0,0:0:0:0:
320,192,345312,1,0,0:0:0:0:
448,192,345362,1,0,0:0:0:0:
192,192,345362,1,0,0:0:0:0:
64,192,345402,1,0,0:0:0:0:
320,192,345442,1,0,0:0:0:0:
192,192,345482,1,0,0:0:0:0:
448,192,345522,1,0,0:0:0:0:
320,192,345562,1,0,0:0:0:0:
64,192,345602,1,0,0:0:0:0:
192,192,345642,1,0,0:0:0:0:
320,192,345682,1,0,0:0:0:0:
448,192,345722,1,0,0:0:0:0:
192,192,345762,1,0,0:0:0:0:
320,192,345802,1,0,0:0:0:0:
64,192,345842,1,0,0:0:0:0:
192,192,345882,1,0,0:0:0:0:
320,192,345922,1,0,0:0:0:0:
64,192,345962,1,0,0:0:0:0:
448,192,346002,1,0,0:0:0:0:
320,192,346042,1,0,0:0:0:0:
192,192,346082,1,0,0:0:0:0:
448,192,346122,1,0,0:0:0:0:
64,192,346162,1,0,0:0:0:0:
192,192,346195,1,0,0:0:0:0:
320,192,346228,1,0,0:0:0:0:
448,192,346262,1,0,0:0:0:0:
64,192,346295,1,0,0:0:0:0:
192,192,346328,1,0,0:0:0:0:
320,192,346362,1,0,0:0:0:0:
64,192,346395,1,0,0:0:0:0:
448,192,346428,1,0,0:0:0:0:
320,192,346462,1,0,0:0:0:0:
192,192,346495,1,0,0:0:0:0:
64,192,346528,1,0,0:0:0:0:
448,192,346562,1,0,0:0:0:0:
192,192,346595,1,0,0:0:0:0:
320,192,346628,1,0,0:0:0:0:
448,192,346662,1,0,0:0:0:0:
64,192,346695,1,0,0:0:0:0:
192,192,346728,1,0,0:0:0:0:
320,192,346762,1,0,0:0:0:0:
64,192,346795,1,0,0:0:0:0:
448,192,346828,1,0,0:0:0:0:
320,192,346862,1,0,0:0:0:0:
192,192,346895,1,0,0:0:0:0:
64,192,346928,1,0,0:0:0:0:
320,192,346962,1,0,0:0:0:0:
448,192,346987,1,0,0:0:0:0:
64,192,347012,1,0,0:0:0:0:
192,192,347037,1,0,0:0:0:0:
320,192,347062,1,0,0:0:0:0:
448,192,347087,1,0,0:0:0:0:
64,192,347112,1,0,0:0:0:0:
192,192,347137,1,0,0:0:0:0:
320,192,347162,1,0,0:0:0:0:
448,192,347187,1,0,0:0:0:0:
64,192,347212,1,0,0:0:0:0:
192,192,347237,1,0,0:0:0:0:
320,192,347262,1,0,0:0:0:0:
448,192,347287,1,0,0:0:0:0:
64,192,347312,1,0,0:0:0:0:
192,192,347337,1,0,0:0:0:0:
320,192,347362,1,0,0:0:0:0:
448,192,347387,1,0,0:0:0:0:
64,192,347412,1,0,0:0:0:0:
192,192,347437,1,0,0:0:0:0:
320,192,347462,1,0,0:0:0:0:
448,192,347487,1,0,0:0:0:0:
64,192,347512,1,0,0:0:0:0:
192,192,347537,1,0,0:0:0:0:
320,192,347562,1,0,0:0:0:0:
448,192,347587,1,0,0:0:0:0:
64,192,347612,1,0,0:0:0:0:
192,192,347637,1,0,0:0:0:0:
320,192,347662,1,0,0:0:0:0:
448,192,347687,1,0,0:0:0:0:
64,192,347712,1,0,0:0:0:0:
192,192,347737,1,0,0:0:0:0:
448,192,347762,1,0,0:0:0:0:
320,192,347762,1,0,0:0:0:0:
64,192,347862,1,0,0:0:0:0:
64,192,347962,1,0,0:0:0:0:
192,192,348062,1,0,0:0:0:0:
64,192,348162,1,0,0:0:0:0:
64,192,348262,1,0,0:0:0:0:
320,192,348362,1,0,0:0:0:0:
64,192,348462,1,0,0:0:0:0:
192,192,348562,1,0,0:0:0:0:
64,192,348562,1,0,0:0:0:0:
320,192,348662,1,0,0:0:0:0:
448,192,348662,1,0,0:0:0:0:
192,192,348762,1,0,0:0:0:0:
64,192,348762,1,0,0:0:0:0:
448,192,348862,1,0,0:0:0:0:
64,192,348862,1,0,0:0:0:0:
192,192,348962,1,0,0:0:0:0:
320,192,348962,1,0,0:0:0:0:
448,192,349062,1,0,0:0:0:0:
64,192,349062,1,0,0:0:0:0:
320,192,349162,1,0,0:0:0:0:
192,192,349162,1,0,0:0:0:0:
192,192,349262,1,0,0:0:0:0:
64,192,349262,1,0,0:0:0:0:
320,192,349362,1,0,0:0:0:0:
192,192,349412,1,0,0:0:0:0:
448,192,349462,1,0,0:0:0:0:
64,192,349512,1,0,0:0:0:0:
448,192,349562,1,0,0:0:0:0:
320,192,349612,1,0,0:0:0:0:
192,192,349662,1,0,0:0:0:0:
64,192,349712,1,0,0:0:0:0:
448,192,349762,1,0,0:0:0:0:
192,192,349812,1,0,0:0:0:0:
448,192,349862,1,0,0:0:0:0:
320,192,349912,1,0,0:0:0:0:
64,192,349962,1,0,0:0:0:0:
192,192,350012,1,0,0:0:0:0:
448,192,350062,1,0,0:0:0:0:
320,192,350112,1,0,0:0:0:0:
192,192,350162,1,0,0:0:0:0:
64,192,350162,1,0,0:0:0:0:
448,192,350162,1,0,0:0:0:0:
320,192,350212,1,0,0:0:0:0:
192,192,350262,1,0,0:0:0:0:
64,192,350312,1,0,0:0:0:0:
320,192,350362,1,0,0:0:0:0:
448,192,350362,1,0,0:0:0:0:
192,192,350412,1,0,0:0:0:0:
64,192,350462,1,0,0:0:0:0:
448,192,350462,1,0,0:0:0:0:
192,192,350512,1,0,0:0:0:0:
64,192,350562,1,0,0:0:0:0:
448,192,350562,1,0,0:0:0:0:
320,192,350562,1,0,0:0:0:0:
64,192,350712,1,0,0:0:0:0:
320,192,350762,1,0,0:0:0:0:
448,192,350762,1,0,0:0:0:0:
192,192,350795,1,0,0:0:0:0:
64,192,350828,1,0,0:0:0:0:
448,192,350862,1,0,0:0:0:0:
192,192,350895,1,0,0:0:0:0:
320,192,350928,1,0,0:0:0:0:
448,192,350962,128,0,351161:0:0:0:0:
192,192,350962,128,0,351111:0:0:0:0:
64,192,350962,128,0,351061:0:0:0:0:
320,192,351061,128,0,351260:0:0:0:0:
64,192,351161,128,0,351210:0:0:0:0:
192,192,351161,128,0,351409:0:0:0:0:
448,192,351260,128,0,351310:0:0:0:0:
64,192,351260,128,0,351508:0:0:0:0:
448,192,351360,128,0,351459:0:0:0:0:
320,192,351360,128,0,351508:0:0:0:0:
192,192,351459,128,0,351656:0:0:0:0:
64,192,351558,128,0,351706:0:0:0:0:
448,192,351558,128,0,351755:0:0:0:0:
320,192,351656,128,0,351706:0:0:0:0:
320,192,351755,128,0,351902:0:0:0:0:
64,192,351755,128,0,351952:0:0:0:0:
192,192,351853,128,0,351902:0:0:0:0:
448,192,351853,128,0,352050:0:0:0:0:
320,192,351952,128,0,352099:0:0:0:0:
192,192,351952,128,0,352099:0:0:0:0:
64,192,352050,128,0,352148:0:0:0:0:
192,192,352148,128,0,352294:0:0:0:0:
320,192,352148,128,0,352196:0:0:0:0:
448,192,352148,128,0,352440:0:0:0:0:
320,192,352245,1,0,0:0:0:0:
320,192,352343,128,0,352538:0:0:0:0:
192,192,352343,128,0,352391:0:0:0:0:
64,192,352343,128,0,352538:0:0:0:0:
192,192,352440,1,0,0:0:0:0:
448,192,352538,128,0,352683:0:0:0:0:
192,192,352538,128,0,352586:0:0:0:0:
64,192,352586,128,0,352683:0:0:0:0:
320,192,352635,128,0,352683:0:0:0:0:
192,192,352683,128,0,352780:0:0:0:0:
320,192,352732,128,0,352828:0:0:0:0:
448,192,352732,128,0,352926:0:0:0:0:
64,192,352780,128,0,352877:0:0:0:0:
192,192,352828,128,0,352877:0:0:0:0:
320,192,352877,128,0,353022:0:0:0:0:
192,192,352926,128,0,353070:0:0:0:0:
64,192,352926,128,0,353118:0:0:0:0:
448,192,353022,128,0,353070:0:0:0:0:
320,192,353119,128,0,353263:0:0:0:0:
448,192,353119,128,0,353215:0:0:0:0:
64,192,353215,128,0,353311:0:0:0:0:
192,192,353311,128,0,353454:0:0:0:0:
320,192,353311,128,0,353358:0:0:0:0:
448,192,353311,128,0,353454:0:0:0:0:
64,192,353406,128,0,353454:0:0:0:0:
320,192,353406,128,0,353598:0:0:0:0:
192,192,353503,128,0,353646:0:0:0:0:
448,192,353503,128,0,353550:0:0:0:0:
64,192,353503,128,0,353598:0:0:0:0:
448,192,353598,128,0,353741:0:0:0:0:
192,192,353694,128,0,353741:0:0:0:0:
320,192,353694,128,0,353789:0:0:0:0:
64,192,353694,128,0,353931:0:0:0:0:
192,192,353789,128,0,353978:0:0:0:0:
448,192,353884,128,0,354073:0:0:0:0:
320,192,353884,128,0,353931:0:0:0:0:
320,192,353978,128,0,354026:0:0:0:0:
64,192,354074,128,0,354168:0:0:0:0:
320,192,354074,128,0,354357:0:0:0:0:
192,192,354074,128,0,354263:0:0:0:0:
448,192,354168,1,0,0:0:0:0:
64,192,354263,1,0,0:0:0:0:
64,192,354357,128,0,354640:0:0:0:0:
448,192,354452,1,0,0:0:0:0:
320,192,354452,128,0,354640:0:0:0:0:
192,192,354452,128,0,354546:0:0:0:0:
448,192,354546,1,0,0:0:0:0:
192,192,354640,1,0,0:0:0:0:
192,192,354733,128,0,355015:0:0:0:0:
64,192,354828,128,0,355015:0:0:0:0:
448,192,354828,128,0,354921:0:0:0:0:
320,192,354921,1,0,0:0:0:0:
448,192,355015,1,0,0:0:0:0:
448,192,355108,128,0,355387:0:0:0:0:
64,192,355201,1,0,0:0:0:0:
192,192,355201,128,0,355387:0:0:0:0:
320,192,355201,128,0,355293:0:0:0:0:
64,192,355293,1,0,0:0:0:0:
320,192,355387,1,0,0:0:0:0:
320,192,355479,128,0,355572:0:0:0:0:
448,192,355572,128,0,355664:0:0:0:0:
64,192,355572,128,0,355633:0:0:0:0:
192,192,355602,128,0,355757:0:0:0:0:
320,192,355664,128,0,355849:0:0:0:0:
64,192,355695,128,0,355941:0:0:0:0:
448,192,355757,1,0,0:0:0:0:
448,192,355849,1,0,0:0:0:0:
320,192,355941,128,0,356032:0:0:0:0:
192,192,355941,128,0,356032:0:0:0:0:
448,192,355971,128,0,356215:0:0:0:0:
64,192,356032,1,0,0:0:0:0:
192,192,356124,1,0,0:0:0:0:
320,192,356154,128,0,356307:0:0:0:0:
192,192,356215,1,0,0:0:0:0:
448,192,356307,128,0,356579:0:0:0:0:
64,192,356307,128,0,356398:0:0:0:0:
192,192,356337,128,0,356489:0:0:0:0:
320,192,356398,1,0,0:0:0:0:
64,192,356489,1,0,0:0:0:0:
64,192,356579,1,0,0:0:0:0:
320,192,356671,1,0,0:0:0:0:
448,192,356671,128,0,356761:0:0:0:0:
192,192,356671,128,0,356738:0:0:0:0:
64,192,356716,128,0,356829:0:0:0:0:
320,192,356761,128,0,356919:0:0:0:0:
192,192,356806,128,0,356874:0:0:0:0:
448,192,356852,128,0,356964:0:0:0:0:
64,192,356897,1,0,0:0:0:0:
192,192,356942,1,0,0:0:0:0:
320,192,356987,128,0,357153:0:0:0:0:
448,192,357033,128,0,357183:0:0:0:0:
192,192,357033,128,0,357123:0:0:0:0:
64,192,357033,128,0,357093:0:0:0:0:
64,192,357213,1,0,0:0:0:0:
192,192,357213,1,0,0:0:0:0:
448,192,357302,1,0,0:0:0:0:
64,192,357302,1,0,0:0:0:0:
448,192,357393,1,0,0:0:0:0:
320,192,357393,1,0,0:0:0:0:
320,192,357482,1,0,0:0:0:0:
64,192,357482,1,0,0:0:0:0:
448,192,357572,1,0,0:0:0:0:
192,192,357572,1,0,0:0:0:0:
64,192,357661,1,0,0:0:0:0:
192,192,357661,1,0,0:0:0:0:
320,192,357751,1,0,0:0:0:0:
448,192,357751,1,0,0:0:0:0:
64,192,357840,1,0,0:0:0:0:
320,192,357840,1,0,0:0:0:0:
192,192,357929,1,0,0:0:0:0:
448,192,357929,1,0,0:0:0:0:
320,192,357973,1,0,0:0:0:0:
192,192,358017,1,0,0:0:0:0:
64,192,358106,1,0,0:0:0:0:
448,192,358106,1,0,0:0:0:0:
192,192,358150,1,0,0:0:0:0:
448,192,358194,1,0,0:0:0:0:
64,192,358283,1,0,0:0:0:0:
320,192,358283,1,0,0:0:0:0:
448,192,358327,1,0,0:0:0:0:
64,192,358371,1,0,0:0:0:0:
320,192,358415,128,0,358636:0:0:0:0:
448,192,358460,128,0,358547:0:0:0:0:
192,192,358460,128,0,358547:0:0:0:0:
64,192,358547,1,0,0:0:0:0:
192,192,358636,1,0,0:0:0:0:
64,192,358636,1,0,0:0:0:0:
448,192,358723,1,0,0:0:0:0:
320,192,358723,1,0,0:0:0:0:
320,192,358811,1,0,0:0:0:0:
192,192,358811,1,0,0:0:0:0:
64,192,358898,1,0,0:0:0:0:
192,192,358898,1,0,0:0:0:0:
448,192,358986,1,0,0:0:0:0:
320,192,358986,1,0,0:0:0:0:
192,192,359073,1,0,0:0:0:0:
64,192,359073,1,0,0:0:0:0:
320,192,359160,1,0,0:0:0:0:
192,192,359160,1,0,0:0:0:0:
448,192,359246,1,0,0:0:0:0:
320,192,359246,1,0,0:0:0:0:
64,192,359334,1,0,0:0:0:0:
192,192,359334,1,0,0:0:0:0:
320,192,359377,1,0,0:0:0:0:
192,192,359420,1,0,0:0:0:0:
320,192,359464,1,0,0:0:0:0:
448,192,359508,1,0,0:0:0:0:
64,192,359508,1,0,0:0:0:0:
192,192,359551,1,0,0:0:0:0:
320,192,359594,1,0,0:0:0:0:
192,192,359637,1,0,0:0:0:0:
448,192,359681,1,0,0:0:0:0:
320,192,359681,1,0,0:0:0:0:
64,192,359724,1,0,0:0:0:0:
192,192,359767,1,0,0:0:0:0:
320,192,359810,128,0,359895:0:0:0:0:
448,192,359853,128,0,359938:0:0:0:0:
64,192,359853,128,0,359938:0:0:0:0:
192,192,359853,128,0,359938:0:0:0:0:
320,192,359938,1,0,0:0:0:0:
320,192,360025,128,0,360153:0:0:0:0:
64,192,360196,1,0,0:0:0:0:
448,192,360196,1,0,0:0:0:0:
64,192,360281,1,0,0:0:0:0:
320,192,360367,1,0,0:0:0:0:
192,192,360367,1,0,0:0:0:0:
448,192,360409,128,0,360516:0:0:0:0:
64,192,360452,1,0,0:0:0:0:
192,192,360494,128,0,360601:0:0:0:0:
320,192,360538,1,0,0:0:0:0:
320,192,360622,1,0,0:0:0:0:
448,192,360622,1,0,0:0:0:0:
64,192,360708,1,0,0:0:0:0:
192,192,360708,1,0,0:0:0:0:
192,192,360792,128,0,360877:0:0:0:0:
64,192,360792,128,0,360887:0:0:0:0:
448,192,360866,128,0,360961:0:0:0:0:
320,192,360877,128,0,360961:0:0:0:0:
192,192,360961,1,0,0:0:0:0:
64,192,361014,128,0,361215:0:0:0:0:
320,192,361046,128,0,361161:0:0:0:0:
448,192,361046,1,0,0:0:0:0:
448,192,361215,1,0,0:0:0:0:
320,192,361215,1,0,0:0:0:0:
192,192,361299,1,0,0:0:0:0:
64,192,361383,1,0,0:0:0:0:
320,192,361467,1,0,0:0:0:0:
192,192,361551,128,0,361719:0:0:0:0:
448,192,361635,128,0,361789:0:0:0:0:
64,192,361719,128,0,361803:0:0:0:0:
320,192,361775,128,0,361845:0:0:0:0:
192,192,361831,128,0,361900:0:0:0:0:
448,192,361887,128,0,361998:0:0:0:0:
64,192,361887,128,0,361956:0:0:0:0:
320,192,361928,128,0,362081:0:0:0:0:
192,192,361970,128,0,362039:0:0:0:0:
64,192,362012,128,0,362123:0:0:0:0:
448,192,362053,128,0,362164:0:0:0:0:
192,192,362095,128,0,362206:0:0:0:0:
320,192,362137,128,0,362248:0:0:0:0:
64,192,362178,128,0,362331:0:0:0:0:
448,192,362220,128,0,362289:0:0:0:0:
192,192,362262,128,0,362414:0:0:0:0:
320,192,362303,128,0,362373:0:0:0:0:
448,192,362345,128,0,362456:0:0:0:0:
64,192,362387,128,0,362503:0:0:0:0:
320,192,362428,128,0,362570:0:0:0:0:
192,192,362470,128,0,362537:0:0:0:0:
448,192,362512,128,0,362603:0:0:0:0:
64,192,362554,128,0,362636:0:0:0:0:
192,192,362586,128,0,362669:0:0:0:0:
320,192,362619,128,0,362701:0:0:0:0:
448,192,362652,128,0,362734:0:0:0:0:
64,192,362685,128,0,362767:0:0:0:0:
192,192,362718,128,0,362800:0:0:0:0:
320,192,362751,128,0,362833:0:0:0:0:
448,192,362784,128,0,362866:0:0:0:0:
64,192,362817,128,0,362899:0:0:0:0:
192,192,362849,128,0,362932:0:0:0:0:
320,192,362882,128,0,362964:0:0:0:0:
448,192,362915,128,0,362997:0:0:0:0:
64,192,362948,128,0,363030:0:0:0:0:
192,192,362981,128,0,363063:0:0:0:0:
320,192,363014,128,0,363096:0:0:0:0:
448,192,363047,128,0,363129:0:0:0:0:
64,192,363080,128,0,363162:0:0:0:0:
192,192,363112,128,0,363195:0:0:0:0:
320,192,363145,128,0,363211:0:0:0:0:
448,192,363178,1,0,0:0:0:0:
64,192,363211,128,0,363319:0:0:0:0:
320,192,363265,1,0,0:0:0:0:
192,192,363319,1,0,0:0:0:0:
64,192,363373,128,0,363535:0:0:0:0:
192,192,363454,128,0,363535:0:0:0:0:
320,192,363535,128,0,363589:0:0:0:0:
448,192,363535,1,0,0:0:0:0:
192,192,363589,1,0,0:0:0:0:
64,192,363589,128,0,363697:0:0:0:0:
320,192,363643,1,0,0:0:0:0:
448,192,363697,128,0,363805:0:0:0:0:
192,192,363697,1,0,0:0:0:0:
64,192,363751,1,0,0:0:0:0:
192,192,363805,1,0,0:0:0:0:
64,192,363860,5,0,0:0:0:0:
320,192,363860,1,0,0:0:0:0:
448,192,363860,1,0,0:0:0:0:
192,192,363940,1,0,0:0:0:0:
320,192,363940,1,0,0:0:0:0:
320,192,364022,1,0,0:0:0:0:
192,192,364102,1,0,0:0:0:0:
448,192,364102,1,0,0:0:0:0:
64,192,364102,1,0,0:0:0:0:
64,192,364183,1,0,0:0:0:0:
320,192,364183,1,0,0:0:0:0:
64,192,364263,1,0,0:0:0:0:
320,192,364344,1,0,0:0:0:0:
448,192,364344,1,0,0:0:0:0:
192,192,364344,1,0,0:0:0:0:
64,192,364424,1,0,0:0:0:0:
448,192,364424,1,0,0:0:0:0:
448,192,364504,1,0,0:0:0:0:
320,192,364584,1,0,0:0:0:0:
64,192,364584,1,0,0:0:0:0:
192,192,364584,1,0,0:0:0:0:
448,192,364664,1,0,0:0:0:0:
192,192,364664,1,0,0:0:0:0:
192,192,364743,1,0,0:0:0:0:
64,192,364824,1,0,0:0:0:0:
320,192,364824,1,0,0:0:0:0:
448,192,364824,1,0,0:0:0:0:
320,192,364903,1,0,0:0:0:0:
64,192,364983,1,0,0:0:0:0:
192,192,364983,1,0,0:0:0:0:
448,192,365014,1,0,0:0:0:0:
320,192,365046,1,0,0:0:0:0:
192,192,365078,1,0,0:0:0:0:
64,192,365109,1,0,0:0:0:0:
320,192,365142,1,0,0:0:0:0:
448,192,365142,1,0,0:0:0:0:
448,192,365221,1,0,0:0:0:0:
192,192,365221,1,0,0:0:0:0:
448,192,365300,1,0,0:0:0:0:
192,192,365378,1,0,0:0:0:0:
64,192,365378,1,0,0:0:0:0:
320,192,365378,1,0,0:0:0:0:
64,192,365458,1,0,0:0:0:0:
448,192,365458,1,0,0:0:0:0:
64,192,365536,1,0,0:0:0:0:
320,192,365615,1,0,0:0:0:0:
192,192,365615,1,0,0:0:0:0:
448,192,365615,1,0,0:0:0:0:
64,192,365693,1,0,0:0:0:0:
320,192,365693,1,0,0:0:0:0:
320,192,365772,1,0,0:0:0:0:
192,192,365811,1,0,0:0:0:0:
448,192,365850,1,0,0:0:0:0:
64,192,365889,1,0,0:0:0:0:
320,192,365929,1,0,0:0:0:0:
192,192,365929,1,0,0:0:0:0:
192,192,366007,1,0,0:0:0:0:
64,192,366085,1,0,0:0:0:0:
320,192,366085,1,0,0:0:0:0:
448,192,366085,1,0,0:0:0:0:
448,192,366162,1,0,0:0:0:0:
64,192,366241,1,0,0:0:0:0:
192,192,366266,1,0,0:0:0:0:
320,192,366292,1,0,0:0:0:0:
448,192,366318,1,0,0:0:0:0:
192,192,366344,1,0,0:0:0:0:
320,192,366370,1,0,0:0:0:0:
64,192,366397,1,0,0:0:0:0:
448,192,366474,1,0,0:0:0:0:
64,192,366474,1,0,0:0:0:0:
64,192,366552,1,0,0:0:0:0:
448,192,366629,1,0,0:0:0:0:
192,192,366629,1,0,0:0:0:0:
320,192,366629,1,0,0:0:0:0:
320,192,366706,1,0,0:0:0:0:
64,192,366706,1,0,0:0:0:0:
320,192,366783,1,0,0:0:0:0:
192,192,366861,1,0,0:0:0:0:
64,192,366861,1,0,0:0:0:0:
448,192,366861,1,0,0:0:0:0:
192,192,366937,1,0,0:0:0:0:
448,192,367014,1,0,0:0:0:0:
320,192,367044,1,0,0:0:0:0:
192,192,367075,1,0,0:0:0:0:
64,192,367106,1,0,0:0:0:0:
320,192,367136,1,0,0:0:0:0:
448,192,367168,1,0,0:0:0:0:
64,192,367244,1,0,0:0:0:0:
192,192,367270,1,0,0:0:0:0:
320,192,367295,1,0,0:0:0:0:
448,192,367321,1,0,0:0:0:0:
192,192,367346,1,0,0:0:0:0:
320,192,367371,1,0,0:0:0:0:
64,192,367397,1,0,0:0:0:0:
448,192,367474,1,0,0:0:0:0:
192,192,367550,1,0,0:0:0:0:
448,192,367550,1,0,0:0:0:0:
64,192,367626,1,0,0:0:0:0:
320,192,367626,128,0,367701:0:0:0:0:
448,192,367663,128,0,367720:0:0:0:0:
192,192,367701,128,0,367853:0:0:0:0:
64,192,367739,128,0,367853:0:0:0:0:
320,192,367778,1,0,0:0:0:0:
448,192,367778,128,0,367929:0:0:0:0:
320,192,367853,128,0,368004:0:0:0:0:
64,192,367929,1,0,0:0:0:0:
192,192,367929,128,0,368080:0:0:0:0:
64,192,368004,128,0,368155:0:0:0:0:
448,192,368080,1,0,0:0:0:0:
320,192,368080,128,0,368231:0:0:0:0:
192,192,368155,128,0,368306:0:0:0:0:
64,192,368231,1,0,0:0:0:0:
448,192,368231,128,0,368457:0:0:0:0:
320,192,368306,1,0,0:0:0:0:
192,192,368382,1,0,0:0:0:0:
64,192,368382,128,0,368532:0:0:0:0:
320,192,368457,128,0,368606:0:0:0:0:
192,192,368532,128,0,368681:0:0:0:0:
448,192,368606,128,0,368755:0:0:0:0:
64,192,368681,128,0,368780:0:0:0:0:
320,192,368730,128,0,368780:0:0:0:0:
192,192,368780,1,0,0:0:0:0:
320,192,368830,1,0,0:0:0:0:
448,192,368830,1,0,0:0:0:0:
64,192,368830,1,0,0:0:0:0:
192,192,368867,1,0,0:0:0:0:
320,192,368904,1,0,0:0:0:0:
64,192,368941,1,0,0:0:0:0:
448,192,368979,1,0,0:0:0:0:
192,192,369016,1,0,0:0:0:0:
448,192,369053,1,0,0:0:0:0:
320,192,369090,1,0,0:0:0:0:
64,192,369128,1,0,0:0:0:0:
448,192,369165,1,0,0:0:0:0:
64,192,369202,1,0,0:0:0:0:
320,192,369239,1,0,0:0:0:0:
192,192,369276,1,0,0:0:0:0:
448,192,369349,1,0,0:0:0:0:
192,192,369424,1,0,0:0:0:0:
320,192,369460,1,0,0:0:0:0:
192,192,369497,1,0,0:0:0:0:
448,192,369534,1,0,0:0:0:0:
64,192,369571,1,0,0:0:0:0:
320,192,369607,1,0,0:0:0:0:
64,192,369644,1,0,0:0:0:0:
192,192,369681,1,0,0:0:0:0:
448,192,369718,1,0,0:0:0:0:
64,192,369754,1,0,0:0:0:0:
448,192,369791,1,0,0:0:0:0:
320,192,369828,1,0,0:0:0:0:
64,192,369865,1,0,0:0:0:0:
192,192,369865,1,0,0:0:0:0:
320,192,369938,1,0,0:0:0:0:
448,192,370011,1,0,0:0:0:0:
64,192,370047,1,0,0:0:0:0:
448,192,370083,1,0,0:0:0:0:
320,192,370120,1,0,0:0:0:0:
192,192,370157,1,0,0:0:0:0:
448,192,370193,1,0,0:0:0:0:
192,192,370229,1,0,0:0:0:0:
320,192,370266,1,0,0:0:0:0:
64,192,370303,1,0,0:0:0:0:
448,192,370339,1,0,0:0:0:0:
64,192,370375,1,0,0:0:0:0:
192,192,370411,1,0,0:0:0:0:
320,192,370448,1,0,0:0:0:0:
64,192,370484,1,0,0:0:0:0:
320,192,370520,1,0,0:0:0:0:
192,192,370556,1,0,0:0:0:0:
448,192,370593,1,0,0:0:0:0:
64,192,370617,1,0,0:0:0:0:
192,192,370641,1,0,0:0:0:0:
320,192,370665,1,0,0:0:0:0:
448,192,370738,1,0,0:0:0:0:
192,192,370810,1,0,0:0:0:0:
192,192,370882,1,0,0:0:0:0:
448,192,370905,1,0,0:0:0:0:
320,192,370929,1,0,0:0:0:0:
64,192,370953,1,0,0:0:0:0:
320,192,371026,1,0,0:0:0:0:
448,192,371026,1,0,0:0:0:0:
192,192,371097,1,0,0:0:0:0:
64,192,371169,1,0,0:0:0:0:
448,192,371169,1,0,0:0:0:0:
320,192,371240,1,0,0:0:0:0:
448,192,371313,1,0,0:0:0:0:
64,192,371313,1,0,0:0:0:0:
320,192,371384,1,0,0:0:0:0:
64,192,371455,1,0,0:0:0:0:
448,192,371455,1,0,0:0:0:0:
192,192,371526,1,0,0:0:0:0:
64,192,371598,1,0,0:0:0:0:
448,192,371598,1,0,0:0:0:0:
448,192,371669,1,0,0:0:0:0:
64,192,371669,1,0,0:0:0:0:
192,192,371740,1,0,0:0:0:0:
448,192,371740,1,0,0:0:0:0:
320,192,371810,1,0,0:0:0:0:
64,192,371882,1,0,0:0:0:0:
448,192,371917,1,0,0:0:0:0:
64,192,371952,1,0,0:0:0:0:
448,192,371988,1,0,0:0:0:0:
320,192,372023,1,0,0:0:0:0:
192,192,372023,1,0,0:0:0:0:
64,192,372093,1,0,0:0:0:0:
448,192,372165,1,0,0:0:0:0:
192,192,372235,1,0,0:0:0:0:
320,192,372306,1,0,0:0:0:0:
448,192,372306,1,0,0:0:0:0:
64,192,372329,1,0,0:0:0:0:
192,192,372376,1,0,0:0:0:0:
320,192,372446,1,0,0:0:0:0:
448,192,372446,1,0,0:0:0:0:
192,192,372516,1,0,0:0:0:0:
64,192,372516,1,0,0:0:0:0:
320,192,372539,1,0,0:0:0:0:
448,192,372586,1,0,0:0:0:0:
64,192,372655,1,0,0:0:0:0:
192,192,372655,1,0,0:0:0:0:
320,192,372726,1,0,0:0:0:0:
448,192,372726,1,0,0:0:0:0:
64,192,372749,1,0,0:0:0:0:
320,192,372795,1,0,0:0:0:0:
64,192,372866,1,0,0:0:0:0:
192,192,372866,1,0,0:0:0:0:
448,192,372889,1,0,0:0:0:0:
192,192,372935,1,0,0:0:0:0:
448,192,373005,1,0,0:0:0:0:
64,192,373028,1,0,0:0:0:0:
448,192,373074,1,0,0:0:0:0:
64,192,373144,1,0,0:0:0:0:
320,192,373167,1,0,0:0:0:0:
64,192,373213,1,0,0:0:0:0:
320,192,373282,1,0,0:0:0:0:
192,192,373305,1,0,0:0:0:0:
320,192,373351,1,0,0:0:0:0:
64,192,373421,1,0,0:0:0:0:
192,192,373421,1,0,0:0:0:0:
448,192,373421,1,0,0:0:0:0:
320,192,373489,1,0,0:0:0:0:
64,192,373558,1,0,0:0:0:0:
192,192,373558,1,0,0:0:0:0:
448,192,373604,1,0,0:0:0:0:
64,192,373650,1,0,0:0:0:0:
192,192,373696,1,0,0:0:0:0:
320,192,373696,1,0,0:0:0:0:
448,192,373765,1,0,0:0:0:0:
320,192,373834,1,0,0:0:0:0:
64,192,373834,1,0,0:0:0:0:
320,192,373903,1,0,0:0:0:0:
192,192,373903,1,0,0:0:0:0:
448,192,373972,1,0,0:0:0:0:
64,192,373972,1,0,0:0:0:0:
320,192,374041,1,0,0:0:0:0:
64,192,374110,1,0,0:0:0:0:
192,192,374110,1,0,0:0:0:0:
320,192,374179,1,0,0:0:0:0:
64,192,374179,1,0,0:0:0:0:
448,192,374248,1,0,0:0:0:0:
192,192,374248,1,0,0:0:0:0:
64,192,374317,1,0,0:0:0:0:
448,192,374386,1,0,0:0:0:0:
320,192,374386,1,0,0:0:0:0:
192,192,374455,1,0,0:0:0:0:
448,192,374455,1,0,0:0:0:0:
320,192,374524,1,0,0:0:0:0:
64,192,374524,1,0,0:0:0:0:
192,192,374593,1,0,0:0:0:0:
448,192,374662,1,0,0:0:0:0:
320,192,374662,1,0,0:0:0:0:
64,192,374708,1,0,0:0:0:0:
448,192,374754,1,0,0:0:0:0:
320,192,374800,1,0,0:0:0:0:
192,192,374800,1,0,0:0:0:0:
64,192,374869,1,0,0:0:0:0:
192,192,374938,1,0,0:0:0:0:
448,192,374938,1,0,0:0:0:0:
192,192,375007,1,0,0:0:0:0:
320,192,375007,1,0,0:0:0:0:
64,192,375076,1,0,0:0:0:0:
448,192,375076,1,0,0:0:0:0:
192,192,375145,1,0,0:0:0:0:
320,192,375179,1,0,0:0:0:0:
448,192,375214,1,0,0:0:0:0:
192,192,375283,1,0,0:0:0:0:
64,192,375306,1,0,0:0:0:0:
448,192,375329,1,0,0:0:0:0:
320,192,375352,1,0,0:0:0:0:
192,192,375421,1,0,0:0:0:0:
448,192,375489,1,0,0:0:0:0:
64,192,375512,1,0,0:0:0:0:
320,192,375558,1,0,0:0:0:0:
448,192,375593,1,0,0:0:0:0:
64,192,375627,1,0,0:0:0:0:
192,192,375627,1,0,0:0:0:0:
320,192,375696,1,0,0:0:0:0:
448,192,375765,1,0,0:0:0:0:
192,192,375765,1,0,0:0:0:0:
448,192,375834,1,0,0:0:0:0:
64,192,375834,1,0,0:0:0:0:
192,192,375903,1,0,0:0:0:0:
320,192,375903,1,0,0:0:0:0:
448,192,375972,1,0,0:0:0:0:
64,192,376041,1,0,0:0:0:0:
320,192,376041,1,0,0:0:0:0:
448,192,376110,1,0,0:0:0:0:
64,192,376110,1,0,0:0:0:0:
192,192,376179,1,0,0:0:0:0:
320,192,376219,1,0,0:0:0:0:
64,192,376258,1,0,0:0:0:0:
192,192,376297,1,0,0:0:0:0:
448,192,376337,1,0,0:0:0:0:
320,192,376376,1,0,0:0:0:0:
64,192,376416,1,0,0:0:0:0:
448,192,376455,1,0,0:0:0:0:
192,192,376489,1,0,0:0:0:0:
320,192,376524,1,0,0:0:0:0:
64,192,376558,1,0,0:0:0:0:
448,192,376593,1,0,0:0:0:0:
192,192,376627,1,0,0:0:0:0:
320,192,376662,1,0,0:0:0:0:
64,192,376696,1,0,0:0:0:0:
448,192,376731,1,0,0:0:0:0:
320,192,376754,1,0,0:0:0:0:
192,192,376777,1,0,0:0:0:0:
64,192,376800,1,0,0:0:0:0:
448,192,376869,1,0,0:0:0:0:
448,192,376938,1,0,0:0:0:0:
64,192,377007,1,0,0:0:0:0:
192,192,377030,1,0,0:0:0:0:
320,192,377053,1,0,0:0:0:0:
448,192,377076,1,0,0:0:0:0:
64,192,377145,1,0,0:0:0:0:
64,192,377214,1,0,0:0:0:0:
448,192,377283,1,0,0:0:0:0:
320,192,377283,1,0,0:0:0:0:
448,192,377352,1,0,0:0:0:0:
320,192,377352,1,0,0:0:0:0:
448,192,377420,1,0,0:0:0:0:
320,192,377420,1,0,0:0:0:0:
448,192,377489,1,0,0:0:0:0:
320,192,377489,1,0,0:0:0:0:
64,192,377558,1,0,0:0:0:0:
192,192,377593,1,0,0:0:0:0:
320,192,377627,1,0,0:0:0:0:
64,192,377662,1,0,0:0:0:0:
448,192,377696,1,0,0:0:0:0:
320,192,377731,1,0,0:0:0:0:
192,192,377765,1,0,0:0:0:0:
448,192,377834,1,0,0:0:0:0:
320,192,377834,1,0,0:0:0:0:
64,192,377834,1,0,0:0:0:0:
192,192,377972,1,0,0:0:0:0:
448,192,377972,1,0,0:0:0:0:
320,192,378041,1,0,0:0:0:0:
192,192,378041,1,0,0:0:0:0:
192,192,378110,1,0,0:0:0:0:
448,192,378110,1,0,0:0:0:0:
64,192,378248,1,0,0:0:0:0:
192,192,378248,1,0,0:0:0:0:
320,192,378248,1,0,0:0:0:0:
64,192,378386,1,0,0:0:0:0:
448,192,378386,1,0,0:0:0:0:
192,192,378455,1,0,0:0:0:0:
448,192,378455,1,0,0:0:0:0:
64,192,378524,1,0,0:0:0:0:
448,192,378524,1,0,0:0:0:0:
192,192,378662,1,0,0:0:0:0:
320,192,378662,1,0,0:0:0:0:
64,192,378662,1,0,0:0:0:0:
448,192,378731,1,0,0:0:0:0:
64,192,378731,1,0,0:0:0:0:
192,192,378800,1,0,0:0:0:0:
320,192,378800,1,0,0:0:0:0:
192,192,378869,1,0,0:0:0:0:
64,192,378938,1,0,0:0:0:0:
320,192,378938,1,0,0:0:0:0:
448,192,378938,1,0,0:0:0:0:
448,192,379006,1,0,0:0:0:0:
320,192,379006,1,0,0:0:0:0:
192,192,379074,1,0,0:0:0:0:
320,192,379142,1,0,0:0:0:0:
64,192,379142,1,0,0:0:0:0:
64,192,379210,1,0,0:0:0:0:
448,192,379256,1,0,0:0:0:0:
320,192,379301,1,0,0:0:0:0:
192,192,379347,1,0,0:0:0:0:
64,192,379347,1,0,0:0:0:0:
448,192,379392,1,0,0:0:0:0:
192,192,379415,1,0,0:0:0:0:
320,192,379438,1,0,0:0:0:0:
64,192,379483,1,0,0:0:0:0:
448,192,379551,1,0,0:0:0:0:
320,192,379551,1,0,0:0:0:0:
448,192,379619,1,0,0:0:0:0:
192,192,379688,1,0,0:0:0:0:
64,192,379688,1,0,0:0:0:0:
448,192,379756,1,0,0:0:0:0:
320,192,379756,1,0,0:0:0:0:
64,192,379801,1,0,0:0:0:0:
320,192,379824,1,0,0:0:0:0:
192,192,379847,1,0,0:0:0:0:
448,192,379892,1,0,0:0:0:0:
192,192,379960,1,0,0:0:0:0:
64,192,379960,1,0,0:0:0:0:
448,192,380028,1,0,0:0:0:0:
320,192,380028,1,0,0:0:0:0:
64,192,380063,1,0,0:0:0:0:
192,192,380097,1,0,0:0:0:0:
320,192,380131,1,0,0:0:0:0:
448,192,380165,1,0,0:0:0:0:
448,192,380233,1,0,0:0:0:0:
64,192,380233,1,0,0:0:0:0:
192,192,380301,1,0,0:0:0:0:
320,192,380301,1,0,0:0:0:0:
192,192,380438,1,0,0:0:0:0:
64,192,380438,1,0,0:0:0:0:
320,192,380472,1,0,0:0:0:0:
448,192,380506,1,0,0:0:0:0:
192,192,380540,1,0,0:0:0:0:
64,192,380574,1,0,0:0:0:0:
64,192,380642,1,0,0:0:0:0:
320,192,380642,1,0,0:0:0:0:
448,192,380710,1,0,0:0:0:0:
192,192,380710,1,0,0:0:0:0:
192,192,380847,1,0,0:0:0:0:
320,192,380847,1,0,0:0:0:0:
64,192,380881,1,0,0:0:0:0:
320,192,380915,1,0,0:0:0:0:
64,192,380983,1,0,0:0:0:0:
448,192,380983,1,0,0:0:0:0:
192,192,381017,1,0,0:0:0:0:
320,192,381051,1,0,0:0:0:0:
448,192,381119,1,0,0:0:0:0:
192,192,381119,1,0,0:0:0:0:
64,192,381119,1,0,0:0:0:0:
64,192,381188,1,0,0:0:0:0:
192,192,381188,1,0,0:0:0:0:
320,192,381256,1,0,0:0:0:0:
192,192,381324,1,0,0:0:0:0:
448,192,381324,1,0,0:0:0:0:
448,192,381392,1,0,0:0:0:0:
64,192,381438,1,0,0:0:0:0:
192,192,381483,1,0,0:0:0:0:
320,192,381528,1,0,0:0:0:0:
448,192,381528,1,0,0:0:0:0:
64,192,381574,1,0,0:0:0:0:
320,192,381597,1,0,0:0:0:0:
192,192,381619,1,0,0:0:0:0:
448,192,381665,1,0,0:0:0:0:
64,192,381733,1,0,0:0:0:0:
192,192,381733,1,0,0:0:0:0:
64,192,381801,1,0,0:0:0:0:
320,192,381869,1,0,0:0:0:0:
448,192,381869,1,0,0:0:0:0:
64,192,381938,1,0,0:0:0:0:
192,192,381938,1,0,0:0:0:0:
448,192,381983,1,0,0:0:0:0:
192,192,382006,1,0,0:0:0:0:
320,192,382028,1,0,0:0:0:0:
64,192,382074,1,0,0:0:0:0:
320,192,382142,1,0,0:0:0:0:
448,192,382142,1,0,0:0:0:0:
64,192,382210,1,0,0:0:0:0:
192,192,382210,1,0,0:0:0:0:
448,192,382244,1,0,0:0:0:0:
320,192,382278,1,0,0:0:0:0:
192,192,382313,1,0,0:0:0:0:
64,192,382347,1,0,0:0:0:0:
64,192,382415,1,0,0:0:0:0:
448,192,382415,1,0,0:0:0:0:
320,192,382483,1,0,0:0:0:0:
192,192,382483,1,0,0:0:0:0:
320,192,382619,1,0,0:0:0:0:
448,192,382619,1,0,0:0:0:0:
192,192,382653,1,0,0:0:0:0:
64,192,382688,1,0,0:0:0:0:
320,192,382722,1,0,0:0:0:0:
448,192,382756,1,0,0:0:0:0:
448,192,382824,1,0,0:0:0:0:
192,192,382824,1,0,0:0:0:0:
64,192,382892,1,0,0:0:0:0:
320,192,382892,1,0,0:0:0:0:
320,192,383028,1,0,0:0:0:0:
192,192,383028,1,0,0:0:0:0:
448,192,383063,1,0,0:0:0:0:
192,192,383097,1,0,0:0:0:0:
448,192,383165,1,0,0:0:0:0:
64,192,383165,1,0,0:0:0:0:
320,192,383199,1,0,0:0:0:0:
192,192,383233,1,0,0:0:0:0:
448,192,383301,1,0,0:0:0:0:
320,192,383301,1,0,0:0:0:0:
64,192,383301,1,0,0:0:0:0:
320,192,383369,1,0,0:0:0:0:
448,192,383369,1,0,0:0:0:0:
192,192,383438,1,0,0:0:0:0:
64,192,383506,1,0,0:0:0:0:
320,192,383506,1,0,0:0:0:0:
64,192,383574,1,0,0:0:0:0:
448,192,383619,1,0,0:0:0:0:
320,192,383665,1,0,0:0:0:0:
64,192,383710,1,0,0:0:0:0:
192,192,383710,1,0,0:0:0:0:
448,192,383756,1,0,0:0:0:0:
192,192,383778,1,0,0:0:0:0:
320,192,383801,1,0,0:0:0:0:
64,192,383847,1,0,0:0:0:0:
320,192,383915,1,0,0:0:0:0:
448,192,383915,1,0,0:0:0:0:
448,192,383983,1,0,0:0:0:0:
64,192,384051,1,0,0:0:0:0:
192,192,384051,1,0,0:0:0:0:
320,192,384119,1,0,0:0:0:0:
448,192,384119,1,0,0:0:0:0:
64,192,384165,1,0,0:0:0:0:
320,192,384188,1,0,0:0:0:0:
192,192,384210,1,0,0:0:0:0:
448,192,384256,1,0,0:0:0:0:
64,192,384324,1,0,0:0:0:0:
192,192,384324,1,0,0:0:0:0:
320,192,384392,1,0,0:0:0:0:
448,192,384392,1,0,0:0:0:0:
64,192,384426,1,0,0:0:0:0:
192,192,384460,1,0,0:0:0:0:
320,192,384494,1,0,0:0:0:0:
448,192,384528,1,0,0:0:0:0:
64,192,384597,1,0,0:0:0:0:
448,192,384597,1,0,0:0:0:0:
320,192,384665,1,0,0:0:0:0:
192,192,384665,1,0,0:0:0:0:
64,192,384801,1,0,0:0:0:0:
192,192,384801,1,0,0:0:0:0:
320,192,384835,1,0,0:0:0:0:
448,192,384869,1,0,0:0:0:0:
192,192,384903,1,0,0:0:0:0:
64,192,384938,1,0,0:0:0:0:
320,192,385006,1,0,0:0:0:0:
64,192,385006,1,0,0:0:0:0:
192,192,385074,1,0,0:0:0:0:
448,192,385074,1,0,0:0:0:0:
320,192,385210,1,0,0:0:0:0:
192,192,385210,1,0,0:0:0:0:
64,192,385244,1,0,0:0:0:0:
320,192,385278,1,0,0:0:0:0:
448,192,385347,1,0,0:0:0:0:
64,192,385347,1,0,0:0:0:0:
192,192,385381,1,0,0:0:0:0:
320,192,385415,1,0,0:0:0:0:
448,192,385483,128,0,385619:0:0:0:0:
192,192,385483,128,0,385551:0:0:0:0:
64,192,385483,128,0,385619:0:0:0:0:
320,192,385551,128,0,385619:0:0:0:0:
192,192,385619,1,0,0:0:0:0:
192,192,385688,128,0,385756:0:0:0:0:
320,192,385688,128,0,385756:0:0:0:0:
448,192,385756,1,0,0:0:0:0:
64,192,385824,1,0,0:0:0:0:
448,192,385892,128,0,386028:0:0:0:0:
192,192,385892,128,0,386028:0:0:0:0:
320,192,385892,128,0,385960:0:0:0:0:
64,192,385960,128,0,386028:0:0:0:0:
320,192,386028,1,0,0:0:0:0:
64,192,386097,128,0,386165:0:0:0:0:
320,192,386097,128,0,386165:0:0:0:0:
192,192,386165,1,0,0:0:0:0:
448,192,386233,1,0,0:0:0:0:
320,192,386301,128,0,386438:0:0:0:0:
64,192,386301,128,0,386369:0:0:0:0:
192,192,386301,128,0,386369:0:0:0:0:
448,192,386369,128,0,386438:0:0:0:0:
64,192,386438,1,0,0:0:0:0:
192,192,386438,1,0,0:0:0:0:
64,192,386506,128,0,386574:0:0:0:0:
448,192,386506,128,0,386574:0:0:0:0:
192,192,386574,1,0,0:0:0:0:
320,192,386574,1,0,0:0:0:0:
192,192,386642,1,0,0:0:0:0:
64,192,386710,128,0,386847:0:0:0:0:
448,192,386710,128,0,386778:0:0:0:0:
320,192,386710,128,0,386778:0:0:0:0:
192,192,386778,128,0,386847:0:0:0:0:
448,192,386847,1,0,0:0:0:0:
320,192,386847,1,0,0:0:0:0:
192,192,386915,128,0,386983:0:0:0:0:
448,192,386915,128,0,386983:0:0:0:0:
64,192,386983,1,0,0:0:0:0:
320,192,386983,1,0,0:0:0:0:
320,192,387051,1,0,0:0:0:0:
192,192,387051,1,0,0:0:0:0:
64,192,387119,128,0,387392:0:0:0:0:
448,192,387119,1,0,0:0:0:0:
448,192,387392,128,0,387665:0:0:0:0:
192,192,387392,1,0,0:0:0:0:
192,192,387528,1,0,0:0:0:0:
320,192,387665,128,0,387801:0:0:0:0:
192,192,387665,128,0,387733:0:0:0:0:
64,192,387665,128,0,387733:0:0:0:0:
448,192,387733,1,0,0:0:0:0:
192,192,387801,1,0,0:0:0:0:
64,192,387801,1,0,0:0:0:0:
320,192,387869,128,0,387938:0:0:0:0:
64,192,387869,128,0,388006:0:0:0:0:
448,192,387869,1,0,0:0:0:0:
448,192,387938,1,0,0:0:0:0:
192,192,387938,1,0,0:0:0:0:
320,192,388006,1,0,0:0:0:0:
448,192,388074,128,0,388210:0:0:0:0:
64,192,388074,128,0,388142:0:0:0:0:
192,192,388074,128,0,388142:0:0:0:0:
320,192,388142,1,0,0:0:0:0:
192,192,388210,1,0,0:0:0:0:
64,192,388210,1,0,0:0:0:0:
448,192,388278,128,0,388347:0:0:0:0:
192,192,388278,128,0,388415:0:0:0:0:
320,192,388278,1,0,0:0:0:0:
64,192,388347,1,0,0:0:0:0:
320,192,388347,1,0,0:0:0:0:
448,192,388415,1,0,0:0:0:0:
64,192,388483,128,0,388551:0:0:0:0:
320,192,388483,128,0,388551:0:0:0:0:
192,192,388483,1,0,0:0:0:0:
192,192,388551,1,0,0:0:0:0:
448,192,388619,128,0,388688:0:0:0:0:
320,192,388619,128,0,388688:0:0:0:0:
64,192,388619,1,0,0:0:0:0:
64,192,388688,1,0,0:0:0:0:
448,192,388756,128,0,388824:0:0:0:0:
320,192,388756,128,0,388824:0:0:0:0:
192,192,388756,128,0,388892:0:0:0:0:
64,192,388824,1,0,0:0:0:0:
320,192,388892,1,0,0:0:0:0:
448,192,388892,1,0,0:0:0:0:
448,192,388960,128,0,389097:0:0:0:0:
192,192,388960,128,0,389028:0:0:0:0:
64,192,388960,1,0,0:0:0:0:
64,192,389028,1,0,0:0:0:0:
320,192,389028,1,0,0:0:0:0:
192,192,389097,1,0,0:0:0:0:
192,192,389165,1,0,0:0:0:0:
320,192,389165,128,0,389233:0:0:0:0:
448,192,389165,128,0,389233:0:0:0:0:
64,192,389233,1,0,0:0:0:0:
320,192,389301,1,0,0:0:0:0:
448,192,389301,1,0,0:0:0:0:
448,192,389369,128,0,389438:0:0:0:0:
64,192,389369,128,0,389438:0:0:0:0:
192,192,389369,128,0,389438:0:0:0:0:
320,192,389438,1,0,0:0:0:0:
64,192,389506,1,0,0:0:0:0:
448,192,389574,128,0,389642:0:0:0:0:
192,192,389574,128,0,389642:0:0:0:0:
320,192,389574,1,0,0:0:0:0:
320,192,389642,1,0,0:0:0:0:
64,192,389710,128,0,389778:0:0:0:0:
192,192,389710,128,0,389778:0:0:0:0:
448,192,389710,1,0,0:0:0:0:
448,192,389778,1,0,0:0:0:0:
320,192,389847,128,0,389983:0:0:0:0:
192,192,389847,128,0,389915:0:0:0:0:
64,192,389847,128,0,389915:0:0:0:0:
448,192,389915,1,0,0:0:0:0:
192,192,389983,1,0,0:0:0:0:
64,192,389983,1,0,0:0:0:0:
320,192,390051,128,0,390119:0:0:0:0:
64,192,390051,128,0,390188:0:0:0:0:
448,192,390051,1,0,0:0:0:0:
448,192,390119,1,0,0:0:0:0:
192,192,390119,1,0,0:0:0:0:
320,192,390188,1,0,0:0:0:0:
448,192,390256,128,0,390392:0:0:0:0:
64,192,390256,128,0,390324:0:0:0:0:
192,192,390256,128,0,390324:0:0:0:0:
320,192,390324,1,0,0:0:0:0:
192,192,390392,1,0,0:0:0:0:
64,192,390392,1,0,0:0:0:0:
448,192,390460,128,0,390528:0:0:0:0:
192,192,390460,128,0,390597:0:0:0:0:
320,192,390460,1,0,0:0:0:0:
64,192,390528,1,0,0:0:0:0:
320,192,390528,1,0,0:0:0:0:
448,192,390597,1,0,0:0:0:0:
64,192,390665,128,0,390733:0:0:0:0:
320,192,390665,128,0,390733:0:0:0:0:
192,192,390665,1,0,0:0:0:0:
192,192,390733,1,0,0:0:0:0:
448,192,390801,128,0,390869:0:0:0:0:
320,192,390801,128,0,390869:0:0:0:0:
64,192,390801,1,0,0:0:0:0:
64,192,390869,1,0,0:0:0:0:
448,192,390937,128,0,391006:0:0:0:0:
320,192,390937,128,0,391006:0:0:0:0:
192,192,390937,128,0,391074:0:0:0:0:
64,192,391006,1,0,0:0:0:0:
320,192,391074,1,0,0:0:0:0:
448,192,391074,1,0,0:0:0:0:
448,192,391142,128,0,391278:0:0:0:0:
192,192,391142,128,0,391210:0:0:0:0:
64,192,391142,1,0,0:0:0:0:
64,192,391210,1,0,0:0:0:0:
320,192,391210,1,0,0:0:0:0:
192,192,391278,1,0,0:0:0:0:
192,192,391347,1,0,0:0:0:0:
320,192,391347,128,0,391415:0:0:0:0:
448,192,391347,128,0,391415:0:0:0:0:
64,192,391415,1,0,0:0:0:0:
320,192,391483,1,0,0:0:0:0:
448,192,391483,1,0,0:0:0:0:
448,192,391551,128,0,391619:0:0:0:0:
64,192,391551,128,0,391619:0:0:0:0:
192,192,391551,128,0,391619:0:0:0:0:
320,192,391619,1,0,0:0:0:0:
64,192,391687,1,0,0:0:0:0:
448,192,391756,128,0,391824:0:0:0:0:
192,192,391756,128,0,391824:0:0:0:0:
320,192,391756,1,0,0:0:0:0:
320,192,391824,1,0,0:0:0:0:
448,192,391892,128,0,391960:0:0:0:0:
192,192,391892,1,0,0:0:0:0:
64,192,391892,128,0,391960:0:0:0:0:
192,192,391960,1,0,0:0:0:0:
64,192,392028,128,0,392165:0:0:0:0:
320,192,392028,128,0,392097:0:0:0:0:
448,192,392028,128,0,392097:0:0:0:0:
192,192,392097,1,0,0:0:0:0:
448,192,392165,1,0,0:0:0:0:
320,192,392165,1,0,0:0:0:0:
64,192,392233,128,0,392301:0:0:0:0:
320,192,392233,128,0,392369:0:0:0:0:
192,192,392233,1,0,0:0:0:0:
192,192,392301,1,0,0:0:0:0:
448,192,392301,1,0,0:0:0:0:
64,192,392369,1,0,0:0:0:0:
448,192,392437,128,0,392506:0:0:0:0:
320,192,392437,128,0,392506:0:0:0:0:
192,192,392437,128,0,392574:0:0:0:0:
64,192,392506,1,0,0:0:0:0:
448,192,392574,1,0,0:0:0:0:
320,192,392574,1,0,0:0:0:0:
448,192,392642,128,0,392778:0:0:0:0:
192,192,392642,128,0,392710:0:0:0:0:
64,192,392642,1,0,0:0:0:0:
64,192,392710,1,0,0:0:0:0:
320,192,392710,1,0,0:0:0:0:
192,192,392778,1,0,0:0:0:0:
64,192,392847,128,0,392915:0:0:0:0:
320,192,392847,128,0,392915:0:0:0:0:
448,192,392847,1,0,0:0:0:0:
448,192,392915,1,0,0:0:0:0:
192,192,392983,128,0,393051:0:0:0:0:
64,192,392983,128,0,393051:0:0:0:0:
320,192,392983,1,0,0:0:0:0:
320,192,393051,1,0,0:0:0:0:
448,192,393119,128,0,393256:0:0:0:0:
192,192,393119,128,0,393187:0:0:0:0:
64,192,393119,128,0,393187:0:0:0:0:
320,192,393187,1,0,0:0:0:0:
64,192,393256,1,0,0:0:0:0:
192,192,393256,1,0,0:0:0:0:
448,192,393324,128,0,393392:0:0:0:0:
192,192,393324,128,0,393460:0:0:0:0:
320,192,393324,1,0,0:0:0:0:
320,192,393392,1,0,0:0:0:0:
64,192,393392,1,0,0:0:0:0:
448,192,393460,1,0,0:0:0:0:
448,192,393528,1,0,0:0:0:0:
64,192,393528,128,0,393597:0:0:0:0:
192,192,393528,128,0,393597:0:0:0:0:
320,192,393597,1,0,0:0:0:0:
64,192,393665,1,0,0:0:0:0:
192,192,393665,1,0,0:0:0:0:
192,192,393733,128,0,393801:0:0:0:0:
320,192,393733,128,0,393801:0:0:0:0:
448,192,393733,128,0,393801:0:0:0:0:
64,192,393801,1,0,0:0:0:0:
320,192,393869,1,0,0:0:0:0:
448,192,393937,128,0,394006:0:0:0:0:
192,192,393937,128,0,394006:0:0:0:0:
64,192,393937,1,0,0:0:0:0:
64,192,394006,1,0,0:0:0:0:
320,192,394074,128,0,394142:0:0:0:0:
448,192,394074,128,0,394142:0:0:0:0:
192,192,394074,1,0,0:0:0:0:
192,192,394142,1,0,0:0:0:0:
64,192,394210,128,0,394347:0:0:0:0:
320,192,394210,128,0,394278:0:0:0:0:
448,192,394210,128,0,394278:0:0:0:0:
192,192,394278,1,0,0:0:0:0:
448,192,394347,1,0,0:0:0:0:
320,192,394347,1,0,0:0:0:0:
64,192,394415,128,0,394483:0:0:0:0:
320,192,394415,128,0,394551:0:0:0:0:
192,192,394415,1,0,0:0:0:0:
192,192,394483,1,0,0:0:0:0:
448,192,394483,1,0,0:0:0:0:
64,192,394551,1,0,0:0:0:0:
448,192,394619,128,0,394687:0:0:0:0:
320,192,394619,128,0,394687:0:0:0:0:
192,192,394619,128,0,394756:0:0:0:0:
64,192,394687,1,0,0:0:0:0:
448,192,394756,1,0,0:0:0:0:
320,192,394756,1,0,0:0:0:0:
448,192,394824,128,0,394960:0:0:0:0:
192,192,394824,128,0,394892:0:0:0:0:
64,192,394824,1,0,0:0:0:0:
64,192,394892,1,0,0:0:0:0:
320,192,394892,1,0,0:0:0:0:
192,192,394960,1,0,0:0:0:0:
64,192,395028,128,0,395097:0:0:0:0:
320,192,395028,128,0,395097:0:0:0:0:
448,192,395028,1,0,0:0:0:0:
448,192,395097,1,0,0:0:0:0:
192,192,395165,128,0,395233:0:0:0:0:
64,192,395165,128,0,395233:0:0:0:0:
320,192,395165,1,0,0:0:0:0:
320,192,395233,1,0,0:0:0:0:
448,192,395301,1,0,0:0:0:0:
64,192,395301,1,0,0:0:0:0:
192,192,395301,1,0,0:0:0:0:
320,192,395347,1,0,0:0:0:0:
64,192,395392,1,0,0:0:0:0:
320,192,395437,1,0,0:0:0:0:
192,192,395437,1,0,0:0:0:0:
448,192,395483,1,0,0:0:0:0:
192,192,395528,1,0,0:0:0:0:
320,192,395574,1,0,0:0:0:0:
448,192,395574,1,0,0:0:0:0:
64,192,395619,1,0,0:0:0:0:
320,192,395665,1,0,0:0:0:0:
448,192,395710,1,0,0:0:0:0:
64,192,395710,1,0,0:0:0:0:
192,192,395756,1,0,0:0:0:0:
448,192,395801,1,0,0:0:0:0:
192,192,395847,1,0,0:0:0:0:
64,192,395847,1,0,0:0:0:0:
320,192,395881,1,0,0:0:0:0:
448,192,395915,1,0,0:0:0:0:
64,192,395949,1,0,0:0:0:0:
320,192,395983,1,0,0:0:0:0:
192,192,396017,1,0,0:0:0:0:
64,192,396051,1,0,0:0:0:0:
448,192,396085,1,0,0:0:0:0:
320,192,396119,1,0,0:0:0:0:
192,192,396153,1,0,0:0:0:0:
448,192,396187,1,0,0:0:0:0:
64,192,396222,1,0,0:0:0:0:
320,192,396256,1,0,0:0:0:0:
448,192,396290,1,0,0:0:0:0:
192,192,396324,1,0,0:0:0:0:
64,192,396358,1,0,0:0:0:0:
448,192,396392,128,0,396528:0:0:0:0:
320,192,396392,128,0,396528:0:0:0:0:
192,192,396528,1,0,0:0:0:0:
64,192,396597,128,0,396733:0:0:0:0:
448,192,396597,128,0,396733:0:0:0:0:
192,192,396597,128,0,396733:0:0:0:0:
320,192,396665,1,0,0:0:0:0:
64,192,396801,128,0,396937:0:0:0:0:
448,192,396801,128,0,396937:0:0:0:0:
320,192,396801,128,0,396937:0:0:0:0:
192,192,396937,1,0,0:0:0:0:
192,192,397074,1,0,0:0:0:0:
448,192,397074,1,0,0:0:0:0:
64,192,397074,1,0,0:0:0:0:
448,192,397142,128,0,397210:0:0:0:0:
192,192,397142,128,0,397210:0:0:0:0:
64,192,397142,128,0,397210:0:0:0:0:
320,192,397210,1,0,0:0:0:0:
192,192,397278,1,0,0:0:0:0:
448,192,397278,1,0,0:0:0:0:
64,192,397278,1,0,0:0:0:0:
448,192,397347,128,0,397415:0:0:0:0:
192,192,397347,128,0,397415:0:0:0:0:
64,192,397347,128,0,397415:0:0:0:0:
192,192,397483,1,0,0:0:0:0:
64,192,397483,1,0,0:0:0:0:
448,192,397483,1,0,0:0:0:0:
320,192,397551,1,0,0:0:0:0:
448,192,397551,1,0,0:0:0:0:
192,192,397619,1,0,0:0:0:0:
320,192,397619,1,0,0:0:0:0:
192,192,397687,1,0,0:0:0:0:
64,192,397687,1,0,0:0:0:0:
448,192,397756,128,0,397824:0:0:0:0:
320,192,397756,128,0,397824:0:0:0:0:
64,192,397756,128,0,397824:0:0:0:0:
448,192,397892,1,0,0:0:0:0:
192,192,397960,1,0,0:0:0:0:
320,192,397960,1,0,0:0:0:0:
64,192,397960,1,0,0:0:0:0:
448,192,398028,1,0,0:0:0:0:
192,192,398028,1,0,0:0:0:0:
64,192,398028,1,0,0:0:0:0:
320,192,398097,128,0,398165:0:0:0:0:
192,192,398097,128,0,398165:0:0:0:0:
64,192,398097,128,0,398165:0:0:0:0:
448,192,398233,1,0,0:0:0:0:
320,192,398233,1,0,0:0:0:0:
64,192,398233,1,0,0:0:0:0:
64,192,398301,1,0,0:0:0:0:
192,192,398301,1,0,0:0:0:0:
448,192,398369,1,0,0:0:0:0:
320,192,398369,1,0,0:0:0:0:
448,192,398437,128,0,398506:0:0:0:0:
192,192,398437,128,0,398506:0:0:0:0:
64,192,398437,128,0,398506:0:0:0:0:
64,192,398574,1,0,0:0:0:0:
192,192,398642,1,0,0:0:0:0:
320,192,398642,1,0,0:0:0:0:
448,192,398642,1,0,0:0:0:0:
64,192,398710,1,0,0:0:0:0:
448,192,398710,1,0,0:0:0:0:
320,192,398710,1,0,0:0:0:0:
448,192,398778,128,0,398847:0:0:0:0:
320,192,398778,128,0,398847:0:0:0:0:
192,192,398778,128,0,398847:0:0:0:0:
192,192,398915,1,0,0:0:0:0:
448,192,398915,1,0,0:0:0:0:
64,192,398915,1,0,0:0:0:0:
448,192,398983,1,0,0:0:0:0:
320,192,398983,1,0,0:0:0:0:
64,192,399051,1,0,0:0:0:0:
192,192,399051,1,0,0:0:0:0:
448,192,399119,1,0,0:0:0:0:
320,192,399119,1,0,0:0:0:0:
64,192,399119,1,0,0:0:0:0:
192,192,399187,1,0,0:0:0:0:
448,192,399256,1,0,0:0:0:0:
320,192,399256,1,0,0:0:0:0:
320,192,399324,1,0,0:0:0:0:
64,192,399324,1,0,0:0:0:0:
448,192,399392,1,0,0:0:0:0:
192,192,399392,1,0,0:0:0:0:
64,192,399392,1,0,0:0:0:0:
320,192,399460,1,0,0:0:0:0:
192,192,399528,1,0,0:0:0:0:
64,192,399528,1,0,0:0:0:0:
448,192,399597,1,0,0:0:0:0:
192,192,399597,1,0,0:0:0:0:
448,192,399665,1,0,0:0:0:0:
320,192,399665,1,0,0:0:0:0:
64,192,399665,1,0,0:0:0:0:
448,192,399756,1,0,0:0:0:0:
320,192,399756,1,0,0:0:0:0:
192,192,399756,1,0,0:0:0:0:
448,192,399847,1,0,0:0:0:0:
320,192,399847,1,0,0:0:0:0:
64,192,399847,1,0,0:0:0:0:
448,192,399937,1,0,0:0:0:0:
192,192,399937,1,0,0:0:0:0:
64,192,399937,1,0,0:0:0:0:
320,192,400028,1,0,0:0:0:0:
192,192,400028,1,0,0:0:0:0:
64,192,400028,1,0,0:0:0:0:
448,192,400119,1,0,0:0:0:0:
192,192,400119,1,0,0:0:0:0:
64,192,400119,1,0,0:0:0:0:
448,192,400210,128,0,400319:0:0:0:0:
320,192,400210,128,0,400428:0:0:0:0:
64,192,400265,128,0,400374:0:0:0:0:
192,192,400319,128,0,400701:0:0:0:0:
448,192,400374,128,0,400483:0:0:0:0:
64,192,400428,128,0,400592:0:0:0:0:
320,192,400483,128,0,400537:0:0:0:0:
448,192,400537,128,0,400647:0:0:0:0:
320,192,400592,128,0,400810:0:0:0:0:
64,192,400647,128,0,400756:0:0:0:0:
448,192,400701,128,0,400919:0:0:0:0:
192,192,400756,128,0,400865:0:0:0:0:
64,192,400810,128,0,401028:0:0:0:0:
320,192,400865,128,0,400974:0:0:0:0:
192,192,400919,128,0,401137:0:0:0:0:
448,192,400974,128,0,401083:0:0:0:0:
320,192,401028,128,0,401410:0:0:0:0:
64,192,401083,128,0,401192:0:0:0:0:
448,192,401137,128,0,401301:0:0:0:0:
192,192,401192,128,0,401247:0:0:0:0:
64,192,401247,128,0,401356:0:0:0:0:
192,192,401301,128,0,401519:0:0:0:0:
448,192,401356,128,0,401465:0:0:0:0:
64,192,401410,128,0,401628:0:0:0:0:
320,192,401465,128,0,401574:0:0:0:0:
448,192,401519,128,0,401792:0:0:0:0:
192,192,401574,128,0,401683:0:0:0:0:
320,192,401628,128,0,401737:0:0:0:0:
64,192,401683,128,0,401937:0:0:0:0:
192,192,401737,128,0,401892:0:0:0:0:
320,192,401792,128,0,401847:0:0:0:0:
448,192,401847,128,0,401983:0:0:0:0:
320,192,401892,128,0,402028:0:0:0:0:
192,192,401937,128,0,402074:0:0:0:0:
64,192,401983,128,0,402165:0:0:0:0:
448,192,402028,128,0,402119:0:0:0:0:
320,192,402074,128,0,402210:0:0:0:0:
192,192,402119,128,0,402256:0:0:0:0:
448,192,402165,128,0,402301:0:0:0:0:
64,192,402210,128,0,402347:0:0:0:0:
320,192,402256,128,0,402392:0:0:0:0:
192,192,402301,128,0,402369:0:0:0:0:
448,192,402347,128,0,402415:0:0:0:0:
64,192,402392,1,0,0:0:0:0:
192,192,402415,1,0,0:0:0:0:
320,192,402437,1,0,0:0:0:0:
448,192,402460,1,0,0:0:0:0:
192,192,404028,1,0,0:0:0:0:
64,192,404028,1,0,0:0:0:0:
320,192,404074,1,0,0:0:0:0:
448,192,404074,1,0,0:0:0:0:
64,192,404119,1,0,0:0:0:0:
192,192,404165,1,0,0:0:0:0:
320,192,404165,1,0,0:0:0:0:
448,192,404210,1,0,0:0:0:0:
192,192,404256,1,0,0:0:0:0:
448,192,404301,1,0,0:0:0:0:
64,192,404301,1,0,0:0:0:0:
320,192,404347,1,0,0:0:0:0:
192,192,404392,1,0,0:0:0:0:
320,192,404437,1,0,0:0:0:0:
64,192,404437,1,0,0:0:0:0:
448,192,404483,1,0,0:0:0:0:
64,192,404528,1,0,0:0:0:0:
192,192,404574,5,0,0:0:0:0:
448,192,404574,1,0,0:0:0:0:
320,192,404574,1,0,0:0:0:0:
64,192,404710,1,0,0:0:0:0:
448,192,404733,1,0,0:0:0:0:
320,192,404814,1,0,0:0:0:0:
64,192,404837,1,0,0:0:0:0:
192,192,404921,1,0,0:0:0:0:
320,192,404945,1,0,0:0:0:0:
64,192,404992,1,0,0:0:0:0:
448,192,405029,1,0,0:0:0:0:
192,192,405066,1,0,0:0:0:0:
320,192,405102,1,0,0:0:0:0:
448,192,405139,1,0,0:0:0:0:
192,192,405139,1,0,0:0:0:0:
64,192,405139,1,0,0:0:0:0:
320,192,405251,1,0,0:0:0:0:
64,192,405276,1,0,0:0:0:0:
192,192,405365,1,0,0:0:0:0:
320,192,405391,1,0,0:0:0:0:
64,192,405443,1,0,0:0:0:0:
448,192,405482,1,0,0:0:0:0:
192,192,405508,1,0,0:0:0:0:
64,192,405601,1,0,0:0:0:0:
448,192,405628,1,0,0:0:0:0:
320,192,405682,1,0,0:0:0:0:
192,192,405722,1,0,0:0:0:0:
448,192,405763,1,0,0:0:0:0:
320,192,405763,1,0,0:0:0:0:
64,192,405763,1,0,0:0:0:0:
192,192,405846,1,0,0:0:0:0:
448,192,405874,1,0,0:0:0:0:
320,192,405972,1,0,0:0:0:0:
192,192,406001,1,0,0:0:0:0:
64,192,406101,1,0,0:0:0:0:
320,192,406130,1,0,0:0:0:0:
448,192,406233,1,0,0:0:0:0:
64,192,406262,1,0,0:0:0:0:
192,192,406368,1,0,0:0:0:0:
448,192,406414,1,0,0:0:0:0:
320,192,406460,1,0,0:0:0:0:
192,192,406460,1,0,0:0:0:0:
64,192,406460,1,0,0:0:0:0:
448,192,406506,1,0,0:0:0:0:
64,192,406538,1,0,0:0:0:0:
192,192,406647,1,0,0:0:0:0:
448,192,406679,1,0,0:0:0:0:
320,192,406792,1,0,0:0:0:0:
192,192,406824,1,0,0:0:0:0:
64,192,406941,1,0,0:0:0:0:
320,192,406974,1,0,0:0:0:0:
192,192,407041,1,0,0:0:0:0:
448,192,407091,1,0,0:0:0:0:
64,192,407142,1,0,0:0:0:0:
320,192,407193,1,0,0:0:0:0:
192,192,407244,1,0,0:0:0:0:
64,192,407244,1,0,0:0:0:0:
448,192,407278,1,0,0:0:0:0:
320,192,407312,1,0,0:0:0:0:
192,192,407399,1,0,0:0:0:0:
64,192,407433,1,0,0:0:0:0:
448,192,407451,1,0,0:0:0:0:
192,192,407503,1,0,0:0:0:0:
448,192,407556,1,0,0:0:0:0:
320,192,407556,1,0,0:0:0:0:
64,192,407591,1,0,0:0:0:0:
192,192,407626,1,0,0:0:0:0:
448,192,407714,1,0,0:0:0:0:
320,192,407750,1,0,0:0:0:0:
64,192,407768,1,0,0:0:0:0:
448,192,407821,1,0,0:0:0:0:
192,192,407876,1,0,0:0:0:0:
64,192,407876,1,0,0:0:0:0:
320,192,407912,1,0,0:0:0:0:
448,192,407948,1,0,0:0:0:0:
64,192,408039,1,0,0:0:0:0:
192,192,408076,1,0,0:0:0:0:
320,192,408094,1,0,0:0:0:0:
64,192,408149,1,0,0:0:0:0:
320,192,408205,1,0,0:0:0:0:
448,192,408205,1,0,0:0:0:0:
192,192,408242,1,0,0:0:0:0:
64,192,408279,1,0,0:0:0:0:
320,192,408372,1,0,0:0:0:0:
448,192,408410,1,0,0:0:0:0:
192,192,408429,1,0,0:0:0:0:
320,192,408485,1,0,0:0:0:0:
192,192,408542,1,0,0:0:0:0:
64,192,408542,1,0,0:0:0:0:
448,192,408580,1,0,0:0:0:0:
320,192,408618,1,0,0:0:0:0:
192,192,408715,1,0,0:0:0:0:
64,192,408753,1,0,0:0:0:0:
448,192,408773,1,0,0:0:0:0:
192,192,408831,1,0,0:0:0:0:
320,192,408890,1,0,0:0:0:0:
448,192,408890,1,0,0:0:0:0:
64,192,408929,1,0,0:0:0:0:
192,192,408969,1,0,0:0:0:0:
448,192,409069,1,0,0:0:0:0:
320,192,409109,1,0,0:0:0:0:
64,192,409129,1,0,0:0:0:0:
448,192,409189,1,0,0:0:0:0:
192,192,409249,1,0,0:0:0:0:
64,192,409249,1,0,0:0:0:0:
320,192,409289,1,0,0:0:0:0:
448,192,409330,1,0,0:0:0:0:
64,192,409432,1,0,0:0:0:0:
192,192,409473,1,0,0:0:0:0:
320,192,409493,1,0,0:0:0:0:
64,192,409555,1,0,0:0:0:0:
448,192,409618,1,0,0:0:0:0:
320,192,409618,1,0,0:0:0:0:
192,192,409659,1,0,0:0:0:0:
64,192,409701,1,0,0:0:0:0:
320,192,409806,1,0,0:0:0:0:
448,192,409849,1,0,0:0:0:0:
192,192,409870,1,0,0:0:0:0:
320,192,409934,1,0,0:0:0:0:
448,192,409999,1,0,0:0:0:0:
192,192,409999,1,0,0:0:0:0:
64,192,409999,1,0,0:0:0:0:
320,192,410064,1,0,0:0:0:0:
64,192,410107,1,0,0:0:0:0:
448,192,410151,1,0,0:0:0:0:
192,192,410194,1,0,0:0:0:0:
448,192,410260,1,0,0:0:0:0:
320,192,410260,1,0,0:0:0:0:
64,192,410260,1,0,0:0:0:0:
192,192,410326,1,0,0:0:0:0:
320,192,410371,1,0,0:0:0:0:
64,192,410415,1,0,0:0:0:0:
448,192,410460,1,0,0:0:0:0:
320,192,410526,1,0,0:0:0:0:
192,192,410526,1,0,0:0:0:0:
64,192,410526,1,0,0:0:0:0:
448,192,410594,1,0,0:0:0:0:
192,192,410639,1,0,0:0:0:0:
320,192,410685,1,0,0:0:0:0:
64,192,410730,1,0,0:0:0:0:
448,192,410799,1,0,0:0:0:0:
320,192,410799,1,0,0:0:0:0:
192,192,410799,1,0,0:0:0:0:
64,192,410868,1,0,0:0:0:0:
448,192,410915,1,0,0:0:0:0:
192,192,410961,1,0,0:0:0:0:
320,192,411008,1,0,0:0:0:0:
448,192,411078,1,0,0:0:0:0:
192,192,411078,1,0,0:0:0:0:
64,192,411078,1,0,0:0:0:0:
448,192,411149,1,0,0:0:0:0:
320,192,411220,1,0,0:0:0:0:
192,192,411220,1,0,0:0:0:0:
192,192,411292,1,0,0:0:0:0:
448,192,411364,1,0,0:0:0:0:
320,192,411364,1,0,0:0:0:0:
64,192,411364,1,0,0:0:0:0:
64,192,411437,1,0,0:0:0:0:
448,192,411510,1,0,0:0:0:0:
192,192,411510,1,0,0:0:0:0:
448,192,411583,1,0,0:0:0:0:
320,192,411656,1,0,0:0:0:0:
64,192,411656,1,0,0:0:0:0:
320,192,411731,1,0,0:0:0:0:
192,192,411731,1,0,0:0:0:0:
448,192,411806,1,0,0:0:0:0:
192,192,411806,1,0,0:0:0:0:
64,192,411881,1,0,0:0:0:0:
448,192,411881,1,0,0:0:0:0:
320,192,411956,1,0,0:0:0:0:
192,192,411956,1,0,0:0:0:0:
64,192,411994,1,0,0:0:0:0:
320,192,412032,1,0,0:0:0:0:
192,192,412071,1,0,0:0:0:0:
448,192,412109,1,0,0:0:0:0:
192,192,412148,1,0,0:0:0:0:
320,192,412186,1,0,0:0:0:0:
448,192,412225,1,0,0:0:0:0:
192,192,412264,1,0,0:0:0:0:
64,192,412264,1,0,0:0:0:0:
320,192,412421,1,0,0:0:0:0:
448,192,412579,1,0,0:0:0:0:
64,192,412737,1,0,0:0:0:0:
320,192,412737,1,0,0:0:0:0:
192,192,412895,1,0,0:0:0:0:
64,192,413053,1,0,0:0:0:0:
320,192,413211,1,0,0:0:0:0:
448,192,413211,1,0,0:0:0:0:
192,192,413369,1,0,0:0:0:0:
64,192,413527,1,0,0:0:0:0:
448,192,413685,1,0,0:0:0:0:
192,192,413685,1,0,0:0:0:0:
320,192,413842,1,0,0:0:0:0:
64,192,414000,1,0,0:0:0:0:
320,192,414158,1,0,0:0:0:0:
192,192,414158,1,0,0:0:0:0:
448,192,414316,1,0,0:0:0:0:
64,192,414474,1,0,0:0:0:0:
320,192,414474,1,0,0:0:0:0:
448,192,414632,1,0,0:0:0:0:
192,192,414790,1,0,0:0:0:0:
64,192,414790,1,0,0:0:0:0:
320,192,414948,1,0,0:0:0:0:
448,192,415106,1,0,0:0:0:0:
64,192,415264,1,0,0:0:0:0:
320,192,415264,1,0,0:0:0:0:
192,192,415421,1,0,0:0:0:0:
448,192,415461,1,0,0:0:0:0:
320,192,415500,1,0,0:0:0:0:
192,192,415540,1,0,0:0:0:0:
64,192,415579,1,0,0:0:0:0:
448,192,415619,1,0,0:0:0:0:
192,192,415658,1,0,0:0:0:0:
320,192,415698,1,0,0:0:0:0:
448,192,415737,1,0,0:0:0:0:
64,192,415737,1,0,0:0:0:0:
192,192,415790,1,0,0:0:0:0:
320,192,415842,1,0,0:0:0:0:
448,192,415842,1,0,0:0:0:0:
192,192,415895,1,0,0:0:0:0:
320,192,415948,1,0,0:0:0:0:
448,192,415948,1,0,0:0:0:0:
192,192,416000,1,0,0:0:0:0:
64,192,416053,1,0,0:0:0:0:
320,192,416053,1,0,0:0:0:0:
448,192,416106,1,0,0:0:0:0:
64,192,416158,5,0,0:0:0:0:
192,192,416211,1,0,0:0:0:0:
320,192,416211,1,0,0:0:0:0:
320,192,416290,1,0,0:0:0:0:
192,192,416369,1,0,0:0:0:0:
448,192,416369,1,0,0:0:0:0:
64,192,416408,1,0,0:0:0:0:
320,192,416448,1,0,0:0:0:0:
448,192,416487,1,0,0:0:0:0:
64,192,416527,1,0,0:0:0:0:
192,192,416527,1,0,0:0:0:0:
192,192,416606,1,0,0:0:0:0:
320,192,416685,1,0,0:0:0:0:
64,192,416685,1,0,0:0:0:0:
192,192,416842,1,0,0:0:0:0:
320,192,416842,1,0,0:0:0:0:
448,192,417000,1,0,0:0:0:0:
192,192,417000,1,0,0:0:0:0:
64,192,417158,1,0,0:0:0:0:
448,192,417158,1,0,0:0:0:0:
64,192,417316,1,0,0:0:0:0:
192,192,417316,1,0,0:0:0:0:
320,192,417316,1,0,0:0:0:0:
448,192,417356,1,0,0:0:0:0:
64,192,417395,1,0,0:0:0:0:
320,192,417435,1,0,0:0:0:0:
192,192,417474,1,0,0:0:0:0:
64,192,417514,1,0,0:0:0:0:
448,192,417553,1,0,0:0:0:0:
192,192,417592,1,0,0:0:0:0:
320,192,417632,1,0,0:0:0:0:
64,192,417671,1,0,0:0:0:0:
320,192,417711,1,0,0:0:0:0:
192,192,417750,1,0,0:0:0:0:
448,192,417790,1,0,0:0:0:0:
320,192,417829,1,0,0:0:0:0:
64,192,417869,1,0,0:0:0:0:
448,192,417908,1,0,0:0:0:0:
192,192,417948,1,0,0:0:0:0:
320,192,417987,1,0,0:0:0:0:
192,192,418027,1,0,0:0:0:0:
448,192,418066,1,0,0:0:0:0:
64,192,418106,1,0,0:0:0:0:
192,192,418145,1,0,0:0:0:0:
320,192,418185,1,0,0:0:0:0:
64,192,418224,1,0,0:0:0:0:
448,192,418264,1,0,0:0:0:0:
192,192,418303,1,0,0:0:0:0:
448,192,418342,1,0,0:0:0:0:
64,192,418382,1,0,0:0:0:0:
320,192,418421,1,0,0:0:0:0:
448,192,418461,1,0,0:0:0:0:
192,192,418500,1,0,0:0:0:0:
320,192,418540,1,0,0:0:0:0:
64,192,418579,1,0,0:0:0:0:
192,192,418624,1,0,0:0:0:0:
64,192,418670,1,0,0:0:0:0:
320,192,418715,1,0,0:0:0:0:
192,192,418760,1,0,0:0:0:0:
448,192,418805,1,0,0:0:0:0:
64,192,418850,1,0,0:0:0:0:
320,192,418895,1,0,0:0:0:0:
448,192,418940,1,0,0:0:0:0:
320,192,418985,1,0,0:0:0:0:
192,192,419030,1,0,0:0:0:0:
448,192,419076,1,0,0:0:0:0:
64,192,419121,1,0,0:0:0:0:
320,192,419166,1,0,0:0:0:0:
192,192,419211,1,0,0:0:0:0:
64,192,419256,1,0,0:0:0:0:
192,192,419301,1,0,0:0:0:0:
448,192,419346,1,0,0:0:0:0:
64,192,419391,1,0,0:0:0:0:
320,192,419436,1,0,0:0:0:0:
192,192,419482,1,0,0:0:0:0:
448,192,419527,1,0,0:0:0:0:
320,192,419572,1,0,0:0:0:0:
448,192,419617,1,0,0:0:0:0:
64,192,419662,1,0,0:0:0:0:
320,192,419707,1,0,0:0:0:0:
192,192,419752,1,0,0:0:0:0:
448,192,419797,1,0,0:0:0:0:
64,192,419842,1,0,0:0:0:0:
192,192,419895,1,0,0:0:0:0:
320,192,419948,1,0,0:0:0:0:
64,192,420000,1,0,0:0:0:0:
448,192,420053,1,0,0:0:0:0:
320,192,420106,1,0,0:0:0:0:
192,192,420158,1,0,0:0:0:0:
448,192,420211,1,0,0:0:0:0:
64,192,420264,1,0,0:0:0:0:
192,192,420316,1,0,0:0:0:0:
320,192,420369,1,0,0:0:0:0:
64,192,420421,1,0,0:0:0:0:
448,192,420474,1,0,0:0:0:0:
320,192,420527,1,0,0:0:0:0:
192,192,420579,1,0,0:0:0:0:
448,192,420632,1,0,0:0:0:0:
64,192,420685,1,0,0:0:0:0:
192,192,420737,1,0,0:0:0:0:
320,192,420790,1,0,0:0:0:0:
64,192,420842,1,0,0:0:0:0:
448,192,420895,1,0,0:0:0:0:
320,192,420948,1,0,0:0:0:0:
192,192,421000,1,0,0:0:0:0:
64,192,421053,1,0,0:0:0:0:
448,192,421106,1,0,0:0:0:0:
320,192,421169,1,0,0:0:0:0:
192,192,421232,1,0,0:0:0:0:
448,192,421295,1,0,0:0:0:0:
320,192,421358,1,0,0:0:0:0:
64,192,421421,1,0,0:0:0:0:
192,192,421485,1,0,0:0:0:0:
448,192,421548,1,0,0:0:0:0:
64,192,421611,1,0,0:0:0:0:
192,192,421674,1,0,0:0:0:0:
320,192,421737,1,0,0:0:0:0:
448,192,421800,1,0,0:0:0:0:
64,192,421864,1,0,0:0:0:0:
320,192,421927,1,0,0:0:0:0:
448,192,421990,1,0,0:0:0:0:
192,192,422053,1,0,0:0:0:0:
64,192,422116,1,0,0:0:0:0:
320,192,422179,1,0,0:0:0:0:
192,192,422242,1,0,0:0:0:0:
64,192,422306,1,0,0:0:0:0:
448,192,422369,1,0,0:0:0:0:
192,192,422432,1,0,0:0:0:0:
448,192,422495,1,0,0:0:0:0:
320,192,422558,1,0,0:0:0:0:
64,192,422621,1,0,0:0:0:0:
192,192,422685,1,0,0:0:0:0:
320,192,422748,1,0,0:0:0:0:
192,192,422811,1,0,0:0:0:0:
64,192,422874,1,0,0:0:0:0:
448,192,422937,1,0,0:0:0:0:
320,192,423000,1,0,0:0:0:0:
64,192,423064,1,0,0:0:0:0:
320,192,423127,1,0,0:0:0:0:
448,192,423190,1,0,0:0:0:0:
192,192,423253,1,0,0:0:0:0:
64,192,423316,1,0,0:0:0:0:
448,192,423379,1,0,0:0:0:0:
64,192,423442,1,0,0:0:0:0:
192,192,423506,1,0,0:0:0:0:
320,192,423569,1,0,0:0:0:0:
448,192,423632,1,0,0:0:0:0:
64,192,423671,1,0,0:0:0:0:
320,192,423711,1,0,0:0:0:0:
192,192,423750,1,0,0:0:0:0:
448,192,423790,1,0,0:0:0:0:
64,192,423842,1,0,0:0:0:0:
320,192,423895,1,0,0:0:0:0:
192,192,423948,1,0,0:0:0:0:
64,192,424027,1,0,0:0:0:0:
192,192,424106,5,0,0:0:0:0:
