osu file format v14

[General]
AudioFilename: audio.mp3
AudioLeadIn: 0
PreviewTime: 292850
Countdown: 0
SampleSet: Normal
StackLeniency: 0.7
Mode: 3
LetterboxInBreaks: 0
SpecialStyle: 0
WidescreenStoryboard: 1

[Editor]
Bookmarks: 975,29775,38575,52175,68202,80093,83598,95771,106742,117713,125942,139181,152588,155552,171054,180299,182418,190251,204907,221452,248465,275290,293330,311570,326930,338078,341362,350962,357033,361215,363860,368830,373421,378938,387665,404574
DistanceSpacing: 0.8
BeatDivisor: 4
GridSize: 32
TimelineZoom: 3.899998

[Metadata]
Title:Parallel Universe Shifter Training
TitleUnicode:Parallel Universe Shifter Training
Artist:Camellia
ArtistUnicode:Camellia
Creator:ytGrapeFrootZ34
Version:1
Source:osu!mania 4K World Cup 2023
Tags:
BeatmapID:4371368
BeatmapSetID:2086353

[Difficulty]
HPDrainRate:8.3
CircleSize:4
OverallDifficulty:7.7
ApproachRate:5
SliderMultiplier:1.4
SliderTickRate:1

[Events]
//Background and Video events
0,0,"Camellia_ParallelUniverseShifter_Jacket_2732x1536.jpg",0,0
//Break Periods
//Storyboard Layer 0 (Background)
//Storyboard Layer 1 (Fail)
//Storyboard Layer 2 (Pass)
//Storyboard Layer 3 (Foreground)
//Storyboard Layer 4 (Overlay)
//Storyboard Sound Samples

[TimingPoints]
975,400,4,1,1,30,1,0
7375,-100,4,1,1,60,0,0
13775,-100,4,1,1,40,0,0
19775,-100,4,1,1,50,0,0
20175,-100,4,1,1,60,0,0
29775,-100,4,1,1,40,0,0
34575,-100,4,1,1,50,0,0
38575,-100,4,1,1,40,0,0
39375,-100,4,1,1,60,0,0
52975,413.793103448276,4,1,1,60,1,8
52975,-97.0873786407767,4,1,1,60,0,8
53803,428.571428571429,4,1,1,60,1,0
53803,-93.4579439252336,4,1,1,60,0,0
54660,444.444444444444,4,1,1,60,1,8
54660,-90.0900900900901,4,1,1,60,0,8
55549,461.538461538462,4,1,1,60,1,0
55549,-86.9565217391304,4,1,1,60,0,0
56472,480,4,1,1,60,1,8
56472,-83.3333333333333,4,1,1,60,0,8
57432,500,4,1,1,60,1,0
57432,-80,4,1,1,60,0,0
58432,521.739130434783,4,1,1,60,1,8
58432,-76.9230769230769,4,1,1,60,0,8
59475,545.454545454546,4,1,1,60,1,0
59475,-73.5294117647059,4,1,1,60,0,0
66020,-73.5294117647059,4,1,1,50,0,0
68202,-73.5294117647059,4,1,1,60,0,1
68748,540.540540540541,4,1,1,60,1,9
68748,-74.0740740740741,4,1,1,60,0,9
69288,535.714285714286,4,1,1,60,1,9
69288,-74.6268656716418,4,1,1,60,0,9
69824,530.973451327434,4,1,1,60,1,9
69824,-75.187969924812,4,1,1,60,0,9
70355,526.315789473684,4,1,1,60,1,1
70355,-75.7575757575758,4,1,1,60,0,1
70881,521.739130434783,4,1,1,60,1,9
70881,-76.9230769230769,4,1,1,60,0,9
71403,517.241379310345,4,1,1,60,1,9
71403,-77.5193798449612,4,1,1,60,0,9
71920,512.820512820513,4,1,1,60,1,9
71920,-78.125,4,1,1,60,0,9
72433,508.474576271186,4,1,1,60,1,1
72433,-78.740157480315,4,1,1,60,0,1
72942,504.201680672269,4,1,1,60,1,9
72942,-79.3650793650794,4,1,1,60,0,9
73446,500,4,1,1,60,1,9
73446,-80,4,1,1,60,0,9
73946,495.867768595041,4,1,1,60,1,9
73946,-80.6451612903226,4,1,1,60,0,9
74442,491.803278688525,4,1,1,60,1,1
74442,-81.3008130081301,4,1,1,60,0,1
74934,487.80487804878,4,1,1,60,1,9
74934,-81.9672131147541,4,1,1,60,0,9
75421,483.870967741935,4,1,1,60,1,9
75421,-82.6446280991736,4,1,1,60,0,9
75905,480,4,1,1,60,1,9
75905,-83.3333333333333,4,1,1,60,0,9
76385,476.190476190476,4,1,1,60,1,1
76385,-84.0336134453782,4,1,1,60,0,1
76861,472.44094488189,4,1,1,60,1,9
76861,-84.7457627118644,4,1,1,60,0,9
77334,468.75,4,1,1,60,1,9
77334,-85.4700854700855,4,1,1,60,0,9
77803,465.116279069767,4,1,1,60,1,9
77803,-86.2068965517241,4,1,1,60,0,9
78268,461.538461538462,4,1,1,60,1,1
78268,-86.9565217391304,4,1,1,60,0,1
78729,458.015267175573,4,1,1,60,1,9
78729,-86.9565217391304,4,1,1,60,0,9
79187,454.545454545455,4,1,1,60,1,9
79187,-87.719298245614,4,1,1,60,0,9
79642,451.127819548872,4,1,1,60,1,9
79642,-88.495575221239,4,1,1,60,0,9
80093,447.761194029851,4,1,1,40,1,0
80093,-89.2857142857143,4,1,1,40,0,0
80988,-89.2857142857143,4,1,1,50,0,0
81884,428.571428571429,4,1,1,50,1,0
81884,-93.4579439252336,4,1,1,50,0,0
83169,-93.4579439252336,4,1,1,40,0,0
83598,-93.4579439252336,4,1,1,60,0,1
84027,425.531914893617,4,1,1,60,1,9
84027,-94.3396226415094,4,1,1,60,0,9
84452,413.793103448276,4,1,1,60,1,9
84452,-97.0873786407767,4,1,1,60,0,9
84866,410.958904109589,4,1,1,60,1,9
84866,-97.0873786407767,4,1,1,60,0,9
85277,408.163265306122,4,1,1,60,1,1
85277,-98.0392156862745,4,1,1,60,0,1
85685,405.405405405405,4,1,1,60,1,9
85685,-99.009900990099,4,1,1,60,0,9
86091,402.684563758389,4,1,1,60,1,9
86091,-99.009900990099,4,1,1,60,0,9
86493,400,4,1,1,60,1,9
86893,397.350993377483,4,1,1,60,1,1
86893,-101.010101010101,4,1,1,60,0,1
87291,394.736842105263,4,1,1,60,1,9
87291,-101.010101010101,4,1,1,60,0,9
87686,392.156862745098,4,1,1,60,1,9
87686,-102.040816326531,4,1,1,60,0,9
88078,389.61038961039,4,1,1,60,1,9
88078,-103.092783505155,4,1,1,60,0,9
88467,387.096774193548,4,1,1,60,1,1
88467,-103.092783505155,4,1,1,60,0,1
88854,384.615384615385,4,1,1,60,1,9
88854,-104.166666666667,4,1,1,60,0,9
89239,382.165605095541,4,1,1,60,1,9
89239,-104.166666666667,4,1,1,60,0,9
89621,379.746835443038,4,1,1,60,1,9
89621,-105.263157894737,4,1,1,60,0,9
90001,377.358490566038,4,1,1,60,1,1
90001,-106.382978723404,4,1,1,60,0,1
90378,375,4,1,1,60,1,9
90378,-106.382978723404,4,1,1,60,0,9
90753,372.670807453416,4,1,1,60,1,9
90753,-107.52688172043,4,1,1,60,0,9
91126,370.37037037037,4,1,1,60,1,9
91126,-107.52688172043,4,1,1,60,0,9
91496,368.098159509202,4,1,1,60,1,1
91496,-108.695652173913,4,1,1,60,0,1
91864,365.853658536585,4,1,1,60,1,9
91864,-109.89010989011,4,1,1,60,0,9
92230,363.636363636364,4,1,1,60,1,9
92230,-109.89010989011,4,1,1,60,0,9
92594,361.44578313253,4,1,1,60,1,9
92594,-111.111111111111,4,1,1,60,0,9
92955,359.281437125748,4,1,1,60,1,1
92955,-111.111111111111,4,1,1,60,0,1
93315,357.142857142857,4,1,1,60,1,9
93315,-112.359550561798,4,1,1,60,0,9
93672,355.029585798817,4,1,1,60,1,9
93672,-112.359550561798,4,1,1,60,0,9
94027,352.941176470588,4,1,1,60,1,9
94027,-113.636363636364,4,1,1,60,0,9
94380,350.877192982456,4,1,1,60,1,1
94380,-113.636363636364,4,1,1,60,0,1
94731,348.837209302326,4,1,1,60,1,9
94731,-114.942528735632,4,1,1,60,0,9
95079,346.820809248555,4,1,1,60,1,9
95079,-114.942528735632,4,1,1,60,0,9
95426,344.827586206897,4,1,1,60,1,9
95426,-116.279069767442,4,1,1,60,0,9
95771,342.857142857143,4,1,1,45,1,0
95771,-116.279069767442,4,1,1,45,0,0
103999,-116.279069767442,4,1,1,50,0,0
105371,-116.279069767442,4,1,1,55,0,0
106742,-116.279069767442,4,1,1,60,0,0
117713,-116.279069767442,4,1,1,50,0,0
123199,-116.279069767442,4,1,1,40,0,0
123885,-116.279069767442,4,1,1,50,0,0
125599,-116.279069767442,4,1,1,40,0,0
125942,-116.279069767442,4,1,1,60,0,0
126628,352.941176470588,4,1,1,60,1,8
126628,-113.636363636364,4,1,1,60,0,8
127334,363.636363636364,4,1,1,60,1,0
127334,-109.89010989011,4,1,1,60,0,0
128061,375,4,1,1,60,1,8
128061,-106.382978723404,4,1,1,60,0,8
128811,387.096774193548,4,1,1,60,1,0
128811,-103.092783505155,4,1,1,60,0,0
129586,400,4,1,1,60,1,8
130386,413.793103448276,4,1,1,60,1,0
130386,-97.0873786407767,4,1,1,60,0,0
131213,428.571428571429,4,1,1,60,1,8
131213,-93.4579439252336,4,1,1,60,0,8
132070,444.444444444444,4,1,1,60,1,0
132070,-90.0900900900901,4,1,1,60,0,0
137403,-90.0900900900901,4,1,1,40,0,0
138736,-90.0900900900901,4,1,1,50,0,0
139181,-90.0900900900901,4,1,1,60,0,0
139514,-90.0900900900901,4,1,1,40,0,0
142736,-90.0900900900901,4,1,1,60,0,0
143070,-90.0900900900901,4,1,1,50,0,0
143181,441.176470588235,4,1,1,50,1,8
143181,-90.9090909090909,4,1,1,50,0,8
143623,437.956204379562,4,1,1,50,1,8
143623,-91.743119266055,4,1,1,50,0,8
144061,434.782608695652,4,1,1,50,1,8
144061,-91.743119266055,4,1,1,50,0,8
144495,431.654676258993,4,1,1,50,1,0
144495,-92.5925925925926,4,1,1,50,0,0
144927,428.571428571429,4,1,1,50,1,8
144927,-93.4579439252336,4,1,1,50,0,8
145356,425.531914893617,4,1,1,50,1,8
145356,-94.3396226415094,4,1,1,50,0,8
145781,422.535211267606,4,1,1,50,1,8
145781,-94.3396226415094,4,1,1,50,0,8
146204,419.58041958042,4,1,1,60,1,0
146204,-95.2380952380952,4,1,1,60,0,0
146518,-95.2380952380952,4,1,1,50,0,0
146623,416.666666666667,4,1,1,50,1,8
146623,-96.1538461538461,4,1,1,50,0,8
147040,413.793103448276,4,1,1,50,1,8
147040,-97.0873786407767,4,1,1,50,0,8
147454,410.958904109589,4,1,1,50,1,8
147454,-97.0873786407767,4,1,1,50,0,8
147865,408.163265306122,4,1,1,50,1,0
147865,-98.0392156862745,4,1,1,50,0,0
148273,405.405405405405,4,1,1,50,1,8
148273,-99.009900990099,4,1,1,50,0,8
148678,402.684563758389,4,1,1,50,1,8
148678,-99.009900990099,4,1,1,50,0,8
149081,400,4,1,1,50,1,8
149481,397.350993377483,4,1,1,50,1,0
149481,-101.010101010101,4,1,1,50,0,0
149779,-101.010101010101,4,1,1,50,0,0
149878,394.736842105263,4,1,1,50,1,8
149878,-101.010101010101,4,1,1,50,0,8
150273,392.156862745098,4,1,1,50,1,8
150273,-102.040816326531,4,1,1,50,0,8
150665,389.61038961039,4,1,1,50,1,8
150665,-103.092783505155,4,1,1,50,0,8
151055,387.096774193548,4,1,1,55,1,0
151055,-103.092783505155,4,1,1,55,0,0
151442,384.615384615385,4,1,1,55,1,8
151442,-104.166666666667,4,1,1,55,0,8
151826,382.165605095541,4,1,1,55,1,8
151826,-104.166666666667,4,1,1,55,0,8
152209,379.746835443038,4,1,1,55,1,8
152209,-105.263157894737,4,1,1,55,0,8
152588,377.358490566038,4,1,1,40,1,0
152588,-106.382978723404,4,1,1,40,0,0
153342,-106.382978723404,4,1,1,50,0,0
154098,363.636363636364,4,1,1,50,1,0
154098,-109.89010989011,4,1,1,50,0,0
155188,-109.89010989011,4,1,1,40,0,0
155552,-109.89010989011,4,1,1,60,0,1
155916,361.44578313253,4,1,1,60,1,9
155916,-111.111111111111,4,1,1,60,0,9
156277,359.281437125748,4,1,1,60,1,9
156277,-111.111111111111,4,1,1,60,0,9
156637,357.142857142857,4,1,1,60,1,9
156637,-112.359550561798,4,1,1,60,0,9
156994,355.029585798817,4,1,1,60,1,1
156994,-112.359550561798,4,1,1,60,0,1
157349,352.941176470588,4,1,1,60,1,9
157349,-113.636363636364,4,1,1,60,0,9
157702,350.877192982456,4,1,1,60,1,9
157702,-113.636363636364,4,1,1,60,0,9
158053,348.837209302326,4,1,1,60,1,9
158053,-114.942528735632,4,1,1,60,0,9
158402,346.820809248555,4,1,1,60,1,1
158402,-114.942528735632,4,1,1,60,0,1
158748,344.827586206897,4,1,1,60,1,9
158748,-116.279069767442,4,1,1,60,0,9
159093,342.857142857143,4,1,1,60,1,9
159093,-116.279069767442,4,1,1,60,0,9
159436,340.909090909091,4,1,1,60,1,9
159436,-117.647058823529,4,1,1,60,0,9
159777,338.983050847458,4,1,1,60,1,1
159777,-117.647058823529,4,1,1,60,0,1
160116,337.078651685393,4,1,1,60,1,9
160116,-119.047619047619,4,1,1,60,0,9
160453,335.195530726257,4,1,1,60,1,9
160453,-119.047619047619,4,1,1,60,0,9
160788,333.333333333333,4,1,1,60,1,9
160788,-120.481927710843,4,1,1,60,0,9
161122,331.491712707182,4,1,1,60,1,1
161122,-120.481927710843,4,1,1,60,0,1
161453,329.67032967033,4,1,1,60,1,9
161453,-121.951219512195,4,1,1,60,0,9
161783,327.868852459016,4,1,1,60,1,9
161783,-121.951219512195,4,1,1,60,0,9
162111,326.086956521739,4,1,1,60,1,9
162111,-121.951219512195,4,1,1,60,0,9
162437,324.324324324324,4,1,1,60,1,1
162437,-123.456790123457,4,1,1,60,0,1
162761,322.58064516129,4,1,1,60,1,9
162761,-123.456790123457,4,1,1,60,0,9
163084,320.855614973262,4,1,1,60,1,9
163084,-125,4,1,1,60,0,9
163404,319.148936170213,4,1,1,60,1,9
163404,-125,4,1,1,60,0,9
163724,317.460317460317,4,1,1,60,1,1
163724,-126.582278481013,4,1,1,60,0,1
164041,315.789473684211,4,1,1,60,1,9
164041,-126.582278481013,4,1,1,60,0,9
164357,314.13612565445,4,1,1,60,1,9
164357,-126.582278481013,4,1,1,60,0,9
164671,312.5,4,1,1,60,1,9
164671,-128.205128205128,4,1,1,60,0,9
164983,310.880829015544,4,1,1,60,1,1
164983,-128.205128205128,4,1,1,60,0,1
165294,309.278350515464,4,1,1,60,1,9
165294,-129.87012987013,4,1,1,60,0,9
165604,307.692307692308,4,1,1,60,1,9
165604,-129.87012987013,4,1,1,60,0,9
165911,306.122448979592,4,1,1,60,1,9
165911,-129.87012987013,4,1,1,60,0,9
166217,304.568527918782,4,1,1,60,1,0
166217,-131.578947368421,4,1,1,60,0,0
168654,300,4,1,1,60,1,1
168654,-133.333333333333,4,1,1,60,0,1
170454,-133.333333333333,4,1,1,50,0,0
173304,-133.333333333333,4,1,1,60,0,0
173454,-133.333333333333,4,1,1,60,0,1
173754,298.507462686567,4,1,1,60,1,9
173754,-133.333333333333,4,1,1,60,0,9
174351,297.029702970297,4,1,1,60,1,9
174351,-135.135135135135,4,1,1,60,0,9
174648,295.566502463054,4,1,1,60,1,1
174648,-135.135135135135,4,1,1,60,0,1
174944,294.117647058824,4,1,1,60,1,9
174944,-135.135135135135,4,1,1,60,0,9
175238,292.682926829268,4,1,1,60,1,9
175238,-136.986301369863,4,1,1,60,0,9
175530,291.26213592233,4,1,1,60,1,9
175530,-136.986301369863,4,1,1,60,0,9
175822,289.855072463768,4,1,1,60,1,1
175822,-138.888888888889,4,1,1,60,0,1
176112,288.461538461538,4,1,1,60,1,9
176112,-138.888888888889,4,1,1,60,0,9
176400,287.081339712919,4,1,1,60,1,9
176400,-138.888888888889,4,1,1,60,0,9
176687,285.714285714286,4,1,1,60,1,9
176687,-140.845070422535,4,1,1,60,0,9
176973,284.36018957346,4,1,1,60,1,1
176973,-140.845070422535,4,1,1,60,0,1
177257,283.018867924528,4,1,1,60,1,9
177257,-140.845070422535,4,1,1,60,0,9
177540,281.69014084507,4,1,1,60,1,9
177540,-142.857142857143,4,1,1,60,0,9
177822,280.373831775701,4,1,1,60,1,9
177822,-142.857142857143,4,1,1,60,0,9
178102,279.06976744186,4,1,1,60,1,1
178102,-142.857142857143,4,1,1,60,0,1
178381,277.777777777778,4,1,1,60,1,9
178381,-144.927536231884,4,1,1,60,0,9
178659,276.497695852535,4,1,1,60,1,9
178659,-144.927536231884,4,1,1,60,0,9
178936,275.229357798165,4,1,1,60,1,9
178936,-144.927536231884,4,1,1,60,0,9
179211,273.972602739726,4,1,1,60,1,1
179211,-147.058823529412,4,1,1,60,0,1
179485,272.727272727273,4,1,1,60,1,9
179485,-147.058823529412,4,1,1,60,0,9
179757,271.493212669683,4,1,1,60,1,9
179757,-147.058823529412,4,1,1,60,0,9
180029,270.27027027027,4,1,1,60,1,9
180029,-147.058823529412,4,1,1,60,0,9
180299,269.058295964126,4,1,1,40,1,0
180299,-149.253731343284,4,1,1,40,0,0
180837,-149.253731343284,4,1,1,50,0,0
181375,260.869565217391,4,1,1,55,1,0
181375,-153.846153846154,4,1,1,55,0,0
181896,-153.846153846154,4,1,1,40,0,0
182418,-153.846153846154,4,1,1,60,0,1
182680,259.74025974026,4,1,1,60,1,9
182680,-153.846153846154,4,1,1,60,0,9
182940,258.620689655172,4,1,1,60,1,9
182940,-153.846153846154,4,1,1,60,0,9
183198,257.510729613734,4,1,1,60,1,9
183198,-156.25,4,1,1,60,0,9
183456,256.410256410256,4,1,1,60,1,1
183456,-156.25,4,1,1,60,0,1
183712,255.31914893617,4,1,1,60,1,9
183712,-156.25,4,1,1,60,0,9
183967,254.237288135593,4,1,1,60,1,9
183967,-156.25,4,1,1,60,0,9
184222,253.164556962025,4,1,1,60,1,9
184222,-158.730158730159,4,1,1,60,0,9
184475,252.100840336134,4,1,1,60,1,1
184475,-158.730158730159,4,1,1,60,0,1
184727,251.046025104603,4,1,1,60,1,9
184727,-158.730158730159,4,1,1,60,0,9
184978,250,4,1,1,60,1,9
184978,-158.730158730159,4,1,1,60,0,9
185228,248.96265560166,4,1,1,60,1,9
185228,-161.290322580645,4,1,1,60,0,9
185477,247.933884297521,4,1,1,60,1,1
185477,-161.290322580645,4,1,1,60,0,1
185725,246.913580246914,4,1,1,60,1,9
185725,-161.290322580645,4,1,1,60,0,9
185972,245.901639344262,4,1,1,60,1,9
185972,-163.934426229508,4,1,1,60,0,9
186218,244.897959183673,4,1,1,60,1,9
186218,-163.934426229508,4,1,1,60,0,9
186463,243.90243902439,4,1,1,60,1,1
186463,-163.934426229508,4,1,1,60,0,1
186706,242.914979757085,4,1,1,60,1,9
186706,-163.934426229508,4,1,1,60,0,9
186949,241.935483870968,4,1,1,60,1,9
186949,-166.666666666667,4,1,1,60,0,9
187191,240.963855421687,4,1,1,60,1,9
187191,-166.666666666667,4,1,1,60,0,9
187432,240,4,1,1,60,1,1
187432,-166.666666666667,4,1,1,60,0,1
187672,239.043824701195,4,1,1,60,1,9
187672,-166.666666666667,4,1,1,60,0,9
187911,238.095238095238,4,1,1,60,1,9
187911,-166.666666666667,4,1,1,60,0,9
188149,237.154150197628,4,1,1,60,1,9
188149,-169.491525423729,4,1,1,60,0,9
188387,236.220472440945,4,1,1,60,1,1
188387,-169.491525423729,4,1,1,60,0,1
188623,235.294117647059,4,1,1,60,1,9
188623,-169.491525423729,4,1,1,60,0,9
188858,234.375,4,1,1,60,1,9
188858,-169.491525423729,4,1,1,60,0,9
189092,233.463035019455,4,1,1,60,1,9
189092,-172.413793103448,4,1,1,60,0,9
189326,232.558139534884,4,1,1,60,1,1
189326,-172.413793103448,4,1,1,60,0,1
189559,231.660231660232,4,1,1,60,1,9
189559,-172.413793103448,4,1,1,60,0,9
189790,230.769230769231,4,1,1,60,1,9
189790,-172.413793103448,4,1,1,60,0,9
190021,229.885057471264,4,1,1,60,1,9
190021,-175.438596491228,4,1,1,60,0,9
190251,229.007633587786,4,1,1,50,1,0
190251,-175.438596491228,4,1,1,50,0,0
196663,-175.438596491228,4,1,1,55,0,0
197579,-175.438596491228,4,1,1,60,0,0
215900,230.769230769231,4,1,1,60,1,0
215900,-172.413793103448,4,1,1,60,0,0
216130,240,4,1,1,60,1,8
216130,-166.666666666667,4,1,1,60,0,8
216370,250,4,1,1,60,1,8
216370,-158.730158730159,4,1,1,60,0,8
216620,260.869565217391,4,1,1,60,1,8
216620,-153.846153846154,4,1,1,60,0,8
216881,272.727272727273,4,1,1,60,1,0
216881,-147.058823529412,4,1,1,60,0,0
217154,285.714285714286,4,1,1,60,1,8
217154,-140.845070422535,4,1,1,60,0,8
217440,300,4,1,1,60,1,8
217440,-133.333333333333,4,1,1,60,0,8
217740,315.789473684211,4,1,1,60,1,8
217740,-126.582278481013,4,1,1,60,0,8
218056,333.333333333333,4,1,1,60,1,0
218056,-120.481927710843,4,1,1,60,0,0
218389,352.941176470588,4,1,1,60,1,8
218389,-113.636363636364,4,1,1,60,0,8
218742,375,4,1,1,60,1,8
218742,-106.382978723404,4,1,1,60,0,8
219117,400,4,1,1,60,1,8
219517,428.571428571429,4,1,1,60,1,0
219517,-93.4579439252336,4,1,1,60,0,0
219945,461.538461538462,4,1,1,60,1,8
219945,-86.9565217391304,4,1,1,60,0,8
220407,500,4,1,1,60,1,8
220407,-80,4,1,1,60,0,8
220907,545.454545454546,4,1,1,60,1,8
220907,-73.5294117647059,4,1,1,60,0,8
221452,600,4,1,1,60,1,0
221452,-66.6666666666667,4,1,1,60,0,0
222052,-66.6666666666667,4,1,1,55,0,0
222652,-66.6666666666667,4,1,1,50,0,0
223252,-66.6666666666667,4,1,1,45,0,0
223852,-66.6666666666667,4,1,1,40,0,0
224452,-66.6666666666667,4,1,1,35,0,0
225052,-66.6666666666667,4,1,1,30,0,0
231052,571.428571428571,4,1,1,30,1,0
231052,-69.9300699300699,4,1,1,30,0,0
233338,545.454545454546,4,1,1,30,1,0
233338,-73.5294117647059,4,1,1,30,0,0
235520,521.739130434783,4,1,1,35,1,0
235520,-76.9230769230769,4,1,1,35,0,0
237607,500,4,1,1,35,1,0
237607,-80,4,1,1,35,0,0
239607,480,4,1,1,50,1,0
239607,-83.3333333333333,4,1,1,50,0,0
241527,461.538461538462,4,1,1,50,1,0
241527,-86.9565217391304,4,1,1,50,0,0
243373,444.444444444444,4,1,1,55,1,0
243373,-90.0900900900901,4,1,1,55,0,0
245151,428.571428571429,4,1,1,55,1,0
245151,-93.4579439252336,4,1,1,55,0,0
246865,400,4,1,1,60,1,0
248465,-100,4,1,1,50,0,0
262865,397.350993377483,4,1,1,50,1,0
262865,-101.010101010101,4,1,1,50,0,0
264455,394.736842105263,4,1,1,50,1,0
264455,-101.010101010101,4,1,1,50,0,0
266033,392.156862745098,4,1,1,50,1,0
266033,-102.040816326531,4,1,1,50,0,0
267602,389.61038961039,4,1,1,50,1,0
267602,-103.092783505155,4,1,1,50,0,0
269161,387.096774193548,4,1,1,50,1,0
269161,-103.092783505155,4,1,1,50,0,0
270709,384.615384615385,4,1,1,50,1,0
270709,-104.166666666667,4,1,1,50,0,0
272247,382.165605095541,4,1,1,50,1,0
272247,-104.166666666667,4,1,1,50,0,0
273776,379.746835443038,4,1,1,50,1,0
273776,-105.263157894737,4,1,1,50,0,0
274536,377.358490566038,4,1,1,50,1,8
274536,-106.382978723404,4,1,1,50,0,8
275290,375,4,1,1,50,1,0
275290,-106.382978723404,4,1,1,50,0,0
276040,363.636363636364,4,1,1,50,1,8
276040,-109.89010989011,4,1,1,50,0,8
276768,352.941176470588,4,1,1,50,1,0
276768,-113.636363636364,4,1,1,50,0,0
277473,342.857142857143,4,1,1,50,1,8
277473,-116.279069767442,4,1,1,50,0,8
278159,333.333333333333,4,1,1,55,1,0
278159,-120.481927710843,4,1,1,55,0,0
278826,315.789473684211,4,1,1,55,1,8
278826,-126.582278481013,4,1,1,55,0,8
279457,300,4,1,1,55,1,0
279457,-133.333333333333,4,1,1,55,0,0
280057,285.714285714286,4,1,1,55,1,8
280057,-140.845070422535,4,1,1,55,0,8
280629,272.727272727273,4,1,1,60,1,0
280629,-147.058823529412,4,1,1,60,0,0
281174,266.666666666667,4,1,1,60,1,8
281174,-149.253731343284,4,1,1,60,0,8
281708,260.869565217391,4,1,1,60,1,0
281708,-153.846153846154,4,1,1,60,0,0
282229,255.31914893617,4,1,1,60,1,8
282229,-156.25,4,1,1,60,0,8
282740,250,4,1,1,60,1,0
282740,-158.730158730159,4,1,1,60,0,0
283240,244.897959183673,4,1,1,60,1,8
283240,-163.934426229508,4,1,1,60,0,8
283730,240,4,1,1,60,1,0
283730,-166.666666666667,4,1,1,60,0,0
291410,-166.666666666667,4,1,1,40,0,0
291890,-166.666666666667,4,1,1,45,0,0
292370,-166.666666666667,4,1,1,50,0,0
292850,-166.666666666667,4,1,1,55,0,0
293090,-166.666666666667,4,1,1,60,0,0
293330,-166.666666666667,4,1,1,60,0,1
304850,-166.666666666667,4,1,1,60,0,0
305090,-166.666666666667,4,1,1,45,0,0
305330,-166.666666666667,4,1,1,60,0,0
305570,-166.666666666667,4,1,1,45,0,0
305810,-166.666666666667,4,1,1,60,0,0
306530,-166.666666666667,4,1,1,45,0,0
306890,-166.666666666667,4,1,1,60,0,0
311570,-166.666666666667,4,1,1,60,0,1
326930,-166.666666666667,4,1,1,40,0,0
329810,-166.666666666667,4,1,1,45,0,0
330770,-166.666666666667,4,1,1,50,0,0
331730,-166.666666666667,4,1,1,55,0,0
332690,235.294117647059,4,1,1,60,1,1
332690,-169.491525423729,4,1,1,60,0,1
333631,230.769230769231,4,1,1,60,1,1
333631,-172.413793103448,4,1,1,60,0,1
334554,226.415094339623,4,1,1,60,1,1
334554,-175.438596491228,4,1,1,60,0,1
335460,222.222222222222,4,1,1,60,1,1
335460,-178.571428571429,4,1,1,60,0,1
336349,218.181818181818,4,1,1,60,1,1
336349,-181.818181818182,4,1,1,60,0,1
337221,214.285714285714,4,1,1,60,1,1
337221,-185.185185185185,4,1,1,60,0,1
338078,210.526315789474,4,1,1,40,1,0
338078,-188.679245283019,4,1,1,40,0,0
338921,206.896551724138,4,1,1,50,1,0
338921,-192.307692307692,4,1,1,50,0,0
339748,203.389830508475,4,1,1,50,1,0
339748,-196.078431372549,4,1,1,50,0,0
340562,200,4,1,1,50,1,0
340562,-200,4,1,1,50,0,0
340962,-200,4,1,1,40,0,0
341362,-200,4,1,1,60,0,0
347762,-200,4,1,1,45,0,0
348562,-200,4,1,1,50,0,0
349362,-200,4,1,1,55,0,0
350162,-200,4,1,1,60,0,0
350962,199.335548172757,4,1,1,60,1,1
350962,-200,4,1,1,60,0,1
351161,198.675496688741,4,1,1,60,1,9
351161,-200,4,1,1,60,0,9
351360,198.019801980197,4,1,1,60,1,9
351360,-200,4,1,1,60,0,9
351558,197.36842105263,4,1,1,60,1,9
351558,-204.081632653061,4,1,1,60,0,9
351755,196.721311475409,4,1,1,60,1,1
351755,-204.081632653061,4,1,1,60,0,1
351952,196.078431372548,4,1,1,60,1,9
351952,-204.081632653061,4,1,1,60,0,9
352148,195.43973941368,4,1,1,60,1,9
352148,-204.081632653061,4,1,1,60,0,9
352343,194.805194805194,4,1,1,60,1,9
352343,-204.081632653061,4,1,1,60,0,9
352538,194.174757281553,4,1,1,60,1,1
352538,-204.081632653061,4,1,1,60,0,1
352732,193.548387096774,4,1,1,60,1,9
352732,-208.333333333333,4,1,1,60,0,9
352926,192.926045016077,4,1,1,60,1,9
352926,-208.333333333333,4,1,1,60,0,9
353119,192.307692307692,4,1,1,60,1,9
353119,-208.333333333333,4,1,1,60,0,9
353311,191.693290734824,4,1,1,60,1,1
353311,-208.333333333333,4,1,1,60,0,1
353503,191.08280254777,4,1,1,60,1,9
353503,-208.333333333333,4,1,1,60,0,9
353694,190.47619047619,4,1,1,60,1,9
353694,-208.333333333333,4,1,1,60,0,9
353884,189.873417721518,4,1,1,60,1,9
353884,-212.765957446809,4,1,1,60,0,9
354074,189.274447949526,4,1,1,60,1,0
354074,-212.765957446809,4,1,1,60,0,0
354263,188.679245283018,4,1,1,60,1,8
354263,-212.765957446809,4,1,1,60,0,8
354452,188.08777429467,4,1,1,60,1,8
354452,-212.765957446809,4,1,1,60,0,8
354640,187.499999999999,4,1,1,60,1,8
354640,-212.765957446809,4,1,1,60,0,8
354828,186.915887850467,4,1,1,60,1,0
354828,-212.765957446809,4,1,1,60,0,0
355015,186.335403726707,4,1,1,60,1,8
355015,-212.765957446809,4,1,1,60,0,8
355201,185.758513931888,4,1,1,60,1,8
355201,-217.391304347826,4,1,1,60,0,8
355387,185.185185185185,4,1,1,60,1,8
355387,-217.391304347826,4,1,1,60,0,8
355572,184.615384615384,4,1,1,60,1,0
355572,-217.391304347826,4,1,1,60,0,0
355757,184.049079754601,4,1,1,60,1,8
355757,-217.391304347826,4,1,1,60,0,8
355941,183.48623853211,4,1,1,60,1,8
355941,-217.391304347826,4,1,1,60,0,8
356124,182.926829268292,4,1,1,60,1,8
356124,-217.391304347826,4,1,1,60,0,8
356307,182.370820668692,4,1,1,60,1,0
356307,-217.391304347826,4,1,1,60,0,0
356489,181.818181818181,4,1,1,60,1,8
356489,-222.222222222222,4,1,1,60,0,8
356671,181.268882175226,4,1,1,60,1,8
356671,-222.222222222222,4,1,1,60,0,8
356852,180.722891566265,4,1,1,60,1,8
356852,-222.222222222222,4,1,1,60,0,8
357033,180.18018018018,4,1,1,60,1,1
357033,-222.222222222222,4,1,1,60,0,1
357213,179.640718562874,4,1,1,60,1,9
357213,-222.222222222222,4,1,1,60,0,9
357393,179.10447761194,4,1,1,60,1,9
357393,-222.222222222222,4,1,1,60,0,9
357572,178.571428571428,4,1,1,60,1,9
357572,-222.222222222222,4,1,1,60,0,9
357751,178.041543026706,4,1,1,60,1,1
357751,-222.222222222222,4,1,1,60,0,1
357929,177.514792899408,4,1,1,60,1,9
357929,-227.272727272727,4,1,1,60,0,9
358106,176.991150442477,4,1,1,60,1,9
358106,-227.272727272727,4,1,1,60,0,9
358283,176.470588235294,4,1,1,60,1,9
358283,-227.272727272727,4,1,1,60,0,9
358460,175.953079178886,4,1,1,60,1,1
358460,-227.272727272727,4,1,1,60,0,1
358636,175.438596491228,4,1,1,60,1,9
358636,-227.272727272727,4,1,1,60,0,9
358811,174.927113702624,4,1,1,60,1,9
358811,-227.272727272727,4,1,1,60,0,9
358986,174.418604651163,4,1,1,60,1,9
358986,-227.272727272727,4,1,1,60,0,9
359160,173.913043478261,4,1,1,60,1,1
359160,-232.558139534884,4,1,1,60,0,1
359334,173.410404624277,4,1,1,60,1,9
359334,-232.558139534884,4,1,1,60,0,9
359508,172.910662824207,4,1,1,60,1,9
359508,-232.558139534884,4,1,1,60,0,9
359681,172.413793103448,4,1,1,60,1,9
359681,-232.558139534884,4,1,1,60,0,9
359853,171.919770773638,4,1,1,60,1,0
359853,-232.558139534884,4,1,1,60,0,0
360025,171.428571428571,4,1,1,60,1,8
360025,-232.558139534884,4,1,1,60,0,8
360196,170.94017094017,4,1,1,60,1,8
360196,-232.558139534884,4,1,1,60,0,8
360367,170.454545454545,4,1,1,60,1,8
360367,-232.558139534884,4,1,1,60,0,8
360538,169.971671388101,4,1,1,60,1,0
360538,-238.095238095238,4,1,1,60,0,0
360708,169.491525423728,4,1,1,60,1,8
360708,-238.095238095238,4,1,1,60,0,8
360877,169.014084507042,4,1,1,60,1,8
360877,-238.095238095238,4,1,1,60,0,8
361046,168.539325842696,4,1,1,60,1,8
361046,-238.095238095238,4,1,1,60,0,8
361215,168.067226890756,4,1,1,40,1,0
361215,-238.095238095238,4,1,1,40,0,0
361887,166.666666666666,4,1,1,50,1,0
361887,-238.095238095238,4,1,1,50,0,0
362554,164.383561643835,4,1,1,50,1,0
362554,-243.90243902439,4,1,1,50,0,0
363211,162.162162162162,4,1,1,40,1,0
363211,-243.90243902439,4,1,1,40,0,0
363535,-243.90243902439,4,1,1,60,0,0
363860,161.725067385445,4,1,1,60,1,1
363860,-250,4,1,1,60,0,1
364022,161.290322580645,4,1,1,60,1,9
364022,-250,4,1,1,60,0,9
364183,160.857908847185,4,1,1,60,1,9
364183,-250,4,1,1,60,0,9
364344,160.427807486631,4,1,1,60,1,9
364344,-250,4,1,1,60,0,9
364504,160,4,1,1,60,1,1
364504,-250,4,1,1,60,0,1
364664,159.574468085106,4,1,1,60,1,9
364664,-250,4,1,1,60,0,9
364824,159.151193633952,4,1,1,60,1,9
364824,-250,4,1,1,60,0,9
364983,158.730158730159,4,1,1,60,1,9
364983,-250,4,1,1,60,0,9
365142,158.311345646438,4,1,1,60,1,1
365142,-250,4,1,1,60,0,1
365300,157.894736842105,4,1,1,60,1,9
365300,-256.410256410256,4,1,1,60,0,9
365458,157.48031496063,4,1,1,60,1,9
365458,-256.410256410256,4,1,1,60,0,9
365615,157.068062827225,4,1,1,60,1,9
365615,-256.410256410256,4,1,1,60,0,9
365772,156.657963446475,4,1,1,60,1,1
365772,-256.410256410256,4,1,1,60,0,1
365929,156.25,4,1,1,60,1,9
365929,-256.410256410256,4,1,1,60,0,9
366085,155.844155844156,4,1,1,60,1,9
366085,-256.410256410256,4,1,1,60,0,9
366241,155.440414507772,4,1,1,60,1,9
366241,-256.410256410256,4,1,1,60,0,9
366397,155.038759689922,4,1,1,60,1,1
366397,-256.410256410256,4,1,1,60,0,1
366552,154.639175257732,4,1,1,60,1,9
366552,-256.410256410256,4,1,1,60,0,9
366706,154.241645244216,4,1,1,60,1,9
366706,-256.410256410256,4,1,1,60,0,9
366861,153.846153846154,4,1,1,60,1,9
366861,-263.157894736842,4,1,1,60,0,9
367014,153.452685421995,4,1,1,60,1,1
367014,-263.157894736842,4,1,1,60,0,1
367168,153.061224489796,4,1,1,60,1,9
367168,-263.157894736842,4,1,1,60,0,9
367321,152.671755725191,4,1,1,60,1,9
367321,-263.157894736842,4,1,1,60,0,9
367474,152.284263959391,4,1,1,60,1,9
367474,-263.157894736842,4,1,1,60,0,9
367626,151.898734177215,4,1,1,60,1,0
367626,-263.157894736842,4,1,1,60,0,0
367778,151.515151515152,4,1,1,60,1,8
367778,-263.157894736842,4,1,1,60,0,8
367929,151.133501259446,4,1,1,60,1,8
367929,-263.157894736842,4,1,1,60,0,8
368080,150.753768844221,4,1,1,60,1,8
368080,-263.157894736842,4,1,1,60,0,8
368231,150.375939849624,4,1,1,60,1,0
368231,-263.157894736842,4,1,1,60,0,0
368382,150,4,1,1,60,1,8
368382,-263.157894736842,4,1,1,60,0,8
368532,149.625935162095,4,1,1,60,1,8
368532,-270.27027027027,4,1,1,60,0,8
368681,149.253731343284,4,1,1,60,1,8
368681,-270.27027027027,4,1,1,60,0,8
368830,148.883374689827,4,1,1,60,1,1
368830,-270.27027027027,4,1,1,60,0,1
368979,148.514851485149,4,1,1,60,1,9
368979,-270.27027027027,4,1,1,60,0,9
369128,148.148148148149,4,1,1,60,1,9
369128,-270.27027027027,4,1,1,60,0,9
369276,147.783251231527,4,1,1,60,1,9
369276,-270.27027027027,4,1,1,60,0,9
369424,147.420147420147,4,1,1,60,1,1
369424,-270.27027027027,4,1,1,60,0,1
369571,147.058823529411,4,1,1,60,1,9
369571,-270.27027027027,4,1,1,60,0,9
369718,146.699266503667,4,1,1,60,1,9
369718,-270.27027027027,4,1,1,60,0,9
369865,146.341463414633,4,1,1,60,1,9
369865,-270.27027027027,4,1,1,60,0,9
370011,145.985401459853,4,1,1,60,1,1
370011,-277.777777777778,4,1,1,60,0,1
370157,145.631067961164,4,1,1,60,1,9
370157,-277.777777777778,4,1,1,60,0,9
370303,145.278450363195,4,1,1,60,1,9
370303,-277.777777777778,4,1,1,60,0,9
370448,144.927536231883,4,1,1,60,1,9
370448,-277.777777777778,4,1,1,60,0,9
370593,144.578313253011,4,1,1,60,1,1
370593,-277.777777777778,4,1,1,60,0,1
370738,144.230769230768,4,1,1,60,1,9
370738,-277.777777777778,4,1,1,60,0,9
370882,143.88489208633,4,1,1,60,1,9
370882,-277.777777777778,4,1,1,60,0,9
371026,143.540669856458,4,1,1,60,1,9
371026,-277.777777777778,4,1,1,60,0,9
371169,143.198090692123,4,1,1,60,1,1
371169,-277.777777777778,4,1,1,60,0,1
371313,142.857142857142,4,1,1,60,1,9
371313,-277.777777777778,4,1,1,60,0,9
371455,142.51781472684,4,1,1,60,1,9
371455,-277.777777777778,4,1,1,60,0,9
371598,142.180094786729,4,1,1,60,1,9
371598,-277.777777777778,4,1,1,60,0,9
371740,141.843971631205,4,1,1,60,1,1
371740,-285.714285714286,4,1,1,60,0,1
371882,141.509433962263,4,1,1,60,1,9
371882,-285.714285714286,4,1,1,60,0,9
372023,141.176470588234,4,1,1,60,1,9
372023,-285.714285714286,4,1,1,60,0,9
372165,140.845070422534,4,1,1,60,1,9
372165,-285.714285714286,4,1,1,60,0,9
372306,140.515222482435,4,1,1,60,1,1
372306,-285.714285714286,4,1,1,60,0,1
372446,140.186915887849,4,1,1,60,1,9
372446,-285.714285714286,4,1,1,60,0,9
372586,139.860139860139,4,1,1,60,1,9
372586,-285.714285714286,4,1,1,60,0,9
372726,139.534883720929,4,1,1,60,1,9
372726,-285.714285714286,4,1,1,60,0,9
372866,139.21113689095,4,1,1,60,1,1
372866,-285.714285714286,4,1,1,60,0,1
373005,138.888888888888,4,1,1,60,1,9
373005,-285.714285714286,4,1,1,60,0,9
373144,138.568129330253,4,1,1,60,1,9
373144,-285.714285714286,4,1,1,60,0,9
373282,138.248847926266,4,1,1,60,1,8
373282,-285.714285714286,4,1,1,60,0,8
373421,137.931034482757,4,1,1,60,1,1
373421,-294.117647058824,4,1,1,60,0,1
377834,-294.117647058824,4,1,1,60,0,0
378938,136.363636363636,4,1,1,60,1,1
378938,-294.117647058824,4,1,1,60,0,1
387119,-294.117647058824,4,1,1,60,0,0
387665,-294.117647058824,4,1,1,60,0,1
396392,-294.117647058824,4,1,1,60,0,0
400210,-294.117647058824,4,1,1,45,0,0
404028,-294.117647058824,4,1,1,50,0,0
404301,-294.117647058824,4,1,1,55,0,0
404574,-294.117647058824,4,1,1,60,0,1
404710,139.53488372093,4,1,1,60,1,9
404710,-285.714285714286,4,1,1,60,0,9
404850,142.857142857143,4,1,1,60,1,9
404850,-277.777777777778,4,1,1,60,0,9
404993,146.341463414634,4,1,1,60,1,9
404993,-270.27027027027,4,1,1,60,0,9
405139,150,4,1,1,60,1,1
405139,-263.157894736842,4,1,1,60,0,1
405289,153.846153846154,4,1,1,60,1,9
405289,-263.157894736842,4,1,1,60,0,9
405443,157.894736842105,4,1,1,60,1,9
405443,-256.410256410256,4,1,1,60,0,9
405601,162.162162162162,4,1,1,60,1,9
405601,-243.90243902439,4,1,1,60,0,9
405763,166.666666666667,4,1,1,60,1,1
405763,-238.095238095238,4,1,1,60,0,1
405930,171.428571428571,4,1,1,60,1,9
405930,-232.558139534884,4,1,1,60,0,9
406101,176.470588235294,4,1,1,60,1,9
406101,-227.272727272727,4,1,1,60,0,9
406278,181.818181818182,4,1,1,60,1,9
406278,-222.222222222222,4,1,1,60,0,9
406460,187.5,4,1,1,60,1,1
406460,-212.765957446809,4,1,1,60,0,1
406647,193.548387096774,4,1,1,60,1,9
406647,-208.333333333333,4,1,1,60,0,9
406841,200,4,1,1,60,1,9
406841,-200,4,1,1,60,0,9
407041,203.389830508475,4,1,1,60,1,9
407041,-196.078431372549,4,1,1,60,0,9
407244,206.896551724138,4,1,1,60,1,1
407244,-192.307692307692,4,1,1,60,0,1
407451,210.526315789474,4,1,1,60,1,9
407451,-188.679245283019,4,1,1,60,0,9
407661,214.285714285714,4,1,1,60,1,9
407661,-185.185185185185,4,1,1,60,0,9
407876,218.181818181818,4,1,1,60,1,9
407876,-181.818181818182,4,1,1,60,0,9
408094,222.222222222222,4,1,1,60,1,1
408094,-178.571428571429,4,1,1,60,0,1
408316,226.415094339623,4,1,1,60,1,9
408316,-175.438596491228,4,1,1,60,0,9
408542,230.769230769231,4,1,1,60,1,9
408542,-172.413793103448,4,1,1,60,0,9
408773,235.294117647059,4,1,1,60,1,9
408773,-169.491525423729,4,1,1,60,0,9
409009,240,4,1,1,60,1,1
409009,-166.666666666667,4,1,1,60,0,1
409249,244.897959183673,4,1,1,60,1,9
409249,-163.934426229508,4,1,1,60,0,9
409493,250,4,1,1,60,1,9
409493,-158.730158730159,4,1,1,60,0,9
409743,255.31914893617,4,1,1,60,1,9
409743,-156.25,4,1,1,60,0,9
409999,260.869565217391,4,1,1,60,1,1
409999,-153.846153846154,4,1,1,60,0,1
410260,266.666666666667,4,1,1,60,1,9
410260,-149.253731343284,4,1,1,60,0,9
410526,272.727272727273,4,1,1,60,1,9
410526,-147.058823529412,4,1,1,60,0,9
410799,279.06976744186,4,1,1,60,1,9
410799,-142.857142857143,4,1,1,60,0,9
411078,285.714285714286,4,1,1,60,1,1
411078,-140.845070422535,4,1,1,60,0,1
411364,292.682926829268,4,1,1,60,1,9
411364,-136.986301369863,4,1,1,60,0,9
411656,300,4,1,1,60,1,9
411656,-133.333333333333,4,1,1,60,0,9
411956,307.692307692308,4,1,1,60,1,9
411956,-129.87012987013,4,1,1,60,0,9
412264,315.789473684211,4,1,1,30,1,0
412264,-126.582278481013,4,1,1,30,0,0
415421,-126.582278481013,4,1,1,40,0,0
416369,-126.582278481013,4,1,1,45,0,0
417316,-126.582278481013,4,1,1,50,0,0
419842,-126.582278481013,4,1,1,45,0,0
422369,-126.582278481013,4,1,1,40,0,0

[HitObjects]
192,192,975,5,0,0:0:0:0:
448,192,975,1,0,0:0:0:0:
64,192,1075,1,0,0:0:0:0:
64,192,1175,1,0,0:0:0:0:
320,192,1275,1,0,0:0:0:0:
64,192,1375,1,0,0:0:0:0:
64,192,1475,1,0,0:0:0:0:
448,192,1575,1,0,0:0:0:0:
64,192,1675,1,0,0:0:0:0:
64,192,1775,1,0,0:0:0:0:
320,192,1875,1,0,0:0:0:0:
64,192,1975,1,0,0:0:0:0:
64,192,2075,1,0,0:0:0:0:
448,192,2175,1,0,0:0:0:0:
64,192,2275,1,0,0:0:0:0:
192,192,2375,1,0,0:0:0:0:
64,192,2475,1,0,0:0:0:0:
320,192,2575,1,0,0:0:0:0:
448,192,2675,1,0,0:0:0:0:
448,192,2775,1,0,0:0:0:0:
192,192,2875,1,0,0:0:0:0:
448,192,2975,1,0,0:0:0:0:
448,192,3075,1,0,0:0:0:0:
64,192,3175,1,0,0:0:0:0:
448,192,3275,1,0,0:0:0:0:
448,192,3375,1,0,0:0:0:0:
320,192,3475,1,0,0:0:0:0:
448,192,3575,1,0,0:0:0:0:
448,192,3675,1,0,0:0:0:0:
192,192,3775,1,0,0:0:0:0:
448,192,3875,1,0,0:0:0:0:
64,192,3975,1,0,0:0:0:0:
192,192,4075,1,0,0:0:0:0:
448,192,4125,1,0,0:0:0:0:
320,192,4175,128,0,4975:0:0:0:0:
64,192,4275,1,0,0:0:0:0:
64,192,4375,1,0,0:0:0:0:
192,192,4475,1,0,0:0:0:0:
64,192,4575,1,0,0:0:0:0:
64,192,4675,1,0,0:0:0:0:
448,192,4775,1,0,0:0:0:0:
64,192,4875,1,0,0:0:0:0:
64,192,4975,1,0,0:0:0:0:
320,192,5075,128,0,5475:0:0:0:0:
64,192,5175,1,0,0:0:0:0:
64,192,5275,1,0,0:0:0:0:
448,192,5375,1,0,0:0:0:0:
64,192,5475,1,0,0:0:0:0:
320,192,5575,128,0,5775:0:0:0:0:
64,192,5675,1,0,0:0:0:0:
192,192,5775,128,0,6375:0:0:0:0:
448,192,5875,1,0,0:0:0:0:
448,192,5975,1,0,0:0:0:0:
320,192,6075,1,0,0:0:0:0:
448,192,6175,1,0,0:0:0:0:
448,192,6275,1,0,0:0:0:0:
64,192,6375,1,0,0:0:0:0:
192,192,6441,1,0,0:0:0:0:
448,192,6475,1,0,0:0:0:0:
64,192,6508,1,0,0:0:0:0:
320,192,6575,1,0,0:0:0:0:
448,192,6575,1,0,0:0:0:0:
64,192,6675,1,0,0:0:0:0:
192,192,6675,1,0,0:0:0:0:
320,192,6775,1,0,0:0:0:0:
448,192,6775,1,0,0:0:0:0:
64,192,6875,1,0,0:0:0:0:
448,192,6875,1,0,0:0:0:0:
192,192,6975,1,0,0:0:0:0:
64,192,6975,1,0,0:0:0:0:
320,192,7075,1,0,0:0:0:0:
448,192,7075,1,0,0:0:0:0:
320,192,7175,1,0,0:0:0:0:
192,192,7175,1,0,0:0:0:0:
64,192,7275,1,0,0:0:0:0:
448,192,7275,1,0,0:0:0:0:
320,192,7375,128,0,7575:0:0:0:0:
448,192,7375,128,0,7575:0:0:0:0:
64,192,7375,128,0,7575:0:0:0:0:
192,192,7375,128,0,7575:0:0:0:0:
448,192,7975,1,0,0:0:0:0:
320,192,7975,1,0,0:0:0:0:
192,192,7975,1,0,0:0:0:0:
192,192,8075,1,0,0:0:0:0:
320,192,8075,1,0,0:0:0:0:
448,192,8075,1,0,0:0:0:0:
448,192,8175,1,0,0:0:0:0:
320,192,8175,1,0,0:0:0:0:
192,192,8175,1,0,0:0:0:0:
448,192,8475,1,0,0:0:0:0:
320,192,8475,1,0,0:0:0:0:
192,192,8475,1,0,0:0:0:0:
320,192,8775,1,0,0:0:0:0:
448,192,8775,1,0,0:0:0:0:
64,192,8775,1,0,0:0:0:0:
192,192,8775,1,0,0:0:0:0:
320,192,8975,1,0,0:0:0:0:
448,192,8975,1,0,0:0:0:0:
64,192,9025,1,0,0:0:0:0:
192,192,9025,1,0,0:0:0:0:
448,192,9075,1,0,0:0:0:0:
320,192,9075,1,0,0:0:0:0:
64,192,9125,1,0,0:0:0:0:
192,192,9125,1,0,0:0:0:0:
64,192,9175,1,0,0:0:0:0:
320,192,9175,1,0,0:0:0:0:
448,192,9175,1,0,0:0:0:0:
448,192,9275,128,0,9475:0:0:0:0:
320,192,9275,128,0,9475:0:0:0:0:
64,192,9275,128,0,9475:0:0:0:0:
320,192,9575,128,0,9775:0:0:0:0:
192,192,9575,128,0,9775:0:0:0:0:
64,192,9575,128,0,9775:0:0:0:0:
448,192,9875,128,0,10075:0:0:0:0:
192,192,9875,128,0,9975:0:0:0:0:
64,192,9875,128,0,9975:0:0:0:0:
320,192,9975,1,0,0:0:0:0:
64,192,10075,1,0,0:0:0:0:
192,192,10075,1,0,0:0:0:0:
448,192,10175,1,0,0:0:0:0:
64,192,10175,1,0,0:0:0:0:
192,192,10275,1,0,0:0:0:0:
448,192,10275,1,0,0:0:0:0:
320,192,10375,1,0,0:0:0:0:
64,192,10375,1,0,0:0:0:0:
64,192,10475,1,0,0:0:0:0:
448,192,10475,1,0,0:0:0:0:
320,192,10575,128,0,10775:0:0:0:0:
448,192,10575,128,0,10775:0:0:0:0:
64,192,10575,128,0,10775:0:0:0:0:
192,192,10575,128,0,10775:0:0:0:0:
320,192,11175,1,0,0:0:0:0:
192,192,11175,1,0,0:0:0:0:
64,192,11175,1,0,0:0:0:0:
64,192,11275,1,0,0:0:0:0:
192,192,11275,1,0,0:0:0:0:
320,192,11275,1,0,0:0:0:0:
64,192,11375,1,0,0:0:0:0:
192,192,11375,1,0,0:0:0:0:
320,192,11375,1,0,0:0:0:0:
320,192,11675,1,0,0:0:0:0:
192,192,11675,1,0,0:0:0:0:
64,192,11675,1,0,0:0:0:0:
320,192,11975,1,0,0:0:0:0:
448,192,11975,1,0,0:0:0:0:
64,192,11975,1,0,0:0:0:0:
192,192,11975,1,0,0:0:0:0:
448,192,12175,1,0,0:0:0:0:
320,192,12175,1,0,0:0:0:0:
64,192,12225,1,0,0:0:0:0:
192,192,12225,1,0,0:0:0:0:
448,192,12275,1,0,0:0:0:0:
320,192,12275,1,0,0:0:0:0:
64,192,12325,1,0,0:0:0:0:
192,192,12325,1,0,0:0:0:0:
448,192,12375,1,0,0:0:0:0:
320,192,12375,1,0,0:0:0:0:
64,192,12375,1,0,0:0:0:0:
448,192,12475,1,0,0:0:0:0:
320,192,12475,1,0,0:0:0:0:
64,192,12475,1,0,0:0:0:0:
192,192,12575,1,0,0:0:0:0:
448,192,12641,1,0,0:0:0:0:
64,192,12708,1,0,0:0:0:0:
448,192,12775,1,0,0:0:0:0:
320,192,12775,1,0,0:0:0:0:
192,192,12775,1,0,0:0:0:0:
320,192,12875,1,0,0:0:0:0:
64,192,12975,1,0,0:0:0:0:
448,192,13025,1,0,0:0:0:0:
320,192,13075,1,0,0:0:0:0:
192,192,13075,1,0,0:0:0:0:
64,192,13075,1,0,0:0:0:0:
448,192,13125,1,0,0:0:0:0:
192,192,13175,1,0,0:0:0:0:
320,192,13225,1,0,0:0:0:0:
64,192,13275,1,0,0:0:0:0:
192,192,13325,1,0,0:0:0:0:
320,192,13375,1,0,0:0:0:0:
64,192,13425,1,0,0:0:0:0:
320,192,13475,1,0,0:0:0:0:
192,192,13525,1,0,0:0:0:0:
448,192,13575,1,0,0:0:0:0:
192,192,13625,1,0,0:0:0:0:
320,192,13675,1,0,0:0:0:0:
64,192,13725,1,0,0:0:0:0:
192,192,13775,128,0,13875:0:0:0:0:
448,192,13775,1,0,0:0:0:0:
320,192,13875,1,0,0:0:0:0:
64,192,13975,1,0,0:0:0:0:
192,192,14075,1,0,0:0:0:0:
320,192,14175,1,0,0:0:0:0:
448,192,14275,1,0,0:0:0:0:
64,192,14375,128,0,14475:0:0:0:0:
192,192,14475,128,0,14575:0:0:0:0:
320,192,14575,128,0,14675:0:0:0:0:
64,192,14675,1,0,0:0:0:0:
448,192,14775,1,0,0:0:0:0:
320,192,14875,1,0,0:0:0:0:
64,192,14975,128,0,15075:0:0:0:0:
448,192,15075,1,0,0:0:0:0:
320,192,15175,1,0,0:0:0:0:
192,192,15275,1,0,0:0:0:0:
448,192,15375,128,0,15475:0:0:0:0:
64,192,15475,1,0,0:0:0:0:
192,192,15575,1,0,0:0:0:0:
320,192,15675,128,0,15775:0:0:0:0:
64,192,15775,1,0,0:0:0:0:
448,192,15875,1,0,0:0:0:0:
192,192,15975,128,0,16075:0:0:0:0:
320,192,16075,1,0,0:0:0:0:
64,192,16175,128,0,16275:0:0:0:0:
448,192,16275,1,0,0:0:0:0:
320,192,16375,1,0,0:0:0:0:
192,192,16475,1,0,0:0:0:0:
64,192,16575,1,0,0:0:0:0:
448,192,16675,1,0,0:0:0:0:
320,192,16775,128,0,16875:0:0:0:0:
64,192,16875,128,0,16975:0:0:0:0:
192,192,16975,128,0,17075:0:0:0:0:
320,192,17075,1,0,0:0:0:0:
64,192,17175,1,0,0:0:0:0:
320,192,17275,1,0,0:0:0:0:
448,192,17375,128,0,17475:0:0:0:0:
192,192,17475,1,0,0:0:0:0:
320,192,17575,1,0,0:0:0:0:
192,192,17675,1,0,0:0:0:0:
64,192,17775,128,0,17875:0:0:0:0:
448,192,17875,1,0,0:0:0:0:
192,192,17975,1,0,0:0:0:0:
320,192,18075,1,0,0:0:0:0:
448,192,18175,128,0,18275:0:0:0:0:
64,192,18275,1,0,0:0:0:0:
320,192,18375,1,0,0:0:0:0:
192,192,18475,1,0,0:0:0:0:
448,192,18575,128,0,18675:0:0:0:0:
64,192,18675,1,0,0:0:0:0:
320,192,18775,1,0,0:0:0:0:
192,192,18875,128,0,18975:0:0:0:0:
448,192,18975,1,0,0:0:0:0:
64,192,19075,1,0,0:0:0:0:
448,192,19175,128,0,19275:0:0:0:0:
64,192,19275,1,0,0:0:0:0:
192,192,19375,128,0,19475:0:0:0:0:
320,192,19475,1,0,0:0:0:0:
448,192,19575,1,0,0:0:0:0:
64,192,19675,1,0,0:0:0:0:
448,192,19775,1,0,0:0:0:0:
320,192,19775,1,0,0:0:0:0:
192,192,19841,1,0,0:0:0:0:
448,192,19908,1,0,0:0:0:0:
192,192,19975,1,0,0:0:0:0:
64,192,19975,1,0,0:0:0:0:
320,192,20041,1,0,0:0:0:0:
64,192,20108,1,0,0:0:0:0:
448,192,20175,128,0,20375:0:0:0:0:
320,192,20175,128,0,20475:0:0:0:0:
192,192,20175,128,0,20475:0:0:0:0:
64,192,20275,1,0,0:0:0:0:
64,192,20375,1,0,0:0:0:0:
448,192,20475,1,0,0:0:0:0:
192,192,20575,1,0,0:0:0:0:
320,192,20675,1,0,0:0:0:0:
64,192,20775,128,0,20875:0:0:0:0:
192,192,20875,128,0,20975:0:0:0:0:
448,192,20975,128,0,21275:0:0:0:0:
320,192,20975,128,0,21175:0:0:0:0:
64,192,20975,128,0,21275:0:0:0:0:
192,192,21075,1,0,0:0:0:0:
192,192,21175,1,0,0:0:0:0:
320,192,21275,1,0,0:0:0:0:
64,192,21375,128,0,21475:0:0:0:0:
448,192,21475,1,0,0:0:0:0:
192,192,21575,1,0,0:0:0:0:
448,192,21675,1,0,0:0:0:0:
320,192,21725,1,0,0:0:0:0:
448,192,21775,128,0,21975:0:0:0:0:
192,192,21775,128,0,21975:0:0:0:0:
64,192,21775,128,0,21975:0:0:0:0:
320,192,21875,1,0,0:0:0:0:
320,192,21975,1,0,0:0:0:0:
320,192,22075,128,0,22275:0:0:0:0:
448,192,22075,128,0,22275:0:0:0:0:
64,192,22075,128,0,22275:0:0:0:0:
192,192,22175,1,0,0:0:0:0:
192,192,22275,1,0,0:0:0:0:
448,192,22375,128,0,22475:0:0:0:0:
320,192,22375,128,0,22475:0:0:0:0:
192,192,22375,128,0,22475:0:0:0:0:
64,192,22475,1,0,0:0:0:0:
320,192,22575,128,0,22875:0:0:0:0:
192,192,22575,128,0,22875:0:0:0:0:
64,192,22575,128,0,22775:0:0:0:0:
448,192,22675,1,0,0:0:0:0:
448,192,22775,1,0,0:0:0:0:
64,192,22875,1,0,0:0:0:0:
448,192,22975,1,0,0:0:0:0:
320,192,23075,1,0,0:0:0:0:
192,192,23125,1,0,0:0:0:0:
64,192,23175,1,0,0:0:0:0:
448,192,23175,1,0,0:0:0:0:
320,192,23275,1,0,0:0:0:0:
192,192,23275,1,0,0:0:0:0:
448,192,23375,128,0,23575:0:0:0:0:
320,192,23375,128,0,23675:0:0:0:0:
64,192,23375,128,0,23675:0:0:0:0:
192,192,23475,1,0,0:0:0:0:
192,192,23575,1,0,0:0:0:0:
448,192,23675,1,0,0:0:0:0:
320,192,23775,128,0,23875:0:0:0:0:
192,192,23875,1,0,0:0:0:0:
64,192,23975,1,0,0:0:0:0:
320,192,24075,1,0,0:0:0:0:
448,192,24175,128,0,24475:0:0:0:0:
192,192,24175,128,0,24375:0:0:0:0:
64,192,24175,128,0,24475:0:0:0:0:
320,192,24275,1,0,0:0:0:0:
320,192,24375,1,0,0:0:0:0:
192,192,24475,1,0,0:0:0:0:
448,192,24575,128,0,24675:0:0:0:0:
64,192,24675,1,0,0:0:0:0:
192,192,24775,1,0,0:0:0:0:
448,192,24875,1,0,0:0:0:0:
320,192,24975,128,0,25075:0:0:0:0:
192,192,25075,1,0,0:0:0:0:
448,192,25175,128,0,25375:0:0:0:0:
320,192,25175,128,0,25375:0:0:0:0:
64,192,25175,128,0,25275:0:0:0:0:
192,192,25275,128,0,25375:0:0:0:0:
64,192,25375,128,0,25475:0:0:0:0:
320,192,25475,128,0,25675:0:0:0:0:
448,192,25475,128,0,25675:0:0:0:0:
192,192,25475,128,0,25675:0:0:0:0:
64,192,25575,1,0,0:0:0:0:
64,192,25675,1,0,0:0:0:0:
192,192,25775,128,0,25975:0:0:0:0:
64,192,25775,128,0,25975:0:0:0:0:
320,192,25825,1,0,0:0:0:0:
448,192,25875,1,0,0:0:0:0:
448,192,25975,1,0,0:0:0:0:
448,192,26075,128,0,26275:0:0:0:0:
320,192,26075,128,0,26275:0:0:0:0:
192,192,26075,128,0,26275:0:0:0:0:
64,192,26175,1,0,0:0:0:0:
64,192,26275,1,0,0:0:0:0:
448,192,26375,128,0,26475:0:0:0:0:
320,192,26375,128,0,26475:0:0:0:0:
64,192,26375,128,0,26475:0:0:0:0:
192,192,26475,1,0,0:0:0:0:
448,192,26575,128,0,26775:0:0:0:0:
192,192,26575,128,0,26875:0:0:0:0:
64,192,26575,128,0,26875:0:0:0:0:
320,192,26675,1,0,0:0:0:0:
320,192,26775,1,0,0:0:0:0:
448,192,26875,1,0,0:0:0:0:
192,192,26975,128,0,27075:0:0:0:0:
64,192,27075,1,0,0:0:0:0:
320,192,27175,1,0,0:0:0:0:
448,192,27275,1,0,0:0:0:0:
320,192,27375,128,0,27675:0:0:0:0:
192,192,27375,128,0,27675:0:0:0:0:
64,192,27375,128,0,27575:0:0:0:0:
448,192,27475,1,0,0:0:0:0:
448,192,27575,1,0,0:0:0:0:
64,192,27675,1,0,0:0:0:0:
448,192,27775,128,0,27875:0:0:0:0:
192,192,27841,1,0,0:0:0:0:
320,192,27908,1,0,0:0:0:0:
64,192,27975,1,0,0:0:0:0:
448,192,28041,1,0,0:0:0:0:
64,192,28108,1,0,0:0:0:0:
448,192,28175,128,0,28275:0:0:0:0:
320,192,28175,128,0,28375:0:0:0:0:
192,192,28175,128,0,28375:0:0:0:0:
64,192,28275,128,0,28475:0:0:0:0:
448,192,28375,128,0,28475:0:0:0:0:
320,192,28475,128,0,28675:0:0:0:0:
192,192,28475,128,0,28575:0:0:0:0:
448,192,28575,128,0,28875:0:0:0:0:
64,192,28575,128,0,28775:0:0:0:0:
192,192,28675,128,0,28975:0:0:0:0:
320,192,28775,128,0,29275:0:0:0:0:
64,192,28875,128,0,29175:0:0:0:0:
448,192,28975,128,0,29075:0:0:0:0:
192,192,29075,128,0,29475:0:0:0:0:
448,192,29175,128,0,29475:0:0:0:0:
64,192,29275,128,0,29375:0:0:0:0:
320,192,29375,128,0,29575:0:0:0:0:
64,192,29475,128,0,29641:0:0:0:0:
448,192,29575,128,0,29708:0:0:0:0:
192,192,29641,1,0,0:0:0:0:
320,192,29708,1,0,0:0:0:0:
64,192,29775,1,0,0:0:0:0:
448,192,29775,1,0,0:0:0:0:
