osu file format v14

[General]
AudioFilename: audio.mp3
AudioLeadIn: 0
PreviewTime: 292850
Countdown: 0
SampleSet: Normal
StackLeniency: 0.7
Mode: 3
LetterboxInBreaks: 0
SpecialStyle: 0
WidescreenStoryboard: 1

[Editor]
Bookmarks: 975,29775,38575,52175,68202,80093,83598,95771,106742,117713,125942,139181,152588,155552,171054,180299,182418,190251,204907,221452,248465,275290,293330,311570,326930,338078,341362,350962,357033,361215,363860,368830,373421,378938,387665,404574
DistanceSpacing: 0.8
BeatDivisor: 4
GridSize: 32
TimelineZoom: 3.899998

[Metadata]
Title:Parallel Universe Shifter Training
TitleUnicode:Parallel Universe Shifter Training
Artist:Camellia
ArtistUnicode:Camellia
Creator:ytGrapeFrootZ34
Version:0
Source:osu!mania 4K World Cup 2023
Tags:
BeatmapID:4371367
BeatmapSetID:2086353

[Difficulty]
HPDrainRate:8.3
CircleSize:4
OverallDifficulty:7.7
ApproachRate:5
SliderMultiplier:1.4
SliderTickRate:1

[Events]
//Background and Video events
0,0,"Camellia_ParallelUniverseShifter_Jacket_2732x1536.jpg",0,0
//Break Periods
2,29975,32975
//Storyboard Layer 0 (Background)
//Storyboard Layer 1 (Fail)
//Storyboard Layer 2 (Pass)
//Storyboard Layer 3 (Foreground)
//Storyboard Layer 4 (Overlay)
//Storyboard Sound Samples

[TimingPoints]
975,400,4,1,1,30,1,0
7375,-100,4,1,1,60,0,0
13775,-100,4,1,1,40,0,0
19775,-100,4,1,1,50,0,0
20175,-100,4,1,1,60,0,0
29775,-100,4,1,1,40,0,0
34575,-100,4,1,1,50,0,0
38575,-100,4,1,1,40,0,0
39375,-100,4,1,1,60,0,0
52975,413.793103448276,4,1,1,60,1,8
52975,-97.0873786407767,4,1,1,60,0,8
53803,428.571428571429,4,1,1,60,1,0
53803,-93.4579439252336,4,1,1,60,0,0
54660,444.444444444444,4,1,1,60,1,8
54660,-90.0900900900901,4,1,1,60,0,8
55549,461.538461538462,4,1,1,60,1,0
55549,-86.9565217391304,4,1,1,60,0,0
56472,480,4,1,1,60,1,8
56472,-83.3333333333333,4,1,1,60,0,8
57432,500,4,1,1,60,1,0
57432,-80,4,1,1,60,0,0
58432,521.739130434783,4,1,1,60,1,8
58432,-76.9230769230769,4,1,1,60,0,8
59475,545.454545454546,4,1,1,60,1,0
59475,-73.5294117647059,4,1,1,60,0,0
66020,-73.5294117647059,4,1,1,50,0,0
68202,-73.5294117647059,4,1,1,60,0,1
68748,540.540540540541,4,1,1,60,1,9
68748,-74.0740740740741,4,1,1,60,0,9
69288,535.714285714286,4,1,1,60,1,9
69288,-74.6268656716418,4,1,1,60,0,9
69824,530.973451327434,4,1,1,60,1,9
69824,-75.187969924812,4,1,1,60,0,9
70355,526.315789473684,4,1,1,60,1,1
70355,-75.7575757575758,4,1,1,60,0,1
70881,521.739130434783,4,1,1,60,1,9
70881,-76.9230769230769,4,1,1,60,0,9
71403,517.241379310345,4,1,1,60,1,9
71403,-77.5193798449612,4,1,1,60,0,9
71920,512.820512820513,4,1,1,60,1,9
71920,-78.125,4,1,1,60,0,9
72433,508.474576271186,4,1,1,60,1,1
72433,-78.740157480315,4,1,1,60,0,1
72942,504.201680672269,4,1,1,60,1,9
72942,-79.3650793650794,4,1,1,60,0,9
73446,500,4,1,1,60,1,9
73446,-80,4,1,1,60,0,9
73946,495.867768595041,4,1,1,60,1,9
73946,-80.6451612903226,4,1,1,60,0,9
74442,491.803278688525,4,1,1,60,1,1
74442,-81.3008130081301,4,1,1,60,0,1
74934,487.80487804878,4,1,1,60,1,9
74934,-81.9672131147541,4,1,1,60,0,9
75421,483.870967741935,4,1,1,60,1,9
75421,-82.6446280991736,4,1,1,60,0,9
75905,480,4,1,1,60,1,9
75905,-83.3333333333333,4,1,1,60,0,9
76385,476.190476190476,4,1,1,60,1,1
76385,-84.0336134453782,4,1,1,60,0,1
76861,472.44094488189,4,1,1,60,1,9
76861,-84.7457627118644,4,1,1,60,0,9
77334,468.75,4,1,1,60,1,9
77334,-85.4700854700855,4,1,1,60,0,9
77803,465.116279069767,4,1,1,60,1,9
77803,-86.2068965517241,4,1,1,60,0,9
78268,461.538461538462,4,1,1,60,1,1
78268,-86.9565217391304,4,1,1,60,0,1
78729,458.015267175573,4,1,1,60,1,9
78729,-86.9565217391304,4,1,1,60,0,9
79187,454.545454545455,4,1,1,60,1,9
79187,-87.719298245614,4,1,1,60,0,9
79642,451.127819548872,4,1,1,60,1,9
79642,-88.495575221239,4,1,1,60,0,9
80093,447.761194029851,4,1,1,40,1,0
80093,-89.2857142857143,4,1,1,40,0,0
80988,-89.2857142857143,4,1,1,50,0,0
81884,428.571428571429,4,1,1,50,1,0
81884,-93.4579439252336,4,1,1,50,0,0
83169,-93.4579439252336,4,1,1,40,0,0
83598,-93.4579439252336,4,1,1,60,0,1
84027,425.531914893617,4,1,1,60,1,9
84027,-94.3396226415094,4,1,1,60,0,9
84452,413.793103448276,4,1,1,60,1,9
84452,-97.0873786407767,4,1,1,60,0,9
84866,410.958904109589,4,1,1,60,1,9
84866,-97.0873786407767,4,1,1,60,0,9
85277,408.163265306122,4,1,1,60,1,1
85277,-98.0392156862745,4,1,1,60,0,1
85685,405.405405405405,4,1,1,60,1,9
85685,-99.009900990099,4,1,1,60,0,9
86091,402.684563758389,4,1,1,60,1,9
86091,-99.009900990099,4,1,1,60,0,9
86493,400,4,1,1,60,1,9
86893,397.350993377483,4,1,1,60,1,1
86893,-101.010101010101,4,1,1,60,0,1
87291,394.736842105263,4,1,1,60,1,9
87291,-101.010101010101,4,1,1,60,0,9
87686,392.156862745098,4,1,1,60,1,9
87686,-102.040816326531,4,1,1,60,0,9
88078,389.61038961039,4,1,1,60,1,9
88078,-103.092783505155,4,1,1,60,0,9
88467,387.096774193548,4,1,1,60,1,1
88467,-103.092783505155,4,1,1,60,0,1
88854,384.615384615385,4,1,1,60,1,9
88854,-104.166666666667,4,1,1,60,0,9
89239,382.165605095541,4,1,1,60,1,9
89239,-104.166666666667,4,1,1,60,0,9
89621,379.746835443038,4,1,1,60,1,9
89621,-105.263157894737,4,1,1,60,0,9
90001,377.358490566038,4,1,1,60,1,1
90001,-106.382978723404,4,1,1,60,0,1
90378,375,4,1,1,60,1,9
90378,-106.382978723404,4,1,1,60,0,9
90753,372.670807453416,4,1,1,60,1,9
90753,-107.52688172043,4,1,1,60,0,9
91126,370.37037037037,4,1,1,60,1,9
91126,-107.52688172043,4,1,1,60,0,9
91496,368.098159509202,4,1,1,60,1,1
91496,-108.695652173913,4,1,1,60,0,1
91864,365.853658536585,4,1,1,60,1,9
91864,-109.89010989011,4,1,1,60,0,9
92230,363.636363636364,4,1,1,60,1,9
92230,-109.89010989011,4,1,1,60,0,9
92594,361.44578313253,4,1,1,60,1,9
92594,-111.111111111111,4,1,1,60,0,9
92955,359.281437125748,4,1,1,60,1,1
92955,-111.111111111111,4,1,1,60,0,1
93315,357.142857142857,4,1,1,60,1,9
93315,-112.359550561798,4,1,1,60,0,9
93672,355.029585798817,4,1,1,60,1,9
93672,-112.359550561798,4,1,1,60,0,9
94027,352.941176470588,4,1,1,60,1,9
94027,-113.636363636364,4,1,1,60,0,9
94380,350.877192982456,4,1,1,60,1,1
94380,-113.636363636364,4,1,1,60,0,1
94731,348.837209302326,4,1,1,60,1,9
94731,-114.942528735632,4,1,1,60,0,9
95079,346.820809248555,4,1,1,60,1,9
95079,-114.942528735632,4,1,1,60,0,9
95426,344.827586206897,4,1,1,60,1,9
95426,-116.279069767442,4,1,1,60,0,9
95771,342.857142857143,4,1,1,45,1,0
95771,-116.279069767442,4,1,1,45,0,0
103999,-116.279069767442,4,1,1,50,0,0
105371,-116.279069767442,4,1,1,55,0,0
106742,-116.279069767442,4,1,1,60,0,0
117713,-116.279069767442,4,1,1,50,0,0
123199,-116.279069767442,4,1,1,40,0,0
123885,-116.279069767442,4,1,1,50,0,0
125599,-116.279069767442,4,1,1,40,0,0
125942,-116.279069767442,4,1,1,60,0,0
126628,352.941176470588,4,1,1,60,1,8
126628,-113.636363636364,4,1,1,60,0,8
127334,363.636363636364,4,1,1,60,1,0
127334,-109.89010989011,4,1,1,60,0,0
128061,375,4,1,1,60,1,8
128061,-106.382978723404,4,1,1,60,0,8
128811,387.096774193548,4,1,1,60,1,0
128811,-103.092783505155,4,1,1,60,0,0
129586,400,4,1,1,60,1,8
130386,413.793103448276,4,1,1,60,1,0
130386,-97.0873786407767,4,1,1,60,0,0
131213,428.571428571429,4,1,1,60,1,8
131213,-93.4579439252336,4,1,1,60,0,8
132070,444.444444444444,4,1,1,60,1,0
132070,-90.0900900900901,4,1,1,60,0,0
137403,-90.0900900900901,4,1,1,40,0,0
138736,-90.0900900900901,4,1,1,50,0,0
139181,-90.0900900900901,4,1,1,60,0,0
139514,-90.0900900900901,4,1,1,40,0,0
142736,-90.0900900900901,4,1,1,60,0,0
143070,-90.0900900900901,4,1,1,50,0,0
143181,441.176470588235,4,1,1,50,1,8
143181,-90.9090909090909,4,1,1,50,0,8
143623,437.956204379562,4,1,1,50,1,8
143623,-91.743119266055,4,1,1,50,0,8
144061,434.782608695652,4,1,1,50,1,8
144061,-91.743119266055,4,1,1,50,0,8
144495,431.654676258993,4,1,1,50,1,0
144495,-92.5925925925926,4,1,1,50,0,0
144927,428.571428571429,4,1,1,50,1,8
144927,-93.4579439252336,4,1,1,50,0,8
145356,425.531914893617,4,1,1,50,1,8
145356,-94.3396226415094,4,1,1,50,0,8
145781,422.535211267606,4,1,1,50,1,8
145781,-94.3396226415094,4,1,1,50,0,8
146204,419.58041958042,4,1,1,60,1,0
146204,-95.2380952380952,4,1,1,60,0,0
146518,-95.2380952380952,4,1,1,50,0,0
146623,416.666666666667,4,1,1,50,1,8
146623,-96.1538461538461,4,1,1,50,0,8
147040,413.793103448276,4,1,1,50,1,8
147040,-97.0873786407767,4,1,1,50,0,8
147454,410.958904109589,4,1,1,50,1,8
147454,-97.0873786407767,4,1,1,50,0,8
147865,408.163265306122,4,1,1,50,1,0
147865,-98.0392156862745,4,1,1,50,0,0
148273,405.405405405405,4,1,1,50,1,8
148273,-99.009900990099,4,1,1,50,0,8
148678,402.684563758389,4,1,1,50,1,8
148678,-99.009900990099,4,1,1,50,0,8
149081,400,4,1,1,50,1,8
149481,397.350993377483,4,1,1,50,1,0
149481,-101.010101010101,4,1,1,50,0,0
149779,-101.010101010101,4,1,1,50,0,0
149878,394.736842105263,4,1,1,50,1,8
149878,-101.010101010101,4,1,1,50,0,8
150273,392.156862745098,4,1,1,50,1,8
150273,-102.040816326531,4,1,1,50,0,8
150665,389.61038961039,4,1,1,50,1,8
150665,-103.092783505155,4,1,1,50,0,8
151055,387.096774193548,4,1,1,55,1,0
151055,-103.092783505155,4,1,1,55,0,0
151442,384.615384615385,4,1,1,55,1,8
151442,-104.166666666667,4,1,1,55,0,8
151826,382.165605095541,4,1,1,55,1,8
151826,-104.166666666667,4,1,1,55,0,8
152209,379.746835443038,4,1,1,55,1,8
152209,-105.263157894737,4,1,1,55,0,8
152588,377.358490566038,4,1,1,40,1,0
152588,-106.382978723404,4,1,1,40,0,0
153342,-106.382978723404,4,1,1,50,0,0
154098,363.636363636364,4,1,1,50,1,0
154098,-109.89010989011,4,1,1,50,0,0
155188,-109.89010989011,4,1,1,40,0,0
155552,-109.89010989011,4,1,1,60,0,1
155916,361.44578313253,4,1,1,60,1,9
155916,-111.111111111111,4,1,1,60,0,9
156277,359.281437125748,4,1,1,60,1,9
156277,-111.111111111111,4,1,1,60,0,9
156637,357.142857142857,4,1,1,60,1,9
156637,-112.359550561798,4,1,1,60,0,9
156994,355.029585798817,4,1,1,60,1,1
156994,-112.359550561798,4,1,1,60,0,1
157349,352.941176470588,4,1,1,60,1,9
157349,-113.636363636364,4,1,1,60,0,9
157702,350.877192982456,4,1,1,60,1,9
157702,-113.636363636364,4,1,1,60,0,9
158053,348.837209302326,4,1,1,60,1,9
158053,-114.942528735632,4,1,1,60,0,9
158402,346.820809248555,4,1,1,60,1,1
158402,-114.942528735632,4,1,1,60,0,1
158748,344.827586206897,4,1,1,60,1,9
158748,-116.279069767442,4,1,1,60,0,9
159093,342.857142857143,4,1,1,60,1,9
159093,-116.279069767442,4,1,1,60,0,9
159436,340.909090909091,4,1,1,60,1,9
159436,-117.647058823529,4,1,1,60,0,9
159777,338.983050847458,4,1,1,60,1,1
159777,-117.647058823529,4,1,1,60,0,1
160116,337.078651685393,4,1,1,60,1,9
160116,-119.047619047619,4,1,1,60,0,9
160453,335.195530726257,4,1,1,60,1,9
160453,-119.047619047619,4,1,1,60,0,9
160788,333.333333333333,4,1,1,60,1,9
160788,-120.481927710843,4,1,1,60,0,9
161122,331.491712707182,4,1,1,60,1,1
161122,-120.481927710843,4,1,1,60,0,1
161453,329.67032967033,4,1,1,60,1,9
161453,-121.951219512195,4,1,1,60,0,9
161783,327.868852459016,4,1,1,60,1,9
161783,-121.951219512195,4,1,1,60,0,9
162111,326.086956521739,4,1,1,60,1,9
162111,-121.951219512195,4,1,1,60,0,9
162437,324.324324324324,4,1,1,60,1,1
162437,-123.456790123457,4,1,1,60,0,1
162761,322.58064516129,4,1,1,60,1,9
162761,-123.456790123457,4,1,1,60,0,9
163084,320.855614973262,4,1,1,60,1,9
163084,-125,4,1,1,60,0,9
163404,319.148936170213,4,1,1,60,1,9
163404,-125,4,1,1,60,0,9
163724,317.460317460317,4,1,1,60,1,1
163724,-126.582278481013,4,1,1,60,0,1
164041,315.789473684211,4,1,1,60,1,9
164041,-126.582278481013,4,1,1,60,0,9
164357,314.13612565445,4,1,1,60,1,9
164357,-126.582278481013,4,1,1,60,0,9
164671,312.5,4,1,1,60,1,9
164671,-128.205128205128,4,1,1,60,0,9
164983,310.880829015544,4,1,1,60,1,1
164983,-128.205128205128,4,1,1,60,0,1
165294,309.278350515464,4,1,1,60,1,9
165294,-129.87012987013,4,1,1,60,0,9
165604,307.692307692308,4,1,1,60,1,9
165604,-129.87012987013,4,1,1,60,0,9
165911,306.122448979592,4,1,1,60,1,9
165911,-129.87012987013,4,1,1,60,0,9
166217,304.568527918782,4,1,1,60,1,0
166217,-131.578947368421,4,1,1,60,0,0
168654,300,4,1,1,60,1,1
168654,-133.333333333333,4,1,1,60,0,1
170454,-133.333333333333,4,1,1,50,0,0
173304,-133.333333333333,4,1,1,60,0,0
173454,-133.333333333333,4,1,1,60,0,1
173754,298.507462686567,4,1,1,60,1,9
173754,-133.333333333333,4,1,1,60,0,9
174351,297.029702970297,4,1,1,60,1,9
174351,-135.135135135135,4,1,1,60,0,9
174648,295.566502463054,4,1,1,60,1,1
174648,-135.135135135135,4,1,1,60,0,1
174944,294.117647058824,4,1,1,60,1,9
174944,-135.135135135135,4,1,1,60,0,9
175238,292.682926829268,4,1,1,60,1,9
175238,-136.986301369863,4,1,1,60,0,9
175530,291.26213592233,4,1,1,60,1,9
175530,-136.986301369863,4,1,1,60,0,9
175822,289.855072463768,4,1,1,60,1,1
175822,-138.888888888889,4,1,1,60,0,1
176112,288.461538461538,4,1,1,60,1,9
176112,-138.888888888889,4,1,1,60,0,9
176400,287.081339712919,4,1,1,60,1,9
176400,-138.888888888889,4,1,1,60,0,9
176687,285.714285714286,4,1,1,60,1,9
176687,-140.845070422535,4,1,1,60,0,9
176973,284.36018957346,4,1,1,60,1,1
176973,-140.845070422535,4,1,1,60,0,1
177257,283.018867924528,4,1,1,60,1,9
177257,-140.845070422535,4,1,1,60,0,9
177540,281.69014084507,4,1,1,60,1,9
177540,-142.857142857143,4,1,1,60,0,9
177822,280.373831775701,4,1,1,60,1,9
177822,-142.857142857143,4,1,1,60,0,9
178102,279.06976744186,4,1,1,60,1,1
178102,-142.857142857143,4,1,1,60,0,1
178381,277.777777777778,4,1,1,60,1,9
178381,-144.927536231884,4,1,1,60,0,9
178659,276.497695852535,4,1,1,60,1,9
178659,-144.927536231884,4,1,1,60,0,9
178936,275.229357798165,4,1,1,60,1,9
178936,-144.927536231884,4,1,1,60,0,9
179211,273.972602739726,4,1,1,60,1,1
179211,-147.058823529412,4,1,1,60,0,1
179485,272.727272727273,4,1,1,60,1,9
179485,-147.058823529412,4,1,1,60,0,9
179757,271.493212669683,4,1,1,60,1,9
179757,-147.058823529412,4,1,1,60,0,9
180029,270.27027027027,4,1,1,60,1,9
180029,-147.058823529412,4,1,1,60,0,9
180299,269.058295964126,4,1,1,40,1,0
180299,-149.253731343284,4,1,1,40,0,0
180837,-149.253731343284,4,1,1,50,0,0
181375,260.869565217391,4,1,1,55,1,0
181375,-153.846153846154,4,1,1,55,0,0
181896,-153.846153846154,4,1,1,40,0,0
182418,-153.846153846154,4,1,1,60,0,1
182680,259.74025974026,4,1,1,60,1,9
182680,-153.846153846154,4,1,1,60,0,9
182940,258.620689655172,4,1,1,60,1,9
182940,-153.846153846154,4,1,1,60,0,9
183198,257.510729613734,4,1,1,60,1,9
183198,-156.25,4,1,1,60,0,9
183456,256.410256410256,4,1,1,60,1,1
183456,-156.25,4,1,1,60,0,1
183712,255.31914893617,4,1,1,60,1,9
183712,-156.25,4,1,1,60,0,9
183967,254.237288135593,4,1,1,60,1,9
183967,-156.25,4,1,1,60,0,9
184222,253.164556962025,4,1,1,60,1,9
184222,-158.730158730159,4,1,1,60,0,9
184475,252.100840336134,4,1,1,60,1,1
184475,-158.730158730159,4,1,1,60,0,1
184727,251.046025104603,4,1,1,60,1,9
184727,-158.730158730159,4,1,1,60,0,9
184978,250,4,1,1,60,1,9
184978,-158.730158730159,4,1,1,60,0,9
185228,248.96265560166,4,1,1,60,1,9
185228,-161.290322580645,4,1,1,60,0,9
185477,247.933884297521,4,1,1,60,1,1
185477,-161.290322580645,4,1,1,60,0,1
185725,246.913580246914,4,1,1,60,1,9
185725,-161.290322580645,4,1,1,60,0,9
185972,245.901639344262,4,1,1,60,1,9
185972,-163.934426229508,4,1,1,60,0,9
186218,244.897959183673,4,1,1,60,1,9
186218,-163.934426229508,4,1,1,60,0,9
186463,243.90243902439,4,1,1,60,1,1
186463,-163.934426229508,4,1,1,60,0,1
186706,242.914979757085,4,1,1,60,1,9
186706,-163.934426229508,4,1,1,60,0,9
186949,241.935483870968,4,1,1,60,1,9
186949,-166.666666666667,4,1,1,60,0,9
187191,240.963855421687,4,1,1,60,1,9
187191,-166.666666666667,4,1,1,60,0,9
187432,240,4,1,1,60,1,1
187432,-166.666666666667,4,1,1,60,0,1
187672,239.043824701195,4,1,1,60,1,9
187672,-166.666666666667,4,1,1,60,0,9
187911,238.095238095238,4,1,1,60,1,9
187911,-166.666666666667,4,1,1,60,0,9
188149,237.154150197628,4,1,1,60,1,9
188149,-169.491525423729,4,1,1,60,0,9
188387,236.220472440945,4,1,1,60,1,1
188387,-169.491525423729,4,1,1,60,0,1
188623,235.294117647059,4,1,1,60,1,9
188623,-169.491525423729,4,1,1,60,0,9
188858,234.375,4,1,1,60,1,9
188858,-169.491525423729,4,1,1,60,0,9
189092,233.463035019455,4,1,1,60,1,9
189092,-172.413793103448,4,1,1,60,0,9
189326,232.558139534884,4,1,1,60,1,1
189326,-172.413793103448,4,1,1,60,0,1
189559,231.660231660232,4,1,1,60,1,9
189559,-172.413793103448,4,1,1,60,0,9
189790,230.769230769231,4,1,1,60,1,9
189790,-172.413793103448,4,1,1,60,0,9
190021,229.885057471264,4,1,1,60,1,9
190021,-175.438596491228,4,1,1,60,0,9
190251,229.007633587786,4,1,1,50,1,0
190251,-175.438596491228,4,1,1,50,0,0
196663,-175.438596491228,4,1,1,55,0,0
197579,-175.438596491228,4,1,1,60,0,0
215900,230.769230769231,4,1,1,60,1,0
215900,-172.413793103448,4,1,1,60,0,0
216130,240,4,1,1,60,1,8
216130,-166.666666666667,4,1,1,60,0,8
216370,250,4,1,1,60,1,8
216370,-158.730158730159,4,1,1,60,0,8
216620,260.869565217391,4,1,1,60,1,8
216620,-153.846153846154,4,1,1,60,0,8
216881,272.727272727273,4,1,1,60,1,0
216881,-147.058823529412,4,1,1,60,0,0
217154,285.714285714286,4,1,1,60,1,8
217154,-140.845070422535,4,1,1,60,0,8
217440,300,4,1,1,60,1,8
217440,-133.333333333333,4,1,1,60,0,8
217740,315.789473684211,4,1,1,60,1,8
217740,-126.582278481013,4,1,1,60,0,8
218056,333.333333333333,4,1,1,60,1,0
218056,-120.481927710843,4,1,1,60,0,0
218389,352.941176470588,4,1,1,60,1,8
218389,-113.636363636364,4,1,1,60,0,8
218742,375,4,1,1,60,1,8
218742,-106.382978723404,4,1,1,60,0,8
219117,400,4,1,1,60,1,8
219517,428.571428571429,4,1,1,60,1,0
219517,-93.4579439252336,4,1,1,60,0,0
219945,461.538461538462,4,1,1,60,1,8
219945,-86.9565217391304,4,1,1,60,0,8
220407,500,4,1,1,60,1,8
220407,-80,4,1,1,60,0,8
220907,545.454545454546,4,1,1,60,1,8
220907,-73.5294117647059,4,1,1,60,0,8
221452,600,4,1,1,60,1,0
221452,-66.6666666666667,4,1,1,60,0,0
222052,-66.6666666666667,4,1,1,55,0,0
222652,-66.6666666666667,4,1,1,50,0,0
223252,-66.6666666666667,4,1,1,45,0,0
223852,-66.6666666666667,4,1,1,40,0,0
224452,-66.6666666666667,4,1,1,35,0,0
225052,-66.6666666666667,4,1,1,30,0,0
231052,571.428571428571,4,1,1,30,1,0
231052,-69.9300699300699,4,1,1,30,0,0
233338,545.454545454546,4,1,1,30,1,0
233338,-73.5294117647059,4,1,1,30,0,0
235520,521.739130434783,4,1,1,35,1,0
235520,-76.9230769230769,4,1,1,35,0,0
237607,500,4,1,1,35,1,0
237607,-80,4,1,1,35,0,0
239607,480,4,1,1,50,1,0
239607,-83.3333333333333,4,1,1,50,0,0
241527,461.538461538462,4,1,1,50,1,0
241527,-86.9565217391304,4,1,1,50,0,0
243373,444.444444444444,4,1,1,55,1,0
243373,-90.0900900900901,4,1,1,55,0,0
245151,428.571428571429,4,1,1,55,1,0
245151,-93.4579439252336,4,1,1,55,0,0
246865,400,4,1,1,60,1,0
248465,-100,4,1,1,50,0,0
262865,397.350993377483,4,1,1,50,1,0
262865,-101.010101010101,4,1,1,50,0,0
264455,394.736842105263,4,1,1,50,1,0
264455,-101.010101010101,4,1,1,50,0,0
266033,392.156862745098,4,1,1,50,1,0
266033,-102.040816326531,4,1,1,50,0,0
267602,389.61038961039,4,1,1,50,1,0
267602,-103.092783505155,4,1,1,50,0,0
269161,387.096774193548,4,1,1,50,1,0
269161,-103.092783505155,4,1,1,50,0,0
270709,384.615384615385,4,1,1,50,1,0
270709,-104.166666666667,4,1,1,50,0,0
272247,382.165605095541,4,1,1,50,1,0
272247,-104.166666666667,4,1,1,50,0,0
273776,379.746835443038,4,1,1,50,1,0
273776,-105.263157894737,4,1,1,50,0,0
274536,377.358490566038,4,1,1,50,1,8
274536,-106.382978723404,4,1,1,50,0,8
275290,375,4,1,1,50,1,0
275290,-106.382978723404,4,1,1,50,0,0
276040,363.636363636364,4,1,1,50,1,8
276040,-109.89010989011,4,1,1,50,0,8
276768,352.941176470588,4,1,1,50,1,0
276768,-113.636363636364,4,1,1,50,0,0
277473,342.857142857143,4,1,1,50,1,8
277473,-116.279069767442,4,1,1,50,0,8
278159,333.333333333333,4,1,1,55,1,0
278159,-120.481927710843,4,1,1,55,0,0
278826,315.789473684211,4,1,1,55,1,8
278826,-126.582278481013,4,1,1,55,0,8
279457,300,4,1,1,55,1,0
279457,-133.333333333333,4,1,1,55,0,0
280057,285.714285714286,4,1,1,55,1,8
280057,-140.845070422535,4,1,1,55,0,8
280629,272.727272727273,4,1,1,60,1,0
280629,-147.058823529412,4,1,1,60,0,0
281174,266.666666666667,4,1,1,60,1,8
281174,-149.253731343284,4,1,1,60,0,8
281708,260.869565217391,4,1,1,60,1,0
281708,-153.846153846154,4,1,1,60,0,0
282229,255.31914893617,4,1,1,60,1,8
282229,-156.25,4,1,1,60,0,8
282740,250,4,1,1,60,1,0
282740,-158.730158730159,4,1,1,60,0,0
283240,244.897959183673,4,1,1,60,1,8
283240,-163.934426229508,4,1,1,60,0,8
283730,240,4,1,1,60,1,0
283730,-166.666666666667,4,1,1,60,0,0
291410,-166.666666666667,4,1,1,40,0,0
291890,-166.666666666667,4,1,1,45,0,0
292370,-166.666666666667,4,1,1,50,0,0
292850,-166.666666666667,4,1,1,55,0,0
293090,-166.666666666667,4,1,1,60,0,0
293330,-166.666666666667,4,1,1,60,0,1
304850,-166.666666666667,4,1,1,60,0,0
305090,-166.666666666667,4,1,1,45,0,0
305330,-166.666666666667,4,1,1,60,0,0
305570,-166.666666666667,4,1,1,45,0,0
305810,-166.666666666667,4,1,1,60,0,0
306530,-166.666666666667,4,1,1,45,0,0
306890,-166.666666666667,4,1,1,60,0,0
311570,-166.666666666667,4,1,1,60,0,1
326930,-166.666666666667,4,1,1,40,0,0
329810,-166.666666666667,4,1,1,45,0,0
330770,-166.666666666667,4,1,1,50,0,0
331730,-166.666666666667,4,1,1,55,0,0
332690,235.294117647059,4,1,1,60,1,1
332690,-169.491525423729,4,1,1,60,0,1
333631,230.769230769231,4,1,1,60,1,1
333631,-172.413793103448,4,1,1,60,0,1
334554,226.415094339623,4,1,1,60,1,1
334554,-175.438596491228,4,1,1,60,0,1
335460,222.222222222222,4,1,1,60,1,1
335460,-178.571428571429,4,1,1,60,0,1
336349,218.181818181818,4,1,1,60,1,1
336349,-181.818181818182,4,1,1,60,0,1
337221,214.285714285714,4,1,1,60,1,1
337221,-185.185185185185,4,1,1,60,0,1
338078,210.526315789474,4,1,1,40,1,0
338078,-188.679245283019,4,1,1,40,0,0
338921,206.896551724138,4,1,1,50,1,0
338921,-192.307692307692,4,1,1,50,0,0
339748,203.389830508475,4,1,1,50,1,0
339748,-196.078431372549,4,1,1,50,0,0
340562,200,4,1,1,50,1,0
340562,-200,4,1,1,50,0,0
340962,-200,4,1,1,40,0,0
341362,-200,4,1,1,60,0,0
347762,-200,4,1,1,45,0,0
348562,-200,4,1,1,50,0,0
349362,-200,4,1,1,55,0,0
350162,-200,4,1,1,60,0,0
350962,199.335548172757,4,1,1,60,1,1
350962,-200,4,1,1,60,0,1
351161,198.675496688741,4,1,1,60,1,9
351161,-200,4,1,1,60,0,9
351360,198.019801980197,4,1,1,60,1,9
351360,-200,4,1,1,60,0,9
351558,197.36842105263,4,1,1,60,1,9
351558,-204.081632653061,4,1,1,60,0,9
351755,196.721311475409,4,1,1,60,1,1
351755,-204.081632653061,4,1,1,60,0,1
351952,196.078431372548,4,1,1,60,1,9
351952,-204.081632653061,4,1,1,60,0,9
352148,195.43973941368,4,1,1,60,1,9
352148,-204.081632653061,4,1,1,60,0,9
352343,194.805194805194,4,1,1,60,1,9
352343,-204.081632653061,4,1,1,60,0,9
352538,194.174757281553,4,1,1,60,1,1
352538,-204.081632653061,4,1,1,60,0,1
352732,193.548387096774,4,1,1,60,1,9
352732,-208.333333333333,4,1,1,60,0,9
352926,192.926045016077,4,1,1,60,1,9
352926,-208.333333333333,4,1,1,60,0,9
353119,192.307692307692,4,1,1,60,1,9
353119,-208.333333333333,4,1,1,60,0,9
353311,191.693290734824,4,1,1,60,1,1
353311,-208.333333333333,4,1,1,60,0,1
353503,191.08280254777,4,1,1,60,1,9
353503,-208.333333333333,4,1,1,60,0,9
353694,190.47619047619,4,1,1,60,1,9
353694,-208.333333333333,4,1,1,60,0,9
353884,189.873417721518,4,1,1,60,1,9
353884,-212.765957446809,4,1,1,60,0,9
354074,189.274447949526,4,1,1,60,1,0
354074,-212.765957446809,4,1,1,60,0,0
354263,188.679245283018,4,1,1,60,1,8
354263,-212.765957446809,4,1,1,60,0,8
354452,188.08777429467,4,1,1,60,1,8
354452,-212.765957446809,4,1,1,60,0,8
354640,187.499999999999,4,1,1,60,1,8
354640,-212.765957446809,4,1,1,60,0,8
354828,186.915887850467,4,1,1,60,1,0
354828,-212.765957446809,4,1,1,60,0,0
355015,186.335403726707,4,1,1,60,1,8
355015,-212.765957446809,4,1,1,60,0,8
355201,185.758513931888,4,1,1,60,1,8
355201,-217.391304347826,4,1,1,60,0,8
355387,185.185185185185,4,1,1,60,1,8
355387,-217.391304347826,4,1,1,60,0,8
355572,184.615384615384,4,1,1,60,1,0
355572,-217.391304347826,4,1,1,60,0,0
355757,184.049079754601,4,1,1,60,1,8
355757,-217.391304347826,4,1,1,60,0,8
355941,183.48623853211,4,1,1,60,1,8
355941,-217.391304347826,4,1,1,60,0,8
356124,182.926829268292,4,1,1,60,1,8
356124,-217.391304347826,4,1,1,60,0,8
356307,182.370820668692,4,1,1,60,1,0
356307,-217.391304347826,4,1,1,60,0,0
356489,181.818181818181,4,1,1,60,1,8
356489,-222.222222222222,4,1,1,60,0,8
356671,181.268882175226,4,1,1,60,1,8
356671,-222.222222222222,4,1,1,60,0,8
356852,180.722891566265,4,1,1,60,1,8
356852,-222.222222222222,4,1,1,60,0,8
357033,180.18018018018,4,1,1,60,1,1
357033,-222.222222222222,4,1,1,60,0,1
357213,179.640718562874,4,1,1,60,1,9
357213,-222.222222222222,4,1,1,60,0,9
357393,179.10447761194,4,1,1,60,1,9
357393,-222.222222222222,4,1,1,60,0,9
357572,178.571428571428,4,1,1,60,1,9
357572,-222.222222222222,4,1,1,60,0,9
357751,178.041543026706,4,1,1,60,1,1
357751,-222.222222222222,4,1,1,60,0,1
357929,177.514792899408,4,1,1,60,1,9
357929,-227.272727272727,4,1,1,60,0,9
358106,176.991150442477,4,1,1,60,1,9
358106,-227.272727272727,4,1,1,60,0,9
358283,176.470588235294,4,1,1,60,1,9
358283,-227.272727272727,4,1,1,60,0,9
358460,175.953079178886,4,1,1,60,1,1
358460,-227.272727272727,4,1,1,60,0,1
358636,175.438596491228,4,1,1,60,1,9
358636,-227.272727272727,4,1,1,60,0,9
358811,174.927113702624,4,1,1,60,1,9
358811,-227.272727272727,4,1,1,60,0,9
358986,174.418604651163,4,1,1,60,1,9
358986,-227.272727272727,4,1,1,60,0,9
359160,173.913043478261,4,1,1,60,1,1
359160,-232.558139534884,4,1,1,60,0,1
359334,173.410404624277,4,1,1,60,1,9
359334,-232.558139534884,4,1,1,60,0,9
359508,172.910662824207,4,1,1,60,1,9
359508,-232.558139534884,4,1,1,60,0,9
359681,172.413793103448,4,1,1,60,1,9
359681,-232.558139534884,4,1,1,60,0,9
359853,171.919770773638,4,1,1,60,1,0
359853,-232.558139534884,4,1,1,60,0,0
360025,171.428571428571,4,1,1,60,1,8
360025,-232.558139534884,4,1,1,60,0,8
360196,170.94017094017,4,1,1,60,1,8
360196,-232.558139534884,4,1,1,60,0,8
360367,170.454545454545,4,1,1,60,1,8
360367,-232.558139534884,4,1,1,60,0,8
360538,169.971671388101,4,1,1,60,1,0
360538,-238.095238095238,4,1,1,60,0,0
360708,169.491525423728,4,1,1,60,1,8
360708,-238.095238095238,4,1,1,60,0,8
360877,169.014084507042,4,1,1,60,1,8
360877,-238.095238095238,4,1,1,60,0,8
361046,168.539325842696,4,1,1,60,1,8
361046,-238.095238095238,4,1,1,60,0,8
361215,168.067226890756,4,1,1,40,1,0
361215,-238.095238095238,4,1,1,40,0,0
361887,166.666666666666,4,1,1,50,1,0
361887,-238.095238095238,4,1,1,50,0,0
362554,164.383561643835,4,1,1,50,1,0
362554,-243.90243902439,4,1,1,50,0,0
363211,162.162162162162,4,1,1,40,1,0
363211,-243.90243902439,4,1,1,40,0,0
363535,-243.90243902439,4,1,1,60,0,0
363860,161.725067385445,4,1,1,60,1,1
363860,-250,4,1,1,60,0,1
364022,161.290322580645,4,1,1,60,1,9
364022,-250,4,1,1,60,0,9
364183,160.857908847185,4,1,1,60,1,9
364183,-250,4,1,1,60,0,9
364344,160.427807486631,4,1,1,60,1,9
364344,-250,4,1,1,60,0,9
364504,160,4,1,1,60,1,1
364504,-250,4,1,1,60,0,1
364664,159.574468085106,4,1,1,60,1,9
364664,-250,4,1,1,60,0,9
364824,159.151193633952,4,1,1,60,1,9
364824,-250,4,1,1,60,0,9
364983,158.730158730159,4,1,1,60,1,9
364983,-250,4,1,1,60,0,9
365142,158.311345646438,4,1,1,60,1,1
365142,-250,4,1,1,60,0,1
365300,157.894736842105,4,1,1,60,1,9
365300,-256.410256410256,4,1,1,60,0,9
365458,157.48031496063,4,1,1,60,1,9
365458,-256.410256410256,4,1,1,60,0,9
365615,157.068062827225,4,1,1,60,1,9
365615,-256.410256410256,4,1,1,60,0,9
365772,156.657963446475,4,1,1,60,1,1
365772,-256.410256410256,4,1,1,60,0,1
365929,156.25,4,1,1,60,1,9
365929,-256.410256410256,4,1,1,60,0,9
366085,155.844155844156,4,1,1,60,1,9
366085,-256.410256410256,4,1,1,60,0,9
366241,155.440414507772,4,1,1,60,1,9
366241,-256.410256410256,4,1,1,60,0,9
366397,155.038759689922,4,1,1,60,1,1
366397,-256.410256410256,4,1,1,60,0,1
366552,154.639175257732,4,1,1,60,1,9
366552,-256.410256410256,4,1,1,60,0,9
366706,154.241645244216,4,1,1,60,1,9
366706,-256.410256410256,4,1,1,60,0,9
366861,153.846153846154,4,1,1,60,1,9
366861,-263.157894736842,4,1,1,60,0,9
367014,153.452685421995,4,1,1,60,1,1
367014,-263.157894736842,4,1,1,60,0,1
367168,153.061224489796,4,1,1,60,1,9
367168,-263.157894736842,4,1,1,60,0,9
367321,152.671755725191,4,1,1,60,1,9
367321,-263.157894736842,4,1,1,60,0,9
367474,152.284263959391,4,1,1,60,1,9
367474,-263.157894736842,4,1,1,60,0,9
367626,151.898734177215,4,1,1,60,1,0
367626,-263.157894736842,4,1,1,60,0,0
367778,151.515151515152,4,1,1,60,1,8
367778,-263.157894736842,4,1,1,60,0,8
367929,151.133501259446,4,1,1,60,1,8
367929,-263.157894736842,4,1,1,60,0,8
368080,150.753768844221,4,1,1,60,1,8
368080,-263.157894736842,4,1,1,60,0,8
368231,150.375939849624,4,1,1,60,1,0
368231,-263.157894736842,4,1,1,60,0,0
368382,150,4,1,1,60,1,8
368382,-263.157894736842,4,1,1,60,0,8
368532,149.625935162095,4,1,1,60,1,8
368532,-270.27027027027,4,1,1,60,0,8
368681,149.253731343284,4,1,1,60,1,8
368681,-270.27027027027,4,1,1,60,0,8
368830,148.883374689827,4,1,1,60,1,1
368830,-270.27027027027,4,1,1,60,0,1
368979,148.514851485149,4,1,1,60,1,9
368979,-270.27027027027,4,1,1,60,0,9
369128,148.148148148149,4,1,1,60,1,9
369128,-270.27027027027,4,1,1,60,0,9
369276,147.783251231527,4,1,1,60,1,9
369276,-270.27027027027,4,1,1,60,0,9
369424,147.420147420147,4,1,1,60,1,1
369424,-270.27027027027,4,1,1,60,0,1
369571,147.058823529411,4,1,1,60,1,9
369571,-270.27027027027,4,1,1,60,0,9
369718,146.699266503667,4,1,1,60,1,9
369718,-270.27027027027,4,1,1,60,0,9
369865,146.341463414633,4,1,1,60,1,9
369865,-270.27027027027,4,1,1,60,0,9
370011,145.985401459853,4,1,1,60,1,1
370011,-277.777777777778,4,1,1,60,0,1
370157,145.631067961164,4,1,1,60,1,9
370157,-277.777777777778,4,1,1,60,0,9
370303,145.278450363195,4,1,1,60,1,9
370303,-277.777777777778,4,1,1,60,0,9
370448,144.927536231883,4,1,1,60,1,9
370448,-277.777777777778,4,1,1,60,0,9
370593,144.578313253011,4,1,1,60,1,1
370593,-277.777777777778,4,1,1,60,0,1
370738,144.230769230768,4,1,1,60,1,9
370738,-277.777777777778,4,1,1,60,0,9
370882,143.88489208633,4,1,1,60,1,9
370882,-277.777777777778,4,1,1,60,0,9
371026,143.540669856458,4,1,1,60,1,9
371026,-277.777777777778,4,1,1,60,0,9
371169,143.198090692123,4,1,1,60,1,1
371169,-277.777777777778,4,1,1,60,0,1
371313,142.857142857142,4,1,1,60,1,9
371313,-277.777777777778,4,1,1,60,0,9
371455,142.51781472684,4,1,1,60,1,9
371455,-277.777777777778,4,1,1,60,0,9
371598,142.180094786729,4,1,1,60,1,9
371598,-277.777777777778,4,1,1,60,0,9
371740,141.843971631205,4,1,1,60,1,1
371740,-285.714285714286,4,1,1,60,0,1
371882,141.509433962263,4,1,1,60,1,9
371882,-285.714285714286,4,1,1,60,0,9
372023,141.176470588234,4,1,1,60,1,9
372023,-285.714285714286,4,1,1,60,0,9
372165,140.845070422534,4,1,1,60,1,9
372165,-285.714285714286,4,1,1,60,0,9
372306,140.515222482435,4,1,1,60,1,1
372306,-285.714285714286,4,1,1,60,0,1
372446,140.186915887849,4,1,1,60,1,9
372446,-285.714285714286,4,1,1,60,0,9
372586,139.860139860139,4,1,1,60,1,9
372586,-285.714285714286,4,1,1,60,0,9
372726,139.534883720929,4,1,1,60,1,9
372726,-285.714285714286,4,1,1,60,0,9
372866,139.21113689095,4,1,1,60,1,1
372866,-285.714285714286,4,1,1,60,0,1
373005,138.888888888888,4,1,1,60,1,9
373005,-285.714285714286,4,1,1,60,0,9
373144,138.568129330253,4,1,1,60,1,9
373144,-285.714285714286,4,1,1,60,0,9
373282,138.248847926266,4,1,1,60,1,8
373282,-285.714285714286,4,1,1,60,0,8
373421,137.931034482757,4,1,1,60,1,1
373421,-294.117647058824,4,1,1,60,0,1
377834,-294.117647058824,4,1,1,60,0,0
378938,136.363636363636,4,1,1,60,1,1
378938,-294.117647058824,4,1,1,60,0,1
387119,-294.117647058824,4,1,1,60,0,0
387665,-294.117647058824,4,1,1,60,0,1
396392,-294.117647058824,4,1,1,60,0,0
400210,-294.117647058824,4,1,1,45,0,0
404028,-294.117647058824,4,1,1,50,0,0
404301,-294.117647058824,4,1,1,55,0,0
404574,-294.117647058824,4,1,1,60,0,1
404710,139.53488372093,4,1,1,60,1,9
404710,-285.714285714286,4,1,1,60,0,9
404850,142.857142857143,4,1,1,60,1,9
404850,-277.777777777778,4,1,1,60,0,9
404993,146.341463414634,4,1,1,60,1,9
404993,-270.27027027027,4,1,1,60,0,9
405139,150,4,1,1,60,1,1
405139,-263.157894736842,4,1,1,60,0,1
405289,153.846153846154,4,1,1,60,1,9
405289,-263.157894736842,4,1,1,60,0,9
405443,157.894736842105,4,1,1,60,1,9
405443,-256.410256410256,4,1,1,60,0,9
405601,162.162162162162,4,1,1,60,1,9
405601,-243.90243902439,4,1,1,60,0,9
405763,166.666666666667,4,1,1,60,1,1
405763,-238.095238095238,4,1,1,60,0,1
405930,171.428571428571,4,1,1,60,1,9
405930,-232.558139534884,4,1,1,60,0,9
406101,176.470588235294,4,1,1,60,1,9
406101,-227.272727272727,4,1,1,60,0,9
406278,181.818181818182,4,1,1,60,1,9
406278,-222.222222222222,4,1,1,60,0,9
406460,187.5,4,1,1,60,1,1
406460,-212.765957446809,4,1,1,60,0,1
406647,193.548387096774,4,1,1,60,1,9
406647,-208.333333333333,4,1,1,60,0,9
406841,200,4,1,1,60,1,9
406841,-200,4,1,1,60,0,9
407041,203.389830508475,4,1,1,60,1,9
407041,-196.078431372549,4,1,1,60,0,9
407244,206.896551724138,4,1,1,60,1,1
407244,-192.307692307692,4,1,1,60,0,1
407451,210.526315789474,4,1,1,60,1,9
407451,-188.679245283019,4,1,1,60,0,9
407661,214.285714285714,4,1,1,60,1,9
407661,-185.185185185185,4,1,1,60,0,9
407876,218.181818181818,4,1,1,60,1,9
407876,-181.818181818182,4,1,1,60,0,9
408094,222.222222222222,4,1,1,60,1,1
408094,-178.571428571429,4,1,1,60,0,1
408316,226.415094339623,4,1,1,60,1,9
408316,-175.438596491228,4,1,1,60,0,9
408542,230.769230769231,4,1,1,60,1,9
408542,-172.413793103448,4,1,1,60,0,9
408773,235.294117647059,4,1,1,60,1,9
408773,-169.491525423729,4,1,1,60,0,9
409009,240,4,1,1,60,1,1
409009,-166.666666666667,4,1,1,60,0,1
409249,244.897959183673,4,1,1,60,1,9
409249,-163.934426229508,4,1,1,60,0,9
409493,250,4,1,1,60,1,9
409493,-158.730158730159,4,1,1,60,0,9
409743,255.31914893617,4,1,1,60,1,9
409743,-156.25,4,1,1,60,0,9
409999,260.869565217391,4,1,1,60,1,1
409999,-153.846153846154,4,1,1,60,0,1
410260,266.666666666667,4,1,1,60,1,9
410260,-149.253731343284,4,1,1,60,0,9
410526,272.727272727273,4,1,1,60,1,9
410526,-147.058823529412,4,1,1,60,0,9
410799,279.06976744186,4,1,1,60,1,9
410799,-142.857142857143,4,1,1,60,0,9
411078,285.714285714286,4,1,1,60,1,1
411078,-140.845070422535,4,1,1,60,0,1
411364,292.682926829268,4,1,1,60,1,9
411364,-136.986301369863,4,1,1,60,0,9
411656,300,4,1,1,60,1,9
411656,-133.333333333333,4,1,1,60,0,9
411956,307.692307692308,4,1,1,60,1,9
411956,-129.87012987013,4,1,1,60,0,9
412264,315.789473684211,4,1,1,30,1,0
412264,-126.582278481013,4,1,1,30,0,0
415421,-126.582278481013,4,1,1,40,0,0
416369,-126.582278481013,4,1,1,45,0,0
417316,-126.582278481013,4,1,1,50,0,0
419842,-126.582278481013,4,1,1,45,0,0
422369,-126.582278481013,4,1,1,40,0,0

[HitObjects]
192,192,975,5,0,0:0:0:0:
448,192,975,1,0,0:0:0:0:
64,192,1075,1,0,0:0:0:0:
64,192,1175,1,0,0:0:0:0:
320,192,1275,1,0,0:0:0:0:
64,192,1375,1,0,0:0:0:0:
64,192,1475,1,0,0:0:0:0:
448,192,1575,1,0,0:0:0:0:
64,192,1675,1,0,0:0:0:0:
64,192,1775,1,0,0:0:0:0:
320,192,1875,1,0,0:0:0:0:
64,192,1975,1,0,0:0:0:0:
64,192,2075,1,0,0:0:0:0:
448,192,2175,1,0,0:0:0:0:
64,192,2275,1,0,0:0:0:0:
192,192,2375,1,0,0:0:0:0:
64,192,2475,1,0,0:0:0:0:
320,192,2575,1,0,0:0:0:0:
448,192,2675,1,0,0:0:0:0:
448,192,2775,1,0,0:0:0:0:
192,192,2875,1,0,0:0:0:0:
448,192,2975,1,0,0:0:0:0:
448,192,3075,1,0,0:0:0:0:
64,192,3175,1,0,0:0:0:0:
448,192,3275,1,0,0:0:0:0:
448,192,3375,1,0,0:0:0:0:
320,192,3475,1,0,0:0:0:0:
448,192,3575,1,0,0:0:0:0:
448,192,3675,1,0,0:0:0:0:
192,192,3775,1,0,0:0:0:0:
448,192,3875,1,0,0:0:0:0:
64,192,3975,1,0,0:0:0:0:
192,192,4075,1,0,0:0:0:0:
448,192,4125,1,0,0:0:0:0:
320,192,4175,128,0,4975:0:0:0:0:
64,192,4275,1,0,0:0:0:0:
64,192,4375,1,0,0:0:0:0:
192,192,4475,1,0,0:0:0:0:
64,192,4575,1,0,0:0:0:0:
64,192,4675,1,0,0:0:0:0:
448,192,4775,1,0,0:0:0:0:
64,192,4875,1,0,0:0:0:0:
64,192,4975,1,0,0:0:0:0:
320,192,5075,128,0,5475:0:0:0:0:
64,192,5175,1,0,0:0:0:0:
64,192,5275,1,0,0:0:0:0:
448,192,5375,1,0,0:0:0:0:
64,192,5475,1,0,0:0:0:0:
320,192,5575,128,0,5775:0:0:0:0:
64,192,5675,1,0,0:0:0:0:
192,192,5775,128,0,6375:0:0:0:0:
448,192,5875,1,0,0:0:0:0:
448,192,5975,1,0,0:0:0:0:
320,192,6075,1,0,0:0:0:0:
448,192,6175,1,0,0:0:0:0:
448,192,6275,1,0,0:0:0:0:
64,192,6375,1,0,0:0:0:0:
192,192,6441,1,0,0:0:0:0:
448,192,6475,1,0,0:0:0:0:
64,192,6508,1,0,0:0:0:0:
320,192,6575,1,0,0:0:0:0:
448,192,6575,1,0,0:0:0:0:
64,192,6675,1,0,0:0:0:0:
192,192,6675,1,0,0:0:0:0:
320,192,6775,1,0,0:0:0:0:
448,192,6775,1,0,0:0:0:0:
64,192,6875,1,0,0:0:0:0:
448,192,6875,1,0,0:0:0:0:
192,192,6975,1,0,0:0:0:0:
64,192,6975,1,0,0:0:0:0:
320,192,7075,1,0,0:0:0:0:
448,192,7075,1,0,0:0:0:0:
320,192,7175,1,0,0:0:0:0:
192,192,7175,1,0,0:0:0:0:
64,192,7275,1,0,0:0:0:0:
448,192,7275,1,0,0:0:0:0:
320,192,7375,128,0,7575:0:0:0:0:
448,192,7375,128,0,7575:0:0:0:0:
64,192,7375,128,0,7575:0:0:0:0:
192,192,7375,128,0,7575:0:0:0:0:
448,192,7975,1,0,0:0:0:0:
320,192,7975,1,0,0:0:0:0:
192,192,7975,1,0,0:0:0:0:
192,192,8075,1,0,0:0:0:0:
320,192,8075,1,0,0:0:0:0:
448,192,8075,1,0,0:0:0:0:
448,192,8175,1,0,0:0:0:0:
320,192,8175,1,0,0:0:0:0:
192,192,8175,1,0,0:0:0:0:
448,192,8475,1,0,0:0:0:0:
320,192,8475,1,0,0:0:0:0:
192,192,8475,1,0,0:0:0:0:
320,192,8775,1,0,0:0:0:0:
448,192,8775,1,0,0:0:0:0:
64,192,8775,1,0,0:0:0:0:
192,192,8775,1,0,0:0:0:0:
320,192,8975,1,0,0:0:0:0:
448,192,8975,1,0,0:0:0:0:
64,192,9025,1,0,0:0:0:0:
192,192,9025,1,0,0:0:0:0:
448,192,9075,1,0,0:0:0:0:
320,192,9075,1,0,0:0:0:0:
64,192,9125,1,0,0:0:0:0:
192,192,9125,1,0,0:0:0:0:
64,192,9175,1,0,0:0:0:0:
320,192,9175,1,0,0:0:0:0:
448,192,9175,1,0,0:0:0:0:
448,192,9275,128,0,9475:0:0:0:0:
320,192,9275,128,0,9475:0:0:0:0:
64,192,9275,128,0,9475:0:0:0:0:
320,192,9575,128,0,9775:0:0:0:0:
192,192,9575,128,0,9775:0:0:0:0:
64,192,9575,128,0,9775:0:0:0:0:
448,192,9875,128,0,10075:0:0:0:0:
192,192,9875,128,0,9975:0:0:0:0:
64,192,9875,128,0,9975:0:0:0:0:
320,192,9975,1,0,0:0:0:0:
64,192,10075,1,0,0:0:0:0:
192,192,10075,1,0,0:0:0:0:
448,192,10175,1,0,0:0:0:0:
64,192,10175,1,0,0:0:0:0:
192,192,10275,1,0,0:0:0:0:
448,192,10275,1,0,0:0:0:0:
320,192,10375,1,0,0:0:0:0:
64,192,10375,1,0,0:0:0:0:
64,192,10475,1,0,0:0:0:0:
448,192,10475,1,0,0:0:0:0:
320,192,10575,128,0,10775:0:0:0:0:
448,192,10575,128,0,10775:0:0:0:0:
64,192,10575,128,0,10775:0:0:0:0:
192,192,10575,128,0,10775:0:0:0:0:
320,192,11175,1,0,0:0:0:0:
192,192,11175,1,0,0:0:0:0:
64,192,11175,1,0,0:0:0:0:
64,192,11275,1,0,0:0:0:0:
192,192,11275,1,0,0:0:0:0:
320,192,11275,1,0,0:0:0:0:
64,192,11375,1,0,0:0:0:0:
192,192,11375,1,0,0:0:0:0:
320,192,11375,1,0,0:0:0:0:
320,192,11675,1,0,0:0:0:0:
192,192,11675,1,0,0:0:0:0:
64,192,11675,1,0,0:0:0:0:
320,192,11975,1,0,0:0:0:0:
448,192,11975,1,0,0:0:0:0:
64,192,11975,1,0,0:0:0:0:
192,192,11975,1,0,0:0:0:0:
448,192,12175,1,0,0:0:0:0:
320,192,12175,1,0,0:0:0:0:
64,192,12225,1,0,0:0:0:0:
192,192,12225,1,0,0:0:0:0:
448,192,12275,1,0,0:0:0:0:
320,192,12275,1,0,0:0:0:0:
64,192,12325,1,0,0:0:0:0:
192,192,12325,1,0,0:0:0:0:
448,192,12375,1,0,0:0:0:0:
320,192,12375,1,0,0:0:0:0:
64,192,12375,1,0,0:0:0:0:
448,192,12475,1,0,0:0:0:0:
320,192,12475,1,0,0:0:0:0:
64,192,12475,1,0,0:0:0:0:
192,192,12575,1,0,0:0:0:0:
448,192,12641,1,0,0:0:0:0:
64,192,12708,1,0,0:0:0:0:
448,192,12775,1,0,0:0:0:0:
320,192,12775,1,0,0:0:0:0:
192,192,12775,1,0,0:0:0:0:
320,192,12875,1,0,0:0:0:0:
64,192,12975,1,0,0:0:0:0:
448,192,13025,1,0,0:0:0:0:
320,192,13075,1,0,0:0:0:0:
192,192,13075,1,0,0:0:0:0:
64,192,13075,1,0,0:0:0:0:
448,192,13125,1,0,0:0:0:0:
192,192,13175,1,0,0:0:0:0:
320,192,13225,1,0,0:0:0:0:
64,192,13275,1,0,0:0:0:0:
192,192,13325,1,0,0:0:0:0:
320,192,13375,1,0,0:0:0:0:
64,192,13425,1,0,0:0:0:0:
320,192,13475,1,0,0:0:0:0:
192,192,13525,1,0,0:0:0:0:
448,192,13575,1,0,0:0:0:0:
192,192,13625,1,0,0:0:0:0:
320,192,13675,1,0,0:0:0:0:
64,192,13725,1,0,0:0:0:0:
192,192,13775,128,0,13875:0:0:0:0:
448,192,13775,1,0,0:0:0:0:
320,192,13875,1,0,0:0:0:0:
64,192,13975,1,0,0:0:0:0:
192,192,14075,1,0,0:0:0:0:
320,192,14175,1,0,0:0:0:0:
448,192,14275,1,0,0:0:0:0:
64,192,14375,128,0,14475:0:0:0:0:
192,192,14475,128,0,14575:0:0:0:0:
320,192,14575,128,0,14675:0:0:0:0:
64,192,14675,1,0,0:0:0:0:
448,192,14775,1,0,0:0:0:0:
320,192,14875,1,0,0:0:0:0:
64,192,14975,128,0,15075:0:0:0:0:
448,192,15075,1,0,0:0:0:0:
320,192,15175,1,0,0:0:0:0:
192,192,15275,1,0,0:0:0:0:
448,192,15375,128,0,15475:0:0:0:0:
64,192,15475,1,0,0:0:0:0:
192,192,15575,1,0,0:0:0:0:
320,192,15675,128,0,15775:0:0:0:0:
64,192,15775,1,0,0:0:0:0:
448,192,15875,1,0,0:0:0:0:
192,192,15975,128,0,16075:0:0:0:0:
320,192,16075,1,0,0:0:0:0:
64,192,16175,128,0,16275:0:0:0:0:
448,192,16275,1,0,0:0:0:0:
320,192,16375,1,0,0:0:0:0:
192,192,16475,1,0,0:0:0:0:
64,192,16575,1,0,0:0:0:0:
448,192,16675,1,0,0:0:0:0:
320,192,16775,128,0,16875:0:0:0:0:
64,192,16875,128,0,16975:0:0:0:0:
192,192,16975,128,0,17075:0:0:0:0:
320,192,17075,1,0,0:0:0:0:
64,192,17175,1,0,0:0:0:0:
320,192,17275,1,0,0:0:0:0:
448,192,17375,128,0,17475:0:0:0:0:
192,192,17475,1,0,0:0:0:0:
320,192,17575,1,0,0:0:0:0:
192,192,17675,1,0,0:0:0:0:
64,192,17775,128,0,17875:0:0:0:0:
448,192,17875,1,0,0:0:0:0:
192,192,17975,1,0,0:0:0:0:
320,192,18075,1,0,0:0:0:0:
448,192,18175,128,0,18275:0:0:0:0:
64,192,18275,1,0,0:0:0:0:
320,192,18375,1,0,0:0:0:0:
192,192,18475,1,0,0:0:0:0:
448,192,18575,128,0,18675:0:0:0:0:
64,192,18675,1,0,0:0:0:0:
320,192,18775,1,0,0:0:0:0:
192,192,18875,128,0,18975:0:0:0:0:
448,192,18975,1,0,0:0:0:0:
64,192,19075,1,0,0:0:0:0:
448,192,19175,128,0,19275:0:0:0:0:
64,192,19275,1,0,0:0:0:0:
192,192,19375,128,0,19475:0:0:0:0:
320,192,19475,1,0,0:0:0:0:
448,192,19575,1,0,0:0:0:0:
64,192,19675,1,0,0:0:0:0:
448,192,19775,1,0,0:0:0:0:
320,192,19775,1,0,0:0:0:0:
192,192,19841,1,0,0:0:0:0:
448,192,19908,1,0,0:0:0:0:
192,192,19975,1,0,0:0:0:0:
64,192,19975,1,0,0:0:0:0:
320,192,20041,1,0,0:0:0:0:
64,192,20108,1,0,0:0:0:0:
448,192,20175,128,0,20375:0:0:0:0:
320,192,20175,128,0,20475:0:0:0:0:
192,192,20175,128,0,20475:0:0:0:0:
64,192,20275,1,0,0:0:0:0:
64,192,20375,1,0,0:0:0:0:
448,192,20475,1,0,0:0:0:0:
192,192,20575,1,0,0:0:0:0:
320,192,20675,1,0,0:0:0:0:
64,192,20775,128,0,20875:0:0:0:0:
192,192,20875,128,0,20975:0:0:0:0:
448,192,20975,128,0,21275:0:0:0:0:
320,192,20975,128,0,21175:0:0:0:0:
64,192,20975,128,0,21275:0:0:0:0:
192,192,21075,1,0,0:0:0:0:
192,192,21175,1,0,0:0:0:0:
320,192,21275,1,0,0:0:0:0:
64,192,21375,128,0,21475:0:0:0:0:
448,192,21475,1,0,0:0:0:0:
192,192,21575,1,0,0:0:0:0:
448,192,21675,1,0,0:0:0:0:
320,192,21725,1,0,0:0:0:0:
448,192,21775,128,0,21975:0:0:0:0:
192,192,21775,128,0,21975:0:0:0:0:
64,192,21775,128,0,21975:0:0:0:0:
320,192,21875,1,0,0:0:0:0:
320,192,21975,1,0,0:0:0:0:
320,192,22075,128,0,22275:0:0:0:0:
448,192,22075,128,0,22275:0:0:0:0:
64,192,22075,128,0,22275:0:0:0:0:
192,192,22175,1,0,0:0:0:0:
192,192,22275,1,0,0:0:0:0:
448,192,22375,128,0,22475:0:0:0:0:
320,192,22375,128,0,22475:0:0:0:0:
192,192,22375,128,0,22475:0:0:0:0:
64,192,22475,1,0,0:0:0:0:
320,192,22575,128,0,22875:0:0:0:0:
192,192,22575,128,0,22875:0:0:0:0:
64,192,22575,128,0,22775:0:0:0:0:
448,192,22675,1,0,0:0:0:0:
448,192,22775,1,0,0:0:0:0:
64,192,22875,1,0,0:0:0:0:
448,192,22975,1,0,0:0:0:0:
320,192,23075,1,0,0:0:0:0:
192,192,23125,1,0,0:0:0:0:
64,192,23175,1,0,0:0:0:0:
448,192,23175,1,0,0:0:0:0:
320,192,23275,1,0,0:0:0:0:
192,192,23275,1,0,0:0:0:0:
448,192,23375,128,0,23575:0:0:0:0:
320,192,23375,128,0,23675:0:0:0:0:
64,192,23375,128,0,23675:0:0:0:0:
192,192,23475,1,0,0:0:0:0:
192,192,23575,1,0,0:0:0:0:
448,192,23675,1,0,0:0:0:0:
320,192,23775,128,0,23875:0:0:0:0:
192,192,23875,1,0,0:0:0:0:
64,192,23975,1,0,0:0:0:0:
320,192,24075,1,0,0:0:0:0:
448,192,24175,128,0,24475:0:0:0:0:
192,192,24175,128,0,24375:0:0:0:0:
64,192,24175,128,0,24475:0:0:0:0:
320,192,24275,1,0,0:0:0:0:
320,192,24375,1,0,0:0:0:0:
192,192,24475,1,0,0:0:0:0:
448,192,24575,128,0,24675:0:0:0:0:
64,192,24675,1,0,0:0:0:0:
192,192,24775,1,0,0:0:0:0:
448,192,24875,1,0,0:0:0:0:
320,192,24975,128,0,25075:0:0:0:0:
192,192,25075,1,0,0:0:0:0:
448,192,25175,128,0,25375:0:0:0:0:
320,192,25175,128,0,25375:0:0:0:0:
64,192,25175,128,0,25275:0:0:0:0:
192,192,25275,128,0,25375:0:0:0:0:
64,192,25375,128,0,25475:0:0:0:0:
320,192,25475,128,0,25675:0:0:0:0:
448,192,25475,128,0,25675:0:0:0:0:
192,192,25475,128,0,25675:0:0:0:0:
64,192,25575,1,0,0:0:0:0:
64,192,25675,1,0,0:0:0:0:
192,192,25775,128,0,25975:0:0:0:0:
64,192,25775,128,0,25975:0:0:0:0:
320,192,25825,1,0,0:0:0:0:
448,192,25875,1,0,0:0:0:0:
448,192,25975,1,0,0:0:0:0:
448,192,26075,128,0,26275:0:0:0:0:
320,192,26075,128,0,26275:0:0:0:0:
192,192,26075,128,0,26275:0:0:0:0:
64,192,26175,1,0,0:0:0:0:
64,192,26275,1,0,0:0:0:0:
448,192,26375,128,0,26475:0:0:0:0:
320,192,26375,128,0,26475:0:0:0:0:
64,192,26375,128,0,26475:0:0:0:0:
192,192,26475,1,0,0:0:0:0:
448,192,26575,128,0,26775:0:0:0:0:
192,192,26575,128,0,26875:0:0:0:0:
64,192,26575,128,0,26875:0:0:0:0:
320,192,26675,1,0,0:0:0:0:
320,192,26775,1,0,0:0:0:0:
448,192,26875,1,0,0:0:0:0:
192,192,26975,128,0,27075:0:0:0:0:
64,192,27075,1,0,0:0:0:0:
320,192,27175,1,0,0:0:0:0:
448,192,27275,1,0,0:0:0:0:
320,192,27375,128,0,27675:0:0:0:0:
192,192,27375,128,0,27675:0:0:0:0:
64,192,27375,128,0,27575:0:0:0:0:
448,192,27475,1,0,0:0:0:0:
448,192,27575,1,0,0:0:0:0:
64,192,27675,1,0,0:0:0:0:
448,192,27775,128,0,27875:0:0:0:0:
192,192,27841,1,0,0:0:0:0:
320,192,27908,1,0,0:0:0:0:
64,192,27975,1,0,0:0:0:0:
448,192,28041,1,0,0:0:0:0:
64,192,28108,1,0,0:0:0:0:
448,192,28175,128,0,28275:0:0:0:0:
320,192,28175,128,0,28375:0:0:0:0:
192,192,28175,128,0,28375:0:0:0:0:
64,192,28275,128,0,28475:0:0:0:0:
448,192,28375,128,0,28475:0:0:0:0:
320,192,28475,128,0,28675:0:0:0:0:
192,192,28475,128,0,28575:0:0:0:0:
448,192,28575,128,0,28875:0:0:0:0:
64,192,28575,128,0,28775:0:0:0:0:
192,192,28675,128,0,28975:0:0:0:0:
320,192,28775,128,0,29275:0:0:0:0:
64,192,28875,128,0,29175:0:0:0:0:
448,192,28975,128,0,29075:0:0:0:0:
192,192,29075,128,0,29475:0:0:0:0:
448,192,29175,128,0,29475:0:0:0:0:
64,192,29275,128,0,29375:0:0:0:0:
320,192,29375,128,0,29575:0:0:0:0:
64,192,29475,128,0,29641:0:0:0:0:
448,192,29575,128,0,29708:0:0:0:0:
192,192,29641,1,0,0:0:0:0:
320,192,29708,1,0,0:0:0:0:
64,192,29775,1,0,0:0:0:0:
448,192,29775,1,0,0:0:0:0:
64,192,34175,132,0,34341:0:0:0:0:
192,192,34275,128,0,34441:0:0:0:0:
320,192,34375,128,0,34541:0:0:0:0:
448,192,34475,128,0,34775:0:0:0:0:
64,192,34575,128,0,34708:0:0:0:0:
320,192,34641,128,0,34908:0:0:0:0:
192,192,34708,128,0,34841:0:0:0:0:
64,192,34775,128,0,35075:0:0:0:0:
448,192,34875,128,0,34975:0:0:0:0:
192,192,34941,128,0,35208:0:0:0:0:
320,192,35008,128,0,35141:0:0:0:0:
448,192,35075,128,0,35375:0:0:0:0:
64,192,35175,128,0,35275:0:0:0:0:
320,192,35241,128,0,35508:0:0:0:0:
192,192,35308,128,0,35441:0:0:0:0:
64,192,35375,128,0,35675:0:0:0:0:
448,192,35475,128,0,35575:0:0:0:0:
192,192,35541,128,0,35808:0:0:0:0:
320,192,35608,128,0,35741:0:0:0:0:
448,192,35675,128,0,36008:0:0:0:0:
64,192,35775,128,0,35875:0:0:0:0:
320,192,35841,128,0,36141:0:0:0:0:
192,192,35908,128,0,36075:0:0:0:0:
64,192,35975,128,0,36308:0:0:0:0:
448,192,36075,128,0,36208:0:0:0:0:
192,192,36141,128,0,36441:0:0:0:0:
320,192,36208,128,0,36375:0:0:0:0:
448,192,36275,128,0,36608:0:0:0:0:
64,192,36375,128,0,36508:0:0:0:0:
320,192,36441,128,0,36741:0:0:0:0:
192,192,36508,128,0,36675:0:0:0:0:
64,192,36575,128,0,36908:0:0:0:0:
448,192,36675,128,0,36808:0:0:0:0:
192,192,36741,128,0,37050:0:0:0:0:
320,192,36808,128,0,37000:0:0:0:0:
448,192,36875,128,0,36950:0:0:0:0:
64,192,36975,128,0,37100:0:0:0:0:
448,192,37025,128,0,37200:0:0:0:0:
320,192,37075,128,0,37350:0:0:0:0:
192,192,37125,128,0,37300:0:0:0:0:
64,192,37175,128,0,37250:0:0:0:0:
448,192,37275,128,0,37400:0:0:0:0:
64,192,37325,128,0,37500:0:0:0:0:
192,192,37375,128,0,37650:0:0:0:0:
320,192,37425,128,0,37600:0:0:0:0:
448,192,37475,128,0,37550:0:0:0:0:
64,192,37575,128,0,37700:0:0:0:0:
448,192,37625,128,0,37800:0:0:0:0:
320,192,37675,128,0,37950:0:0:0:0:
192,192,37725,128,0,37900:0:0:0:0:
64,192,37775,128,0,37850:0:0:0:0:
448,192,37875,128,0,38000:0:0:0:0:
64,192,37925,128,0,38100:0:0:0:0:
192,192,37975,128,0,38250:0:0:0:0:
320,192,38025,128,0,38200:0:0:0:0:
448,192,38075,128,0,38150:0:0:0:0:
64,192,38175,128,0,38300:0:0:0:0:
448,192,38225,128,0,38400:0:0:0:0:
320,192,38275,128,0,38550:0:0:0:0:
192,192,38325,128,0,38525:0:0:0:0:
64,192,38375,128,0,38500:0:0:0:0:
448,192,38475,128,0,38575:0:0:0:0:
64,192,38575,128,0,38908:0:0:0:0:
320,192,38908,1,0,0:0:0:0:
448,192,38975,1,0,0:0:0:0:
192,192,39008,1,0,0:0:0:0:
64,192,39041,1,0,0:0:0:0:
320,192,39075,1,0,0:0:0:0:
192,192,39141,1,0,0:0:0:0:
320,192,39175,1,0,0:0:0:0:
448,192,39225,1,0,0:0:0:0:
192,192,39275,1,0,0:0:0:0:
448,192,39375,1,0,0:0:0:0:
64,192,39375,128,0,39641:0:0:0:0:
320,192,39375,128,0,39575:0:0:0:0:
448,192,39475,128,0,39908:0:0:0:0:
192,192,39575,128,0,39708:0:0:0:0:
320,192,39641,128,0,39775:0:0:0:0:
64,192,39708,128,0,39841:0:0:0:0:
192,192,39775,128,0,39975:0:0:0:0:
320,192,39841,128,0,40041:0:0:0:0:
64,192,39908,128,0,40108:0:0:0:0:
448,192,39975,128,0,40108:0:0:0:0:
192,192,40041,128,0,40108:0:0:0:0:
320,192,40108,1,0,0:0:0:0:
64,192,40175,1,0,0:0:0:0:
448,192,40175,128,0,40375:0:0:0:0:
192,192,40175,1,0,0:0:0:0:
64,192,40275,128,0,40708:0:0:0:0:
320,192,40375,128,0,40508:0:0:0:0:
192,192,40441,128,0,40575:0:0:0:0:
448,192,40508,128,0,40641:0:0:0:0:
320,192,40575,128,0,40775:0:0:0:0:
192,192,40641,128,0,40841:0:0:0:0:
448,192,40708,128,0,40908:0:0:0:0:
64,192,40775,128,0,40908:0:0:0:0:
320,192,40841,128,0,40908:0:0:0:0:
192,192,40908,1,0,0:0:0:0:
64,192,40975,128,0,41075:0:0:0:0:
448,192,40975,128,0,41075:0:0:0:0:
320,192,41075,1,0,0:0:0:0:
64,192,41175,1,0,0:0:0:0:
64,192,41275,128,0,41375:0:0:0:0:
448,192,41275,128,0,41375:0:0:0:0:
320,192,41375,1,0,0:0:0:0:
192,192,41475,1,0,0:0:0:0:
448,192,41575,128,0,41675:0:0:0:0:
192,192,41575,128,0,41675:0:0:0:0:
64,192,41675,1,0,0:0:0:0:
448,192,41775,1,0,0:0:0:0:
448,192,41875,128,0,41975:0:0:0:0:
192,192,41875,128,0,41975:0:0:0:0:
64,192,41975,1,0,0:0:0:0:
448,192,42075,1,0,0:0:0:0:
192,192,42175,128,0,42275:0:0:0:0:
448,192,42175,128,0,42275:0:0:0:0:
64,192,42275,1,0,0:0:0:0:
320,192,42375,1,0,0:0:0:0:
64,192,42475,1,0,0:0:0:0:
320,192,42575,1,0,0:0:0:0:
192,192,42575,128,0,42841:0:0:0:0:
448,192,42575,128,0,42775:0:0:0:0:
320,192,42675,128,0,43108:0:0:0:0:
64,192,42775,128,0,42908:0:0:0:0:
448,192,42841,128,0,42975:0:0:0:0:
192,192,42908,128,0,43041:0:0:0:0:
64,192,42975,128,0,43175:0:0:0:0:
448,192,43041,128,0,43241:0:0:0:0:
192,192,43108,128,0,43308:0:0:0:0:
320,192,43175,128,0,43308:0:0:0:0:
64,192,43241,128,0,43308:0:0:0:0:
448,192,43308,1,0,0:0:0:0:
192,192,43375,1,0,0:0:0:0:
64,192,43375,1,0,0:0:0:0:
320,192,43375,128,0,43575:0:0:0:0:
192,192,43475,128,0,43908:0:0:0:0:
448,192,43575,128,0,43708:0:0:0:0:
64,192,43641,128,0,43775:0:0:0:0:
320,192,43708,128,0,43841:0:0:0:0:
448,192,43775,128,0,43975:0:0:0:0:
64,192,43841,128,0,44041:0:0:0:0:
320,192,43908,128,0,44108:0:0:0:0:
192,192,43975,128,0,44108:0:0:0:0:
448,192,44041,128,0,44108:0:0:0:0:
64,192,44108,1,0,0:0:0:0:
320,192,44175,128,0,44275:0:0:0:0:
192,192,44175,128,0,44275:0:0:0:0:
64,192,44275,1,0,0:0:0:0:
320,192,44375,1,0,0:0:0:0:
320,192,44475,128,0,44575:0:0:0:0:
192,192,44475,128,0,44575:0:0:0:0:
64,192,44575,1,0,0:0:0:0:
448,192,44675,1,0,0:0:0:0:
192,192,44775,128,0,44875:0:0:0:0:
448,192,44775,128,0,44875:0:0:0:0:
320,192,44875,1,0,0:0:0:0:
192,192,44975,1,0,0:0:0:0:
192,192,45075,128,0,45175:0:0:0:0:
448,192,45075,128,0,45175:0:0:0:0:
320,192,45175,1,0,0:0:0:0:
64,192,45275,1,0,0:0:0:0:
64,192,45375,128,0,45475:0:0:0:0:
448,192,45375,128,0,45575:0:0:0:0:
192,192,45475,1,0,0:0:0:0:
320,192,45575,1,0,0:0:0:0:
64,192,45575,128,0,45725:0:0:0:0:
320,192,45675,1,0,0:0:0:0:
64,192,45775,1,0,0:0:0:0:
448,192,45775,128,0,46041:0:0:0:0:
192,192,45775,128,0,45975:0:0:0:0:
64,192,45875,128,0,46308:0:0:0:0:
320,192,45975,128,0,46108:0:0:0:0:
192,192,46041,128,0,46175:0:0:0:0:
448,192,46108,128,0,46241:0:0:0:0:
320,192,46175,128,0,46375:0:0:0:0:
192,192,46241,128,0,46441:0:0:0:0:
448,192,46308,128,0,46508:0:0:0:0:
64,192,46375,128,0,46508:0:0:0:0:
320,192,46441,128,0,46508:0:0:0:0:
192,192,46508,1,0,0:0:0:0:
448,192,46575,1,0,0:0:0:0:
64,192,46575,128,0,46775:0:0:0:0:
320,192,46575,1,0,0:0:0:0:
448,192,46675,128,0,47108:0:0:0:0:
192,192,46775,128,0,46908:0:0:0:0:
320,192,46841,128,0,46975:0:0:0:0:
64,192,46908,128,0,47041:0:0:0:0:
192,192,46975,128,0,47175:0:0:0:0:
320,192,47041,128,0,47241:0:0:0:0:
64,192,47108,128,0,47308:0:0:0:0:
448,192,47175,128,0,47308:0:0:0:0:
192,192,47241,128,0,47308:0:0:0:0:
320,192,47308,1,0,0:0:0:0:
448,192,47375,128,0,47475:0:0:0:0:
64,192,47375,128,0,47475:0:0:0:0:
192,192,47475,1,0,0:0:0:0:
448,192,47575,1,0,0:0:0:0:
448,192,47675,128,0,47775:0:0:0:0:
64,192,47675,128,0,47775:0:0:0:0:
192,192,47775,1,0,0:0:0:0:
320,192,47875,1,0,0:0:0:0:
64,192,47975,128,0,48075:0:0:0:0:
320,192,47975,128,0,48075:0:0:0:0:
448,192,48075,1,0,0:0:0:0:
64,192,48175,1,0,0:0:0:0:
64,192,48275,128,0,48375:0:0:0:0:
320,192,48275,128,0,48375:0:0:0:0:
448,192,48375,1,0,0:0:0:0:
64,192,48475,1,0,0:0:0:0:
320,192,48575,128,0,48675:0:0:0:0:
64,192,48575,128,0,48675:0:0:0:0:
448,192,48675,1,0,0:0:0:0:
192,192,48775,1,0,0:0:0:0:
448,192,48875,1,0,0:0:0:0:
192,192,48975,128,0,49125:0:0:0:0:
64,192,48975,128,0,49025:0:0:0:0:
320,192,48975,128,0,49075:0:0:0:0:
448,192,49075,128,0,49225:0:0:0:0:
64,192,49075,128,0,49175:0:0:0:0:
320,192,49175,128,0,49225:0:0:0:0:
192,192,49175,128,0,49225:0:0:0:0:
320,192,49275,128,0,49475:0:0:0:0:
64,192,49275,128,0,49375:0:0:0:0:
448,192,49375,128,0,49475:0:0:0:0:
64,192,49475,128,0,49575:0:0:0:0:
320,192,49575,128,0,49775:0:0:0:0:
192,192,49575,128,0,49675:0:0:0:0:
448,192,49575,128,0,49775:0:0:0:0:
64,192,49675,128,0,49825:0:0:0:0:
192,192,49775,128,0,49825:0:0:0:0:
320,192,49875,128,0,49975:0:0:0:0:
192,192,49875,128,0,50075:0:0:0:0:
64,192,49975,128,0,50075:0:0:0:0:
448,192,50075,1,0,0:0:0:0:
320,192,50075,128,0,50175:0:0:0:0:
64,192,50175,128,0,50325:0:0:0:0:
192,192,50175,128,0,50225:0:0:0:0:
448,192,50175,128,0,50275:0:0:0:0:
320,192,50275,128,0,50425:0:0:0:0:
192,192,50275,128,0,50375:0:0:0:0:
448,192,50375,128,0,50425:0:0:0:0:
64,192,50375,128,0,50675:0:0:0:0:
448,192,50475,128,0,50675:0:0:0:0:
192,192,50475,128,0,50575:0:0:0:0:
320,192,50575,128,0,50675:0:0:0:0:
192,192,50675,128,0,50775:0:0:0:0:
448,192,50775,128,0,50975:0:0:0:0:
64,192,50775,128,0,50875:0:0:0:0:
320,192,50775,128,0,51275:0:0:0:0:
192,192,50875,128,0,51025:0:0:0:0:
64,192,50975,128,0,51025:0:0:0:0:
448,192,51075,128,0,51175:0:0:0:0:
64,192,51075,128,0,51275:0:0:0:0:
192,192,51175,128,0,51275:0:0:0:0:
448,192,51275,1,0,0:0:0:0:
64,192,51375,1,0,0:0:0:0:
192,192,51375,1,0,0:0:0:0:
448,192,51375,1,0,0:0:0:0:
320,192,51441,1,0,0:0:0:0:
448,192,51508,1,0,0:0:0:0:
320,192,51575,1,0,0:0:0:0:
64,192,51575,1,0,0:0:0:0:
192,192,51641,1,0,0:0:0:0:
320,192,51708,1,0,0:0:0:0:
448,192,51775,1,0,0:0:0:0:
192,192,51775,1,0,0:0:0:0:
64,192,51841,1,0,0:0:0:0:
192,192,51908,1,0,0:0:0:0:
64,192,51975,1,0,0:0:0:0:
320,192,51975,1,0,0:0:0:0:
448,192,52041,1,0,0:0:0:0:
64,192,52108,1,0,0:0:0:0:
192,192,52175,128,0,52375:0:0:0:0:
448,192,52175,128,0,52375:0:0:0:0:
320,192,52175,128,0,52375:0:0:0:0:
64,192,52275,1,0,0:0:0:0:
64,192,52375,1,0,0:0:0:0:
192,192,52475,1,0,0:0:0:0:
64,192,52575,1,0,0:0:0:0:
64,192,52675,1,0,0:0:0:0:
192,192,52775,1,0,0:0:0:0:
448,192,52775,1,0,0:0:0:0:
320,192,52775,1,0,0:0:0:0:
448,192,52875,1,0,0:0:0:0:
320,192,52875,1,0,0:0:0:0:
64,192,52875,1,0,0:0:0:0:
192,192,52975,1,0,0:0:0:0:
448,192,52975,1,0,0:0:0:0:
64,192,52975,1,0,0:0:0:0:
320,192,53078,1,0,0:0:0:0:
64,192,53181,1,0,0:0:0:0:
320,192,53285,1,0,0:0:0:0:
64,192,53285,1,0,0:0:0:0:
192,192,53388,1,0,0:0:0:0:
448,192,53388,1,0,0:0:0:0:
64,192,53492,1,0,0:0:0:0:
320,192,53595,1,0,0:0:0:0:
448,192,53595,1,0,0:0:0:0:
64,192,53595,1,0,0:0:0:0:
192,192,53595,1,0,0:0:0:0:
320,192,53699,1,0,0:0:0:0:
192,192,53803,1,0,0:0:0:0:
64,192,53803,1,0,0:0:0:0:
448,192,53856,1,0,0:0:0:0:
320,192,53856,1,0,0:0:0:0:
192,192,53910,1,0,0:0:0:0:
64,192,53910,1,0,0:0:0:0:
320,192,53963,1,0,0:0:0:0:
448,192,53963,1,0,0:0:0:0:
64,192,54017,1,0,0:0:0:0:
192,192,54017,1,0,0:0:0:0:
320,192,54124,1,0,0:0:0:0:
448,192,54124,1,0,0:0:0:0:
64,192,54124,1,0,0:0:0:0:
192,192,54231,1,0,0:0:0:0:
64,192,54338,1,0,0:0:0:0:
192,192,54338,1,0,0:0:0:0:
448,192,54445,1,0,0:0:0:0:
320,192,54445,1,0,0:0:0:0:
192,192,54445,1,0,0:0:0:0:
448,192,54553,1,0,0:0:0:0:
320,192,54660,1,0,0:0:0:0:
448,192,54660,1,0,0:0:0:0:
64,192,54771,1,0,0:0:0:0:
192,192,54771,1,0,0:0:0:0:
448,192,54771,1,0,0:0:0:0:
64,192,54882,1,0,0:0:0:0:
448,192,54993,1,0,0:0:0:0:
64,192,54993,1,0,0:0:0:0:
320,192,55104,1,0,0:0:0:0:
192,192,55104,1,0,0:0:0:0:
192,192,55215,1,0,0:0:0:0:
64,192,55215,1,0,0:0:0:0:
448,192,55326,1,0,0:0:0:0:
320,192,55326,1,0,0:0:0:0:
192,192,55437,1,0,0:0:0:0:
320,192,55437,1,0,0:0:0:0:
64,192,55549,128,0,55779:0:0:0:0:
192,192,55549,128,0,55779:0:0:0:0:
320,192,55549,128,0,55779:0:0:0:0:
448,192,55664,1,0,0:0:0:0:
448,192,55779,1,0,0:0:0:0:
320,192,55895,1,0,0:0:0:0:
448,192,56010,1,0,0:0:0:0:
448,192,56125,1,0,0:0:0:0:
64,192,56241,1,0,0:0:0:0:
192,192,56241,1,0,0:0:0:0:
320,192,56241,1,0,0:0:0:0:
64,192,56356,1,0,0:0:0:0:
448,192,56356,1,0,0:0:0:0:
192,192,56356,1,0,0:0:0:0:
64,192,56472,1,0,0:0:0:0:
320,192,56472,1,0,0:0:0:0:
448,192,56472,1,0,0:0:0:0:
192,192,56592,1,0,0:0:0:0:
448,192,56712,1,0,0:0:0:0:
192,192,56832,1,0,0:0:0:0:
448,192,56832,1,0,0:0:0:0:
64,192,56952,1,0,0:0:0:0:
320,192,56952,1,0,0:0:0:0:
448,192,57072,1,0,0:0:0:0:
192,192,57192,1,0,0:0:0:0:
64,192,57192,1,0,0:0:0:0:
448,192,57192,1,0,0:0:0:0:
320,192,57192,1,0,0:0:0:0:
192,192,57312,1,0,0:0:0:0:
448,192,57432,1,0,0:0:0:0:
320,192,57432,1,0,0:0:0:0:
64,192,57494,1,0,0:0:0:0:
192,192,57494,1,0,0:0:0:0:
448,192,57557,1,0,0:0:0:0:
320,192,57557,1,0,0:0:0:0:
192,192,57619,1,0,0:0:0:0:
64,192,57619,1,0,0:0:0:0:
448,192,57682,1,0,0:0:0:0:
320,192,57682,1,0,0:0:0:0:
448,192,57807,1,0,0:0:0:0:
192,192,57807,1,0,0:0:0:0:
64,192,57807,1,0,0:0:0:0:
320,192,57848,1,0,0:0:0:0:
192,192,57890,1,0,0:0:0:0:
448,192,57932,1,0,0:0:0:0:
64,192,57973,1,0,0:0:0:0:
192,192,58015,1,0,0:0:0:0:
448,192,58057,1,0,0:0:0:0:
320,192,58057,1,0,0:0:0:0:
192,192,58119,1,0,0:0:0:0:
448,192,58182,1,0,0:0:0:0:
64,192,58182,1,0,0:0:0:0:
320,192,58182,1,0,0:0:0:0:
192,192,58244,1,0,0:0:0:0:
64,192,58307,1,0,0:0:0:0:
320,192,58369,1,0,0:0:0:0:
192,192,58432,1,0,0:0:0:0:
64,192,58432,1,0,0:0:0:0:
320,192,58497,1,0,0:0:0:0:
192,192,58562,1,0,0:0:0:0:
448,192,58562,1,0,0:0:0:0:
64,192,58562,1,0,0:0:0:0:
320,192,58627,1,0,0:0:0:0:
448,192,58692,1,0,0:0:0:0:
192,192,58758,1,0,0:0:0:0:
320,192,58823,1,0,0:0:0:0:
64,192,58823,1,0,0:0:0:0:
448,192,58888,1,0,0:0:0:0:
320,192,58953,128,0,59040:0:0:0:0:
192,192,58953,128,0,59127:0:0:0:0:
64,192,59040,128,0,59301:0:0:0:0:
320,192,59127,128,0,59388:0:0:0:0:
192,192,59214,128,0,59388:0:0:0:0:
448,192,59301,128,0,59388:0:0:0:0:
64,192,59388,128,0,59475:0:0:0:0:
192,192,59475,5,0,0:0:0:0:
448,192,59475,1,0,0:0:0:0:
320,192,59475,1,0,0:0:0:0:
192,192,59611,1,0,0:0:0:0:
64,192,59611,1,0,0:0:0:0:
64,192,59747,1,0,0:0:0:0:
192,192,59747,1,0,0:0:0:0:
320,192,59884,1,0,0:0:0:0:
448,192,59884,1,0,0:0:0:0:
64,192,59884,1,0,0:0:0:0:
320,192,60020,1,0,0:0:0:0:
192,192,60020,1,0,0:0:0:0:
320,192,60156,1,0,0:0:0:0:
192,192,60156,1,0,0:0:0:0:
448,192,60293,1,0,0:0:0:0:
192,192,60293,1,0,0:0:0:0:
64,192,60293,1,0,0:0:0:0:
320,192,60429,1,0,0:0:0:0:
64,192,60429,1,0,0:0:0:0:
320,192,60565,1,0,0:0:0:0:
64,192,60565,1,0,0:0:0:0:
64,192,60702,1,0,0:0:0:0:
448,192,60702,1,0,0:0:0:0:
192,192,60702,1,0,0:0:0:0:
448,192,60838,1,0,0:0:0:0:
320,192,60838,1,0,0:0:0:0:
448,192,60975,1,0,0:0:0:0:
320,192,60975,1,0,0:0:0:0:
192,192,61111,1,0,0:0:0:0:
448,192,61111,1,0,0:0:0:0:
64,192,61111,1,0,0:0:0:0:
320,192,61179,1,0,0:0:0:0:
448,192,61247,1,0,0:0:0:0:
192,192,61315,1,0,0:0:0:0:
320,192,61384,1,0,0:0:0:0:
448,192,61384,1,0,0:0:0:0:
64,192,61384,1,0,0:0:0:0:
192,192,61452,1,0,0:0:0:0:
320,192,61520,1,0,0:0:0:0:
448,192,61588,1,0,0:0:0:0:
64,192,61656,1,0,0:0:0:0:
192,192,61656,1,0,0:0:0:0:
320,192,61656,1,0,0:0:0:0:
320,192,61793,1,0,0:0:0:0:
448,192,61793,1,0,0:0:0:0:
448,192,61929,1,0,0:0:0:0:
320,192,61929,1,0,0:0:0:0:
192,192,62065,1,0,0:0:0:0:
64,192,62065,1,0,0:0:0:0:
448,192,62065,1,0,0:0:0:0:
192,192,62202,1,0,0:0:0:0:
320,192,62202,1,0,0:0:0:0:
192,192,62338,1,0,0:0:0:0:
320,192,62338,1,0,0:0:0:0:
64,192,62475,1,0,0:0:0:0:
320,192,62475,1,0,0:0:0:0:
448,192,62475,1,0,0:0:0:0:
192,192,62611,1,0,0:0:0:0:
448,192,62611,1,0,0:0:0:0:
192,192,62747,1,0,0:0:0:0:
448,192,62747,1,0,0:0:0:0:
448,192,62884,1,0,0:0:0:0:
64,192,62884,1,0,0:0:0:0:
320,192,62884,1,0,0:0:0:0:
64,192,63020,1,0,0:0:0:0:
192,192,63020,1,0,0:0:0:0:
64,192,63156,1,0,0:0:0:0:
192,192,63156,1,0,0:0:0:0:
320,192,63293,1,0,0:0:0:0:
64,192,63293,1,0,0:0:0:0:
448,192,63293,1,0,0:0:0:0:
192,192,63361,1,0,0:0:0:0:
64,192,63429,1,0,0:0:0:0:
320,192,63497,1,0,0:0:0:0:
192,192,63565,1,0,0:0:0:0:
64,192,63565,1,0,0:0:0:0:
448,192,63565,1,0,0:0:0:0:
320,192,63634,1,0,0:0:0:0:
192,192,63702,1,0,0:0:0:0:
64,192,63770,1,0,0:0:0:0:
320,192,63838,1,0,0:0:0:0:
448,192,63838,1,0,0:0:0:0:
192,192,63884,1,0,0:0:0:0:
64,192,63929,1,0,0:0:0:0:
320,192,63975,1,0,0:0:0:0:
192,192,64020,1,0,0:0:0:0:
448,192,64065,1,0,0:0:0:0:
64,192,64111,1,0,0:0:0:0:
192,192,64156,1,0,0:0:0:0:
320,192,64202,1,0,0:0:0:0:
448,192,64247,1,0,0:0:0:0:
64,192,64281,1,0,0:0:0:0:
192,192,64315,1,0,0:0:0:0:
320,192,64350,1,0,0:0:0:0:
64,192,64384,1,0,0:0:0:0:
448,192,64418,1,0,0:0:0:0:
320,192,64452,1,0,0:0:0:0:
192,192,64486,1,0,0:0:0:0:
64,192,64520,1,0,0:0:0:0:
448,192,64554,1,0,0:0:0:0:
192,192,64588,1,0,0:0:0:0:
320,192,64622,1,0,0:0:0:0:
64,192,64656,1,0,0:0:0:0:
448,192,64690,1,0,0:0:0:0:
192,192,64725,1,0,0:0:0:0:
320,192,64759,1,0,0:0:0:0:
64,192,64793,1,0,0:0:0:0:
192,192,64827,1,0,0:0:0:0:
320,192,64861,1,0,0:0:0:0:
64,192,64895,1,0,0:0:0:0:
448,192,64929,1,0,0:0:0:0:
192,192,64963,1,0,0:0:0:0:
320,192,64997,1,0,0:0:0:0:
448,192,65031,1,0,0:0:0:0:
64,192,65065,1,0,0:0:0:0:
320,192,65100,1,0,0:0:0:0:
192,192,65134,1,0,0:0:0:0:
448,192,65168,1,0,0:0:0:0:
64,192,65202,1,0,0:0:0:0:
320,192,65236,1,0,0:0:0:0:
192,192,65270,1,0,0:0:0:0:
64,192,65304,1,0,0:0:0:0:
448,192,65338,1,0,0:0:0:0:
320,192,65372,1,0,0:0:0:0:
192,192,65406,1,0,0:0:0:0:
64,192,65440,1,0,0:0:0:0:
448,192,65475,1,0,0:0:0:0:
192,192,65509,1,0,0:0:0:0:
320,192,65543,1,0,0:0:0:0:
64,192,65577,1,0,0:0:0:0:
448,192,65611,1,0,0:0:0:0:
192,192,65645,1,0,0:0:0:0:
320,192,65679,1,0,0:0:0:0:
448,192,65713,1,0,0:0:0:0:
64,192,65747,1,0,0:0:0:0:
64,192,65815,1,0,0:0:0:0:
448,192,65884,1,0,0:0:0:0:
448,192,65952,1,0,0:0:0:0:
64,192,66020,128,0,67656:0:0:0:0:
320,192,66020,1,0,0:0:0:0:
192,192,66020,1,0,0:0:0:0:
448,192,67656,1,0,0:0:0:0:
320,192,67656,1,0,0:0:0:0:
320,192,67747,1,0,0:0:0:0:
448,192,67838,1,0,0:0:0:0:
64,192,67929,1,0,0:0:0:0:
192,192,67929,1,0,0:0:0:0:
192,192,68020,1,0,0:0:0:0:
64,192,68111,1,0,0:0:0:0:
448,192,68202,128,0,68270:0:0:0:0:
64,192,68202,128,0,68338:0:0:0:0:
320,192,68202,128,0,68338:0:0:0:0:
192,192,68338,1,0,0:0:0:0:
448,192,68372,1,0,0:0:0:0:
64,192,68406,1,0,0:0:0:0:
320,192,68440,1,0,0:0:0:0:
192,192,68475,1,0,0:0:0:0:
448,192,68520,1,0,0:0:0:0:
192,192,68543,1,0,0:0:0:0:
64,192,68565,1,0,0:0:0:0:
320,192,68611,1,0,0:0:0:0:
320,192,68679,1,0,0:0:0:0:
64,192,68748,1,0,0:0:0:0:
192,192,68748,128,0,69018:0:0:0:0:
448,192,68748,128,0,68916:0:0:0:0:
64,192,68883,128,0,68950:0:0:0:0:
320,192,68916,128,0,69153:0:0:0:0:
64,192,69018,128,0,69085:0:0:0:0:
448,192,69052,128,0,69220:0:0:0:0:
64,192,69153,128,0,69220:0:0:0:0:
192,192,69187,128,0,69354:0:0:0:0:
64,192,69288,1,0,0:0:0:0:
320,192,69288,1,0,0:0:0:0:
448,192,69288,128,0,69455:0:0:0:0:
64,192,69421,128,0,69488:0:0:0:0:
320,192,69455,128,0,69689:0:0:0:0:
64,192,69555,128,0,69622:0:0:0:0:
448,192,69589,128,0,69756:0:0:0:0:
64,192,69689,128,0,69756:0:0:0:0:
192,192,69723,128,0,69890:0:0:0:0:
448,192,69824,128,0,69956:0:0:0:0:
320,192,69824,128,0,70023:0:0:0:0:
64,192,69824,1,0,0:0:0:0:
64,192,69956,128,0,70023:0:0:0:0:
448,192,70089,1,0,0:0:0:0:
64,192,70122,1,0,0:0:0:0:
192,192,70155,1,0,0:0:0:0:
448,192,70189,1,0,0:0:0:0:
320,192,70222,1,0,0:0:0:0:
192,192,70255,1,0,0:0:0:0:
64,192,70288,1,0,0:0:0:0:
192,192,70355,1,0,0:0:0:0:
448,192,70355,1,0,0:0:0:0:
320,192,70355,1,0,0:0:0:0:
64,192,70442,1,0,0:0:0:0:
320,192,70486,1,0,0:0:0:0:
448,192,70519,1,0,0:0:0:0:
192,192,70552,1,0,0:0:0:0:
64,192,70585,1,0,0:0:0:0:
320,192,70618,1,0,0:0:0:0:
320,192,70683,1,0,0:0:0:0:
192,192,70749,1,0,0:0:0:0:
192,192,70815,1,0,0:0:0:0:
448,192,70881,1,0,0:0:0:0:
320,192,70881,128,0,71141:0:0:0:0:
64,192,70881,128,0,71044:0:0:0:0:
448,192,71011,128,0,71076:0:0:0:0:
192,192,71044,128,0,71272:0:0:0:0:
448,192,71141,128,0,71207:0:0:0:0:
64,192,71174,128,0,71337:0:0:0:0:
448,192,71272,128,0,71337:0:0:0:0:
320,192,71304,128,0,71467:0:0:0:0:
64,192,71403,128,0,71564:0:0:0:0:
192,192,71403,1,0,0:0:0:0:
448,192,71403,1,0,0:0:0:0:
448,192,71532,128,0,71596:0:0:0:0:
192,192,71564,128,0,71790:0:0:0:0:
448,192,71661,128,0,71726:0:0:0:0:
64,192,71693,128,0,71855:0:0:0:0:
448,192,71790,128,0,71855:0:0:0:0:
320,192,71823,128,0,71984:0:0:0:0:
64,192,71920,128,0,72048:0:0:0:0:
192,192,71920,128,0,72016:0:0:0:0:
448,192,71920,1,0,0:0:0:0:
320,192,72048,1,0,0:0:0:0:
448,192,72090,1,0,0:0:0:0:
192,192,72090,1,0,0:0:0:0:
64,192,72176,1,0,0:0:0:0:
448,192,72208,1,0,0:0:0:0:
192,192,72240,1,0,0:0:0:0:
192,192,72347,1,0,0:0:0:0:
64,192,72433,128,0,72623:0:0:0:0:
448,192,72433,128,0,72496:0:0:0:0:
320,192,72433,128,0,72560:0:0:0:0:
192,192,72560,1,0,0:0:0:0:
448,192,72602,1,0,0:0:0:0:
320,192,72644,1,0,0:0:0:0:
192,192,72687,1,0,0:0:0:0:
448,192,72729,1,0,0:0:0:0:
192,192,72750,1,0,0:0:0:0:
64,192,72771,1,0,0:0:0:0:
320,192,72814,1,0,0:0:0:0:
320,192,72877,1,0,0:0:0:0:
64,192,72942,1,0,0:0:0:0:
192,192,72942,128,0,73194:0:0:0:0:
448,192,72942,128,0,73099:0:0:0:0:
64,192,73068,128,0,73131:0:0:0:0:
320,192,73099,128,0,73320:0:0:0:0:
64,192,73194,128,0,73257:0:0:0:0:
448,192,73225,128,0,73383:0:0:0:0:
64,192,73320,128,0,73383:0:0:0:0:
192,192,73351,128,0,73508:0:0:0:0:
448,192,73446,128,0,73602:0:0:0:0:
320,192,73446,1,0,0:0:0:0:
64,192,73446,1,0,0:0:0:0:
64,192,73571,128,0,73633:0:0:0:0:
320,192,73602,128,0,73821:0:0:0:0:
64,192,73696,128,0,73758:0:0:0:0:
448,192,73727,128,0,73883:0:0:0:0:
64,192,73821,128,0,73883:0:0:0:0:
192,192,73852,128,0,74007:0:0:0:0:
448,192,73946,128,0,74069:0:0:0:0:
320,192,73946,128,0,74131:0:0:0:0:
64,192,73946,1,0,0:0:0:0:
64,192,74069,128,0,74131:0:0:0:0:
448,192,74193,128,0,74240:0:0:0:0:
320,192,74224,128,0,74286:0:0:0:0:
64,192,74255,128,0,74317:0:0:0:0:
448,192,74286,128,0,74348:0:0:0:0:
192,192,74317,128,0,74442:0:0:0:0:
64,192,74442,128,0,74749:0:0:0:0:
320,192,74442,128,0,74626:0:0:0:0:
448,192,74442,128,0,74503:0:0:0:0:
192,192,74564,128,0,74749:0:0:0:0:
448,192,74564,128,0,74872:0:0:0:0:
320,192,74687,128,0,74810:0:0:0:0:
192,192,74810,128,0,74934:0:0:0:0:
64,192,74810,128,0,74872:0:0:0:0:
64,192,74934,128,0,75238:0:0:0:0:
320,192,74934,128,0,75116:0:0:0:0:
448,192,74934,128,0,74994:0:0:0:0:
448,192,75055,128,0,75177:0:0:0:0:
192,192,75055,128,0,75116:0:0:0:0:
192,192,75177,128,0,75360:0:0:0:0:
320,192,75218,128,0,75299:0:0:0:0:
448,192,75259,128,0,75421:0:0:0:0:
64,192,75299,128,0,75481:0:0:0:0:
192,192,75421,128,0,75602:0:0:0:0:
320,192,75421,128,0,75541:0:0:0:0:
64,192,75541,128,0,75662:0:0:0:0:
448,192,75541,128,0,75602:0:0:0:0:
448,192,75662,128,0,75844:0:0:0:0:
192,192,75703,128,0,75783:0:0:0:0:
64,192,75743,128,0,75905:0:0:0:0:
320,192,75783,128,0,75844:0:0:0:0:
320,192,75905,128,0,76025:0:0:0:0:
192,192,75905,128,0,76205:0:0:0:0:
448,192,75905,128,0,76085:0:0:0:0:
64,192,76025,128,0,76085:0:0:0:0:
64,192,76145,128,0,76325:0:0:0:0:
448,192,76185,128,0,76265:0:0:0:0:
320,192,76225,128,0,76385:0:0:0:0:
192,192,76265,128,0,76325:0:0:0:0:
192,192,76385,128,0,76504:0:0:0:0:
64,192,76385,128,0,76444:0:0:0:0:
448,192,76385,128,0,76504:0:0:0:0:
320,192,76504,1,0,0:0:0:0:
64,192,76543,1,0,0:0:0:0:
192,192,76583,1,0,0:0:0:0:
320,192,76623,128,0,76682:0:0:0:0:
448,192,76623,128,0,76742:0:0:0:0:
192,192,76742,1,0,0:0:0:0:
192,192,76801,1,0,0:0:0:0:
448,192,76861,1,0,0:0:0:0:
320,192,76861,128,0,77097:0:0:0:0:
64,192,76861,128,0,77008:0:0:0:0:
448,192,76979,128,0,77038:0:0:0:0:
192,192,77008,128,0,77215:0:0:0:0:
448,192,77097,128,0,77156:0:0:0:0:
64,192,77126,128,0,77274:0:0:0:0:
448,192,77215,128,0,77274:0:0:0:0:
320,192,77244,128,0,77392:0:0:0:0:
64,192,77334,128,0,77480:0:0:0:0:
192,192,77334,1,0,0:0:0:0:
448,192,77451,128,0,77509:0:0:0:0:
192,192,77480,128,0,77685:0:0:0:0:
448,192,77568,128,0,77626:0:0:0:0:
64,192,77597,128,0,77744:0:0:0:0:
448,192,77685,128,0,77744:0:0:0:0:
320,192,77714,128,0,77861:0:0:0:0:
64,192,77803,128,0,77919:0:0:0:0:
192,192,77803,128,0,77977:0:0:0:0:
448,192,77803,1,0,0:0:0:0:
448,192,77919,128,0,77977:0:0:0:0:
64,192,78035,1,0,0:0:0:0:
448,192,78064,1,0,0:0:0:0:
320,192,78093,1,0,0:0:0:0:
64,192,78122,1,0,0:0:0:0:
192,192,78151,1,0,0:0:0:0:
320,192,78180,1,0,0:0:0:0:
448,192,78209,1,0,0:0:0:0:
64,192,78268,1,0,0:0:0:0:
320,192,78268,1,0,0:0:0:0:
192,192,78268,1,0,0:0:0:0:
448,192,78344,1,0,0:0:0:0:
64,192,78383,1,0,0:0:0:0:
320,192,78421,1,0,0:0:0:0:
448,192,78460,1,0,0:0:0:0:
192,192,78498,1,0,0:0:0:0:
192,192,78556,1,0,0:0:0:0:
320,192,78614,1,0,0:0:0:0:
320,192,78671,1,0,0:0:0:0:
64,192,78729,1,0,0:0:0:0:
192,192,78729,128,0,78958:0:0:0:0:
448,192,78729,128,0,78872:0:0:0:0:
64,192,78843,128,0,78900:0:0:0:0:
320,192,78872,128,0,79072:0:0:0:0:
64,192,78958,128,0,79015:0:0:0:0:
448,192,78986,128,0,79129:0:0:0:0:
64,192,79072,128,0,79129:0:0:0:0:
192,192,79101,128,0,79187:0:0:0:0:
448,192,79187,128,0,79357:0:0:0:0:
320,192,79187,1,0,0:0:0:0:
192,192,79243,128,0,79499:0:0:0:0:
64,192,79300,128,0,79357:0:0:0:0:
320,192,79357,128,0,79527:0:0:0:0:
64,192,79414,128,0,79471:0:0:0:0:
448,192,79442,128,0,79584:0:0:0:0:
64,192,79527,128,0,79584:0:0:0:0:
192,192,79556,128,0,79642:0:0:0:0:
320,192,79642,128,0,79698:0:0:0:0:
448,192,79642,128,0,79754:0:0:0:0:
64,192,79642,1,0,0:0:0:0:
192,192,79698,128,0,79754:0:0:0:0:
320,192,79754,128,0,79811:0:0:0:0:
192,192,79811,128,0,79867:0:0:0:0:
448,192,79867,1,0,0:0:0:0:
64,192,79867,1,0,0:0:0:0:
320,192,79923,1,0,0:0:0:0:
64,192,79980,1,0,0:0:0:0:
192,192,80036,1,0,0:0:0:0:
448,192,80093,1,0,0:0:0:0:
320,192,80093,1,0,0:0:0:0:
64,192,80204,1,0,0:0:0:0:
448,192,80316,1,0,0:0:0:0:
192,192,80428,1,0,0:0:0:0:
320,192,80540,1,0,0:0:0:0:
448,192,80652,1,0,0:0:0:0:
64,192,80764,128,0,80876:0:0:0:0:
192,192,80820,128,0,80932:0:0:0:0:
320,192,80876,128,0,80960:0:0:0:0:
448,192,80932,128,0,81072:0:0:0:0:
64,192,80988,128,0,81044:0:0:0:0:
320,192,81025,128,0,81175:0:0:0:0:
192,192,81063,128,0,81137:0:0:0:0:
64,192,81100,128,0,81268:0:0:0:0:
448,192,81156,128,0,81212:0:0:0:0:
192,192,81193,128,0,81343:0:0:0:0:
320,192,81231,128,0,81305:0:0:0:0:
448,192,81268,128,0,81436:0:0:0:0:
64,192,81324,128,0,81380:0:0:0:0:
320,192,81361,128,0,81510:0:0:0:0:
192,192,81398,128,0,81473:0:0:0:0:
64,192,81436,128,0,81604:0:0:0:0:
448,192,81492,128,0,81548:0:0:0:0:
192,192,81529,128,0,81678:0:0:0:0:
320,192,81566,128,0,81641:0:0:0:0:
448,192,81604,128,0,81772:0:0:0:0:
64,192,81660,128,0,81716:0:0:0:0:
320,192,81697,128,0,81846:0:0:0:0:
192,192,81734,128,0,81809:0:0:0:0:
64,192,81772,128,0,81937:0:0:0:0:
448,192,81828,128,0,81884:0:0:0:0:
192,192,81865,128,0,82009:0:0:0:0:
320,192,81901,128,0,81973:0:0:0:0:
448,192,81937,128,0,82098:0:0:0:0:
64,192,81991,128,0,82044:0:0:0:0:
320,192,82026,128,0,82169:0:0:0:0:
192,192,82062,128,0,82134:0:0:0:0:
64,192,82098,128,0,82259:0:0:0:0:
448,192,82151,128,0,82205:0:0:0:0:
192,192,82187,128,0,82330:0:0:0:0:
320,192,82223,128,0,82294:0:0:0:0:
448,192,82259,128,0,82419:0:0:0:0:
64,192,82312,128,0,82366:0:0:0:0:
320,192,82348,128,0,82491:0:0:0:0:
192,192,82384,128,0,82455:0:0:0:0:
64,192,82419,128,0,82580:0:0:0:0:
448,192,82473,128,0,82526:0:0:0:0:
192,192,82509,128,0,82651:0:0:0:0:
320,192,82544,128,0,82616:0:0:0:0:
448,192,82580,128,0,82741:0:0:0:0:
64,192,82634,128,0,82687:0:0:0:0:
320,192,82669,128,0,82812:0:0:0:0:
192,192,82705,128,0,82776:0:0:0:0:
64,192,82741,128,0,82901:0:0:0:0:
448,192,82794,128,0,82848:0:0:0:0:
192,192,82830,128,0,82973:0:0:0:0:
320,192,82866,128,0,82937:0:0:0:0:
448,192,82901,128,0,83080:0:0:0:0:
64,192,82955,128,0,83009:0:0:0:0:
320,192,82991,128,0,83062:0:0:0:0:
192,192,83026,128,0,83134:0:0:0:0:
64,192,83062,128,0,83151:0:0:0:0:
320,192,83116,128,0,83169:0:0:0:0:
448,192,83169,128,0,83384:0:0:0:0:
192,192,83217,1,0,0:0:0:0:
64,192,83264,1,0,0:0:0:0:
320,192,83312,1,0,0:0:0:0:
64,192,83384,128,0,83526:0:0:0:0:
192,192,83491,128,0,83598:0:0:0:0:
64,192,83598,5,0,0:0:0:0:
448,192,83598,1,0,0:0:0:0:
320,192,83634,1,0,0:0:0:0:
192,192,83669,1,0,0:0:0:0:
448,192,83705,1,0,0:0:0:0:
64,192,83741,1,0,0:0:0:0:
192,192,83776,1,0,0:0:0:0:
320,192,83812,1,0,0:0:0:0:
64,192,83848,1,0,0:0:0:0:
448,192,83884,1,0,0:0:0:0:
192,192,83919,1,0,0:0:0:0:
64,192,84027,1,0,0:0:0:0:
192,192,84027,1,0,0:0:0:0:
448,192,84080,1,0,0:0:0:0:
64,192,84133,1,0,0:0:0:0:
448,192,84239,128,0,84452:0:0:0:0:
192,192,84239,1,0,0:0:0:0:
320,192,84292,128,0,84399:0:0:0:0:
64,192,84346,128,0,84399:0:0:0:0:
192,192,84346,128,0,84399:0:0:0:0:
64,192,84452,1,0,0:0:0:0:
192,192,84452,1,0,0:0:0:0:
448,192,84555,1,0,0:0:0:0:
64,192,84555,1,0,0:0:0:0:
320,192,84658,128,0,84710:0:0:0:0:
448,192,84658,128,0,84762:0:0:0:0:
320,192,84762,128,0,84866:0:0:0:0:
64,192,84866,1,0,0:0:0:0:
448,192,84866,1,0,0:0:0:0:
192,192,84968,1,0,0:0:0:0:
320,192,85071,1,0,0:0:0:0:
64,192,85071,1,0,0:0:0:0:
448,192,85105,1,0,0:0:0:0:
192,192,85139,1,0,0:0:0:0:
448,192,85174,1,0,0:0:0:0:
64,192,85225,1,0,0:0:0:0:
448,192,85277,128,0,85481:0:0:0:0:
192,192,85277,128,0,85379:0:0:0:0:
192,192,85481,1,0,0:0:0:0:
320,192,85583,1,0,0:0:0:0:
192,192,85583,1,0,0:0:0:0:
64,192,85685,1,0,0:0:0:0:
448,192,85685,1,0,0:0:0:0:
320,192,85735,1,0,0:0:0:0:
64,192,85786,1,0,0:0:0:0:
448,192,85837,1,0,0:0:0:0:
64,192,85887,128,0,86039:0:0:0:0:
192,192,85887,128,0,85938:0:0:0:0:
192,192,85989,128,0,86242:0:0:0:0:
448,192,85989,128,0,86039:0:0:0:0:
448,192,86091,128,0,86242:0:0:0:0:
320,192,86091,128,0,86141:0:0:0:0:
64,192,86091,128,0,86141:0:0:0:0:
320,192,86191,128,0,86342:0:0:0:0:
64,192,86191,128,0,86443:0:0:0:0:
448,192,86292,128,0,86342:0:0:0:0:
192,192,86292,128,0,86443:0:0:0:0:
320,192,86393,128,0,86443:0:0:0:0:
448,192,86393,128,0,86493:0:0:0:0:
192,192,86493,1,0,0:0:0:0:
64,192,86493,1,0,0:0:0:0:
320,192,86537,1,0,0:0:0:0:
64,192,86581,1,0,0:0:0:0:
448,192,86626,1,0,0:0:0:0:
192,192,86670,1,0,0:0:0:0:
64,192,86715,1,0,0:0:0:0:
320,192,86759,1,0,0:0:0:0:
192,192,86793,1,0,0:0:0:0:
64,192,86893,1,0,0:0:0:0:
448,192,86893,1,0,0:0:0:0:
192,192,86926,1,0,0:0:0:0:
320,192,86959,1,0,0:0:0:0:
64,192,86992,1,0,0:0:0:0:
448,192,87025,1,0,0:0:0:0:
192,192,87058,1,0,0:0:0:0:
320,192,87091,1,0,0:0:0:0:
448,192,87124,1,0,0:0:0:0:
64,192,87157,1,0,0:0:0:0:
192,192,87191,1,0,0:0:0:0:
448,192,87291,1,0,0:0:0:0:
320,192,87291,1,0,0:0:0:0:
64,192,87340,1,0,0:0:0:0:
448,192,87389,1,0,0:0:0:0:
320,192,87488,1,0,0:0:0:0:
64,192,87488,128,0,87686:0:0:0:0:
192,192,87537,128,0,87636:0:0:0:0:
448,192,87587,128,0,87636:0:0:0:0:
320,192,87587,128,0,87636:0:0:0:0:
320,192,87686,1,0,0:0:0:0:
448,192,87686,1,0,0:0:0:0:
64,192,87784,1,0,0:0:0:0:
448,192,87784,1,0,0:0:0:0:
64,192,87882,128,0,87980:0:0:0:0:
192,192,87882,128,0,87931:0:0:0:0:
192,192,87980,128,0,88078:0:0:0:0:
448,192,88078,1,0,0:0:0:0:
64,192,88078,1,0,0:0:0:0:
320,192,88121,1,0,0:0:0:0:
64,192,88164,1,0,0:0:0:0:
448,192,88207,1,0,0:0:0:0:
192,192,88251,1,0,0:0:0:0:
64,192,88294,1,0,0:0:0:0:
448,192,88337,1,0,0:0:0:0:
192,192,88381,1,0,0:0:0:0:
448,192,88424,1,0,0:0:0:0:
64,192,88467,128,0,88708:0:0:0:0:
320,192,88467,128,0,88515:0:0:0:0:
192,192,88563,128,0,88708:0:0:0:0:
320,192,88563,128,0,88902:0:0:0:0:
448,192,88660,128,0,88805:0:0:0:0:
64,192,88757,128,0,88998:0:0:0:0:
192,192,88757,128,0,88805:0:0:0:0:
192,192,88854,128,0,89286:0:0:0:0:
448,192,88854,128,0,88998:0:0:0:0:
320,192,88950,128,0,89094:0:0:0:0:
448,192,89046,128,0,89190:0:0:0:0:
64,192,89046,128,0,89094:0:0:0:0:
320,192,89142,128,0,89190:0:0:0:0:
64,192,89142,128,0,89190:0:0:0:0:
320,192,89239,128,0,89477:0:0:0:0:
64,192,89239,128,0,89382:0:0:0:0:
448,192,89239,128,0,89286:0:0:0:0:
192,192,89334,128,0,89573:0:0:0:0:
448,192,89334,128,0,89573:0:0:0:0:
64,192,89430,128,0,89573:0:0:0:0:
320,192,89525,128,0,89810:0:0:0:0:
448,192,89621,128,0,89715:0:0:0:0:
64,192,89621,128,0,89715:0:0:0:0:
192,192,89621,128,0,89668:0:0:0:0:
192,192,89715,128,0,89905:0:0:0:0:
448,192,89810,128,0,89905:0:0:0:0:
64,192,89810,128,0,89905:0:0:0:0:
320,192,89905,128,0,90001:0:0:0:0:
64,192,90001,1,0,0:0:0:0:
448,192,90001,1,0,0:0:0:0:
192,192,90032,1,0,0:0:0:0:
320,192,90063,1,0,0:0:0:0:
64,192,90095,1,0,0:0:0:0:
448,192,90126,1,0,0:0:0:0:
320,192,90158,1,0,0:0:0:0:
192,192,90189,1,0,0:0:0:0:
448,192,90221,1,0,0:0:0:0:
64,192,90252,1,0,0:0:0:0:
320,192,90284,1,0,0:0:0:0:
448,192,90378,1,0,0:0:0:0:
320,192,90378,1,0,0:0:0:0:
64,192,90424,1,0,0:0:0:0:
448,192,90471,1,0,0:0:0:0:
320,192,90565,1,0,0:0:0:0:
64,192,90565,128,0,90753:0:0:0:0:
192,192,90612,128,0,90706:0:0:0:0:
448,192,90659,128,0,90706:0:0:0:0:
320,192,90659,128,0,90706:0:0:0:0:
320,192,90753,1,0,0:0:0:0:
448,192,90753,1,0,0:0:0:0:
64,192,90846,1,0,0:0:0:0:
448,192,90846,1,0,0:0:0:0:
64,192,90939,128,0,91079:0:0:0:0:
192,192,90939,128,0,90985:0:0:0:0:
192,192,91032,128,0,91126:0:0:0:0:
64,192,91126,1,0,0:0:0:0:
448,192,91126,1,0,0:0:0:0:
320,192,91218,1,0,0:0:0:0:
192,192,91311,1,0,0:0:0:0:
448,192,91311,1,0,0:0:0:0:
64,192,91342,1,0,0:0:0:0:
320,192,91372,1,0,0:0:0:0:
64,192,91403,1,0,0:0:0:0:
448,192,91450,1,0,0:0:0:0:
320,192,91496,128,0,91588:0:0:0:0:
64,192,91496,128,0,91680:0:0:0:0:
320,192,91680,1,0,0:0:0:0:
192,192,91772,1,0,0:0:0:0:
320,192,91772,1,0,0:0:0:0:
448,192,91864,1,0,0:0:0:0:
64,192,91864,1,0,0:0:0:0:
192,192,91909,1,0,0:0:0:0:
448,192,91955,1,0,0:0:0:0:
64,192,92001,1,0,0:0:0:0:
448,192,92046,128,0,92184:0:0:0:0:
320,192,92046,128,0,92092:0:0:0:0:
320,192,92138,128,0,92366:0:0:0:0:
64,192,92138,128,0,92184:0:0:0:0:
448,192,92230,128,0,92275:0:0:0:0:
64,192,92230,128,0,92366:0:0:0:0:
192,192,92230,128,0,92275:0:0:0:0:
448,192,92320,128,0,92548:0:0:0:0:
192,192,92320,128,0,92457:0:0:0:0:
64,192,92411,128,0,92457:0:0:0:0:
320,192,92411,128,0,92548:0:0:0:0:
64,192,92502,128,0,92594:0:0:0:0:
192,192,92502,128,0,92548:0:0:0:0:
320,192,92594,1,0,0:0:0:0:
448,192,92594,1,0,0:0:0:0:
192,192,92634,1,0,0:0:0:0:
448,192,92674,1,0,0:0:0:0:
64,192,92714,1,0,0:0:0:0:
320,192,92754,1,0,0:0:0:0:
448,192,92794,1,0,0:0:0:0:
192,192,92834,1,0,0:0:0:0:
320,192,92865,1,0,0:0:0:0:
64,192,92955,1,0,0:0:0:0:
448,192,92955,1,0,0:0:0:0:
320,192,92984,1,0,0:0:0:0:
192,192,93014,1,0,0:0:0:0:
448,192,93044,1,0,0:0:0:0:
64,192,93074,1,0,0:0:0:0:
320,192,93104,1,0,0:0:0:0:
192,192,93134,1,0,0:0:0:0:
64,192,93164,1,0,0:0:0:0:
448,192,93194,1,0,0:0:0:0:
320,192,93224,1,0,0:0:0:0:
64,192,93315,1,0,0:0:0:0:
192,192,93315,1,0,0:0:0:0:
448,192,93359,1,0,0:0:0:0:
64,192,93404,1,0,0:0:0:0:
448,192,93493,128,0,93672:0:0:0:0:
192,192,93493,1,0,0:0:0:0:
320,192,93538,128,0,93627:0:0:0:0:
64,192,93582,128,0,93627:0:0:0:0:
192,192,93582,128,0,93627:0:0:0:0:
64,192,93672,1,0,0:0:0:0:
192,192,93672,1,0,0:0:0:0:
448,192,93760,1,0,0:0:0:0:
64,192,93760,1,0,0:0:0:0:
448,192,93849,128,0,93938:0:0:0:0:
320,192,93849,128,0,93893:0:0:0:0:
320,192,93938,128,0,94027:0:0:0:0:
64,192,94027,1,0,0:0:0:0:
448,192,94027,1,0,0:0:0:0:
192,192,94071,1,0,0:0:0:0:
320,192,94115,1,0,0:0:0:0:
448,192,94203,1,0,0:0:0:0:
192,192,94203,1,0,0:0:0:0:
64,192,94247,1,0,0:0:0:0:
448,192,94291,1,0,0:0:0:0:
320,192,94335,1,0,0:0:0:0:
64,192,94380,128,0,94643:0:0:0:0:
192,192,94380,128,0,94467:0:0:0:0:
192,192,94526,128,0,94584:0:0:0:0:
448,192,94584,128,0,94643:0:0:0:0:
192,192,94643,128,0,94949:0:0:0:0:
448,192,94701,128,0,94789:0:0:0:0:
64,192,94760,128,0,94847:0:0:0:0:
448,192,94847,128,0,95079:0:0:0:0:
64,192,94949,128,0,95079:0:0:0:0:
192,192,95079,128,0,95252:0:0:0:0:
320,192,95079,1,0,0:0:0:0:
320,192,95165,128,0,95339:0:0:0:0:
64,192,95252,128,0,95684:0:0:0:0:
448,192,95339,128,0,95512:0:0:0:0:
192,192,95426,128,0,95512:0:0:0:0:
320,192,95426,128,0,95598:0:0:0:0:
448,192,95598,128,0,95684:0:0:0:0:
192,192,95598,128,0,95771:0:0:0:0:
64,192,95771,1,0,0:0:0:0:
320,192,95771,128,0,95942:0:0:0:0:
448,192,95771,128,0,96028:0:0:0:0:
64,192,95942,128,0,96028:0:0:0:0:
192,192,96028,128,0,96199:0:0:0:0:
320,192,96028,128,0,96113:0:0:0:0:
448,192,96113,128,0,96285:0:0:0:0:
64,192,96113,1,0,0:0:0:0:
64,192,96285,128,0,96371:0:0:0:0:
192,192,96285,128,0,96542:0:0:0:0:
448,192,96371,128,0,96456:0:0:0:0:
64,192,96456,128,0,96713:0:0:0:0:
320,192,96456,128,0,96628:0:0:0:0:
448,192,96542,1,0,0:0:0:0:
192,192,96628,128,0,96885:0:0:0:0:
448,192,96628,1,0,0:0:0:0:
320,192,96713,128,0,96799:0:0:0:0:
64,192,96799,128,0,97056:0:0:0:0:
448,192,96799,1,0,0:0:0:0:
320,192,96885,128,0,97056:0:0:0:0:
192,192,96971,128,0,97142:0:0:0:0:
64,192,97142,128,0,97313:0:0:0:0:
448,192,97142,128,0,97228:0:0:0:0:
320,192,97142,1,0,0:0:0:0:
192,192,97313,128,0,97399:0:0:0:0:
448,192,97313,128,0,97485:0:0:0:0:
320,192,97313,1,0,0:0:0:0:
64,192,97399,128,0,97485:0:0:0:0:
192,192,97485,128,0,97656:0:0:0:0:
320,192,97485,128,0,97571:0:0:0:0:
448,192,97571,1,0,0:0:0:0:
64,192,97656,1,0,0:0:0:0:
448,192,97656,128,0,97828:0:0:0:0:
320,192,97742,128,0,97828:0:0:0:0:
64,192,97828,128,0,97999:0:0:0:0:
192,192,97828,1,0,0:0:0:0:
320,192,97913,128,0,98085:0:0:0:0:
448,192,97913,1,0,0:0:0:0:
192,192,97999,128,0,98085:0:0:0:0:
448,192,98171,128,0,98342:0:0:0:0:
192,192,98171,1,0,0:0:0:0:
320,192,98256,128,0,98428:0:0:0:0:
64,192,98342,128,0,98428:0:0:0:0:
192,192,98513,1,0,0:0:0:0:
448,192,98513,128,0,98599:0:0:0:0:
320,192,98513,128,0,98771:0:0:0:0:
64,192,98599,128,0,98685:0:0:0:0:
448,192,98685,128,0,98856:0:0:0:0:
64,192,98771,128,0,98942:0:0:0:0:
320,192,98856,128,0,99028:0:0:0:0:
192,192,98856,1,0,0:0:0:0:
448,192,98942,128,0,99113:0:0:0:0:
192,192,99028,1,0,0:0:0:0:
64,192,99028,128,0,99285:0:0:0:0:
320,192,99113,128,0,99199:0:0:0:0:
192,192,99199,128,0,99456:0:0:0:0:
448,192,99199,128,0,99371:0:0:0:0:
320,192,99285,1,0,0:0:0:0:
64,192,99371,128,0,99628:0:0:0:0:
320,192,99371,1,0,0:0:0:0:
448,192,99456,128,0,99542:0:0:0:0:
192,192,99542,128,0,99713:0:0:0:0:
320,192,99542,1,0,0:0:0:0:
448,192,99628,128,0,99799:0:0:0:0:
64,192,99713,128,0,99799:0:0:0:0:
192,192,99799,128,0,99885:0:0:0:0:
64,192,99885,128,0,99971:0:0:0:0:
320,192,99885,128,0,100056:0:0:0:0:
448,192,99885,1,0,0:0:0:0:
448,192,100056,128,0,100142:0:0:0:0:
192,192,100056,128,0,100228:0:0:0:0:
64,192,100056,1,0,0:0:0:0:
320,192,100142,128,0,100228:0:0:0:0:
448,192,100228,128,0,100399:0:0:0:0:
64,192,100228,128,0,100313:0:0:0:0:
192,192,100313,1,0,0:0:0:0:
320,192,100399,1,0,0:0:0:0:
192,192,100399,128,0,100571:0:0:0:0:
64,192,100485,128,0,100571:0:0:0:0:
320,192,100571,128,0,100742:0:0:0:0:
448,192,100571,1,0,0:0:0:0:
64,192,100656,128,0,100828:0:0:0:0:
192,192,100656,1,0,0:0:0:0:
448,192,100742,128,0,100828:0:0:0:0:
320,192,100828,128,0,100913:0:0:0:0:
192,192,100913,128,0,100999:0:0:0:0:
64,192,100913,128,0,101085:0:0:0:0:
448,192,100913,128,0,101028:0:0:0:0:
448,192,101085,1,0,0:0:0:0:
64,192,101142,1,0,0:0:0:0:
192,192,101256,1,0,0:0:0:0:
320,192,101256,128,0,101428:0:0:0:0:
448,192,101256,128,0,101513:0:0:0:0:
192,192,101428,128,0,101513:0:0:0:0:
64,192,101513,128,0,101856:0:0:0:0:
320,192,101513,128,0,101599:0:0:0:0:
192,192,101599,1,0,0:0:0:0:
448,192,101599,128,0,101771:0:0:0:0:
320,192,101771,128,0,101856:0:0:0:0:
192,192,101771,128,0,102028:0:0:0:0:
448,192,101856,128,0,101942:0:0:0:0:
64,192,101942,128,0,102199:0:0:0:0:
320,192,101942,128,0,102113:0:0:0:0:
448,192,102028,1,0,0:0:0:0:
192,192,102113,128,0,102371:0:0:0:0:
448,192,102113,1,0,0:0:0:0:
320,192,102199,128,0,102285:0:0:0:0:
64,192,102285,128,0,102542:0:0:0:0:
448,192,102285,1,0,0:0:0:0:
320,192,102371,128,0,102542:0:0:0:0:
192,192,102456,128,0,102628:0:0:0:0:
64,192,102628,128,0,102799:0:0:0:0:
448,192,102628,128,0,102713:0:0:0:0:
320,192,102628,1,0,0:0:0:0:
192,192,102799,128,0,102885:0:0:0:0:
448,192,102799,128,0,102971:0:0:0:0:
320,192,102799,1,0,0:0:0:0:
64,192,102885,128,0,102971:0:0:0:0:
192,192,102971,128,0,103142:0:0:0:0:
320,192,102971,128,0,103056:0:0:0:0:
448,192,103056,1,0,0:0:0:0:
64,192,103142,1,0,0:0:0:0:
448,192,103142,128,0,103313:0:0:0:0:
320,192,103228,128,0,103313:0:0:0:0:
64,192,103313,128,0,103485:0:0:0:0:
192,192,103313,1,0,0:0:0:0:
320,192,103399,128,0,103571:0:0:0:0:
448,192,103399,1,0,0:0:0:0:
192,192,103485,128,0,103571:0:0:0:0:
448,192,103656,128,0,103828:0:0:0:0:
192,192,103656,1,0,0:0:0:0:
320,192,103742,128,0,103913:0:0:0:0:
64,192,103828,128,0,103913:0:0:0:0:
192,192,103999,128,0,104085:0:0:0:0:
320,192,103999,128,0,104256:0:0:0:0:
448,192,103999,1,0,0:0:0:0:
448,192,104085,128,0,104342:0:0:0:0:
64,192,104171,1,0,0:0:0:0:
192,192,104256,128,0,104342:0:0:0:0:
64,192,104256,128,0,104342:0:0:0:0:
320,192,104342,1,0,0:0:0:0:
320,192,104428,128,0,104513:0:0:0:0:
448,192,104513,1,0,0:0:0:0:
192,192,104513,128,0,104771:0:0:0:0:
64,192,104513,128,0,104599:0:0:0:0:
448,192,104599,128,0,104856:0:0:0:0:
320,192,104685,1,0,0:0:0:0:
64,192,104771,128,0,104856:0:0:0:0:
320,192,104771,128,0,104856:0:0:0:0:
192,192,104856,1,0,0:0:0:0:
192,192,104942,128,0,105028:0:0:0:0:
448,192,105028,1,0,0:0:0:0:
320,192,105028,128,0,105113:0:0:0:0:
64,192,105028,1,0,0:0:0:0:
448,192,105113,128,0,105285:0:0:0:0:
64,192,105113,128,0,105199:0:0:0:0:
320,192,105199,128,0,105371:0:0:0:0:
192,192,105199,1,0,0:0:0:0:
64,192,105285,128,0,105456:0:0:0:0:
192,192,105285,128,0,105371:0:0:0:0:
448,192,105371,128,0,105456:0:0:0:0:
320,192,105456,128,0,105542:0:0:0:0:
64,192,105542,1,0,0:0:0:0:
192,192,105542,128,0,105628:0:0:0:0:
448,192,105542,1,0,0:0:0:0:
64,192,105628,128,0,105799:0:0:0:0:
448,192,105628,128,0,105713:0:0:0:0:
192,192,105713,128,0,105799:0:0:0:0:
320,192,105713,1,0,0:0:0:0:
320,192,105799,128,0,105885:0:0:0:0:
448,192,105799,128,0,105885:0:0:0:0:
64,192,105885,1,0,0:0:0:0:
192,192,105885,1,0,0:0:0:0:
448,192,105928,1,0,0:0:0:0:
64,192,105971,1,0,0:0:0:0:
448,192,106013,1,0,0:0:0:0:
192,192,106056,128,0,106142:0:0:0:0:
320,192,106056,1,0,0:0:0:0:
64,192,106099,1,0,0:0:0:0:
448,192,106142,1,0,0:0:0:0:
320,192,106185,1,0,0:0:0:0:
64,192,106228,128,0,106342:0:0:0:0:
192,192,106285,128,0,106399:0:0:0:0:
320,192,106342,128,0,106399:0:0:0:0:
448,192,106399,128,0,106485:0:0:0:0:
64,192,106442,1,0,0:0:0:0:
320,192,106485,1,0,0:0:0:0:
192,192,106528,1,0,0:0:0:0:
448,192,106571,128,0,106685:0:0:0:0:
64,192,106628,128,0,106685:0:0:0:0:
320,192,106685,128,0,106742:0:0:0:0:
448,192,106742,128,0,106828:0:0:0:0:
192,192,106742,128,0,106828:0:0:0:0:
64,192,106742,128,0,106913:0:0:0:0:
320,192,106828,128,0,106999:0:0:0:0:
448,192,106913,128,0,107028:0:0:0:0:
192,192,106913,128,0,106971:0:0:0:0:
64,192,106971,128,0,107085:0:0:0:0:
192,192,107028,128,0,107085:0:0:0:0:
320,192,107085,128,0,107199:0:0:0:0:
448,192,107085,1,0,0:0:0:0:
192,192,107142,128,0,107256:0:0:0:0:
448,192,107199,128,0,107256:0:0:0:0:
320,192,107256,1,0,0:0:0:0:
64,192,107256,128,0,107371:0:0:0:0:
192,192,107313,128,0,107428:0:0:0:0:
320,192,107371,128,0,107428:0:0:0:0:
64,192,107428,128,0,107485:0:0:0:0:
448,192,107428,128,0,107542:0:0:0:0:
192,192,107485,128,0,107599:0:0:0:0:
320,192,107513,1,0,0:0:0:0:
64,192,107542,128,0,107656:0:0:0:0:
448,192,107599,128,0,107713:0:0:0:0:
192,192,107656,128,0,107771:0:0:0:0:
320,192,107713,128,0,107828:0:0:0:0:
64,192,107771,128,0,107885:0:0:0:0:
448,192,107771,1,0,0:0:0:0:
192,192,107828,128,0,107885:0:0:0:0:
448,192,107885,128,0,107999:0:0:0:0:
192,192,107942,128,0,108056:0:0:0:0:
320,192,107942,1,0,0:0:0:0:
64,192,107999,128,0,108113:0:0:0:0:
320,192,108056,128,0,108113:0:0:0:0:
192,192,108113,1,0,0:0:0:0:
448,192,108113,128,0,108285:0:0:0:0:
64,192,108199,128,0,108371:0:0:0:0:
192,192,108285,128,0,108399:0:0:0:0:
320,192,108285,128,0,108342:0:0:0:0:
448,192,108342,128,0,108456:0:0:0:0:
320,192,108399,128,0,108456:0:0:0:0:
192,192,108456,1,0,0:0:0:0:
64,192,108456,128,0,108571:0:0:0:0:
320,192,108513,128,0,108628:0:0:0:0:
192,192,108571,128,0,108628:0:0:0:0:
448,192,108628,128,0,108742:0:0:0:0:
64,192,108628,1,0,0:0:0:0:
320,192,108685,128,0,108799:0:0:0:0:
64,192,108742,128,0,108799:0:0:0:0:
448,192,108799,128,0,108856:0:0:0:0:
192,192,108799,128,0,108913:0:0:0:0:
320,192,108856,128,0,108971:0:0:0:0:
64,192,108885,1,0,0:0:0:0:
448,192,108913,128,0,109028:0:0:0:0:
192,192,108971,128,0,109085:0:0:0:0:
320,192,109028,128,0,109142:0:0:0:0:
64,192,109085,128,0,109199:0:0:0:0:
192,192,109142,1,0,0:0:0:0:
448,192,109142,128,0,109256:0:0:0:0:
320,192,109199,128,0,109256:0:0:0:0:
192,192,109256,128,0,109371:0:0:0:0:
64,192,109313,1,0,0:0:0:0:
320,192,109313,128,0,109428:0:0:0:0:
448,192,109371,128,0,109485:0:0:0:0:
64,192,109428,128,0,109485:0:0:0:0:
320,192,109485,1,0,0:0:0:0:
192,192,109485,128,0,109656:0:0:0:0:
448,192,109571,128,0,109742:0:0:0:0:
320,192,109656,128,0,109771:0:0:0:0:
64,192,109656,128,0,109713:0:0:0:0:
192,192,109713,128,0,109828:0:0:0:0:
64,192,109771,128,0,109828:0:0:0:0:
448,192,109828,128,0,109942:0:0:0:0:
320,192,109828,1,0,0:0:0:0:
64,192,109885,128,0,109999:0:0:0:0:
320,192,109942,128,0,110056:0:0:0:0:
448,192,109999,1,0,0:0:0:0:
192,192,109999,128,0,110113:0:0:0:0:
64,192,110056,128,0,110171:0:0:0:0:
448,192,110113,128,0,110171:0:0:0:0:
192,192,110171,128,0,110228:0:0:0:0:
320,192,110171,128,0,110285:0:0:0:0:
448,192,110228,128,0,110342:0:0:0:0:
64,192,110256,1,0,0:0:0:0:
192,192,110285,128,0,110399:0:0:0:0:
320,192,110342,128,0,110399:0:0:0:0:
448,192,110399,128,0,110513:0:0:0:0:
320,192,110456,128,0,110513:0:0:0:0:
64,192,110513,1,0,0:0:0:0:
192,192,110513,128,0,110628:0:0:0:0:
320,192,110571,128,0,110685:0:0:0:0:
64,192,110628,128,0,110771:0:0:0:0:
192,192,110685,1,0,0:0:0:0:
448,192,110685,128,0,110771:0:0:0:0:
320,192,110771,128,0,110856:0:0:0:0:
64,192,110856,128,0,110971:0:0:0:0:
448,192,110856,1,0,0:0:0:0:
192,192,110913,128,0,111028:0:0:0:0:
448,192,110971,128,0,111085:0:0:0:0:
64,192,111028,128,0,111142:0:0:0:0:
320,192,111085,128,0,111199:0:0:0:0:
448,192,111142,128,0,111256:0:0:0:0:
64,192,111199,128,0,111256:0:0:0:0:
192,192,111199,128,0,111313:0:0:0:0:
320,192,111256,128,0,111371:0:0:0:0:
64,192,111313,128,0,111428:0:0:0:0:
448,192,111371,128,0,111485:0:0:0:0:
192,192,111371,1,0,0:0:0:0:
320,192,111428,128,0,111542:0:0:0:0:
192,192,111485,128,0,111628:0:0:0:0:
64,192,111542,128,0,111628:0:0:0:0:
448,192,111542,128,0,111799:0:0:0:0:
320,192,111628,128,0,111713:0:0:0:0:
64,192,111713,128,0,111885:0:0:0:0:
192,192,111713,128,0,111799:0:0:0:0:
320,192,111799,128,0,111971:0:0:0:0:
192,192,111885,128,0,112056:0:0:0:0:
448,192,111885,128,0,111971:0:0:0:0:
64,192,111971,128,0,112142:0:0:0:0:
448,192,112056,128,0,112142:0:0:0:0:
320,192,112056,128,0,112142:0:0:0:0:
192,192,112142,128,0,112228:0:0:0:0:
448,192,112228,128,0,112399:0:0:0:0:
64,192,112228,128,0,112313:0:0:0:0:
320,192,112228,128,0,112313:0:0:0:0:
192,192,112313,128,0,112485:0:0:0:0:
64,192,112399,128,0,112513:0:0:0:0:
320,192,112399,128,0,112456:0:0:0:0:
448,192,112456,128,0,112571:0:0:0:0:
320,192,112513,128,0,112571:0:0:0:0:
192,192,112571,128,0,112685:0:0:0:0:
64,192,112571,1,0,0:0:0:0:
320,192,112628,128,0,112742:0:0:0:0:
64,192,112685,128,0,112742:0:0:0:0:
192,192,112742,1,0,0:0:0:0:
448,192,112742,128,0,112856:0:0:0:0:
320,192,112799,128,0,112913:0:0:0:0:
192,192,112856,128,0,112913:0:0:0:0:
448,192,112913,128,0,112971:0:0:0:0:
64,192,112913,128,0,113028:0:0:0:0:
320,192,112971,128,0,113085:0:0:0:0:
192,192,112999,1,0,0:0:0:0:
448,192,113028,128,0,113142:0:0:0:0:
64,192,113085,128,0,113199:0:0:0:0:
320,192,113142,128,0,113256:0:0:0:0:
192,192,113199,128,0,113313:0:0:0:0:
448,192,113256,128,0,113371:0:0:0:0:
64,192,113256,1,0,0:0:0:0:
320,192,113313,128,0,113371:0:0:0:0:
64,192,113371,128,0,113485:0:0:0:0:
320,192,113428,128,0,113542:0:0:0:0:
192,192,113428,1,0,0:0:0:0:
448,192,113485,128,0,113599:0:0:0:0:
192,192,113542,128,0,113599:0:0:0:0:
320,192,113599,1,0,0:0:0:0:
64,192,113599,128,0,113771:0:0:0:0:
448,192,113685,128,0,113856:0:0:0:0:
320,192,113771,128,0,113885:0:0:0:0:
192,192,113771,128,0,113828:0:0:0:0:
64,192,113828,128,0,113942:0:0:0:0:
192,192,113885,128,0,113942:0:0:0:0:
320,192,113942,1,0,0:0:0:0:
448,192,113942,128,0,114056:0:0:0:0:
192,192,113999,128,0,114113:0:0:0:0:
320,192,114056,128,0,114113:0:0:0:0:
64,192,114113,128,0,114228:0:0:0:0:
448,192,114113,1,0,0:0:0:0:
192,192,114171,128,0,114285:0:0:0:0:
448,192,114228,128,0,114285:0:0:0:0:
64,192,114285,128,0,114342:0:0:0:0:
320,192,114285,128,0,114399:0:0:0:0:
192,192,114342,128,0,114428:0:0:0:0:
448,192,114371,1,0,0:0:0:0:
64,192,114399,128,0,114456:0:0:0:0:
320,192,114456,1,0,0:0:0:0:
192,192,114499,1,0,0:0:0:0:
320,192,114542,1,0,0:0:0:0:
192,192,114585,1,0,0:0:0:0:
64,192,114628,1,0,0:0:0:0:
448,192,114628,1,0,0:0:0:0:
64,192,114713,1,0,0:0:0:0:
448,192,114713,1,0,0:0:0:0:
320,192,114799,1,0,0:0:0:0:
192,192,114799,1,0,0:0:0:0:
64,192,114885,1,0,0:0:0:0:
320,192,114885,1,0,0:0:0:0:
64,192,114971,128,0,115056:0:0:0:0:
192,192,114971,128,0,115056:0:0:0:0:
448,192,114971,1,0,0:0:0:0:
320,192,115028,1,0,0:0:0:0:
448,192,115085,1,0,0:0:0:0:
192,192,115142,128,0,115313:0:0:0:0:
64,192,115142,128,0,115399:0:0:0:0:
320,192,115142,1,0,0:0:0:0:
320,192,115228,1,0,0:0:0:0:
448,192,115313,1,0,0:0:0:0:
192,192,115399,1,0,0:0:0:0:
320,192,115442,1,0,0:0:0:0:
64,192,115485,1,0,0:0:0:0:
448,192,115513,1,0,0:0:0:0:
320,192,115542,1,0,0:0:0:0:
192,192,115571,1,0,0:0:0:0:
320,192,115656,128,0,115742:0:0:0:0:
64,192,115656,1,0,0:0:0:0:
448,192,115656,128,0,115742:0:0:0:0:
192,192,115713,1,0,0:0:0:0:
64,192,115771,1,0,0:0:0:0:
448,192,115828,128,0,116085:0:0:0:0:
320,192,115828,128,0,115956:0:0:0:0:
192,192,115828,1,0,0:0:0:0:
192,192,115913,1,0,0:0:0:0:
64,192,115999,1,0,0:0:0:0:
320,192,116042,1,0,0:0:0:0:
192,192,116085,1,0,0:0:0:0:
448,192,116171,1,0,0:0:0:0:
192,192,116171,1,0,0:0:0:0:
64,192,116213,1,0,0:0:0:0:
448,192,116256,1,0,0:0:0:0:
320,192,116342,1,0,0:0:0:0:
192,192,116342,1,0,0:0:0:0:
64,192,116342,1,0,0:0:0:0:
448,192,116399,1,0,0:0:0:0:
64,192,116456,1,0,0:0:0:0:
320,192,116513,1,0,0:0:0:0:
448,192,116513,1,0,0:0:0:0:
192,192,116513,1,0,0:0:0:0:
320,192,116599,1,0,0:0:0:0:
64,192,116685,1,0,0:0:0:0:
448,192,116742,1,0,0:0:0:0:
192,192,116799,1,0,0:0:0:0:
320,192,116856,1,0,0:0:0:0:
64,192,116856,1,0,0:0:0:0:
448,192,116856,1,0,0:0:0:0:
320,192,116942,1,0,0:0:0:0:
448,192,116942,1,0,0:0:0:0:
64,192,117028,5,0,0:0:0:0:
320,192,117028,1,0,0:0:0:0:
448,192,117085,1,0,0:0:0:0:
192,192,117085,1,0,0:0:0:0:
64,192,117142,1,0,0:0:0:0:
320,192,117199,1,0,0:0:0:0:
192,192,117199,1,0,0:0:0:0:
448,192,117285,1,0,0:0:0:0:
192,192,117285,1,0,0:0:0:0:
448,192,117371,1,0,0:0:0:0:
64,192,117371,1,0,0:0:0:0:
192,192,117428,1,0,0:0:0:0:
320,192,117428,1,0,0:0:0:0:
448,192,117485,1,0,0:0:0:0:
64,192,117542,1,0,0:0:0:0:
192,192,117542,1,0,0:0:0:0:
320,192,117585,1,0,0:0:0:0:
64,192,117628,1,0,0:0:0:0:
192,192,117628,1,0,0:0:0:0:
448,192,117671,1,0,0:0:0:0:
64,192,117713,128,0,118513:0:0:0:0:
320,192,117713,128,0,118056:0:0:0:0:
192,192,117713,128,0,118285:0:0:0:0:
448,192,118056,1,0,0:0:0:0:
320,192,118285,1,0,0:0:0:0:
448,192,118399,1,0,0:0:0:0:
192,192,118513,1,0,0:0:0:0:
320,192,118628,1,0,0:0:0:0:
64,192,118742,1,0,0:0:0:0:
448,192,118856,1,0,0:0:0:0:
320,192,118971,1,0,0:0:0:0:
448,192,119085,1,0,0:0:0:0:
192,192,119085,128,0,119199:0:0:0:0:
64,192,119199,1,0,0:0:0:0:
320,192,119256,1,0,0:0:0:0:
448,192,119256,1,0,0:0:0:0:
192,192,119313,1,0,0:0:0:0:
64,192,119342,1,0,0:0:0:0:
320,192,119428,1,0,0:0:0:0:
448,192,119428,1,0,0:0:0:0:
64,192,119542,1,0,0:0:0:0:
192,192,119599,1,0,0:0:0:0:
448,192,119656,1,0,0:0:0:0:
192,192,119713,1,0,0:0:0:0:
320,192,119771,1,0,0:0:0:0:
64,192,119828,1,0,0:0:0:0:
448,192,119856,1,0,0:0:0:0:
192,192,119885,1,0,0:0:0:0:
320,192,119942,1,0,0:0:0:0:
64,192,119985,1,0,0:0:0:0:
192,192,120028,1,0,0:0:0:0:
320,192,120071,1,0,0:0:0:0:
448,192,120113,1,0,0:0:0:0:
64,192,120156,1,0,0:0:0:0:
448,192,120199,1,0,0:0:0:0:
64,192,120242,1,0,0:0:0:0:
320,192,120285,1,0,0:0:0:0:
192,192,120342,1,0,0:0:0:0:
448,192,120456,128,0,121256:0:0:0:0:
64,192,120456,128,0,120799:0:0:0:0:
320,192,120456,128,0,121028:0:0:0:0:
192,192,120799,1,0,0:0:0:0:
64,192,121028,1,0,0:0:0:0:
192,192,121142,1,0,0:0:0:0:
320,192,121256,1,0,0:0:0:0:
64,192,121371,1,0,0:0:0:0:
448,192,121485,1,0,0:0:0:0:
192,192,121599,1,0,0:0:0:0:
64,192,121713,1,0,0:0:0:0:
192,192,121828,1,0,0:0:0:0:
320,192,121828,128,0,121942:0:0:0:0:
64,192,121913,1,0,0:0:0:0:
448,192,121942,1,0,0:0:0:0:
64,192,121999,1,0,0:0:0:0:
320,192,122056,1,0,0:0:0:0:
192,192,122085,1,0,0:0:0:0:
64,192,122171,1,0,0:0:0:0:
448,192,122171,1,0,0:0:0:0:
448,192,122256,1,0,0:0:0:0:
192,192,122285,1,0,0:0:0:0:
320,192,122342,1,0,0:0:0:0:
64,192,122399,1,0,0:0:0:0:
192,192,122428,1,0,0:0:0:0:
448,192,122513,1,0,0:0:0:0:
320,192,122582,1,0,0:0:0:0:
64,192,122651,1,0,0:0:0:0:
192,192,122685,1,0,0:0:0:0:
448,192,122719,1,0,0:0:0:0:
64,192,122788,1,0,0:0:0:0:
320,192,122856,1,0,0:0:0:0:
192,192,122913,1,0,0:0:0:0:
320,192,122971,1,0,0:0:0:0:
64,192,123028,1,0,0:0:0:0:
448,192,123085,1,0,0:0:0:0:
320,192,123142,1,0,0:0:0:0:
192,192,123199,1,0,0:0:0:0:
64,192,123199,1,0,0:0:0:0:
448,192,123285,1,0,0:0:0:0:
192,192,123371,1,0,0:0:0:0:
320,192,123456,1,0,0:0:0:0:
64,192,123542,1,0,0:0:0:0:
192,192,123628,1,0,0:0:0:0:
448,192,123713,128,0,123799:0:0:0:0:
320,192,123771,128,0,123885:0:0:0:0:
192,192,123828,128,0,123942:0:0:0:0:
448,192,123885,128,0,123961:0:0:0:0:
64,192,123923,128,0,123999:0:0:0:0:
320,192,123961,128,0,124075:0:0:0:0:
192,192,123999,128,0,124056:0:0:0:0:
448,192,124037,128,0,124113:0:0:0:0:
64,192,124075,128,0,124151:0:0:0:0:
192,192,124113,128,0,124228:0:0:0:0:
320,192,124151,128,0,124209:0:0:0:0:
448,192,124190,128,0,124266:0:0:0:0:
64,192,124228,128,0,124304:0:0:0:0:
320,192,124266,128,0,124342:0:0:0:0:
192,192,124304,128,0,124418:0:0:0:0:
448,192,124342,128,0,124399:0:0:0:0:
64,192,124380,128,0,124456:0:0:0:0:
320,192,124418,128,0,124494:0:0:0:0:
448,192,124456,128,0,124571:0:0:0:0:
192,192,124494,128,0,124551:0:0:0:0:
64,192,124532,128,0,124609:0:0:0:0:
320,192,124571,128,0,124666:0:0:0:0:
192,192,124609,128,0,124704:0:0:0:0:
448,192,124647,128,0,124780:0:0:0:0:
64,192,124685,128,0,124742:0:0:0:0:
320,192,124723,128,0,124818:0:0:0:0:
192,192,124761,128,0,124856:0:0:0:0:
64,192,124799,128,0,124932:0:0:0:0:
448,192,124837,128,0,124894:0:0:0:0:
320,192,124875,128,0,124971:0:0:0:0:
192,192,124913,128,0,125009:0:0:0:0:
448,192,124951,128,0,125047:0:0:0:0:
64,192,124990,128,0,125123:0:0:0:0:
320,192,125028,128,0,125085:0:0:0:0:
192,192,125066,128,0,125161:0:0:0:0:
448,192,125104,128,0,125199:0:0:0:0:
320,192,125142,128,0,125275:0:0:0:0:
64,192,125180,128,0,125237:0:0:0:0:
192,192,125218,128,0,125313:0:0:0:0:
448,192,125256,128,0,125351:0:0:0:0:
64,192,125294,128,0,125390:0:0:0:0:
320,192,125332,128,0,125466:0:0:0:0:
192,192,125371,128,0,125428:0:0:0:0:
448,192,125409,128,0,125504:0:0:0:0:
64,192,125447,128,0,125542:0:0:0:0:
192,192,125485,128,0,125580:0:0:0:0:
320,192,125523,128,0,125599:0:0:0:0:
448,192,125561,1,0,0:0:0:0:
64,192,125599,128,0,125713:0:0:0:0:
320,192,125656,1,0,0:0:0:0:
192,192,125713,1,0,0:0:0:0:
64,192,125771,128,0,125942:0:0:0:0:
448,192,125856,1,0,0:0:0:0:
320,192,125942,128,0,126113:0:0:0:0:
192,192,125942,128,0,126113:0:0:0:0:
448,192,125942,128,0,126113:0:0:0:0:
64,192,126028,1,0,0:0:0:0:
64,192,126113,1,0,0:0:0:0:
192,192,126199,1,0,0:0:0:0:
64,192,126285,1,0,0:0:0:0:
64,192,126371,1,0,0:0:0:0:
448,192,126456,1,0,0:0:0:0:
320,192,126456,1,0,0:0:0:0:
192,192,126456,1,0,0:0:0:0:
448,192,126542,1,0,0:0:0:0:
320,192,126542,1,0,0:0:0:0:
64,192,126542,1,0,0:0:0:0:
448,192,126628,1,0,0:0:0:0:
192,192,126628,1,0,0:0:0:0:
64,192,126628,1,0,0:0:0:0:
320,192,126716,1,0,0:0:0:0:
64,192,126804,1,0,0:0:0:0:
320,192,126892,1,0,0:0:0:0:
64,192,126892,1,0,0:0:0:0:
448,192,126980,1,0,0:0:0:0:
192,192,126980,1,0,0:0:0:0:
64,192,127069,1,0,0:0:0:0:
192,192,127113,1,0,0:0:0:0:
448,192,127157,1,0,0:0:0:0:
320,192,127157,1,0,0:0:0:0:
64,192,127157,1,0,0:0:0:0:
320,192,127245,1,0,0:0:0:0:
64,192,127334,1,0,0:0:0:0:
192,192,127334,1,0,0:0:0:0:
320,192,127379,1,0,0:0:0:0:
448,192,127379,1,0,0:0:0:0:
192,192,127424,1,0,0:0:0:0:
64,192,127424,1,0,0:0:0:0:
448,192,127470,1,0,0:0:0:0:
320,192,127470,1,0,0:0:0:0:
64,192,127515,1,0,0:0:0:0:
192,192,127515,1,0,0:0:0:0:
64,192,127606,128,0,127697:0:0:0:0:
192,192,127606,128,0,127697:0:0:0:0:
320,192,127606,1,0,0:0:0:0:
320,192,127697,1,0,0:0:0:0:
192,192,127788,1,0,0:0:0:0:
64,192,127788,1,0,0:0:0:0:
448,192,127879,128,0,127970:0:0:0:0:
64,192,127879,128,0,127970:0:0:0:0:
320,192,127879,1,0,0:0:0:0:
320,192,127970,1,0,0:0:0:0:
320,192,128061,1,0,0:0:0:0:
192,192,128061,1,0,0:0:0:0:
448,192,128154,128,0,128248:0:0:0:0:
192,192,128154,128,0,128248:0:0:0:0:
64,192,128154,1,0,0:0:0:0:
64,192,128248,1,0,0:0:0:0:
448,192,128342,1,0,0:0:0:0:
64,192,128342,1,0,0:0:0:0:
320,192,128436,1,0,0:0:0:0:
192,192,128436,1,0,0:0:0:0:
64,192,128529,128,0,128717:0:0:0:0:
192,192,128529,1,0,0:0:0:0:
448,192,128623,128,0,128811:0:0:0:0:
320,192,128623,1,0,0:0:0:0:
320,192,128717,1,0,0:0:0:0:
192,192,128717,1,0,0:0:0:0:
320,192,128811,128,0,129004:0:0:0:0:
64,192,128811,128,0,129004:0:0:0:0:
192,192,128811,128,0,129004:0:0:0:0:
448,192,128907,1,0,0:0:0:0:
448,192,129004,1,0,0:0:0:0:
320,192,129101,1,0,0:0:0:0:
448,192,129198,1,0,0:0:0:0:
448,192,129294,1,0,0:0:0:0:
64,192,129391,1,0,0:0:0:0:
192,192,129391,1,0,0:0:0:0:
320,192,129391,1,0,0:0:0:0:
448,192,129488,1,0,0:0:0:0:
192,192,129488,1,0,0:0:0:0:
64,192,129586,1,0,0:0:0:0:
320,192,129586,1,0,0:0:0:0:
448,192,129586,1,0,0:0:0:0:
192,192,129686,1,0,0:0:0:0:
448,192,129786,1,0,0:0:0:0:
64,192,129886,1,0,0:0:0:0:
192,192,129886,1,0,0:0:0:0:
448,192,129886,1,0,0:0:0:0:
320,192,129986,1,0,0:0:0:0:
64,192,129986,1,0,0:0:0:0:
448,192,130086,1,0,0:0:0:0:
192,192,130186,1,0,0:0:0:0:
64,192,130186,1,0,0:0:0:0:
448,192,130186,1,0,0:0:0:0:
320,192,130186,1,0,0:0:0:0:
192,192,130286,1,0,0:0:0:0:
448,192,130386,1,0,0:0:0:0:
320,192,130386,1,0,0:0:0:0:
64,192,130437,1,0,0:0:0:0:
192,192,130437,1,0,0:0:0:0:
320,192,130489,1,0,0:0:0:0:
448,192,130489,1,0,0:0:0:0:
64,192,130541,1,0,0:0:0:0:
192,192,130541,1,0,0:0:0:0:
448,192,130592,1,0,0:0:0:0:
320,192,130592,1,0,0:0:0:0:
320,192,130696,128,0,130799:0:0:0:0:
64,192,130696,128,0,130799:0:0:0:0:
448,192,130696,1,0,0:0:0:0:
192,192,130748,1,0,0:0:0:0:
448,192,130799,1,0,0:0:0:0:
320,192,130851,1,0,0:0:0:0:
64,192,130903,1,0,0:0:0:0:
192,192,130954,1,0,0:0:0:0:
64,192,131006,128,0,131110:0:0:0:0:
448,192,131006,128,0,131110:0:0:0:0:
320,192,131006,1,0,0:0:0:0:
192,192,131058,1,0,0:0:0:0:
320,192,131110,1,0,0:0:0:0:
448,192,131161,1,0,0:0:0:0:
192,192,131213,1,0,0:0:0:0:
64,192,131213,1,0,0:0:0:0:
320,192,131266,1,0,0:0:0:0:
192,192,131320,128,0,131427:0:0:0:0:
64,192,131320,128,0,131427:0:0:0:0:
448,192,131320,1,0,0:0:0:0:
448,192,131427,1,0,0:0:0:0:
320,192,131498,1,0,0:0:0:0:
192,192,131570,1,0,0:0:0:0:
448,192,131641,128,0,131784:0:0:0:0:
64,192,131641,128,0,131927:0:0:0:0:
320,192,131713,128,0,131998:0:0:0:0:
192,192,131784,128,0,131855:0:0:0:0:
448,192,131855,128,0,131998:0:0:0:0:
192,192,131927,128,0,131998:0:0:0:0:
64,192,131998,128,0,132070:0:0:0:0:
192,192,132070,5,0,0:0:0:0:
448,192,132070,1,0,0:0:0:0:
320,192,132070,1,0,0:0:0:0:
192,192,132181,1,0,0:0:0:0:
64,192,132181,1,0,0:0:0:0:
192,192,132292,1,0,0:0:0:0:
64,192,132292,1,0,0:0:0:0:
320,192,132403,1,0,0:0:0:0:
448,192,132403,1,0,0:0:0:0:
64,192,132403,1,0,0:0:0:0:
320,192,132514,1,0,0:0:0:0:
192,192,132514,1,0,0:0:0:0:
320,192,132625,1,0,0:0:0:0:
192,192,132625,1,0,0:0:0:0:
448,192,132736,1,0,0:0:0:0:
192,192,132736,1,0,0:0:0:0:
64,192,132736,1,0,0:0:0:0:
64,192,132847,1,0,0:0:0:0:
320,192,132847,1,0,0:0:0:0:
320,192,132958,1,0,0:0:0:0:
64,192,132958,1,0,0:0:0:0:
192,192,133070,1,0,0:0:0:0:
448,192,133070,1,0,0:0:0:0:
64,192,133070,1,0,0:0:0:0:
448,192,133181,1,0,0:0:0:0:
320,192,133181,1,0,0:0:0:0:
448,192,133292,1,0,0:0:0:0:
320,192,133292,1,0,0:0:0:0:
64,192,133403,1,0,0:0:0:0:
192,192,133403,1,0,0:0:0:0:
448,192,133403,1,0,0:0:0:0:
320,192,133458,1,0,0:0:0:0:
448,192,133514,1,0,0:0:0:0:
192,192,133570,1,0,0:0:0:0:
448,192,133625,1,0,0:0:0:0:
320,192,133625,1,0,0:0:0:0:
64,192,133625,1,0,0:0:0:0:
192,192,133681,1,0,0:0:0:0:
320,192,133736,1,0,0:0:0:0:
448,192,133792,1,0,0:0:0:0:
64,192,133847,1,0,0:0:0:0:
192,192,133847,1,0,0:0:0:0:
320,192,133847,1,0,0:0:0:0:
320,192,133958,1,0,0:0:0:0:
448,192,133958,1,0,0:0:0:0:
448,192,134070,1,0,0:0:0:0:
320,192,134070,1,0,0:0:0:0:
448,192,134181,1,0,0:0:0:0:
192,192,134181,1,0,0:0:0:0:
64,192,134181,1,0,0:0:0:0:
320,192,134292,1,0,0:0:0:0:
192,192,134292,1,0,0:0:0:0:
320,192,134403,1,0,0:0:0:0:
192,192,134403,1,0,0:0:0:0:
64,192,134514,1,0,0:0:0:0:
320,192,134514,1,0,0:0:0:0:
448,192,134514,1,0,0:0:0:0:
448,192,134625,1,0,0:0:0:0:
192,192,134625,1,0,0:0:0:0:
448,192,134736,1,0,0:0:0:0:
192,192,134736,1,0,0:0:0:0:
64,192,134847,1,0,0:0:0:0:
320,192,134847,1,0,0:0:0:0:
448,192,134847,1,0,0:0:0:0:
64,192,134958,1,0,0:0:0:0:
192,192,134958,1,0,0:0:0:0:
192,192,135070,1,0,0:0:0:0:
64,192,135070,1,0,0:0:0:0:
320,192,135181,1,0,0:0:0:0:
448,192,135181,1,0,0:0:0:0:
64,192,135181,1,0,0:0:0:0:
192,192,135236,1,0,0:0:0:0:
64,192,135292,1,0,0:0:0:0:
320,192,135347,1,0,0:0:0:0:
192,192,135403,1,0,0:0:0:0:
64,192,135403,1,0,0:0:0:0:
448,192,135403,1,0,0:0:0:0:
320,192,135458,1,0,0:0:0:0:
192,192,135514,1,0,0:0:0:0:
64,192,135570,1,0,0:0:0:0:
320,192,135625,1,0,0:0:0:0:
448,192,135625,1,0,0:0:0:0:
192,192,135674,1,0,0:0:0:0:
64,192,135724,1,0,0:0:0:0:
320,192,135773,1,0,0:0:0:0:
192,192,135823,1,0,0:0:0:0:
448,192,135872,1,0,0:0:0:0:
64,192,135921,1,0,0:0:0:0:
192,192,135971,1,0,0:0:0:0:
320,192,136020,1,0,0:0:0:0:
448,192,136070,1,0,0:0:0:0:
64,192,136107,1,0,0:0:0:0:
192,192,136144,1,0,0:0:0:0:
320,192,136181,1,0,0:0:0:0:
64,192,136218,1,0,0:0:0:0:
448,192,136255,1,0,0:0:0:0:
320,192,136292,1,0,0:0:0:0:
192,192,136329,1,0,0:0:0:0:
64,192,136366,1,0,0:0:0:0:
448,192,136403,1,0,0:0:0:0:
192,192,136440,1,0,0:0:0:0:
320,192,136477,1,0,0:0:0:0:
64,192,136514,1,0,0:0:0:0:
448,192,136551,1,0,0:0:0:0:
192,192,136588,1,0,0:0:0:0:
320,192,136625,1,0,0:0:0:0:
448,192,136662,1,0,0:0:0:0:
64,192,136699,1,0,0:0:0:0:
192,192,136736,1,0,0:0:0:0:
320,192,136773,1,0,0:0:0:0:
448,192,136810,1,0,0:0:0:0:
64,192,136847,1,0,0:0:0:0:
192,192,136884,1,0,0:0:0:0:
320,192,136921,1,0,0:0:0:0:
64,192,136958,1,0,0:0:0:0:
448,192,136986,1,0,0:0:0:0:
320,192,137014,1,0,0:0:0:0:
192,192,137042,1,0,0:0:0:0:
64,192,137070,1,0,0:0:0:0:
448,192,137097,1,0,0:0:0:0:
320,192,137125,1,0,0:0:0:0:
192,192,137153,1,0,0:0:0:0:
64,192,137181,1,0,0:0:0:0:
64,192,137236,1,0,0:0:0:0:
448,192,137292,1,0,0:0:0:0:
448,192,137347,1,0,0:0:0:0:
320,192,137403,128,0,138736:0:0:0:0:
64,192,137403,1,0,0:0:0:0:
192,192,137403,1,0,0:0:0:0:
64,192,138736,1,0,0:0:0:0:
192,192,138736,1,0,0:0:0:0:
64,192,138810,1,0,0:0:0:0:
320,192,138884,1,0,0:0:0:0:
192,192,138884,1,0,0:0:0:0:
448,192,138958,1,0,0:0:0:0:
320,192,138958,1,0,0:0:0:0:
448,192,139032,1,0,0:0:0:0:
192,192,139107,1,0,0:0:0:0:
320,192,139107,1,0,0:0:0:0:
64,192,139181,5,0,0:0:0:0:
192,192,139181,1,0,0:0:0:0:
448,192,139218,1,0,0:0:0:0:
320,192,139255,1,0,0:0:0:0:
64,192,139292,1,0,0:0:0:0:
448,192,139329,1,0,0:0:0:0:
192,192,139366,1,0,0:0:0:0:
320,192,139403,1,0,0:0:0:0:
64,192,139440,1,0,0:0:0:0:
192,192,139477,1,0,0:0:0:0:
448,192,139514,1,0,0:0:0:0:
448,192,139625,1,0,0:0:0:0:
64,192,139736,1,0,0:0:0:0:
320,192,139847,1,0,0:0:0:0:
64,192,139847,1,0,0:0:0:0:
448,192,139958,1,0,0:0:0:0:
64,192,139958,1,0,0:0:0:0:
64,192,140181,1,0,0:0:0:0:
448,192,140292,1,0,0:0:0:0:
64,192,140292,1,0,0:0:0:0:
320,192,140403,1,0,0:0:0:0:
64,192,140403,1,0,0:0:0:0:
64,192,140625,1,0,0:0:0:0:
320,192,140736,1,0,0:0:0:0:
64,192,140736,1,0,0:0:0:0:
448,192,140847,1,0,0:0:0:0:
64,192,140847,1,0,0:0:0:0:
320,192,140958,1,0,0:0:0:0:
448,192,140958,1,0,0:0:0:0:
192,192,140958,1,0,0:0:0:0:
64,192,141070,1,0,0:0:0:0:
320,192,141070,1,0,0:0:0:0:
448,192,141181,1,0,0:0:0:0:
64,192,141181,1,0,0:0:0:0:
320,192,141292,1,0,0:0:0:0:
64,192,141292,1,0,0:0:0:0:
448,192,141403,1,0,0:0:0:0:
192,192,141403,1,0,0:0:0:0:
320,192,141403,1,0,0:0:0:0:
64,192,141514,1,0,0:0:0:0:
448,192,141514,1,0,0:0:0:0:
320,192,141625,1,0,0:0:0:0:
64,192,141625,1,0,0:0:0:0:
192,192,141736,1,0,0:0:0:0:
64,192,141736,1,0,0:0:0:0:
448,192,141847,1,0,0:0:0:0:
320,192,141847,1,0,0:0:0:0:
192,192,141847,1,0,0:0:0:0:
64,192,141958,1,0,0:0:0:0:
448,192,142014,1,0,0:0:0:0:
320,192,142070,1,0,0:0:0:0:
64,192,142070,1,0,0:0:0:0:
192,192,142125,1,0,0:0:0:0:
64,192,142181,1,0,0:0:0:0:
448,192,142236,1,0,0:0:0:0:
192,192,142292,1,0,0:0:0:0:
320,192,142347,1,0,0:0:0:0:
64,192,142403,1,0,0:0:0:0:
192,192,142403,1,0,0:0:0:0:
448,192,142458,1,0,0:0:0:0:
320,192,142458,1,0,0:0:0:0:
64,192,142514,128,0,142681:0:0:0:0:
192,192,142514,128,0,142681:0:0:0:0:
320,192,142625,128,0,142681:0:0:0:0:
448,192,142625,128,0,142681:0:0:0:0:
192,192,142736,1,0,0:0:0:0:
64,192,142736,1,0,0:0:0:0:
448,192,142773,1,0,0:0:0:0:
320,192,142810,1,0,0:0:0:0:
64,192,142847,1,0,0:0:0:0:
448,192,142884,1,0,0:0:0:0:
192,192,142921,1,0,0:0:0:0:
320,192,142958,1,0,0:0:0:0:
64,192,142995,1,0,0:0:0:0:
192,192,143032,1,0,0:0:0:0:
448,192,143070,1,0,0:0:0:0:
64,192,143181,1,0,0:0:0:0:
320,192,143181,1,0,0:0:0:0:
448,192,143181,1,0,0:0:0:0:
64,192,143291,1,0,0:0:0:0:
192,192,143291,1,0,0:0:0:0:
448,192,143401,1,0,0:0:0:0:
320,192,143401,1,0,0:0:0:0:
64,192,143511,1,0,0:0:0:0:
320,192,143511,1,0,0:0:0:0:
192,192,143511,1,0,0:0:0:0:
448,192,143623,1,0,0:0:0:0:
192,192,143623,1,0,0:0:0:0:
64,192,143623,1,0,0:0:0:0:
448,192,143732,1,0,0:0:0:0:
64,192,143732,1,0,0:0:0:0:
192,192,143841,1,0,0:0:0:0:
320,192,143841,1,0,0:0:0:0:
448,192,143841,1,0,0:0:0:0:
320,192,143951,1,0,0:0:0:0:
64,192,143951,1,0,0:0:0:0:
192,192,143951,1,0,0:0:0:0:
448,192,144061,1,0,0:0:0:0:
192,192,144061,1,0,0:0:0:0:
64,192,144061,1,0,0:0:0:0:
192,192,144169,1,0,0:0:0:0:
320,192,144169,1,0,0:0:0:0:
448,192,144278,1,0,0:0:0:0:
320,192,144278,1,0,0:0:0:0:
64,192,144278,1,0,0:0:0:0:
64,192,144387,1,0,0:0:0:0:
448,192,144387,1,0,0:0:0:0:
192,192,144387,1,0,0:0:0:0:
64,192,144495,1,0,0:0:0:0:
192,192,144495,1,0,0:0:0:0:
320,192,144495,1,0,0:0:0:0:
448,192,144602,1,0,0:0:0:0:
320,192,144602,1,0,0:0:0:0:
192,192,144602,1,0,0:0:0:0:
192,192,144710,1,0,0:0:0:0:
64,192,144710,1,0,0:0:0:0:
448,192,144710,1,0,0:0:0:0:
64,192,144818,1,0,0:0:0:0:
448,192,144818,1,0,0:0:0:0:
320,192,144927,1,0,0:0:0:0:
192,192,144927,1,0,0:0:0:0:
448,192,144927,1,0,0:0:0:0:
320,192,145034,1,0,0:0:0:0:
64,192,145034,1,0,0:0:0:0:
448,192,145141,1,0,0:0:0:0:
192,192,145141,1,0,0:0:0:0:
64,192,145141,1,0,0:0:0:0:
64,192,145248,1,0,0:0:0:0:
192,192,145248,1,0,0:0:0:0:
448,192,145248,1,0,0:0:0:0:
192,192,145356,1,0,0:0:0:0:
448,192,145356,1,0,0:0:0:0:
320,192,145356,1,0,0:0:0:0:
448,192,145462,1,0,0:0:0:0:
320,192,145462,1,0,0:0:0:0:
192,192,145462,1,0,0:0:0:0:
64,192,145568,1,0,0:0:0:0:
192,192,145568,1,0,0:0:0:0:
192,192,145675,1,0,0:0:0:0:
64,192,145675,1,0,0:0:0:0:
448,192,145781,1,0,0:0:0:0:
320,192,145781,1,0,0:0:0:0:
64,192,145781,1,0,0:0:0:0:
448,192,145886,1,0,0:0:0:0:
64,192,145886,1,0,0:0:0:0:
320,192,145886,1,0,0:0:0:0:
192,192,145992,1,0,0:0:0:0:
448,192,145992,1,0,0:0:0:0:
192,192,146097,1,0,0:0:0:0:
448,192,146097,1,0,0:0:0:0:
192,192,146204,1,0,0:0:0:0:
64,192,146204,1,0,0:0:0:0:
448,192,146238,1,0,0:0:0:0:
320,192,146273,1,0,0:0:0:0:
64,192,146308,1,0,0:0:0:0:
448,192,146343,1,0,0:0:0:0:
192,192,146378,1,0,0:0:0:0:
320,192,146413,1,0,0:0:0:0:
64,192,146448,1,0,0:0:0:0:
192,192,146483,1,0,0:0:0:0:
448,192,146518,1,0,0:0:0:0:
64,192,146623,1,0,0:0:0:0:
320,192,146623,1,0,0:0:0:0:
448,192,146623,1,0,0:0:0:0:
320,192,146727,1,0,0:0:0:0:
192,192,146727,1,0,0:0:0:0:
448,192,146831,1,0,0:0:0:0:
320,192,146831,1,0,0:0:0:0:
64,192,146831,1,0,0:0:0:0:
192,192,146935,1,0,0:0:0:0:
64,192,146935,1,0,0:0:0:0:
320,192,146935,1,0,0:0:0:0:
448,192,147040,1,0,0:0:0:0:
192,192,147040,1,0,0:0:0:0:
64,192,147040,1,0,0:0:0:0:
448,192,147143,1,0,0:0:0:0:
320,192,147143,1,0,0:0:0:0:
320,192,147246,1,0,0:0:0:0:
64,192,147246,1,0,0:0:0:0:
192,192,147246,1,0,0:0:0:0:
448,192,147350,1,0,0:0:0:0:
64,192,147350,1,0,0:0:0:0:
448,192,147454,1,0,0:0:0:0:
320,192,147454,1,0,0:0:0:0:
64,192,147454,1,0,0:0:0:0:
64,192,147556,1,0,0:0:0:0:
192,192,147556,1,0,0:0:0:0:
320,192,147556,1,0,0:0:0:0:
320,192,147659,1,0,0:0:0:0:
448,192,147659,1,0,0:0:0:0:
192,192,147659,1,0,0:0:0:0:
448,192,147762,1,0,0:0:0:0:
64,192,147762,1,0,0:0:0:0:
320,192,147865,128,0,148120:0:0:0:0:
192,192,147865,128,0,147916:0:0:0:0:
64,192,147865,128,0,148120:0:0:0:0:
192,192,147967,128,0,148222:0:0:0:0:
448,192,147967,128,0,148018:0:0:0:0:
448,192,148069,128,0,148222:0:0:0:0:
320,192,148171,128,0,148222:0:0:0:0:
64,192,148171,128,0,148323:0:0:0:0:
192,192,148273,128,0,148425:0:0:0:0:
320,192,148273,128,0,148526:0:0:0:0:
448,192,148273,128,0,148323:0:0:0:0:
448,192,148374,128,0,148627:0:0:0:0:
64,192,148374,128,0,148425:0:0:0:0:
64,192,148475,128,0,148627:0:0:0:0:
192,192,148475,128,0,148627:0:0:0:0:
320,192,148577,128,0,148829:0:0:0:0:
448,192,148678,128,0,148728:0:0:0:0:
64,192,148678,128,0,148929:0:0:0:0:
192,192,148678,128,0,148728:0:0:0:0:
192,192,148778,128,0,149030:0:0:0:0:
448,192,148778,128,0,148929:0:0:0:0:
320,192,148879,128,0,149131:0:0:0:0:
64,192,148980,128,0,149030:0:0:0:0:
448,192,148980,128,0,149030:0:0:0:0:
192,192,149081,128,0,149131:0:0:0:0:
64,192,149081,128,0,149231:0:0:0:0:
448,192,149081,128,0,149231:0:0:0:0:
192,192,149181,128,0,149331:0:0:0:0:
320,192,149181,128,0,149231:0:0:0:0:
320,192,149281,128,0,149431:0:0:0:0:
64,192,149281,128,0,149431:0:0:0:0:
448,192,149281,128,0,149331:0:0:0:0:
448,192,149381,128,0,149431:0:0:0:0:
192,192,149381,128,0,149431:0:0:0:0:
64,192,149481,1,0,0:0:0:0:
192,192,149481,1,0,0:0:0:0:
448,192,149514,1,0,0:0:0:0:
320,192,149547,1,0,0:0:0:0:
64,192,149580,1,0,0:0:0:0:
448,192,149613,1,0,0:0:0:0:
192,192,149646,1,0,0:0:0:0:
320,192,149679,1,0,0:0:0:0:
64,192,149712,1,0,0:0:0:0:
192,192,149745,1,0,0:0:0:0:
448,192,149779,1,0,0:0:0:0:
64,192,149878,1,0,0:0:0:0:
320,192,149878,1,0,0:0:0:0:
448,192,149878,1,0,0:0:0:0:
64,192,149976,1,0,0:0:0:0:
192,192,149976,1,0,0:0:0:0:
448,192,150075,1,0,0:0:0:0:
192,192,150075,1,0,0:0:0:0:
64,192,150174,1,0,0:0:0:0:
320,192,150174,1,0,0:0:0:0:
448,192,150174,1,0,0:0:0:0:
64,192,150273,1,0,0:0:0:0:
192,192,150273,1,0,0:0:0:0:
320,192,150273,1,0,0:0:0:0:
192,192,150371,1,0,0:0:0:0:
320,192,150371,1,0,0:0:0:0:
448,192,150469,1,0,0:0:0:0:
192,192,150469,1,0,0:0:0:0:
64,192,150469,1,0,0:0:0:0:
448,192,150567,1,0,0:0:0:0:
64,192,150567,1,0,0:0:0:0:
320,192,150567,1,0,0:0:0:0:
320,192,150665,1,0,0:0:0:0:
192,192,150665,1,0,0:0:0:0:
448,192,150665,1,0,0:0:0:0:
192,192,150762,1,0,0:0:0:0:
320,192,150762,1,0,0:0:0:0:
64,192,150762,1,0,0:0:0:0:
448,192,150859,1,0,0:0:0:0:
64,192,150859,1,0,0:0:0:0:
192,192,150859,1,0,0:0:0:0:
320,192,150957,1,0,0:0:0:0:
448,192,150957,1,0,0:0:0:0:
64,192,151055,1,0,0:0:0:0:
192,192,151055,1,0,0:0:0:0:
320,192,151055,1,0,0:0:0:0:
448,192,151151,1,0,0:0:0:0:
64,192,151151,1,0,0:0:0:0:
320,192,151248,1,0,0:0:0:0:
448,192,151280,1,0,0:0:0:0:
64,192,151313,1,0,0:0:0:0:
320,192,151345,1,0,0:0:0:0:
192,192,151377,1,0,0:0:0:0:
64,192,151409,1,0,0:0:0:0:
448,192,151442,1,0,0:0:0:0:
320,192,151442,1,0,0:0:0:0:
192,192,151490,1,0,0:0:0:0:
448,192,151538,1,0,0:0:0:0:
64,192,151570,1,0,0:0:0:0:
320,192,151602,1,0,0:0:0:0:
192,192,151634,1,0,0:0:0:0:
448,192,151730,1,0,0:0:0:0:
320,192,151762,1,0,0:0:0:0:
64,192,151794,1,0,0:0:0:0:
192,192,151826,1,0,0:0:0:0:
448,192,151826,1,0,0:0:0:0:
320,192,151921,1,0,0:0:0:0:
192,192,151921,1,0,0:0:0:0:
448,192,152017,1,0,0:0:0:0:
192,192,152017,1,0,0:0:0:0:
64,192,152112,1,0,0:0:0:0:
448,192,152112,1,0,0:0:0:0:
64,192,152209,1,0,0:0:0:0:
192,192,152209,1,0,0:0:0:0:
320,192,152256,1,0,0:0:0:0:
192,192,152303,1,0,0:0:0:0:
320,192,152351,1,0,0:0:0:0:
192,192,152398,1,0,0:0:0:0:
192,192,152493,1,0,0:0:0:0:
320,192,152588,1,0,0:0:0:0:
448,192,152588,1,0,0:0:0:0:
64,192,152682,1,0,0:0:0:0:
192,192,152776,1,0,0:0:0:0:
320,192,152871,1,0,0:0:0:0:
448,192,152965,1,0,0:0:0:0:
64,192,153059,1,0,0:0:0:0:
320,192,153154,128,0,153248:0:0:0:0:
192,192,153216,128,0,153342:0:0:0:0:
64,192,153279,128,0,153405:0:0:0:0:
448,192,153342,128,0,153437:0:0:0:0:
320,192,153380,128,0,153474:0:0:0:0:
192,192,153418,128,0,153512:0:0:0:0:
64,192,153455,128,0,153550:0:0:0:0:
448,192,153493,128,0,153588:0:0:0:0:
320,192,153531,128,0,153625:0:0:0:0:
192,192,153569,128,0,153663:0:0:0:0:
64,192,153606,128,0,153701:0:0:0:0:
448,192,153644,128,0,153738:0:0:0:0:
320,192,153682,128,0,153776:0:0:0:0:
192,192,153720,128,0,153814:0:0:0:0:
64,192,153757,128,0,153852:0:0:0:0:
448,192,153795,128,0,153889:0:0:0:0:
320,192,153833,128,0,153927:0:0:0:0:
192,192,153871,128,0,153965:0:0:0:0:
64,192,153908,128,0,154003:0:0:0:0:
448,192,153946,128,0,154040:0:0:0:0:
320,192,153984,128,0,154116:0:0:0:0:
192,192,154021,128,0,154078:0:0:0:0:
64,192,154059,128,0,154188:0:0:0:0:
448,192,154098,128,0,154154:0:0:0:0:
192,192,154132,128,0,154257:0:0:0:0:
320,192,154166,128,0,154223:0:0:0:0:
448,192,154200,128,0,154325:0:0:0:0:
64,192,154234,128,0,154291:0:0:0:0:
320,192,154268,128,0,154393:0:0:0:0:
192,192,154302,128,0,154359:0:0:0:0:
64,192,154336,128,0,154461:0:0:0:0:
448,192,154370,128,0,154427:0:0:0:0:
192,192,154404,128,0,154529:0:0:0:0:
320,192,154438,128,0,154495:0:0:0:0:
448,192,154473,128,0,154598:0:0:0:0:
64,192,154507,128,0,154563:0:0:0:0:
320,192,154541,128,0,154688:0:0:0:0:
192,192,154575,128,0,154643:0:0:0:0:
64,192,154609,128,0,154757:0:0:0:0:
448,192,154643,128,0,154734:0:0:0:0:
192,192,154688,128,0,154779:0:0:0:0:
320,192,154734,128,0,154802:0:0:0:0:
448,192,154779,128,0,154825:0:0:0:0:
192,192,154825,1,0,0:0:0:0:
64,192,154825,1,0,0:0:0:0:
320,192,154870,1,0,0:0:0:0:
448,192,154916,1,0,0:0:0:0:
192,192,155007,1,0,0:0:0:0:
64,192,155007,1,0,0:0:0:0:
320,192,155052,1,0,0:0:0:0:
448,192,155098,1,0,0:0:0:0:
64,192,155188,128,0,155310:0:0:0:0:
320,192,155249,128,0,155370:0:0:0:0:
448,192,155310,128,0,155461:0:0:0:0:
64,192,155370,128,0,155491:0:0:0:0:
192,192,155461,128,0,155552:0:0:0:0:
320,192,155552,5,0,0:0:0:0:
64,192,155552,128,0,155625:0:0:0:0:
448,192,155552,128,0,155698:0:0:0:0:
192,192,155625,1,0,0:0:0:0:
320,192,155661,1,0,0:0:0:0:
192,192,155698,1,0,0:0:0:0:
64,192,155734,1,0,0:0:0:0:
448,192,155770,1,0,0:0:0:0:
192,192,155807,1,0,0:0:0:0:
320,192,155843,1,0,0:0:0:0:
64,192,155879,1,0,0:0:0:0:
448,192,155916,1,0,0:0:0:0:
192,192,155916,1,0,0:0:0:0:
320,192,156006,1,0,0:0:0:0:
448,192,156036,1,0,0:0:0:0:
64,192,156066,1,0,0:0:0:0:
320,192,156096,1,0,0:0:0:0:
192,192,156126,1,0,0:0:0:0:
64,192,156187,1,0,0:0:0:0:
192,192,156277,1,0,0:0:0:0:
448,192,156277,1,0,0:0:0:0:
448,192,156366,1,0,0:0:0:0:
192,192,156366,1,0,0:0:0:0:
64,192,156456,1,0,0:0:0:0:
192,192,156456,1,0,0:0:0:0:
320,192,156546,1,0,0:0:0:0:
64,192,156546,1,0,0:0:0:0:
448,192,156637,1,0,0:0:0:0:
320,192,156637,1,0,0:0:0:0:
192,192,156637,1,0,0:0:0:0:
448,192,156726,1,0,0:0:0:0:
192,192,156726,1,0,0:0:0:0:
64,192,156815,1,0,0:0:0:0:
320,192,156815,1,0,0:0:0:0:
448,192,156860,1,0,0:0:0:0:
64,192,156904,1,0,0:0:0:0:
192,192,156949,1,0,0:0:0:0:
320,192,156994,1,0,0:0:0:0:
448,192,156994,1,0,0:0:0:0:
192,192,157082,1,0,0:0:0:0:
192,192,157171,1,0,0:0:0:0:
192,192,157260,1,0,0:0:0:0:
320,192,157349,1,0,0:0:0:0:
64,192,157349,1,0,0:0:0:0:
192,192,157349,1,0,0:0:0:0:
320,192,157437,1,0,0:0:0:0:
320,192,157525,1,0,0:0:0:0:
192,192,157525,1,0,0:0:0:0:
448,192,157569,1,0,0:0:0:0:
64,192,157613,1,0,0:0:0:0:
320,192,157657,1,0,0:0:0:0:
192,192,157702,1,0,0:0:0:0:
448,192,157702,1,0,0:0:0:0:
192,192,157789,1,0,0:0:0:0:
64,192,157877,1,0,0:0:0:0:
192,192,157877,1,0,0:0:0:0:
320,192,157965,1,0,0:0:0:0:
448,192,158053,1,0,0:0:0:0:
320,192,158053,1,0,0:0:0:0:
192,192,158053,1,0,0:0:0:0:
64,192,158140,1,0,0:0:0:0:
448,192,158162,1,0,0:0:0:0:
192,192,158227,1,0,0:0:0:0:
320,192,158271,1,0,0:0:0:0:
64,192,158314,1,0,0:0:0:0:
192,192,158358,1,0,0:0:0:0:
448,192,158402,128,0,158575:0:0:0:0:
64,192,158402,128,0,158488:0:0:0:0:
320,192,158402,1,0,0:0:0:0:
192,192,158488,1,0,0:0:0:0:
320,192,158532,1,0,0:0:0:0:
64,192,158575,1,0,0:0:0:0:
320,192,158618,1,0,0:0:0:0:
192,192,158662,1,0,0:0:0:0:
448,192,158705,1,0,0:0:0:0:
320,192,158748,1,0,0:0:0:0:
64,192,158748,1,0,0:0:0:0:
192,192,158834,1,0,0:0:0:0:
64,192,158872,1,0,0:0:0:0:
448,192,158910,1,0,0:0:0:0:
192,192,158949,1,0,0:0:0:0:
448,192,159006,1,0,0:0:0:0:
320,192,159093,1,0,0:0:0:0:
64,192,159093,1,0,0:0:0:0:
320,192,159178,1,0,0:0:0:0:
64,192,159178,1,0,0:0:0:0:
448,192,159264,1,0,0:0:0:0:
320,192,159264,1,0,0:0:0:0:
448,192,159350,1,0,0:0:0:0:
192,192,159350,1,0,0:0:0:0:
320,192,159436,1,0,0:0:0:0:
192,192,159436,1,0,0:0:0:0:
64,192,159436,1,0,0:0:0:0:
320,192,159521,1,0,0:0:0:0:
64,192,159521,1,0,0:0:0:0:
448,192,159606,1,0,0:0:0:0:
192,192,159606,1,0,0:0:0:0:
64,192,159649,1,0,0:0:0:0:
448,192,159691,1,0,0:0:0:0:
320,192,159734,1,0,0:0:0:0:
64,192,159777,1,0,0:0:0:0:
192,192,159798,128,0,159946:0:0:0:0:
448,192,159861,128,0,159946:0:0:0:0:
64,192,159861,128,0,160031:0:0:0:0:
320,192,159946,128,0,160031:0:0:0:0:
448,192,160031,1,0,0:0:0:0:
192,192,160052,128,0,160200:0:0:0:0:
320,192,160116,128,0,160284:0:0:0:0:
448,192,160116,128,0,160200:0:0:0:0:
64,192,160116,128,0,160200:0:0:0:0:
192,192,160284,1,0,0:0:0:0:
64,192,160305,128,0,160453:0:0:0:0:
320,192,160368,128,0,160453:0:0:0:0:
192,192,160368,128,0,160620:0:0:0:0:
448,192,160453,128,0,160536:0:0:0:0:
320,192,160536,1,0,0:0:0:0:
64,192,160557,128,0,160704:0:0:0:0:
320,192,160620,128,0,160704:0:0:0:0:
448,192,160620,1,0,0:0:0:0:
192,192,160704,128,0,160788:0:0:0:0:
320,192,160788,128,0,160871:0:0:0:0:
64,192,160788,128,0,160871:0:0:0:0:
448,192,160808,128,0,160954:0:0:0:0:
192,192,160871,128,0,161038:0:0:0:0:
320,192,160954,1,0,0:0:0:0:
64,192,160954,128,0,161038:0:0:0:0:
448,192,161038,128,0,161122:0:0:0:0:
192,192,161122,1,0,0:0:0:0:
320,192,161122,128,0,161188:0:0:0:0:
64,192,161122,128,0,161221:0:0:0:0:
448,192,161188,1,0,0:0:0:0:
192,192,161221,1,0,0:0:0:0:
448,192,161254,1,0,0:0:0:0:
64,192,161287,1,0,0:0:0:0:
320,192,161320,1,0,0:0:0:0:
192,192,161354,1,0,0:0:0:0:
448,192,161387,1,0,0:0:0:0:
320,192,161420,1,0,0:0:0:0:
192,192,161453,1,0,0:0:0:0:
64,192,161453,1,0,0:0:0:0:
448,192,161535,1,0,0:0:0:0:
320,192,161562,1,0,0:0:0:0:
64,192,161590,1,0,0:0:0:0:
192,192,161617,1,0,0:0:0:0:
320,192,161645,1,0,0:0:0:0:
448,192,161700,1,0,0:0:0:0:
64,192,161783,1,0,0:0:0:0:
320,192,161783,1,0,0:0:0:0:
64,192,161864,1,0,0:0:0:0:
320,192,161864,1,0,0:0:0:0:
64,192,161946,1,0,0:0:0:0:
192,192,161946,1,0,0:0:0:0:
448,192,162028,1,0,0:0:0:0:
192,192,162028,1,0,0:0:0:0:
448,192,162111,1,0,0:0:0:0:
320,192,162111,1,0,0:0:0:0:
64,192,162111,1,0,0:0:0:0:
320,192,162192,1,0,0:0:0:0:
192,192,162192,1,0,0:0:0:0:
64,192,162274,1,0,0:0:0:0:
448,192,162274,1,0,0:0:0:0:
192,192,162314,1,0,0:0:0:0:
448,192,162355,1,0,0:0:0:0:
320,192,162396,1,0,0:0:0:0:
192,192,162437,1,0,0:0:0:0:
64,192,162437,1,0,0:0:0:0:
320,192,162518,1,0,0:0:0:0:
320,192,162599,1,0,0:0:0:0:
320,192,162680,1,0,0:0:0:0:
64,192,162761,1,0,0:0:0:0:
192,192,162761,1,0,0:0:0:0:
320,192,162761,1,0,0:0:0:0:
192,192,162841,1,0,0:0:0:0:
320,192,162922,1,0,0:0:0:0:
192,192,162922,1,0,0:0:0:0:
64,192,162962,1,0,0:0:0:0:
448,192,163002,1,0,0:0:0:0:
192,192,163043,1,0,0:0:0:0:
320,192,163084,1,0,0:0:0:0:
64,192,163084,1,0,0:0:0:0:
320,192,163164,1,0,0:0:0:0:
64,192,163244,1,0,0:0:0:0:
192,192,163244,1,0,0:0:0:0:
192,192,163324,1,0,0:0:0:0:
64,192,163404,1,0,0:0:0:0:
448,192,163404,1,0,0:0:0:0:
320,192,163404,1,0,0:0:0:0:
320,192,163483,1,0,0:0:0:0:
448,192,163483,1,0,0:0:0:0:
320,192,163563,1,0,0:0:0:0:
448,192,163563,1,0,0:0:0:0:
448,192,163643,1,0,0:0:0:0:
320,192,163643,1,0,0:0:0:0:
64,192,163724,1,0,0:0:0:0:
192,192,163724,1,0,0:0:0:0:
448,192,163724,1,0,0:0:0:0:
320,192,163763,1,0,0:0:0:0:
64,192,163803,1,0,0:0:0:0:
448,192,163843,1,0,0:0:0:0:
192,192,163882,1,0,0:0:0:0:
64,192,163922,1,0,0:0:0:0:
320,192,163962,1,0,0:0:0:0:
448,192,164041,1,0,0:0:0:0:
192,192,164041,1,0,0:0:0:0:
192,192,164119,1,0,0:0:0:0:
320,192,164198,1,0,0:0:0:0:
448,192,164198,1,0,0:0:0:0:
64,192,164198,1,0,0:0:0:0:
192,192,164238,1,0,0:0:0:0:
448,192,164277,1,0,0:0:0:0:
64,192,164317,1,0,0:0:0:0:
320,192,164357,1,0,0:0:0:0:
448,192,164396,1,0,0:0:0:0:
192,192,164435,1,0,0:0:0:0:
320,192,164514,1,0,0:0:0:0:
64,192,164514,1,0,0:0:0:0:
320,192,164592,1,0,0:0:0:0:
448,192,164671,1,0,0:0:0:0:
192,192,164671,1,0,0:0:0:0:
64,192,164671,1,0,0:0:0:0:
320,192,164710,1,0,0:0:0:0:
192,192,164749,1,0,0:0:0:0:
448,192,164788,1,0,0:0:0:0:
64,192,164827,1,0,0:0:0:0:
192,192,164866,1,0,0:0:0:0:
320,192,164905,1,0,0:0:0:0:
64,192,164983,1,0,0:0:0:0:
448,192,164983,1,0,0:0:0:0:
64,192,165060,1,0,0:0:0:0:
320,192,165138,1,0,0:0:0:0:
448,192,165138,1,0,0:0:0:0:
192,192,165138,1,0,0:0:0:0:
64,192,165177,1,0,0:0:0:0:
320,192,165216,1,0,0:0:0:0:
192,192,165255,1,0,0:0:0:0:
448,192,165294,1,0,0:0:0:0:
64,192,165332,1,0,0:0:0:0:
192,192,165371,1,0,0:0:0:0:
64,192,165448,1,0,0:0:0:0:
320,192,165448,1,0,0:0:0:0:
320,192,165525,1,0,0:0:0:0:
448,192,165604,1,0,0:0:0:0:
64,192,165604,1,0,0:0:0:0:
192,192,165604,1,0,0:0:0:0:
320,192,165655,1,0,0:0:0:0:
192,192,165706,1,0,0:0:0:0:
64,192,165757,1,0,0:0:0:0:
448,192,165757,1,0,0:0:0:0:
64,192,165834,1,0,0:0:0:0:
320,192,165834,1,0,0:0:0:0:
192,192,165911,1,0,0:0:0:0:
320,192,165911,1,0,0:0:0:0:
448,192,165962,1,0,0:0:0:0:
192,192,166013,1,0,0:0:0:0:
448,192,166064,1,0,0:0:0:0:
320,192,166064,1,0,0:0:0:0:
64,192,166115,1,0,0:0:0:0:
320,192,166166,1,0,0:0:0:0:
448,192,166217,128,0,166369:0:0:0:0:
64,192,166217,128,0,166293:0:0:0:0:
192,192,166217,1,0,0:0:0:0:
320,192,166304,1,0,0:0:0:0:
192,192,166347,1,0,0:0:0:0:
64,192,166391,1,0,0:0:0:0:
320,192,166434,1,0,0:0:0:0:
448,192,166478,1,0,0:0:0:0:
192,192,166521,1,0,0:0:0:0:
64,192,166572,1,0,0:0:0:0:
320,192,166623,1,0,0:0:0:0:
64,192,166673,1,0,0:0:0:0:
448,192,166699,1,0,0:0:0:0:
192,192,166724,1,0,0:0:0:0:
448,192,166826,1,0,0:0:0:0:
448,192,166902,1,0,0:0:0:0:
448,192,166978,1,0,0:0:0:0:
448,192,167054,1,0,0:0:0:0:
64,192,167130,1,0,0:0:0:0:
64,192,167206,1,0,0:0:0:0:
192,192,167282,1,0,0:0:0:0:
64,192,167333,1,0,0:0:0:0:
448,192,167384,1,0,0:0:0:0:
320,192,167435,1,0,0:0:0:0:
320,192,167511,1,0,0:0:0:0:
320,192,167587,1,0,0:0:0:0:
320,192,167663,1,0,0:0:0:0:
192,192,167739,1,0,0:0:0:0:
192,192,167815,1,0,0:0:0:0:
320,192,167892,1,0,0:0:0:0:
64,192,167942,1,0,0:0:0:0:
448,192,167993,1,0,0:0:0:0:
64,192,168044,1,0,0:0:0:0:
192,192,168044,1,0,0:0:0:0:
320,192,168095,1,0,0:0:0:0:
192,192,168145,1,0,0:0:0:0:
448,192,168179,1,0,0:0:0:0:
64,192,168213,1,0,0:0:0:0:
320,192,168247,1,0,0:0:0:0:
448,192,168281,1,0,0:0:0:0:
64,192,168315,1,0,0:0:0:0:
192,192,168348,1,0,0:0:0:0:
448,192,168382,128,0,168450:0:0:0:0:
64,192,168416,128,0,168552:0:0:0:0:
320,192,168450,128,0,168552:0:0:0:0:
192,192,168501,128,0,168602:0:0:0:0:
448,192,168552,128,0,168602:0:0:0:0:
320,192,168602,128,0,168654:0:0:0:0:
64,192,168654,1,0,0:0:0:0:
448,192,168654,128,0,168729:0:0:0:0:
192,192,168654,128,0,168879:0:0:0:0:
64,192,168729,128,0,168804:0:0:0:0:
448,192,168804,1,0,0:0:0:0:
320,192,168804,128,0,168879:0:0:0:0:
64,192,168879,1,0,0:0:0:0:
448,192,168954,1,0,0:0:0:0:
192,192,168954,128,0,169029:0:0:0:0:
320,192,168954,128,0,169179:0:0:0:0:
448,192,169029,128,0,169104:0:0:0:0:
192,192,169104,1,0,0:0:0:0:
64,192,169104,128,0,169179:0:0:0:0:
448,192,169179,1,0,0:0:0:0:
192,192,169254,1,0,0:0:0:0:
64,192,169254,128,0,169479:0:0:0:0:
320,192,169254,128,0,169329:0:0:0:0:
192,192,169329,128,0,169404:0:0:0:0:
320,192,169404,1,0,0:0:0:0:
448,192,169404,128,0,169479:0:0:0:0:
192,192,169479,128,0,169629:0:0:0:0:
320,192,169554,1,0,0:0:0:0:
448,192,169554,128,0,169854:0:0:0:0:
64,192,169554,128,0,169629:0:0:0:0:
320,192,169629,128,0,169704:0:0:0:0:
64,192,169704,128,0,169816:0:0:0:0:
192,192,169704,128,0,169779:0:0:0:0:
320,192,169779,128,0,169854:0:0:0:0:
192,192,169854,128,0,169910:0:0:0:0:
64,192,169891,128,0,169947:0:0:0:0:
320,192,169929,128,0,169985:0:0:0:0:
192,192,169966,128,0,170079:0:0:0:0:
448,192,170004,128,0,170060:0:0:0:0:
64,192,170041,128,0,170154:0:0:0:0:
320,192,170079,128,0,170135:0:0:0:0:
448,192,170116,128,0,170247:0:0:0:0:
192,192,170154,128,0,170210:0:0:0:0:
320,192,170191,128,0,170285:0:0:0:0:
64,192,170229,128,0,170322:0:0:0:0:
192,192,170266,128,0,170397:0:0:0:0:
448,192,170304,128,0,170360:0:0:0:0:
320,192,170341,128,0,170454:0:0:0:0:
64,192,170379,128,0,170435:0:0:0:0:
448,192,170416,128,0,170472:0:0:0:0:
192,192,170454,1,0,0:0:0:0:
192,192,170604,1,0,0:0:0:0:
320,192,170754,1,0,0:0:0:0:
64,192,170754,1,0,0:0:0:0:
320,192,170829,1,0,0:0:0:0:
64,192,170829,1,0,0:0:0:0:
320,192,170904,1,0,0:0:0:0:
64,192,170979,1,0,0:0:0:0:
192,192,170979,1,0,0:0:0:0:
320,192,171054,128,0,171204:0:0:0:0:
448,192,171054,128,0,171204:0:0:0:0:
64,192,171054,128,0,171204:0:0:0:0:
192,192,171054,128,0,171204:0:0:0:0:
320,192,171354,128,0,171396:0:0:0:0:
448,192,171354,128,0,171396:0:0:0:0:
64,192,171504,128,0,171541:0:0:0:0:
320,192,171654,128,0,171704:0:0:0:0:
448,192,171654,128,0,171704:0:0:0:0:
64,192,171804,128,0,171879:0:0:0:0:
448,192,171954,128,0,172014:0:0:0:0:
320,192,171954,128,0,172014:0:0:0:0:
64,192,171954,128,0,172254:0:0:0:0:
192,192,171954,128,0,172254:0:0:0:0:
448,192,172254,128,0,172329:0:0:0:0:
320,192,172254,128,0,172329:0:0:0:0:
192,192,172554,128,0,172654:0:0:0:0:
320,192,172554,128,0,172654:0:0:0:0:
448,192,172554,128,0,172654:0:0:0:0:
192,192,172854,128,0,173154:0:0:0:0:
64,192,172854,128,0,173004:0:0:0:0:
320,192,172854,128,0,173304:0:0:0:0:
448,192,172854,128,0,173304:0:0:0:0:
64,192,173304,5,0,0:0:0:0:
192,192,173304,1,0,0:0:0:0:
192,192,173379,1,0,0:0:0:0:
64,192,173379,1,0,0:0:0:0:
448,192,173454,1,0,0:0:0:0:
192,192,173454,1,0,0:0:0:0:
64,192,173454,1,0,0:0:0:0:
320,192,173504,1,0,0:0:0:0:
192,192,173554,1,0,0:0:0:0:
64,192,173604,1,0,0:0:0:0:
320,192,173654,1,0,0:0:0:0:
192,192,173704,1,0,0:0:0:0:
448,192,173754,1,0,0:0:0:0:
320,192,173754,1,0,0:0:0:0:
64,192,173754,1,0,0:0:0:0:
192,192,173803,1,0,0:0:0:0:
448,192,173853,1,0,0:0:0:0:
64,192,173903,1,0,0:0:0:0:
320,192,173953,1,0,0:0:0:0:
64,192,174002,1,0,0:0:0:0:
192,192,174052,1,0,0:0:0:0:
448,192,174052,1,0,0:0:0:0:
320,192,174052,1,0,0:0:0:0:
64,192,174102,1,0,0:0:0:0:
448,192,174152,1,0,0:0:0:0:
192,192,174201,1,0,0:0:0:0:
320,192,174251,1,0,0:0:0:0:
192,192,174301,1,0,0:0:0:0:
448,192,174351,1,0,0:0:0:0:
320,192,174351,1,0,0:0:0:0:
64,192,174351,1,0,0:0:0:0:
192,192,174388,1,0,0:0:0:0:
448,192,174425,1,0,0:0:0:0:
320,192,174462,1,0,0:0:0:0:
192,192,174499,1,0,0:0:0:0:
64,192,174536,1,0,0:0:0:0:
448,192,174573,1,0,0:0:0:0:
320,192,174573,1,0,0:0:0:0:
192,192,174648,1,0,0:0:0:0:
448,192,174648,1,0,0:0:0:0:
320,192,174648,1,0,0:0:0:0:
64,192,174697,1,0,0:0:0:0:
320,192,174746,1,0,0:0:0:0:
192,192,174795,1,0,0:0:0:0:
448,192,174845,1,0,0:0:0:0:
192,192,174894,1,0,0:0:0:0:
448,192,174944,1,0,0:0:0:0:
320,192,174944,1,0,0:0:0:0:
64,192,174944,1,0,0:0:0:0:
192,192,174993,1,0,0:0:0:0:
320,192,175042,1,0,0:0:0:0:
448,192,175091,1,0,0:0:0:0:
64,192,175140,1,0,0:0:0:0:
320,192,175189,1,0,0:0:0:0:
192,192,175238,1,0,0:0:0:0:
64,192,175238,1,0,0:0:0:0:
448,192,175238,1,0,0:0:0:0:
320,192,175279,1,0,0:0:0:0:
192,192,175321,1,0,0:0:0:0:
64,192,175363,1,0,0:0:0:0:
448,192,175405,1,0,0:0:0:0:
320,192,175447,1,0,0:0:0:0:
64,192,175488,1,0,0:0:0:0:
448,192,175530,1,0,0:0:0:0:
320,192,175530,1,0,0:0:0:0:
192,192,175530,1,0,0:0:0:0:
64,192,175578,1,0,0:0:0:0:
448,192,175627,1,0,0:0:0:0:
320,192,175675,1,0,0:0:0:0:
192,192,175675,1,0,0:0:0:0:
64,192,175822,1,0,0:0:0:0:
448,192,175822,1,0,0:0:0:0:
320,192,175822,1,0,0:0:0:0:
192,192,175870,1,0,0:0:0:0:
320,192,175918,1,0,0:0:0:0:
448,192,175966,1,0,0:0:0:0:
64,192,176015,1,0,0:0:0:0:
320,192,176063,1,0,0:0:0:0:
192,192,176112,1,0,0:0:0:0:
64,192,176112,1,0,0:0:0:0:
448,192,176112,1,0,0:0:0:0:
320,192,176160,1,0,0:0:0:0:
192,192,176208,1,0,0:0:0:0:
64,192,176256,1,0,0:0:0:0:
320,192,176304,1,0,0:0:0:0:
192,192,176352,1,0,0:0:0:0:
64,192,176400,1,0,0:0:0:0:
448,192,176400,1,0,0:0:0:0:
320,192,176400,1,0,0:0:0:0:
192,192,176447,1,0,0:0:0:0:
448,192,176495,1,0,0:0:0:0:
64,192,176543,1,0,0:0:0:0:
320,192,176591,1,0,0:0:0:0:
64,192,176639,1,0,0:0:0:0:
192,192,176687,1,0,0:0:0:0:
448,192,176687,1,0,0:0:0:0:
320,192,176687,1,0,0:0:0:0:
64,192,176734,1,0,0:0:0:0:
448,192,176782,1,0,0:0:0:0:
192,192,176829,1,0,0:0:0:0:
320,192,176877,1,0,0:0:0:0:
192,192,176925,1,0,0:0:0:0:
64,192,176973,128,0,177115:0:0:0:0:
448,192,176973,128,0,177044:0:0:0:0:
320,192,176973,128,0,177044:0:0:0:0:
320,192,177115,1,0,0:0:0:0:
448,192,177115,1,0,0:0:0:0:
320,192,177186,1,0,0:0:0:0:
448,192,177186,1,0,0:0:0:0:
192,192,177257,1,0,0:0:0:0:
448,192,177257,1,0,0:0:0:0:
320,192,177257,1,0,0:0:0:0:
64,192,177297,1,0,0:0:0:0:
192,192,177337,1,0,0:0:0:0:
320,192,177378,1,0,0:0:0:0:
448,192,177418,1,0,0:0:0:0:
64,192,177459,1,0,0:0:0:0:
320,192,177499,1,0,0:0:0:0:
192,192,177540,1,0,0:0:0:0:
448,192,177540,128,0,177751:0:0:0:0:
64,192,177540,128,0,177751:0:0:0:0:
192,192,177751,1,0,0:0:0:0:
320,192,177822,128,0,177857:0:0:0:0:
192,192,177892,128,0,177962:0:0:0:0:
320,192,177892,128,0,177927:0:0:0:0:
448,192,177962,128,0,177997:0:0:0:0:
64,192,178032,128,0,178102:0:0:0:0:
192,192,178102,1,0,0:0:0:0:
448,192,178102,1,0,0:0:0:0:
320,192,178102,1,0,0:0:0:0:
320,192,178171,1,0,0:0:0:0:
448,192,178171,1,0,0:0:0:0:
64,192,178241,1,0,0:0:0:0:
192,192,178288,1,0,0:0:0:0:
320,192,178334,1,0,0:0:0:0:
448,192,178381,1,0,0:0:0:0:
192,192,178381,1,0,0:0:0:0:
64,192,178381,1,0,0:0:0:0:
320,192,178427,1,0,0:0:0:0:
64,192,178473,1,0,0:0:0:0:
448,192,178519,1,0,0:0:0:0:
192,192,178566,1,0,0:0:0:0:
448,192,178612,1,0,0:0:0:0:
64,192,178659,1,0,0:0:0:0:
192,192,178659,1,0,0:0:0:0:
320,192,178659,1,0,0:0:0:0:
448,192,178705,1,0,0:0:0:0:
64,192,178751,1,0,0:0:0:0:
320,192,178797,1,0,0:0:0:0:
192,192,178843,1,0,0:0:0:0:
320,192,178889,1,0,0:0:0:0:
192,192,178936,1,0,0:0:0:0:
64,192,178936,1,0,0:0:0:0:
448,192,178936,1,0,0:0:0:0:
320,192,179004,1,0,0:0:0:0:
64,192,179073,128,0,179142:0:0:0:0:
192,192,179073,128,0,179142:0:0:0:0:
64,192,179211,1,0,0:0:0:0:
192,192,179211,1,0,0:0:0:0:
448,192,179279,1,0,0:0:0:0:
320,192,179279,1,0,0:0:0:0:
192,192,179347,1,0,0:0:0:0:
320,192,179347,1,0,0:0:0:0:
64,192,179416,1,0,0:0:0:0:
192,192,179416,1,0,0:0:0:0:
320,192,179485,1,0,0:0:0:0:
448,192,179485,1,0,0:0:0:0:
64,192,179530,1,0,0:0:0:0:
192,192,179575,1,0,0:0:0:0:
320,192,179621,1,0,0:0:0:0:
448,192,179666,1,0,0:0:0:0:
64,192,179689,1,0,0:0:0:0:
192,192,179689,1,0,0:0:0:0:
448,192,179757,1,0,0:0:0:0:
320,192,179757,1,0,0:0:0:0:
64,192,179757,1,0,0:0:0:0:
320,192,179824,1,0,0:0:0:0:
192,192,179892,1,0,0:0:0:0:
448,192,179892,1,0,0:0:0:0:
64,192,179892,1,0,0:0:0:0:
192,192,179960,1,0,0:0:0:0:
320,192,180029,1,0,0:0:0:0:
448,192,180029,1,0,0:0:0:0:
64,192,180029,1,0,0:0:0:0:
448,192,180096,1,0,0:0:0:0:
64,192,180164,1,0,0:0:0:0:
320,192,180209,1,0,0:0:0:0:
192,192,180254,1,0,0:0:0:0:
448,192,180299,1,0,0:0:0:0:
64,192,180299,1,0,0:0:0:0:
320,192,180433,1,0,0:0:0:0:
64,192,180568,1,0,0:0:0:0:
192,192,180702,128,0,180769:0:0:0:0:
320,192,180747,128,0,180837:0:0:0:0:
448,192,180792,128,0,180926:0:0:0:0:
64,192,180837,128,0,180890:0:0:0:0:
192,192,180864,128,0,180998:0:0:0:0:
320,192,180890,128,0,180944:0:0:0:0:
64,192,180944,128,0,181025:0:0:0:0:
448,192,180971,128,0,181052:0:0:0:0:
320,192,180998,128,0,181133:0:0:0:0:
192,192,181052,128,0,181106:0:0:0:0:
64,192,181079,128,0,181159:0:0:0:0:
448,192,181106,128,0,181213:0:0:0:0:
192,192,181159,128,0,181267:0:0:0:0:
320,192,181186,128,0,181240:0:0:0:0:
64,192,181213,128,0,181321:0:0:0:0:
448,192,181267,128,0,181321:0:0:0:0:
320,192,181294,128,0,181348:0:0:0:0:
192,192,181321,128,0,181375:0:0:0:0:
64,192,181375,1,0,0:0:0:0:
448,192,181375,128,0,181461:0:0:0:0:
320,192,181418,128,0,181505:0:0:0:0:
192,192,181461,1,0,0:0:0:0:
448,192,181505,1,0,0:0:0:0:
64,192,181548,1,0,0:0:0:0:
320,192,181592,1,0,0:0:0:0:
64,192,181635,1,0,0:0:0:0:
448,192,181679,1,0,0:0:0:0:
64,192,181722,1,0,0:0:0:0:
192,192,181722,1,0,0:0:0:0:
320,192,181766,1,0,0:0:0:0:
64,192,181809,1,0,0:0:0:0:
192,192,181809,1,0,0:0:0:0:
192,192,181896,128,0,182027:0:0:0:0:
320,192,181896,128,0,182222:0:0:0:0:
448,192,181896,128,0,181961:0:0:0:0:
192,192,182070,128,0,182157:0:0:0:0:
448,192,182157,128,0,182288:0:0:0:0:
64,192,182222,128,0,182353:0:0:0:0:
192,192,182288,128,0,182418:0:0:0:0:
320,192,182418,128,0,182592:0:0:0:0:
64,192,182418,128,0,182635:0:0:0:0:
448,192,182418,128,0,182505:0:0:0:0:
192,192,182548,1,0,0:0:0:0:
448,192,182592,1,0,0:0:0:0:
192,192,182635,1,0,0:0:0:0:
320,192,182680,1,0,0:0:0:0:
64,192,182701,128,0,182766:0:0:0:0:
448,192,182723,1,0,0:0:0:0:
192,192,182853,5,0,0:0:0:0:
448,192,182853,5,0,0:0:0:0:
64,192,182940,1,0,0:0:0:0:
448,192,182940,128,0,183036:0:0:0:0:
320,192,182940,1,0,0:0:0:0:
192,192,183004,128,0,183069:0:0:0:0:
320,192,183036,128,0,183182:0:0:0:0:
64,192,183069,128,0,183133:0:0:0:0:
448,192,183101,128,0,183198:0:0:0:0:
192,192,183133,128,0,183246:0:0:0:0:
64,192,183198,1,0,0:0:0:0:
448,192,183369,128,0,183456:0:0:0:0:
64,192,183369,128,0,183456:0:0:0:0:
192,192,183456,1,0,0:0:0:0:
320,192,183484,128,0,183568:0:0:0:0:
64,192,183512,1,0,0:0:0:0:
192,192,183541,128,0,183598:0:0:0:0:
448,192,183626,1,0,0:0:0:0:
64,192,183626,1,0,0:0:0:0:
192,192,183712,1,0,0:0:0:0:
448,192,183712,1,0,0:0:0:0:
320,192,183748,1,0,0:0:0:0:
192,192,183784,1,0,0:0:0:0:
64,192,183882,1,0,0:0:0:0:
448,192,183882,1,0,0:0:0:0:
320,192,183967,1,0,0:0:0:0:
192,192,183967,1,0,0:0:0:0:
448,192,183967,1,0,0:0:0:0:
192,192,184051,128,0,184178:0:0:0:0:
320,192,184094,1,0,0:0:0:0:
64,192,184136,128,0,184243:0:0:0:0:
448,192,184178,1,0,0:0:0:0:
320,192,184222,128,0,184316:0:0:0:0:
192,192,184253,1,0,0:0:0:0:
448,192,184285,128,0,184411:0:0:0:0:
64,192,184316,128,0,184411:0:0:0:0:
320,192,184380,128,0,184522:0:0:0:0:
64,192,184475,128,0,184643:0:0:0:0:
448,192,184475,128,0,184685:0:0:0:0:
192,192,184475,128,0,184559:0:0:0:0:
320,192,184601,1,0,0:0:0:0:
192,192,184643,1,0,0:0:0:0:
320,192,184685,1,0,0:0:0:0:
64,192,184727,1,0,0:0:0:0:
448,192,184747,128,0,184810:0:0:0:0:
192,192,184768,1,0,0:0:0:0:
192,192,184894,1,0,0:0:0:0:
448,192,184894,1,0,0:0:0:0:
192,192,184978,128,0,185071:0:0:0:0:
320,192,184978,1,0,0:0:0:0:
64,192,184978,1,0,0:0:0:0:
448,192,185040,128,0,185103:0:0:0:0:
64,192,185071,128,0,185212:0:0:0:0:
320,192,185103,128,0,185165:0:0:0:0:
192,192,185134,128,0,185228:0:0:0:0:
448,192,185165,128,0,185274:0:0:0:0:
320,192,185228,1,0,0:0:0:0:
320,192,185393,128,0,185477:0:0:0:0:
64,192,185393,128,0,185477:0:0:0:0:
192,192,185477,128,0,185580:0:0:0:0:
448,192,185477,1,0,0:0:0:0:
64,192,185538,128,0,185662:0:0:0:0:
448,192,185559,128,0,185786:0:0:0:0:
320,192,185642,1,0,0:0:0:0:
192,192,185642,128,0,185725:0:0:0:0:
64,192,185725,1,0,0:0:0:0:
320,192,185725,128,0,185889:0:0:0:0:
64,192,185807,128,0,185889:0:0:0:0:
192,192,185889,128,0,185992:0:0:0:0:
448,192,185889,1,0,0:0:0:0:
448,192,185972,128,0,186094:0:0:0:0:
320,192,185972,1,0,0:0:0:0:
64,192,185972,128,0,186074:0:0:0:0:
192,192,186053,128,0,186156:0:0:0:0:
320,192,186094,128,0,186218:0:0:0:0:
64,192,186135,128,0,186197:0:0:0:0:
448,192,186176,128,0,186238:0:0:0:0:
192,192,186218,1,0,0:0:0:0:
320,192,186294,128,0,186386:0:0:0:0:
64,192,186355,1,0,0:0:0:0:
448,192,186401,128,0,186447:0:0:0:0:
192,192,186463,128,0,186544:0:0:0:0:
320,192,186463,128,0,186625:0:0:0:0:
64,192,186463,128,0,186666:0:0:0:0:
448,192,186584,1,0,0:0:0:0:
192,192,186625,1,0,0:0:0:0:
448,192,186666,1,0,0:0:0:0:
320,192,186706,1,0,0:0:0:0:
64,192,186726,128,0,186786:0:0:0:0:
192,192,186746,1,0,0:0:0:0:
192,192,186867,5,0,0:0:0:0:
448,192,186867,5,0,0:0:0:0:
64,192,186949,1,0,0:0:0:0:
192,192,186949,128,0,187039:0:0:0:0:
320,192,186949,1,0,0:0:0:0:
448,192,187009,128,0,187069:0:0:0:0:
320,192,187039,128,0,187160:0:0:0:0:
64,192,187069,128,0,187130:0:0:0:0:
192,192,187100,128,0,187221:0:0:0:0:
448,192,187130,128,0,187251:0:0:0:0:
64,192,187191,1,0,0:0:0:0:
192,192,187351,128,0,187432:0:0:0:0:
320,192,187351,128,0,187432:0:0:0:0:
64,192,187432,1,0,0:0:0:0:
448,192,187472,128,0,187532:0:0:0:0:
320,192,187492,1,0,0:0:0:0:
64,192,187512,128,0,187572:0:0:0:0:
192,192,187592,1,0,0:0:0:0:
448,192,187592,1,0,0:0:0:0:
64,192,187672,1,0,0:0:0:0:
192,192,187672,1,0,0:0:0:0:
320,192,187706,1,0,0:0:0:0:
64,192,187740,1,0,0:0:0:0:
320,192,187831,1,0,0:0:0:0:
448,192,187831,1,0,0:0:0:0:
448,192,187911,1,0,0:0:0:0:
192,192,187911,1,0,0:0:0:0:
64,192,187911,1,0,0:0:0:0:
192,192,187990,128,0,188109:0:0:0:0:
320,192,188030,1,0,0:0:0:0:
64,192,188069,128,0,188168:0:0:0:0:
448,192,188109,1,0,0:0:0:0:
320,192,188149,128,0,188237:0:0:0:0:
192,192,188178,1,0,0:0:0:0:
448,192,188208,128,0,188326:0:0:0:0:
64,192,188237,128,0,188326:0:0:0:0:
320,192,188297,128,0,188446:0:0:0:0:
192,192,188387,128,0,188505:0:0:0:0:
64,192,188387,1,0,0:0:0:0:
448,192,188387,1,0,0:0:0:0:
448,192,188505,128,0,188578:0:0:0:0:
320,192,188534,1,0,0:0:0:0:
64,192,188549,128,0,188623:0:0:0:0:
192,192,188593,1,0,0:0:0:0:
320,192,188642,128,0,188858:0:0:0:0:
448,192,188681,1,0,0:0:0:0:
64,192,188740,128,0,188858:0:0:0:0:
192,192,188779,128,0,188936:0:0:0:0:
448,192,188858,128,0,188955:0:0:0:0:
64,192,188936,128,0,189053:0:0:0:0:
320,192,188936,128,0,189033:0:0:0:0:
448,192,189014,128,0,189072:0:0:0:0:
192,192,189014,128,0,189111:0:0:0:0:
320,192,189092,128,0,189169:0:0:0:0:
64,192,189111,128,0,189169:0:0:0:0:
192,192,189169,128,0,189247:0:0:0:0:
448,192,189189,128,0,189247:0:0:0:0:
64,192,189267,128,0,189326:0:0:0:0:
192,192,189326,128,0,189559:0:0:0:0:
320,192,189326,1,0,0:0:0:0:
448,192,189326,1,0,0:0:0:0:
448,192,189442,1,0,0:0:0:0:
320,192,189442,1,0,0:0:0:0:
448,192,189559,1,0,0:0:0:0:
320,192,189559,1,0,0:0:0:0:
320,192,189616,1,0,0:0:0:0:
448,192,189616,1,0,0:0:0:0:
64,192,189674,1,0,0:0:0:0:
192,192,189674,1,0,0:0:0:0:
64,192,189732,1,0,0:0:0:0:
192,192,189732,1,0,0:0:0:0:
320,192,189790,1,0,0:0:0:0:
448,192,189790,1,0,0:0:0:0:
448,192,189905,128,0,190021:0:0:0:0:
192,192,189905,128,0,190135:0:0:0:0:
64,192,190021,128,0,190193:0:0:0:0:
320,192,190135,128,0,190251:0:0:0:0:
64,192,190251,128,0,190480:0:0:0:0:
448,192,190251,128,0,190365:0:0:0:0:
192,192,190251,128,0,190365:0:0:0:0:
320,192,190365,128,0,190594:0:0:0:0:
448,192,190480,128,0,190651:0:0:0:0:
192,192,190480,128,0,190537:0:0:0:0:
64,192,190537,128,0,190594:0:0:0:0:
192,192,190594,128,0,190709:0:0:0:0:
64,192,190651,128,0,190709:0:0:0:0:
320,192,190709,1,0,0:0:0:0:
448,192,190709,1,0,0:0:0:0:
192,192,190785,128,0,190938:0:0:0:0:
64,192,190823,1,0,0:0:0:0:
448,192,190861,128,0,191014:0:0:0:0:
64,192,190938,128,0,191090:0:0:0:0:
192,192,191014,128,0,191167:0:0:0:0:
320,192,191090,128,0,191167:0:0:0:0:
64,192,191167,128,0,191281:0:0:0:0:
448,192,191167,128,0,191338:0:0:0:0:
192,192,191224,128,0,191338:0:0:0:0:
320,192,191281,128,0,191396:0:0:0:0:
64,192,191338,128,0,191453:0:0:0:0:
192,192,191396,1,0,0:0:0:0:
448,192,191396,128,0,191567:0:0:0:0:
320,192,191453,128,0,191510:0:0:0:0:
192,192,191510,128,0,191625:0:0:0:0:
320,192,191567,128,0,191682:0:0:0:0:
64,192,191625,128,0,191739:0:0:0:0:
448,192,191625,1,0,0:0:0:0:
192,192,191682,128,0,191796:0:0:0:0:
448,192,191739,128,0,191854:0:0:0:0:
320,192,191796,128,0,191911:0:0:0:0:
192,192,191854,128,0,191911:0:0:0:0:
64,192,191911,128,0,192025:0:0:0:0:
192,192,191968,128,0,192083:0:0:0:0:
320,192,192025,128,0,192083:0:0:0:0:
64,192,192083,128,0,192140:0:0:0:0:
448,192,192083,128,0,192312:0:0:0:0:
64,192,192197,128,0,192426:0:0:0:0:
192,192,192312,128,0,192483:0:0:0:0:
320,192,192312,128,0,192369:0:0:0:0:
448,192,192369,128,0,192426:0:0:0:0:
320,192,192426,128,0,192541:0:0:0:0:
448,192,192483,128,0,192541:0:0:0:0:
192,192,192541,1,0,0:0:0:0:
64,192,192541,128,0,192693:0:0:0:0:
320,192,192617,128,0,192770:0:0:0:0:
448,192,192655,1,0,0:0:0:0:
192,192,192693,128,0,192846:0:0:0:0:
448,192,192770,128,0,192922:0:0:0:0:
320,192,192846,128,0,192999:0:0:0:0:
64,192,192922,128,0,192999:0:0:0:0:
448,192,192999,128,0,193113:0:0:0:0:
192,192,192999,128,0,193170:0:0:0:0:
320,192,193056,128,0,193170:0:0:0:0:
64,192,193113,128,0,193228:0:0:0:0:
448,192,193170,128,0,193285:0:0:0:0:
320,192,193228,1,0,0:0:0:0:
192,192,193228,128,0,193399:0:0:0:0:
64,192,193285,128,0,193342:0:0:0:0:
320,192,193342,128,0,193457:0:0:0:0:
64,192,193399,128,0,193514:0:0:0:0:
448,192,193457,128,0,193571:0:0:0:0:
192,192,193457,1,0,0:0:0:0:
320,192,193514,128,0,193628:0:0:0:0:
192,192,193571,128,0,193686:0:0:0:0:
64,192,193628,128,0,193743:0:0:0:0:
320,192,193686,128,0,193743:0:0:0:0:
448,192,193743,128,0,193857:0:0:0:0:
320,192,193800,128,0,193915:0:0:0:0:
64,192,193857,128,0,193915:0:0:0:0:
448,192,193915,128,0,193972:0:0:0:0:
192,192,193915,128,0,194144:0:0:0:0:
448,192,194029,128,0,194258:0:0:0:0:
320,192,194144,128,0,194315:0:0:0:0:
64,192,194144,128,0,194201:0:0:0:0:
192,192,194201,128,0,194258:0:0:0:0:
64,192,194258,128,0,194373:0:0:0:0:
192,192,194315,128,0,194373:0:0:0:0:
448,192,194373,1,0,0:0:0:0:
320,192,194373,128,0,194430:0:0:0:0:
64,192,194430,128,0,194487:0:0:0:0:
320,192,194487,128,0,194602:0:0:0:0:
448,192,194516,1,0,0:0:0:0:
64,192,194544,128,0,194602:0:0:0:0:
192,192,194602,128,0,194659:0:0:0:0:
320,192,194659,128,0,194716:0:0:0:0:
192,192,194716,128,0,194831:0:0:0:0:
320,192,194773,128,0,194831:0:0:0:0:
64,192,194831,128,0,194945:0:0:0:0:
448,192,194831,128,0,194888:0:0:0:0:
192,192,194888,128,0,194945:0:0:0:0:
448,192,194945,128,0,195060:0:0:0:0:
192,192,195002,128,0,195060:0:0:0:0:
320,192,195060,1,0,0:0:0:0:
64,192,195060,128,0,195231:0:0:0:0:
448,192,195117,128,0,195174:0:0:0:0:
320,192,195174,128,0,195289:0:0:0:0:
448,192,195231,128,0,195289:0:0:0:0:
192,192,195289,128,0,195441:0:0:0:0:
64,192,195289,1,0,0:0:0:0:
320,192,195365,128,0,195518:0:0:0:0:
64,192,195441,128,0,195594:0:0:0:0:
192,192,195518,128,0,195594:0:0:0:0:
448,192,195518,128,0,195670:0:0:0:0:
320,192,195594,128,0,195747:0:0:0:0:
192,192,195670,128,0,195747:0:0:0:0:
64,192,195747,128,0,195804:0:0:0:0:
448,192,195747,128,0,195861:0:0:0:0:
320,192,195804,128,0,195918:0:0:0:0:
64,192,195861,128,0,195976:0:0:0:0:
448,192,195918,128,0,196033:0:0:0:0:
192,192,195976,128,0,196090:0:0:0:0:
64,192,196033,128,0,196147:0:0:0:0:
320,192,196090,128,0,196205:0:0:0:0:
448,192,196147,128,0,196262:0:0:0:0:
192,192,196205,128,0,196291:0:0:0:0:
64,192,196205,1,0,0:0:0:0:
320,192,196262,128,0,196376:0:0:0:0:
64,192,196319,128,0,196434:0:0:0:0:
192,192,196348,1,0,0:0:0:0:
448,192,196376,128,0,196491:0:0:0:0:
320,192,196434,128,0,196529:0:0:0:0:
64,192,196510,1,0,0:0:0:0:
192,192,196548,1,0,0:0:0:0:
320,192,196586,1,0,0:0:0:0:
448,192,196663,1,0,0:0:0:0:
64,192,196663,1,0,0:0:0:0:
320,192,196739,1,0,0:0:0:0:
64,192,196739,1,0,0:0:0:0:
448,192,196777,1,0,0:0:0:0:
192,192,196815,1,0,0:0:0:0:
448,192,196892,1,0,0:0:0:0:
320,192,196892,1,0,0:0:0:0:
64,192,196968,1,0,0:0:0:0:
192,192,197006,1,0,0:0:0:0:
320,192,197044,1,0,0:0:0:0:
192,192,197121,1,0,0:0:0:0:
448,192,197121,1,0,0:0:0:0:
64,192,197121,1,0,0:0:0:0:
448,192,197197,1,0,0:0:0:0:
64,192,197235,1,0,0:0:0:0:
320,192,197273,1,0,0:0:0:0:
192,192,197350,1,0,0:0:0:0:
448,192,197388,1,0,0:0:0:0:
320,192,197426,1,0,0:0:0:0:
64,192,197464,1,0,0:0:0:0:
448,192,197502,1,0,0:0:0:0:
192,192,197541,1,0,0:0:0:0:
64,192,197579,128,0,197636:0:0:0:0:
320,192,197579,128,0,197693:0:0:0:0:
448,192,197579,128,0,197808:0:0:0:0:
64,192,197693,128,0,197808:0:0:0:0:
192,192,197808,128,0,197922:0:0:0:0:
320,192,197808,128,0,197865:0:0:0:0:
448,192,197865,128,0,197922:0:0:0:0:
320,192,197922,128,0,198037:0:0:0:0:
448,192,197980,128,0,198037:0:0:0:0:
192,192,198037,1,0,0:0:0:0:
64,192,198037,1,0,0:0:0:0:
320,192,198151,1,0,0:0:0:0:
64,192,198180,1,0,0:0:0:0:
448,192,198209,1,0,0:0:0:0:
320,192,198237,1,0,0:0:0:0:
192,192,198266,1,0,0:0:0:0:
192,192,198380,1,0,0:0:0:0:
320,192,198418,1,0,0:0:0:0:
448,192,198495,128,0,198609:0:0:0:0:
64,192,198495,128,0,198667:0:0:0:0:
320,192,198552,128,0,198667:0:0:0:0:
192,192,198609,128,0,198724:0:0:0:0:
448,192,198667,128,0,198781:0:0:0:0:
64,192,198724,128,0,198896:0:0:0:0:
192,192,198781,128,0,198838:0:0:0:0:
320,192,198838,128,0,198953:0:0:0:0:
192,192,198896,128,0,199010:0:0:0:0:
448,192,198953,128,0,199067:0:0:0:0:
64,192,198953,1,0,0:0:0:0:
320,192,199010,128,0,199125:0:0:0:0:
64,192,199067,128,0,199182:0:0:0:0:
192,192,199125,128,0,199239:0:0:0:0:
448,192,199182,128,0,199239:0:0:0:0:
320,192,199210,128,0,199296:0:0:0:0:
64,192,199239,128,0,199354:0:0:0:0:
448,192,199296,128,0,199411:0:0:0:0:
192,192,199354,128,0,199411:0:0:0:0:
320,192,199411,128,0,199468:0:0:0:0:
64,192,199411,128,0,199640:0:0:0:0:
320,192,199525,128,0,199640:0:0:0:0:
448,192,199640,128,0,199754:0:0:0:0:
192,192,199640,128,0,199697:0:0:0:0:
64,192,199697,128,0,199754:0:0:0:0:
192,192,199754,128,0,199869:0:0:0:0:
64,192,199812,128,0,199869:0:0:0:0:
320,192,199869,1,0,0:0:0:0:
448,192,199869,1,0,0:0:0:0:
192,192,199983,1,0,0:0:0:0:
320,192,200012,1,0,0:0:0:0:
64,192,200041,1,0,0:0:0:0:
192,192,200069,1,0,0:0:0:0:
448,192,200098,1,0,0:0:0:0:
448,192,200212,1,0,0:0:0:0:
192,192,200251,1,0,0:0:0:0:
64,192,200327,128,0,200441:0:0:0:0:
320,192,200327,128,0,200499:0:0:0:0:
192,192,200384,128,0,200499:0:0:0:0:
448,192,200441,128,0,200556:0:0:0:0:
64,192,200499,128,0,200613:0:0:0:0:
192,192,200556,1,0,0:0:0:0:
320,192,200556,128,0,200728:0:0:0:0:
448,192,200613,128,0,200670:0:0:0:0:
192,192,200670,128,0,200785:0:0:0:0:
448,192,200728,128,0,200842:0:0:0:0:
64,192,200785,128,0,200842:0:0:0:0:
320,192,200785,128,0,200899:0:0:0:0:
192,192,200842,128,0,200899:0:0:0:0:
64,192,200899,128,0,201014:0:0:0:0:
448,192,200899,128,0,200957:0:0:0:0:
192,192,200957,128,0,201014:0:0:0:0:
448,192,201014,128,0,201071:0:0:0:0:
320,192,201014,128,0,201071:0:0:0:0:
192,192,201071,128,0,201186:0:0:0:0:
64,192,201071,128,0,201128:0:0:0:0:
448,192,201128,128,0,201186:0:0:0:0:
320,192,201128,128,0,201186:0:0:0:0:
64,192,201186,128,0,201243:0:0:0:0:
320,192,201243,128,0,201300:0:0:0:0:
192,192,201243,128,0,201357:0:0:0:0:
448,192,201243,128,0,201701:0:0:0:0:
320,192,201357,128,0,201472:0:0:0:0:
64,192,201357,128,0,201415:0:0:0:0:
192,192,201472,128,0,201529:0:0:0:0:
64,192,201472,1,0,0:0:0:0:
64,192,201529,1,0,0:0:0:0:
192,192,201586,128,0,201644:0:0:0:0:
320,192,201586,1,0,0:0:0:0:
320,192,201644,1,0,0:0:0:0:
64,192,201701,128,0,202102:0:0:0:0:
192,192,201758,1,0,0:0:0:0:
320,192,201815,128,0,201873:0:0:0:0:
192,192,201873,1,0,0:0:0:0:
448,192,201930,128,0,201987:0:0:0:0:
320,192,201968,1,0,0:0:0:0:
192,192,202006,1,0,0:0:0:0:
448,192,202044,128,0,202102:0:0:0:0:
64,192,202159,128,0,202216:0:0:0:0:
320,192,202159,128,0,202273:0:0:0:0:
192,192,202159,128,0,202560:0:0:0:0:
64,192,202273,128,0,202388:0:0:0:0:
448,192,202273,128,0,202331:0:0:0:0:
320,192,202388,128,0,202445:0:0:0:0:
448,192,202388,1,0,0:0:0:0:
448,192,202445,1,0,0:0:0:0:
320,192,202502,128,0,202560:0:0:0:0:
64,192,202502,1,0,0:0:0:0:
64,192,202560,1,0,0:0:0:0:
448,192,202617,128,0,203018:0:0:0:0:
192,192,202636,128,0,202731:0:0:0:0:
64,192,202731,128,0,202808:0:0:0:0:
320,192,202750,128,0,202846:0:0:0:0:
192,192,202846,128,0,202922:0:0:0:0:
64,192,202865,128,0,202960:0:0:0:0:
320,192,202960,128,0,203037:0:0:0:0:
192,192,202980,128,0,203075:0:0:0:0:
448,192,203075,128,0,203132:0:0:0:0:
64,192,203075,128,0,203189:0:0:0:0:
320,192,203075,128,0,203533:0:0:0:0:
448,192,203189,128,0,203304:0:0:0:0:
192,192,203189,128,0,203247:0:0:0:0:
64,192,203304,128,0,203361:0:0:0:0:
192,192,203304,1,0,0:0:0:0:
192,192,203361,1,0,0:0:0:0:
64,192,203418,128,0,203476:0:0:0:0:
448,192,203418,1,0,0:0:0:0:
448,192,203476,1,0,0:0:0:0:
192,192,203533,128,0,203762:0:0:0:0:
64,192,203571,1,0,0:0:0:0:
320,192,203609,1,0,0:0:0:0:
448,192,203647,128,0,203705:0:0:0:0:
448,192,203762,5,0,0:0:0:0:
64,192,203762,1,0,0:0:0:0:
320,192,203762,128,0,203819:0:0:0:0:
192,192,203819,1,0,0:0:0:0:
64,192,203876,1,0,0:0:0:0:
320,192,203876,128,0,203934:0:0:0:0:
448,192,203934,1,0,0:0:0:0:
192,192,203991,1,0,0:0:0:0:
64,192,203991,1,0,0:0:0:0:
320,192,204048,1,0,0:0:0:0:
448,192,204105,1,0,0:0:0:0:
192,192,204105,1,0,0:0:0:0:
320,192,204163,1,0,0:0:0:0:
64,192,204220,1,0,0:0:0:0:
192,192,204220,1,0,0:0:0:0:
448,192,204277,1,0,0:0:0:0:
320,192,204334,1,0,0:0:0:0:
192,192,204334,1,0,0:0:0:0:
64,192,204392,1,0,0:0:0:0:
448,192,204449,1,0,0:0:0:0:
192,192,204487,1,0,0:0:0:0:
320,192,204525,1,0,0:0:0:0:
64,192,204563,1,0,0:0:0:0:
448,192,204602,1,0,0:0:0:0:
192,192,204640,1,0,0:0:0:0:
64,192,204678,1,0,0:0:0:0:
448,192,204716,1,0,0:0:0:0:
192,192,204754,1,0,0:0:0:0:
320,192,204792,1,0,0:0:0:0:
448,192,204831,1,0,0:0:0:0:
192,192,204869,1,0,0:0:0:0:
320,192,204907,128,0,204964:0:0:0:0:
64,192,204907,128,0,205021:0:0:0:0:
448,192,204907,128,0,205079:0:0:0:0:
192,192,204964,1,0,0:0:0:0:
320,192,205021,128,0,205079:0:0:0:0:
64,192,205079,128,0,205193:0:0:0:0:
448,192,205136,128,0,205193:0:0:0:0:
320,192,205136,128,0,205193:0:0:0:0:
192,192,205193,1,0,0:0:0:0:
448,192,205250,128,0,205422:0:0:0:0:
320,192,205250,128,0,205308:0:0:0:0:
64,192,205250,128,0,205365:0:0:0:0:
192,192,205308,1,0,0:0:0:0:
320,192,205365,128,0,205422:0:0:0:0:
64,192,205422,128,0,205537:0:0:0:0:
320,192,205480,128,0,205537:0:0:0:0:
192,192,205480,128,0,205537:0:0:0:0:
448,192,205537,1,0,0:0:0:0:
192,192,205594,1,0,0:0:0:0:
64,192,205594,1,0,0:0:0:0:
192,192,205651,1,0,0:0:0:0:
64,192,205651,1,0,0:0:0:0:
320,192,205709,1,0,0:0:0:0:
448,192,205709,1,0,0:0:0:0:
320,192,205766,1,0,0:0:0:0:
448,192,205766,1,0,0:0:0:0:
64,192,205823,128,0,205995:0:0:0:0:
192,192,205823,128,0,205880:0:0:0:0:
448,192,205823,128,0,205938:0:0:0:0:
320,192,205880,1,0,0:0:0:0:
192,192,205938,128,0,205995:0:0:0:0:
448,192,205995,128,0,206109:0:0:0:0:
64,192,206052,128,0,206109:0:0:0:0:
192,192,206052,128,0,206109:0:0:0:0:
320,192,206109,1,0,0:0:0:0:
64,192,206167,128,0,206338:0:0:0:0:
192,192,206167,128,0,206224:0:0:0:0:
448,192,206167,128,0,206281:0:0:0:0:
320,192,206224,1,0,0:0:0:0:
192,192,206281,128,0,206338:0:0:0:0:
448,192,206338,128,0,206453:0:0:0:0:
192,192,206396,128,0,206453:0:0:0:0:
64,192,206396,128,0,206453:0:0:0:0:
320,192,206453,1,0,0:0:0:0:
64,192,206510,1,0,0:0:0:0:
448,192,206510,1,0,0:0:0:0:
448,192,206567,1,0,0:0:0:0:
64,192,206567,1,0,0:0:0:0:
192,192,206625,1,0,0:0:0:0:
320,192,206625,1,0,0:0:0:0:
320,192,206682,1,0,0:0:0:0:
192,192,206682,1,0,0:0:0:0:
448,192,206739,128,0,206796:0:0:0:0:
64,192,206739,128,0,206796:0:0:0:0:
448,192,206854,128,0,206911:0:0:0:0:
64,192,206854,128,0,206968:0:0:0:0:
448,192,206968,1,0,0:0:0:0:
192,192,206968,1,0,0:0:0:0:
320,192,207083,128,0,207254:0:0:0:0:
448,192,207083,128,0,207254:0:0:0:0:
192,192,207083,1,0,0:0:0:0:
64,192,207140,1,0,0:0:0:0:
192,192,207197,1,0,0:0:0:0:
64,192,207254,1,0,0:0:0:0:
192,192,207312,1,0,0:0:0:0:
448,192,207312,1,0,0:0:0:0:
448,192,207426,128,0,207655:0:0:0:0:
192,192,207426,128,0,207541:0:0:0:0:
320,192,207426,1,0,0:0:0:0:
64,192,207483,1,0,0:0:0:0:
320,192,207541,1,0,0:0:0:0:
192,192,207598,128,0,207655:0:0:0:0:
64,192,207655,1,0,0:0:0:0:
320,192,207712,1,0,0:0:0:0:
448,192,207770,128,0,207999:0:0:0:0:
192,192,207770,128,0,207941:0:0:0:0:
320,192,207884,1,0,0:0:0:0:
64,192,207884,1,0,0:0:0:0:
192,192,207999,1,0,0:0:0:0:
64,192,208056,1,0,0:0:0:0:
448,192,208113,128,0,208285:0:0:0:0:
192,192,208113,128,0,208170:0:0:0:0:
320,192,208170,1,0,0:0:0:0:
192,192,208228,128,0,208285:0:0:0:0:
320,192,208285,1,0,0:0:0:0:
64,192,208342,1,0,0:0:0:0:
448,192,208399,1,0,0:0:0:0:
192,192,208457,1,0,0:0:0:0:
64,192,208514,1,0,0:0:0:0:
320,192,208571,128,0,208743:0:0:0:0:
448,192,208571,128,0,208628:0:0:0:0:
192,192,208571,128,0,208686:0:0:0:0:
64,192,208628,1,0,0:0:0:0:
448,192,208686,128,0,208743:0:0:0:0:
192,192,208743,128,0,208857:0:0:0:0:
320,192,208800,128,0,208857:0:0:0:0:
448,192,208800,128,0,208857:0:0:0:0:
64,192,208857,1,0,0:0:0:0:
320,192,208915,128,0,209086:0:0:0:0:
448,192,208915,128,0,208972:0:0:0:0:
192,192,208915,128,0,209029:0:0:0:0:
64,192,208972,1,0,0:0:0:0:
448,192,209029,128,0,209086:0:0:0:0:
192,192,209086,128,0,209201:0:0:0:0:
448,192,209144,128,0,209201:0:0:0:0:
64,192,209144,128,0,209201:0:0:0:0:
320,192,209201,1,0,0:0:0:0:
64,192,209258,1,0,0:0:0:0:
192,192,209258,1,0,0:0:0:0:
64,192,209315,1,0,0:0:0:0:
192,192,209315,1,0,0:0:0:0:
448,192,209373,1,0,0:0:0:0:
320,192,209373,1,0,0:0:0:0:
448,192,209430,1,0,0:0:0:0:
320,192,209430,1,0,0:0:0:0:
192,192,209487,128,0,209659:0:0:0:0:
64,192,209487,128,0,209544:0:0:0:0:
320,192,209487,128,0,209602:0:0:0:0:
448,192,209544,1,0,0:0:0:0:
64,192,209602,128,0,209659:0:0:0:0:
320,192,209659,128,0,209773:0:0:0:0:
192,192,209716,128,0,209773:0:0:0:0:
64,192,209716,128,0,209773:0:0:0:0:
448,192,209773,1,0,0:0:0:0:
192,192,209831,128,0,210002:0:0:0:0:
64,192,209831,128,0,209888:0:0:0:0:
320,192,209831,128,0,209945:0:0:0:0:
448,192,209888,1,0,0:0:0:0:
64,192,209945,128,0,210002:0:0:0:0:
320,192,210002,128,0,210117:0:0:0:0:
64,192,210060,128,0,210117:0:0:0:0:
192,192,210060,128,0,210117:0:0:0:0:
448,192,210117,1,0,0:0:0:0:
192,192,210174,1,0,0:0:0:0:
320,192,210174,1,0,0:0:0:0:
320,192,210231,1,0,0:0:0:0:
192,192,210231,1,0,0:0:0:0:
64,192,210289,1,0,0:0:0:0:
448,192,210289,1,0,0:0:0:0:
448,192,210346,1,0,0:0:0:0:
64,192,210346,1,0,0:0:0:0:
192,192,210403,128,0,210460:0:0:0:0:
320,192,210403,128,0,210460:0:0:0:0:
192,192,210518,128,0,210575:0:0:0:0:
320,192,210518,128,0,210632:0:0:0:0:
192,192,210632,1,0,0:0:0:0:
448,192,210632,1,0,0:0:0:0:
192,192,210747,128,0,210918:0:0:0:0:
64,192,210747,128,0,210918:0:0:0:0:
320,192,210747,1,0,0:0:0:0:
448,192,210804,1,0,0:0:0:0:
320,192,210861,1,0,0:0:0:0:
448,192,210918,1,0,0:0:0:0:
320,192,210976,1,0,0:0:0:0:
64,192,210976,1,0,0:0:0:0:
64,192,211090,128,0,211319:0:0:0:0:
320,192,211090,128,0,211205:0:0:0:0:
192,192,211090,1,0,0:0:0:0:
448,192,211147,1,0,0:0:0:0:
192,192,211205,1,0,0:0:0:0:
320,192,211262,128,0,211319:0:0:0:0:
448,192,211319,1,0,0:0:0:0:
192,192,211376,1,0,0:0:0:0:
64,192,211434,128,0,211663:0:0:0:0:
320,192,211434,128,0,211605:0:0:0:0:
192,192,211548,1,0,0:0:0:0:
448,192,211548,1,0,0:0:0:0:
320,192,211663,1,0,0:0:0:0:
64,192,211777,128,0,211949:0:0:0:0:
320,192,211777,128,0,211834:0:0:0:0:
320,192,211892,128,0,211949:0:0:0:0:
192,192,212006,128,0,212121:0:0:0:0:
64,192,212006,128,0,212121:0:0:0:0:
320,192,212063,1,0,0:0:0:0:
448,192,212063,1,0,0:0:0:0:
64,192,212235,128,0,212407:0:0:0:0:
192,192,212235,128,0,212292:0:0:0:0:
448,192,212235,128,0,212350:0:0:0:0:
320,192,212292,1,0,0:0:0:0:
192,192,212350,128,0,212407:0:0:0:0:
448,192,212407,128,0,212521:0:0:0:0:
64,192,212464,128,0,212521:0:0:0:0:
192,192,212464,128,0,212521:0:0:0:0:
320,192,212521,1,0,0:0:0:0:
64,192,212579,128,0,212750:0:0:0:0:
192,192,212579,128,0,212636:0:0:0:0:
448,192,212579,128,0,212693:0:0:0:0:
320,192,212636,1,0,0:0:0:0:
192,192,212693,128,0,212750:0:0:0:0:
448,192,212750,128,0,212865:0:0:0:0:
192,192,212808,128,0,212865:0:0:0:0:
320,192,212808,128,0,212865:0:0:0:0:
64,192,212865,1,0,0:0:0:0:
320,192,212922,1,0,0:0:0:0:
448,192,212922,1,0,0:0:0:0:
320,192,212980,1,0,0:0:0:0:
448,192,212980,1,0,0:0:0:0:
192,192,213037,1,0,0:0:0:0:
64,192,213037,1,0,0:0:0:0:
192,192,213094,1,0,0:0:0:0:
64,192,213094,1,0,0:0:0:0:
448,192,213151,128,0,213323:0:0:0:0:
320,192,213151,128,0,213209:0:0:0:0:
64,192,213151,128,0,213266:0:0:0:0:
192,192,213209,1,0,0:0:0:0:
320,192,213266,128,0,213323:0:0:0:0:
64,192,213323,128,0,213438:0:0:0:0:
448,192,213380,128,0,213438:0:0:0:0:
320,192,213380,128,0,213438:0:0:0:0:
192,192,213438,1,0,0:0:0:0:
448,192,213495,128,0,213667:0:0:0:0:
320,192,213495,128,0,213552:0:0:0:0:
64,192,213495,128,0,213609:0:0:0:0:
192,192,213552,1,0,0:0:0:0:
320,192,213609,128,0,213667:0:0:0:0:
64,192,213667,128,0,213781:0:0:0:0:
320,192,213724,128,0,213781:0:0:0:0:
448,192,213724,128,0,213781:0:0:0:0:
192,192,213781,1,0,0:0:0:0:
64,192,213838,1,0,0:0:0:0:
448,192,213838,1,0,0:0:0:0:
448,192,213896,1,0,0:0:0:0:
64,192,213896,1,0,0:0:0:0:
320,192,213953,1,0,0:0:0:0:
192,192,213953,1,0,0:0:0:0:
192,192,214010,1,0,0:0:0:0:
320,192,214010,1,0,0:0:0:0:
448,192,214067,128,0,214125:0:0:0:0:
64,192,214067,128,0,214125:0:0:0:0:
448,192,214182,128,0,214239:0:0:0:0:
64,192,214182,128,0,214296:0:0:0:0:
448,192,214296,1,0,0:0:0:0:
192,192,214296,1,0,0:0:0:0:
320,192,214411,128,0,214583:0:0:0:0:
448,192,214411,128,0,214583:0:0:0:0:
192,192,214411,1,0,0:0:0:0:
64,192,214468,1,0,0:0:0:0:
192,192,214525,1,0,0:0:0:0:
64,192,214583,1,0,0:0:0:0:
192,192,214640,1,0,0:0:0:0:
448,192,214640,1,0,0:0:0:0:
448,192,214754,128,0,214983:0:0:0:0:
192,192,214754,128,0,214869:0:0:0:0:
320,192,214754,1,0,0:0:0:0:
64,192,214812,1,0,0:0:0:0:
320,192,214869,1,0,0:0:0:0:
192,192,214926,128,0,214983:0:0:0:0:
64,192,214983,1,0,0:0:0:0:
320,192,215041,1,0,0:0:0:0:
448,192,215098,128,0,215327:0:0:0:0:
192,192,215098,128,0,215270:0:0:0:0:
320,192,215212,1,0,0:0:0:0:
64,192,215212,1,0,0:0:0:0:
192,192,215327,1,0,0:0:0:0:
64,192,215384,1,0,0:0:0:0:
448,192,215441,128,0,215613:0:0:0:0:
192,192,215441,128,0,215499:0:0:0:0:
320,192,215499,1,0,0:0:0:0:
192,192,215556,128,0,215613:0:0:0:0:
320,192,215613,1,0,0:0:0:0:
448,192,215670,1,0,0:0:0:0:
64,192,215670,1,0,0:0:0:0:
192,192,215728,1,0,0:0:0:0:
448,192,215785,1,0,0:0:0:0:
320,192,215785,1,0,0:0:0:0:
64,192,215842,1,0,0:0:0:0:
192,192,215900,1,0,0:0:0:0:
448,192,215900,1,0,0:0:0:0:
320,192,215938,1,0,0:0:0:0:
192,192,215976,1,0,0:0:0:0:
448,192,216015,1,0,0:0:0:0:
64,192,216053,1,0,0:0:0:0:
320,192,216092,1,0,0:0:0:0:
192,192,216130,1,0,0:0:0:0:
64,192,216170,1,0,0:0:0:0:
320,192,216210,1,0,0:0:0:0:
192,192,216250,1,0,0:0:0:0:
64,192,216290,1,0,0:0:0:0:
448,192,216330,1,0,0:0:0:0:
192,192,216370,1,0,0:0:0:0:
320,192,216411,1,0,0:0:0:0:
448,192,216453,1,0,0:0:0:0:
64,192,216495,1,0,0:0:0:0:
192,192,216536,1,0,0:0:0:0:
320,192,216578,1,0,0:0:0:0:
448,192,216620,1,0,0:0:0:0:
192,192,216663,1,0,0:0:0:0:
64,192,216706,1,0,0:0:0:0:
320,192,216750,1,0,0:0:0:0:
192,192,216793,1,0,0:0:0:0:
448,192,216837,1,0,0:0:0:0:
320,192,216880,1,0,0:0:0:0:
64,192,216926,1,0,0:0:0:0:
448,192,216971,1,0,0:0:0:0:
192,192,217017,1,0,0:0:0:0:
448,192,217062,1,0,0:0:0:0:
64,192,217108,1,0,0:0:0:0:
320,192,217154,1,0,0:0:0:0:
64,192,217201,1,0,0:0:0:0:
448,192,217249,1,0,0:0:0:0:
192,192,217296,1,0,0:0:0:0:
320,192,217344,1,0,0:0:0:0:
64,192,217392,1,0,0:0:0:0:
448,192,217440,1,0,0:0:0:0:
320,192,217490,1,0,0:0:0:0:
64,192,217540,1,0,0:0:0:0:
448,192,217590,1,0,0:0:0:0:
192,192,217640,1,0,0:0:0:0:
320,192,217690,1,0,0:0:0:0:
448,192,217740,1,0,0:0:0:0:
64,192,217740,1,0,0:0:0:0:
192,192,217792,1,0,0:0:0:0:
64,192,217845,1,0,0:0:0:0:
320,192,217897,1,0,0:0:0:0:
192,192,217950,1,0,0:0:0:0:
448,192,218003,1,0,0:0:0:0:
64,192,218056,1,0,0:0:0:0:
192,192,218056,1,0,0:0:0:0:
320,192,218056,1,0,0:0:0:0:
448,192,218111,1,0,0:0:0:0:
192,192,218167,1,0,0:0:0:0:
64,192,218222,1,0,0:0:0:0:
320,192,218278,1,0,0:0:0:0:
64,192,218306,1,0,0:0:0:0:
448,192,218306,1,0,0:0:0:0:
192,192,218333,1,0,0:0:0:0:
320,192,218389,1,0,0:0:0:0:
64,192,218447,1,0,0:0:0:0:
192,192,218506,1,0,0:0:0:0:
448,192,218565,1,0,0:0:0:0:
320,192,218565,1,0,0:0:0:0:
64,192,218624,1,0,0:0:0:0:
192,192,218683,1,0,0:0:0:0:
448,192,218742,1,0,0:0:0:0:
320,192,218788,1,0,0:0:0:0:
192,192,218835,1,0,0:0:0:0:
64,192,218835,1,0,0:0:0:0:
448,192,218882,1,0,0:0:0:0:
320,192,218929,1,0,0:0:0:0:
192,192,218929,1,0,0:0:0:0:
64,192,218976,1,0,0:0:0:0:
320,192,219023,1,0,0:0:0:0:
448,192,219023,1,0,0:0:0:0:
64,192,219070,1,0,0:0:0:0:
320,192,219117,1,0,0:0:0:0:
192,192,219117,1,0,0:0:0:0:
448,192,219167,1,0,0:0:0:0:
192,192,219217,1,0,0:0:0:0:
320,192,219267,1,0,0:0:0:0:
64,192,219317,1,0,0:0:0:0:
320,192,219367,1,0,0:0:0:0:
448,192,219417,1,0,0:0:0:0:
192,192,219417,1,0,0:0:0:0:
64,192,219467,1,0,0:0:0:0:
320,192,219517,1,0,0:0:0:0:
64,192,219570,1,0,0:0:0:0:
448,192,219624,1,0,0:0:0:0:
192,192,219677,1,0,0:0:0:0:
64,192,219731,1,0,0:0:0:0:
448,192,219731,1,0,0:0:0:0:
320,192,219784,1,0,0:0:0:0:
64,192,219838,1,0,0:0:0:0:
192,192,219892,1,0,0:0:0:0:
320,192,219945,1,0,0:0:0:0:
64,192,220002,1,0,0:0:0:0:
448,192,220060,1,0,0:0:0:0:
192,192,220060,1,0,0:0:0:0:
64,192,220118,1,0,0:0:0:0:
448,192,220175,1,0,0:0:0:0:
320,192,220175,1,0,0:0:0:0:
192,192,220233,1,0,0:0:0:0:
64,192,220291,1,0,0:0:0:0:
448,192,220348,1,0,0:0:0:0:
320,192,220407,128,0,220594:0:0:0:0:
192,192,220407,128,0,220469:0:0:0:0:
64,192,220407,128,0,220594:0:0:0:0:
448,192,220469,1,0,0:0:0:0:
192,192,220532,1,0,0:0:0:0:
448,192,220594,1,0,0:0:0:0:
320,192,220657,128,0,220844:0:0:0:0:
192,192,220657,128,0,220719:0:0:0:0:
64,192,220657,128,0,220782:0:0:0:0:
448,192,220719,1,0,0:0:0:0:
192,192,220782,1,0,0:0:0:0:
64,192,220844,1,0,0:0:0:0:
448,192,220907,128,0,221247:0:0:0:0:
320,192,220907,128,0,220975:0:0:0:0:
192,192,220907,128,0,221111:0:0:0:0:
64,192,220975,1,0,0:0:0:0:
320,192,221043,1,0,0:0:0:0:
64,192,221111,128,0,221179:0:0:0:0:
320,192,221179,128,0,221316:0:0:0:0:
192,192,221179,128,0,221384:0:0:0:0:
64,192,221247,128,0,221384:0:0:0:0:
448,192,221316,128,0,221384:0:0:0:0:
320,192,221384,128,0,221452:0:0:0:0:
448,192,221452,5,0,0:0:0:0:
192,192,221452,1,0,0:0:0:0:
64,192,221452,1,0,0:0:0:0:
320,192,221502,1,0,0:0:0:0:
64,192,221552,1,0,0:0:0:0:
320,192,221602,1,0,0:0:0:0:
192,192,221652,1,0,0:0:0:0:
448,192,221702,1,0,0:0:0:0:
192,192,221752,1,0,0:0:0:0:
64,192,221802,1,0,0:0:0:0:
448,192,221852,1,0,0:0:0:0:
192,192,221902,1,0,0:0:0:0:
320,192,221952,1,0,0:0:0:0:
64,192,222002,1,0,0:0:0:0:
320,192,222052,1,0,0:0:0:0:
448,192,222118,1,0,0:0:0:0:
192,192,222185,1,0,0:0:0:0:
320,192,222252,1,0,0:0:0:0:
192,192,222318,1,0,0:0:0:0:
64,192,222385,1,0,0:0:0:0:
448,192,222452,1,0,0:0:0:0:
320,192,222518,1,0,0:0:0:0:
192,192,222585,1,0,0:0:0:0:
320,192,222652,1,0,0:0:0:0:
64,192,222727,1,0,0:0:0:0:
448,192,222802,1,0,0:0:0:0:
64,192,222877,1,0,0:0:0:0:
320,192,222952,1,0,0:0:0:0:
192,192,223027,1,0,0:0:0:0:
320,192,223102,1,0,0:0:0:0:
448,192,223177,1,0,0:0:0:0:
192,192,223252,1,0,0:0:0:0:
320,192,223327,1,0,0:0:0:0:
192,192,223402,1,0,0:0:0:0:
64,192,223477,1,0,0:0:0:0:
448,192,223552,1,0,0:0:0:0:
192,192,223627,1,0,0:0:0:0:
320,192,223702,1,0,0:0:0:0:
448,192,223777,1,0,0:0:0:0:
192,192,223852,1,0,0:0:0:0:
320,192,223952,1,0,0:0:0:0:
192,192,224052,1,0,0:0:0:0:
64,192,224152,1,0,0:0:0:0:
448,192,224252,1,0,0:0:0:0:
192,192,224352,1,0,0:0:0:0:
448,192,224452,1,0,0:0:0:0:
64,192,224552,1,0,0:0:0:0:
320,192,224652,1,0,0:0:0:0:
64,192,224752,1,0,0:0:0:0:
448,192,224852,1,0,0:0:0:0:
192,192,224952,1,0,0:0:0:0:
320,192,225052,128,0,226252:0:0:0:0:
64,192,225502,128,0,226702:0:0:0:0:
448,192,225952,128,0,226552:0:0:0:0:
192,192,226252,128,0,227452:0:0:0:0:
448,192,226702,128,0,227902:0:0:0:0:
64,192,227152,128,0,227752:0:0:0:0:
320,192,227452,128,0,228352:0:0:0:0:
64,192,227902,128,0,228502:0:0:0:0:
448,192,228352,128,0,228802:0:0:0:0:
64,192,228652,128,0,228952:0:0:0:0:
192,192,228752,128,0,228952:0:0:0:0:
320,192,228852,128,0,229102:0:0:0:0:
448,192,228952,128,0,229252:0:0:0:0:
64,192,229102,128,0,229552:0:0:0:0:
320,192,229252,128,0,229402:0:0:0:0:
192,192,229402,128,0,229552:0:0:0:0:
448,192,229552,128,0,229852:0:0:0:0:
64,192,229702,128,0,231194:0:0:0:0:
320,192,229852,128,0,230152:0:0:0:0:
320,192,230302,128,0,230602:0:0:0:0:
320,192,230752,128,0,231052:0:0:0:0:
448,192,231052,128,0,231623:0:0:0:0:
192,192,231052,128,0,231194:0:0:0:0:
320,192,231194,1,0,0:0:0:0:
192,192,231337,1,0,0:0:0:0:
64,192,231480,1,0,0:0:0:0:
320,192,231623,1,0,0:0:0:0:
192,192,231766,1,0,0:0:0:0:
64,192,231909,128,0,232194:0:0:0:0:
448,192,232052,128,0,232337:0:0:0:0:
320,192,232194,128,0,232766:0:0:0:0:
192,192,232194,128,0,232337:0:0:0:0:
64,192,232337,1,0,0:0:0:0:
448,192,232480,1,0,0:0:0:0:
192,192,232623,1,0,0:0:0:0:
64,192,232766,128,0,233338:0:0:0:0:
448,192,232766,128,0,232909:0:0:0:0:
320,192,232909,1,0,0:0:0:0:
448,192,233052,1,0,0:0:0:0:
320,192,233194,1,0,0:0:0:0:
192,192,233338,128,0,233610:0:0:0:0:
448,192,233338,128,0,233474:0:0:0:0:
64,192,233474,1,0,0:0:0:0:
448,192,233610,1,0,0:0:0:0:
64,192,233747,128,0,233883:0:0:0:0:
320,192,233747,128,0,234019:0:0:0:0:
192,192,233883,1,0,0:0:0:0:
448,192,234019,1,0,0:0:0:0:
64,192,234156,128,0,234292:0:0:0:0:
192,192,234156,128,0,234428:0:0:0:0:
448,192,234292,1,0,0:0:0:0:
64,192,234428,128,0,235247:0:0:0:0:
320,192,234428,128,0,234565:0:0:0:0:
448,192,234565,1,0,0:0:0:0:
192,192,234701,1,0,0:0:0:0:
320,192,234838,1,0,0:0:0:0:
448,192,234974,1,0,0:0:0:0:
192,192,235110,1,0,0:0:0:0:
320,192,235247,128,0,235520:0:0:0:0:
192,192,235383,128,0,235520:0:0:0:0:
448,192,235520,128,0,235650:0:0:0:0:
64,192,235520,128,0,236041:0:0:0:0:
320,192,235650,1,0,0:0:0:0:
192,192,235780,1,0,0:0:0:0:
320,192,235911,1,0,0:0:0:0:
192,192,236041,128,0,236172:0:0:0:0:
448,192,236041,128,0,236563:0:0:0:0:
64,192,236172,1,0,0:0:0:0:
320,192,236302,1,0,0:0:0:0:
64,192,236433,1,0,0:0:0:0:
320,192,236563,128,0,236693:0:0:0:0:
192,192,236563,128,0,237085:0:0:0:0:
448,192,236693,1,0,0:0:0:0:
64,192,236824,1,0,0:0:0:0:
448,192,236954,1,0,0:0:0:0:
64,192,237085,128,0,237215:0:0:0:0:
320,192,237085,128,0,237476:0:0:0:0:
192,192,237215,1,0,0:0:0:0:
448,192,237346,1,0,0:0:0:0:
192,192,237476,1,0,0:0:0:0:
320,192,237607,128,0,237857:0:0:0:0:
64,192,237607,128,0,237732:0:0:0:0:
448,192,237732,1,0,0:0:0:0:
64,192,237857,1,0,0:0:0:0:
320,192,237982,128,0,238107:0:0:0:0:
192,192,237982,128,0,238232:0:0:0:0:
448,192,238107,1,0,0:0:0:0:
320,192,238232,1,0,0:0:0:0:
192,192,238357,128,0,238482:0:0:0:0:
448,192,238357,128,0,238607:0:0:0:0:
64,192,238482,1,0,0:0:0:0:
320,192,238607,128,0,238732:0:0:0:0:
192,192,238607,128,0,238857:0:0:0:0:
64,192,238732,1,0,0:0:0:0:
448,192,238857,1,0,0:0:0:0:
64,192,238940,1,0,0:0:0:0:
192,192,239023,1,0,0:0:0:0:
448,192,239107,1,0,0:0:0:0:
64,192,239169,1,0,0:0:0:0:
320,192,239232,1,0,0:0:0:0:
448,192,239294,1,0,0:0:0:0:
64,192,239357,128,0,239482:0:0:0:0:
320,192,239419,1,0,0:0:0:0:
192,192,239482,128,0,239544:0:0:0:0:
64,192,239544,1,0,0:0:0:0:
192,192,239607,128,0,239787:0:0:0:0:
320,192,239607,128,0,239967:0:0:0:0:
448,192,239607,128,0,239667:0:0:0:0:
448,192,239727,128,0,239967:0:0:0:0:
192,192,239847,128,0,239967:0:0:0:0:
64,192,239967,1,0,0:0:0:0:
448,192,240087,1,0,0:0:0:0:
192,192,240207,1,0,0:0:0:0:
64,192,240327,128,0,240447:0:0:0:0:
320,192,240447,128,0,240567:0:0:0:0:
448,192,240567,128,0,240627:0:0:0:0:
64,192,240567,128,0,240747:0:0:0:0:
192,192,240567,128,0,240927:0:0:0:0:
448,192,240687,128,0,240927:0:0:0:0:
64,192,240807,128,0,240927:0:0:0:0:
320,192,240927,1,0,0:0:0:0:
192,192,241047,128,0,241407:0:0:0:0:
64,192,241167,1,0,0:0:0:0:
448,192,241287,1,0,0:0:0:0:
64,192,241407,1,0,0:0:0:0:
448,192,241467,1,0,0:0:0:0:
64,192,241527,128,0,241757:0:0:0:0:
192,192,241527,128,0,241584:0:0:0:0:
320,192,241527,128,0,241700:0:0:0:0:
192,192,241642,128,0,241757:0:0:0:0:
320,192,241757,1,0,0:0:0:0:
320,192,241873,128,0,242103:0:0:0:0:
64,192,241873,128,0,241930:0:0:0:0:
448,192,241873,128,0,242046:0:0:0:0:
64,192,241988,128,0,242103:0:0:0:0:
448,192,242103,1,0,0:0:0:0:
448,192,242219,128,0,242392:0:0:0:0:
320,192,242219,128,0,242277:0:0:0:0:
192,192,242219,128,0,242392:0:0:0:0:
320,192,242334,128,0,242450:0:0:0:0:
448,192,242450,128,0,242796:0:0:0:0:
64,192,242450,128,0,242623:0:0:0:0:
192,192,242450,128,0,242507:0:0:0:0:
192,192,242565,128,0,242796:0:0:0:0:
64,192,242680,128,0,242796:0:0:0:0:
320,192,242796,1,0,0:0:0:0:
64,192,242911,1,0,0:0:0:0:
448,192,243027,1,0,0:0:0:0:
192,192,243084,1,0,0:0:0:0:
320,192,243142,128,0,243257:0:0:0:0:
64,192,243142,128,0,243200:0:0:0:0:
64,192,243257,128,0,243373:0:0:0:0:
448,192,243257,128,0,243315:0:0:0:0:
448,192,243373,128,0,243539:0:0:0:0:
192,192,243373,128,0,243706:0:0:0:0:
320,192,243373,128,0,243428:0:0:0:0:
320,192,243484,128,0,243706:0:0:0:0:
448,192,243595,128,0,243706:0:0:0:0:
64,192,243706,1,0,0:0:0:0:
320,192,243817,128,0,244150:0:0:0:0:
448,192,243928,1,0,0:0:0:0:
64,192,244039,1,0,0:0:0:0:
192,192,244150,1,0,0:0:0:0:
320,192,244261,128,0,244595:0:0:0:0:
64,192,244261,128,0,244428:0:0:0:0:
448,192,244261,128,0,244317:0:0:0:0:
448,192,244373,128,0,244595:0:0:0:0:
64,192,244484,128,0,244595:0:0:0:0:
192,192,244595,1,0,0:0:0:0:
448,192,244706,128,0,245039:0:0:0:0:
320,192,244817,1,0,0:0:0:0:
64,192,244928,1,0,0:0:0:0:
192,192,245039,1,0,0:0:0:0:
64,192,245151,128,0,245365:0:0:0:0:
448,192,245204,1,0,0:0:0:0:
320,192,245258,1,0,0:0:0:0:
192,192,245311,1,0,0:0:0:0:
448,192,245365,1,0,0:0:0:0:
320,192,245418,1,0,0:0:0:0:
192,192,245472,128,0,245579:0:0:0:0:
64,192,245526,1,0,0:0:0:0:
320,192,245579,128,0,245793:0:0:0:0:
448,192,245633,1,0,0:0:0:0:
64,192,245686,1,0,0:0:0:0:
192,192,245740,1,0,0:0:0:0:
448,192,245793,1,0,0:0:0:0:
64,192,245847,1,0,0:0:0:0:
192,192,245901,128,0,245954:0:0:0:0:
320,192,245954,128,0,246008:0:0:0:0:
64,192,246008,128,0,246115:0:0:0:0:
448,192,246061,128,0,246168:0:0:0:0:
192,192,246115,128,0,246168:0:0:0:0:
64,192,246168,128,0,246222:0:0:0:0:
320,192,246222,128,0,246329:0:0:0:0:
192,192,246276,128,0,246329:0:0:0:0:
448,192,246329,128,0,246436:0:0:0:0:
64,192,246383,128,0,246490:0:0:0:0:
320,192,246436,128,0,246490:0:0:0:0:
448,192,246490,128,0,246597:0:0:0:0:
192,192,246543,128,0,246651:0:0:0:0:
320,192,246597,128,0,246865:0:0:0:0:
64,192,246651,128,0,246722:0:0:0:0:
448,192,246722,128,0,246865:0:0:0:0:
64,192,246793,128,0,246931:0:0:0:0:
448,192,247065,128,0,247115:0:0:0:0:
192,192,247065,128,0,247215:0:0:0:0:
64,192,247065,128,0,247265:0:0:0:0:
320,192,247065,128,0,247265:0:0:0:0:
448,192,247165,128,0,247265:0:0:0:0:
192,192,247265,128,0,247565:0:0:0:0:
320,192,247365,128,0,247515:0:0:0:0:
448,192,247365,128,0,247565:0:0:0:0:
64,192,247365,128,0,247415:0:0:0:0:
64,192,247465,128,0,247565:0:0:0:0:
320,192,247565,128,0,247665:0:0:0:0:
448,192,247665,128,0,247865:0:0:0:0:
64,192,247665,128,0,247815:0:0:0:0:
192,192,247665,128,0,247715:0:0:0:0:
320,192,247715,1,0,0:0:0:0:
192,192,247765,128,0,247865:0:0:0:0:
64,192,247865,128,0,248165:0:0:0:0:
448,192,247965,128,0,248115:0:0:0:0:
192,192,247965,128,0,248165:0:0:0:0:
320,192,247965,128,0,248015:0:0:0:0:
320,192,248065,128,0,248165:0:0:0:0:
448,192,248165,128,0,248365:0:0:0:0:
320,192,248265,128,0,248365:0:0:0:0:
64,192,248265,128,0,248365:0:0:0:0:
192,192,248265,128,0,248315:0:0:0:0:
192,192,248365,128,0,248465:0:0:0:0:
448,192,248465,128,0,248765:0:0:0:0:
64,192,248465,128,0,248765:0:0:0:0:
320,192,248465,128,0,248565:0:0:0:0:
192,192,248565,128,0,248665:0:0:0:0:
320,192,248665,128,0,248865:0:0:0:0:
192,192,248765,128,0,248965:0:0:0:0:
64,192,248865,128,0,248965:0:0:0:0:
448,192,248865,128,0,248965:0:0:0:0:
320,192,248965,128,0,249065:0:0:0:0:
192,192,249065,128,0,249165:0:0:0:0:
64,192,249065,128,0,249115:0:0:0:0:
64,192,249165,128,0,249265:0:0:0:0:
448,192,249165,128,0,249215:0:0:0:0:
192,192,249265,128,0,249465:0:0:0:0:
448,192,249265,128,0,249365:0:0:0:0:
320,192,249265,128,0,249465:0:0:0:0:
64,192,249365,128,0,249565:0:0:0:0:
448,192,249465,128,0,249565:0:0:0:0:
192,192,249565,128,0,249665:0:0:0:0:
320,192,249565,1,0,0:0:0:0:
320,192,249665,128,0,249865:0:0:0:0:
448,192,249665,128,0,249765:0:0:0:0:
64,192,249665,128,0,249765:0:0:0:0:
192,192,249765,128,0,249965:0:0:0:0:
448,192,249865,1,0,0:0:0:0:
64,192,249865,128,0,249965:0:0:0:0:
320,192,249965,128,0,250065:0:0:0:0:
448,192,250065,128,0,250265:0:0:0:0:
192,192,250065,128,0,250165:0:0:0:0:
64,192,250065,128,0,250265:0:0:0:0:
320,192,250165,128,0,250265:0:0:0:0:
192,192,250265,128,0,250365:0:0:0:0:
64,192,250365,128,0,250565:0:0:0:0:
320,192,250365,128,0,250465:0:0:0:0:
448,192,250365,128,0,250415:0:0:0:0:
192,192,250465,1,0,0:0:0:0:
448,192,250465,128,0,250665:0:0:0:0:
320,192,250565,128,0,250665:0:0:0:0:
192,192,250665,128,0,250765:0:0:0:0:
64,192,250665,128,0,250765:0:0:0:0:
448,192,250765,128,0,250865:0:0:0:0:
320,192,250865,128,0,251065:0:0:0:0:
192,192,250865,128,0,250965:0:0:0:0:
64,192,250865,128,0,250965:0:0:0:0:
448,192,250965,128,0,251165:0:0:0:0:
192,192,251065,128,0,251165:0:0:0:0:
64,192,251065,1,0,0:0:0:0:
320,192,251165,1,0,0:0:0:0:
64,192,251165,128,0,251265:0:0:0:0:
192,192,251265,128,0,251365:0:0:0:0:
448,192,251265,128,0,251365:0:0:0:0:
320,192,251265,128,0,251365:0:0:0:0:
64,192,251365,128,0,251465:0:0:0:0:
448,192,251465,128,0,251515:0:0:0:0:
320,192,251465,128,0,251565:0:0:0:0:
448,192,251565,128,0,251665:0:0:0:0:
192,192,251565,128,0,251615:0:0:0:0:
320,192,251665,128,0,251965:0:0:0:0:
192,192,251665,128,0,251865:0:0:0:0:
64,192,251665,128,0,251765:0:0:0:0:
448,192,251765,128,0,251965:0:0:0:0:
64,192,251865,128,0,251965:0:0:0:0:
192,192,251965,128,0,252065:0:0:0:0:
64,192,252065,128,0,252265:0:0:0:0:
320,192,252065,128,0,252165:0:0:0:0:
448,192,252065,128,0,252365:0:0:0:0:
192,192,252165,128,0,252365:0:0:0:0:
320,192,252265,128,0,252365:0:0:0:0:
64,192,252365,128,0,252465:0:0:0:0:
192,192,252465,128,0,252665:0:0:0:0:
320,192,252465,128,0,252665:0:0:0:0:
448,192,252465,128,0,252565:0:0:0:0:
64,192,252565,128,0,252765:0:0:0:0:
448,192,252665,128,0,252765:0:0:0:0:
192,192,252765,1,0,0:0:0:0:
320,192,252765,128,0,252865:0:0:0:0:
448,192,252865,128,0,253165:0:0:0:0:
64,192,252865,128,0,253065:0:0:0:0:
192,192,252865,128,0,252965:0:0:0:0:
320,192,252965,128,0,253165:0:0:0:0:
192,192,253065,128,0,253165:0:0:0:0:
64,192,253165,128,0,253265:0:0:0:0:
192,192,253265,128,0,253465:0:0:0:0:
320,192,253265,128,0,253465:0:0:0:0:
448,192,253265,128,0,253365:0:0:0:0:
64,192,253365,128,0,253465:0:0:0:0:
448,192,253465,128,0,253565:0:0:0:0:
64,192,253565,128,0,253615:0:0:0:0:
192,192,253565,128,0,253665:0:0:0:0:
320,192,253565,128,0,253765:0:0:0:0:
448,192,253665,128,0,253765:0:0:0:0:
64,192,253665,128,0,253865:0:0:0:0:
192,192,253765,128,0,253865:0:0:0:0:
320,192,253865,128,0,253965:0:0:0:0:
448,192,253865,128,0,253965:0:0:0:0:
64,192,253965,128,0,254065:0:0:0:0:
192,192,254065,128,0,254265:0:0:0:0:
320,192,254065,128,0,254165:0:0:0:0:
448,192,254065,128,0,254265:0:0:0:0:
64,192,254165,128,0,254365:0:0:0:0:
320,192,254265,128,0,254365:0:0:0:0:
192,192,254365,1,0,0:0:0:0:
448,192,254365,128,0,254465:0:0:0:0:
320,192,254465,128,0,254565:0:0:0:0:
192,192,254465,128,0,254565:0:0:0:0:
64,192,254465,128,0,254565:0:0:0:0:
448,192,254565,128,0,254665:0:0:0:0:
64,192,254665,128,0,254715:0:0:0:0:
192,192,254665,128,0,254765:0:0:0:0:
64,192,254765,128,0,254815:0:0:0:0:
320,192,254765,128,0,254815:0:0:0:0:
448,192,254865,128,0,254915:0:0:0:0:
320,192,254865,128,0,255065:0:0:0:0:
192,192,254865,128,0,254965:0:0:0:0:
64,192,254865,128,0,255165:0:0:0:0:
448,192,254965,128,0,255165:0:0:0:0:
192,192,255065,128,0,255265:0:0:0:0:
320,192,255165,128,0,255365:0:0:0:0:
448,192,255265,128,0,255365:0:0:0:0:
64,192,255265,128,0,255365:0:0:0:0:
192,192,255365,128,0,255465:0:0:0:0:
320,192,255465,128,0,255565:0:0:0:0:
448,192,255465,128,0,255515:0:0:0:0:
448,192,255565,128,0,255665:0:0:0:0:
64,192,255565,128,0,255615:0:0:0:0:
320,192,255665,128,0,255865:0:0:0:0:
64,192,255665,128,0,255765:0:0:0:0:
192,192,255665,128,0,255865:0:0:0:0:
448,192,255765,128,0,255965:0:0:0:0:
64,192,255865,128,0,255965:0:0:0:0:
320,192,255965,128,0,256065:0:0:0:0:
192,192,255965,1,0,0:0:0:0:
192,192,256065,128,0,256265:0:0:0:0:
64,192,256065,128,0,256165:0:0:0:0:
448,192,256065,128,0,256165:0:0:0:0:
320,192,256165,128,0,256365:0:0:0:0:
64,192,256265,1,0,0:0:0:0:
448,192,256265,128,0,256365:0:0:0:0:
192,192,256365,128,0,256465:0:0:0:0:
64,192,256465,128,0,256665:0:0:0:0:
320,192,256465,128,0,256565:0:0:0:0:
448,192,256465,128,0,256665:0:0:0:0:
192,192,256565,128,0,256665:0:0:0:0:
320,192,256665,128,0,256765:0:0:0:0:
448,192,256765,128,0,256965:0:0:0:0:
192,192,256765,128,0,256865:0:0:0:0:
64,192,256765,128,0,256815:0:0:0:0:
320,192,256865,1,0,0:0:0:0:
64,192,256865,128,0,257065:0:0:0:0:
192,192,256965,128,0,257065:0:0:0:0:
320,192,257065,128,0,257165:0:0:0:0:
448,192,257065,128,0,257165:0:0:0:0:
64,192,257165,128,0,257265:0:0:0:0:
448,192,257265,128,0,257465:0:0:0:0:
192,192,257265,128,0,257465:0:0:0:0:
320,192,257265,128,0,257365:0:0:0:0:
64,192,257365,128,0,257565:0:0:0:0:
320,192,257465,1,0,0:0:0:0:
192,192,257565,1,0,0:0:0:0:
448,192,257565,128,0,257665:0:0:0:0:
320,192,257665,128,0,257765:0:0:0:0:
64,192,257665,128,0,257765:0:0:0:0:
192,192,257665,128,0,257765:0:0:0:0:
448,192,257765,128,0,257865:0:0:0:0:
64,192,257865,128,0,257915:0:0:0:0:
192,192,257865,128,0,257965:0:0:0:0:
64,192,257965,128,0,258065:0:0:0:0:
320,192,257965,128,0,258015:0:0:0:0:
192,192,258065,128,0,258365:0:0:0:0:
320,192,258065,128,0,258265:0:0:0:0:
448,192,258065,128,0,258165:0:0:0:0:
64,192,258165,128,0,258365:0:0:0:0:
448,192,258265,128,0,258365:0:0:0:0:
320,192,258365,128,0,258465:0:0:0:0:
448,192,258465,128,0,258665:0:0:0:0:
192,192,258465,128,0,258565:0:0:0:0:
64,192,258465,128,0,258765:0:0:0:0:
320,192,258565,128,0,258765:0:0:0:0:
192,192,258665,128,0,258765:0:0:0:0:
448,192,258765,128,0,258865:0:0:0:0:
64,192,258865,128,0,259065:0:0:0:0:
320,192,258865,128,0,259065:0:0:0:0:
192,192,258865,128,0,258965:0:0:0:0:
448,192,258965,128,0,259165:0:0:0:0:
192,192,259065,1,0,0:0:0:0:
320,192,259165,1,0,0:0:0:0:
64,192,259165,128,0,259265:0:0:0:0:
192,192,259265,128,0,259565:0:0:0:0:
448,192,259265,128,0,259465:0:0:0:0:
320,192,259265,128,0,259365:0:0:0:0:
64,192,259365,128,0,259565:0:0:0:0:
320,192,259465,128,0,259565:0:0:0:0:
448,192,259565,128,0,259665:0:0:0:0:
320,192,259665,128,0,259865:0:0:0:0:
192,192,259665,128,0,259765:0:0:0:0:
64,192,259665,128,0,259765:0:0:0:0:
448,192,259765,128,0,259865:0:0:0:0:
64,192,259865,1,0,0:0:0:0:
192,192,259865,128,0,259965:0:0:0:0:
320,192,259965,128,0,260015:0:0:0:0:
64,192,259965,128,0,260065:0:0:0:0:
192,192,260065,128,0,260365:0:0:0:0:
320,192,260065,128,0,260365:0:0:0:0:
448,192,260065,128,0,260165:0:0:0:0:
64,192,260165,128,0,260365:0:0:0:0:
448,192,260265,1,0,0:0:0:0:
448,192,260365,128,0,260465:0:0:0:0:
320,192,260465,128,0,260665:0:0:0:0:
64,192,260465,128,0,260565:0:0:0:0:
192,192,260465,128,0,260565:0:0:0:0:
448,192,260565,128,0,260765:0:0:0:0:
64,192,260665,128,0,260765:0:0:0:0:
320,192,260765,1,0,0:0:0:0:
192,192,260765,128,0,260865:0:0:0:0:
64,192,260865,1,0,0:0:0:0:
320,192,260865,128,0,260965:0:0:0:0:
448,192,260865,128,0,260965:0:0:0:0:
64,192,260965,128,0,261065:0:0:0:0:
192,192,261065,128,0,261165:0:0:0:0:
320,192,261065,128,0,261165:0:0:0:0:
448,192,261065,128,0,261115:0:0:0:0:
448,192,261165,128,0,261215:0:0:0:0:
64,192,261165,128,0,261215:0:0:0:0:
64,192,261265,128,0,261665:0:0:0:0:
192,192,261265,128,0,261615:0:0:0:0:
320,192,261265,128,0,261615:0:0:0:0:
448,192,261265,128,0,261665:0:0:0:0:
320,192,261665,128,0,261965:0:0:0:0:
192,192,261665,128,0,261965:0:0:0:0:
64,192,262065,128,0,262415:0:0:0:0:
192,192,262065,128,0,262465:0:0:0:0:
320,192,262065,128,0,262465:0:0:0:0:
448,192,262065,128,0,262415:0:0:0:0:
64,192,262465,1,0,0:0:0:0:
448,192,262465,128,0,262798:0:0:0:0:
192,192,262531,1,0,0:0:0:0:
320,192,262531,1,0,0:0:0:0:
64,192,262598,1,0,0:0:0:0:
320,192,262665,1,0,0:0:0:0:
192,192,262731,1,0,0:0:0:0:
64,192,262798,1,0,0:0:0:0:
192,192,262865,1,0,0:0:0:0:
320,192,262865,128,0,262964:0:0:0:0:
448,192,262865,128,0,262964:0:0:0:0:
192,192,262964,1,0,0:0:0:0:
320,192,263063,128,0,263163:0:0:0:0:
448,192,263063,128,0,263163:0:0:0:0:
64,192,263163,1,0,0:0:0:0:
192,192,263262,1,0,0:0:0:0:
320,192,263328,1,0,0:0:0:0:
64,192,263394,1,0,0:0:0:0:
320,192,263461,1,0,0:0:0:0:
448,192,263461,1,0,0:0:0:0:
192,192,263527,1,0,0:0:0:0:
320,192,263560,1,0,0:0:0:0:
448,192,263560,1,0,0:0:0:0:
64,192,263593,1,0,0:0:0:0:
192,192,263659,1,0,0:0:0:0:
448,192,263659,128,0,263725:0:0:0:0:
320,192,263659,128,0,263759:0:0:0:0:
64,192,263725,1,0,0:0:0:0:
448,192,263792,1,0,0:0:0:0:
192,192,263858,1,0,0:0:0:0:
320,192,263924,1,0,0:0:0:0:
64,192,263990,1,0,0:0:0:0:
448,192,264057,1,0,0:0:0:0:
320,192,264123,1,0,0:0:0:0:
192,192,264189,1,0,0:0:0:0:
448,192,264255,1,0,0:0:0:0:
64,192,264321,1,0,0:0:0:0:
192,192,264388,1,0,0:0:0:0:
320,192,264455,128,0,264520:0:0:0:0:
448,192,264455,128,0,264553:0:0:0:0:
64,192,264520,1,0,0:0:0:0:
320,192,264586,1,0,0:0:0:0:
192,192,264652,1,0,0:0:0:0:
64,192,264718,1,0,0:0:0:0:
320,192,264751,128,0,264849:0:0:0:0:
448,192,264751,128,0,264849:0:0:0:0:
192,192,264783,1,0,0:0:0:0:
64,192,264849,1,0,0:0:0:0:
448,192,264915,1,0,0:0:0:0:
192,192,264981,1,0,0:0:0:0:
320,192,265047,1,0,0:0:0:0:
448,192,265047,1,0,0:0:0:0:
64,192,265112,1,0,0:0:0:0:
320,192,265145,1,0,0:0:0:0:
448,192,265145,1,0,0:0:0:0:
192,192,265178,1,0,0:0:0:0:
64,192,265244,1,0,0:0:0:0:
320,192,265244,128,0,265310:0:0:0:0:
448,192,265244,128,0,265343:0:0:0:0:
192,192,265310,1,0,0:0:0:0:
320,192,265376,1,0,0:0:0:0:
64,192,265441,1,0,0:0:0:0:
448,192,265507,1,0,0:0:0:0:
192,192,265573,1,0,0:0:0:0:
320,192,265639,1,0,0:0:0:0:
448,192,265705,1,0,0:0:0:0:
192,192,265770,1,0,0:0:0:0:
64,192,265836,1,0,0:0:0:0:
320,192,265902,1,0,0:0:0:0:
64,192,265935,1,0,0:0:0:0:
448,192,265968,1,0,0:0:0:0:
192,192,266033,128,0,266131:0:0:0:0:
64,192,266033,128,0,266131:0:0:0:0:
320,192,266098,1,0,0:0:0:0:
448,192,266163,1,0,0:0:0:0:
192,192,266229,128,0,266327:0:0:0:0:
64,192,266229,128,0,266327:0:0:0:0:
320,192,266294,1,0,0:0:0:0:
448,192,266359,1,0,0:0:0:0:
64,192,266425,1,0,0:0:0:0:
192,192,266490,1,0,0:0:0:0:
320,192,266555,1,0,0:0:0:0:
192,192,266621,1,0,0:0:0:0:
64,192,266621,1,0,0:0:0:0:
448,192,266686,1,0,0:0:0:0:
64,192,266719,1,0,0:0:0:0:
192,192,266719,1,0,0:0:0:0:
320,192,266751,1,0,0:0:0:0:
448,192,266817,1,0,0:0:0:0:
64,192,266817,128,0,266882:0:0:0:0:
192,192,266817,128,0,266915:0:0:0:0:
320,192,266882,1,0,0:0:0:0:
64,192,266948,1,0,0:0:0:0:
448,192,267013,1,0,0:0:0:0:
192,192,267078,1,0,0:0:0:0:
320,192,267144,1,0,0:0:0:0:
64,192,267209,1,0,0:0:0:0:
192,192,267274,1,0,0:0:0:0:
448,192,267340,1,0,0:0:0:0:
64,192,267405,1,0,0:0:0:0:
320,192,267470,1,0,0:0:0:0:
448,192,267536,1,0,0:0:0:0:
64,192,267602,128,0,267699:0:0:0:0:
192,192,267602,128,0,267666:0:0:0:0:
320,192,267666,1,0,0:0:0:0:
192,192,267731,1,0,0:0:0:0:
448,192,267796,1,0,0:0:0:0:
320,192,267861,1,0,0:0:0:0:
192,192,267894,128,0,267991:0:0:0:0:
64,192,267894,128,0,267991:0:0:0:0:
448,192,267926,1,0,0:0:0:0:
320,192,267991,1,0,0:0:0:0:
64,192,268056,1,0,0:0:0:0:
448,192,268121,1,0,0:0:0:0:
192,192,268186,1,0,0:0:0:0:
64,192,268186,1,0,0:0:0:0:
320,192,268251,1,0,0:0:0:0:
192,192,268283,1,0,0:0:0:0:
64,192,268283,1,0,0:0:0:0:
448,192,268316,1,0,0:0:0:0:
320,192,268381,1,0,0:0:0:0:
192,192,268381,128,0,268446:0:0:0:0:
64,192,268381,128,0,268478:0:0:0:0:
448,192,268446,1,0,0:0:0:0:
192,192,268511,1,0,0:0:0:0:
320,192,268576,1,0,0:0:0:0:
64,192,268640,1,0,0:0:0:0:
448,192,268705,1,0,0:0:0:0:
320,192,268770,1,0,0:0:0:0:
192,192,268835,1,0,0:0:0:0:
448,192,268900,1,0,0:0:0:0:
64,192,268900,1,0,0:0:0:0:
448,192,268965,1,0,0:0:0:0:
320,192,269030,1,0,0:0:0:0:
192,192,269030,1,0,0:0:0:0:
192,192,269095,1,0,0:0:0:0:
320,192,269161,128,0,269257:0:0:0:0:
448,192,269161,128,0,269257:0:0:0:0:
64,192,269161,1,0,0:0:0:0:
192,192,269257,1,0,0:0:0:0:
320,192,269354,128,0,269451:0:0:0:0:
448,192,269354,128,0,269451:0:0:0:0:
64,192,269451,1,0,0:0:0:0:
192,192,269548,1,0,0:0:0:0:
320,192,269612,1,0,0:0:0:0:
64,192,269677,1,0,0:0:0:0:
320,192,269741,1,0,0:0:0:0:
448,192,269741,1,0,0:0:0:0:
192,192,269806,1,0,0:0:0:0:
320,192,269838,1,0,0:0:0:0:
448,192,269838,1,0,0:0:0:0:
64,192,269870,1,0,0:0:0:0:
192,192,269935,1,0,0:0:0:0:
448,192,269935,128,0,269999:0:0:0:0:
320,192,269935,128,0,270031:0:0:0:0:
64,192,269999,1,0,0:0:0:0:
448,192,270064,1,0,0:0:0:0:
192,192,270128,1,0,0:0:0:0:
320,192,270193,1,0,0:0:0:0:
64,192,270257,1,0,0:0:0:0:
448,192,270322,1,0,0:0:0:0:
320,192,270386,1,0,0:0:0:0:
192,192,270451,1,0,0:0:0:0:
448,192,270515,1,0,0:0:0:0:
64,192,270580,1,0,0:0:0:0:
192,192,270644,1,0,0:0:0:0:
320,192,270709,128,0,270773:0:0:0:0:
448,192,270709,128,0,270805:0:0:0:0:
64,192,270773,1,0,0:0:0:0:
320,192,270837,1,0,0:0:0:0:
192,192,270901,1,0,0:0:0:0:
64,192,270965,1,0,0:0:0:0:
320,192,270997,128,0,271093:0:0:0:0:
448,192,270997,128,0,271093:0:0:0:0:
192,192,271029,1,0,0:0:0:0:
64,192,271093,1,0,0:0:0:0:
448,192,271157,1,0,0:0:0:0:
192,192,271221,1,0,0:0:0:0:
320,192,271285,1,0,0:0:0:0:
448,192,271285,1,0,0:0:0:0:
64,192,271350,1,0,0:0:0:0:
320,192,271382,1,0,0:0:0:0:
448,192,271382,1,0,0:0:0:0:
192,192,271414,1,0,0:0:0:0:
64,192,271478,1,0,0:0:0:0:
320,192,271478,128,0,271542:0:0:0:0:
448,192,271478,128,0,271574:0:0:0:0:
192,192,271542,1,0,0:0:0:0:
320,192,271606,1,0,0:0:0:0:
64,192,271670,1,0,0:0:0:0:
448,192,271734,1,0,0:0:0:0:
192,192,271798,1,0,0:0:0:0:
320,192,271862,1,0,0:0:0:0:
448,192,271926,1,0,0:0:0:0:
192,192,271991,1,0,0:0:0:0:
64,192,272055,1,0,0:0:0:0:
320,192,272119,1,0,0:0:0:0:
64,192,272151,1,0,0:0:0:0:
448,192,272183,1,0,0:0:0:0:
192,192,272247,128,0,272342:0:0:0:0:
64,192,272247,128,0,272342:0:0:0:0:
320,192,272310,1,0,0:0:0:0:
448,192,272374,1,0,0:0:0:0:
192,192,272438,128,0,272533:0:0:0:0:
64,192,272438,128,0,272533:0:0:0:0:
320,192,272501,1,0,0:0:0:0:
448,192,272565,1,0,0:0:0:0:
64,192,272629,1,0,0:0:0:0:
192,192,272692,1,0,0:0:0:0:
320,192,272756,1,0,0:0:0:0:
192,192,272820,1,0,0:0:0:0:
64,192,272820,1,0,0:0:0:0:
448,192,272883,1,0,0:0:0:0:
64,192,272915,1,0,0:0:0:0:
192,192,272915,1,0,0:0:0:0:
320,192,272947,1,0,0:0:0:0:
448,192,273011,1,0,0:0:0:0:
64,192,273011,128,0,273075:0:0:0:0:
192,192,273011,128,0,273106:0:0:0:0:
320,192,273075,1,0,0:0:0:0:
64,192,273138,1,0,0:0:0:0:
448,192,273202,1,0,0:0:0:0:
192,192,273266,1,0,0:0:0:0:
320,192,273329,1,0,0:0:0:0:
64,192,273393,1,0,0:0:0:0:
192,192,273457,1,0,0:0:0:0:
448,192,273520,1,0,0:0:0:0:
64,192,273584,1,0,0:0:0:0:
320,192,273648,1,0,0:0:0:0:
192,192,273711,1,0,0:0:0:0:
64,192,273776,1,0,0:0:0:0:
448,192,273776,1,0,0:0:0:0:
192,192,273839,1,0,0:0:0:0:
320,192,273839,1,0,0:0:0:0:
448,192,273902,1,0,0:0:0:0:
64,192,273965,1,0,0:0:0:0:
320,192,274029,1,0,0:0:0:0:
64,192,274092,1,0,0:0:0:0:
192,192,274155,1,0,0:0:0:0:
448,192,274155,1,0,0:0:0:0:
320,192,274219,1,0,0:0:0:0:
192,192,274282,1,0,0:0:0:0:
64,192,274345,1,0,0:0:0:0:
320,192,274345,1,0,0:0:0:0:
448,192,274408,1,0,0:0:0:0:
64,192,274472,1,0,0:0:0:0:
320,192,274536,128,0,274661:0:0:0:0:
192,192,274536,128,0,274598:0:0:0:0:
448,192,274598,128,0,274724:0:0:0:0:
192,192,274661,128,0,274819:0:0:0:0:
64,192,274724,128,0,274850:0:0:0:0:
320,192,274724,128,0,274787:0:0:0:0:
448,192,274787,128,0,274913:0:0:0:0:
320,192,274850,128,0,275039:0:0:0:0:
64,192,274913,128,0,275039:0:0:0:0:
192,192,274913,128,0,274976:0:0:0:0:
448,192,274976,128,0,275102:0:0:0:0:
192,192,275039,128,0,275164:0:0:0:0:
320,192,275102,128,0,275227:0:0:0:0:
64,192,275102,128,0,275227:0:0:0:0:
448,192,275164,128,0,275227:0:0:0:0:
192,192,275227,128,0,275290:0:0:0:0:
64,192,275290,5,0,0:0:0:0:
320,192,275290,128,0,275383:0:0:0:0:
448,192,275290,128,0,275571:0:0:0:0:
64,192,275383,128,0,275477:0:0:0:0:
320,192,275477,128,0,275665:0:0:0:0:
64,192,275571,128,0,275665:0:0:0:0:
448,192,275665,1,0,0:0:0:0:
192,192,275665,128,0,275758:0:0:0:0:
448,192,275758,128,0,275852:0:0:0:0:
320,192,275852,1,0,0:0:0:0:
192,192,275852,128,0,275946:0:0:0:0:
64,192,275946,1,0,0:0:0:0:
320,192,275946,128,0,276040:0:0:0:0:
448,192,276040,1,0,0:0:0:0:
192,192,276040,128,0,276130:0:0:0:0:
64,192,276040,128,0,276312:0:0:0:0:
448,192,276130,128,0,276221:0:0:0:0:
192,192,276221,128,0,276403:0:0:0:0:
448,192,276312,128,0,276403:0:0:0:0:
64,192,276403,1,0,0:0:0:0:
320,192,276403,128,0,276585:0:0:0:0:
64,192,276494,128,0,276585:0:0:0:0:
448,192,276585,128,0,276676:0:0:0:0:
64,192,276676,128,0,276767:0:0:0:0:
192,192,276768,1,0,0:0:0:0:
320,192,276768,128,0,277032:0:0:0:0:
448,192,276768,128,0,276856:0:0:0:0:
192,192,276856,128,0,276944:0:0:0:0:
448,192,276944,128,0,277120:0:0:0:0:
192,192,277032,128,0,277120:0:0:0:0:
320,192,277120,1,0,0:0:0:0:
64,192,277120,128,0,277209:0:0:0:0:
320,192,277209,128,0,277297:0:0:0:0:
448,192,277297,1,0,0:0:0:0:
64,192,277297,128,0,277385:0:0:0:0:
192,192,277385,1,0,0:0:0:0:
448,192,277385,128,0,277473:0:0:0:0:
320,192,277473,1,0,0:0:0:0:
64,192,277473,128,0,277644:0:0:0:0:
192,192,277473,128,0,277558:0:0:0:0:
320,192,277558,128,0,277644:0:0:0:0:
192,192,277644,128,0,277815:0:0:0:0:
448,192,277730,1,0,0:0:0:0:
64,192,277730,128,0,277815:0:0:0:0:
320,192,277730,128,0,277901:0:0:0:0:
448,192,277815,128,0,277901:0:0:0:0:
64,192,277901,128,0,277987:0:0:0:0:
192,192,277987,1,0,0:0:0:0:
320,192,277987,128,0,278073:0:0:0:0:
448,192,277987,128,0,278073:0:0:0:0:
192,192,278073,128,0,278159:0:0:0:0:
64,192,278159,1,0,0:0:0:0:
320,192,278159,128,0,278242:0:0:0:0:
448,192,278159,128,0,278409:0:0:0:0:
64,192,278242,128,0,278325:0:0:0:0:
320,192,278325,1,0,0:0:0:0:
192,192,278325,128,0,278409:0:0:0:0:
320,192,278409,128,0,278492:0:0:0:0:
64,192,278409,1,0,0:0:0:0:
448,192,278492,1,0,0:0:0:0:
192,192,278492,128,0,278659:0:0:0:0:
448,192,278575,128,0,278659:0:0:0:0:
320,192,278659,1,0,0:0:0:0:
64,192,278659,128,0,278742:0:0:0:0:
192,192,278742,1,0,0:0:0:0:
320,192,278742,128,0,278826:0:0:0:0:
448,192,278826,1,0,0:0:0:0:
192,192,278826,128,0,279062:0:0:0:0:
64,192,278826,128,0,278904:0:0:0:0:
448,192,278904,128,0,278983:0:0:0:0:
64,192,278983,1,0,0:0:0:0:
320,192,278983,128,0,279062:0:0:0:0:
448,192,279062,1,0,0:0:0:0:
64,192,279062,128,0,279141:0:0:0:0:
192,192,279141,1,0,0:0:0:0:
320,192,279141,128,0,279299:0:0:0:0:
192,192,279220,1,0,0:0:0:0:
448,192,279299,1,0,0:0:0:0:
64,192,279299,128,0,279457:0:0:0:0:
448,192,279378,1,0,0:0:0:0:
192,192,279457,1,0,0:0:0:0:
320,192,279457,128,0,279607:0:0:0:0:
448,192,279457,128,0,279532:0:0:0:0:
64,192,279532,128,0,279607:0:0:0:0:
448,192,279607,128,0,279682:0:0:0:0:
192,192,279607,1,0,0:0:0:0:
192,192,279682,128,0,279757:0:0:0:0:
320,192,279682,1,0,0:0:0:0:
64,192,279757,1,0,0:0:0:0:
448,192,279757,128,0,279907:0:0:0:0:
64,192,279832,128,0,279907:0:0:0:0:
192,192,279907,1,0,0:0:0:0:
320,192,279907,128,0,279982:0:0:0:0:
448,192,279982,128,0,280057:0:0:0:0:
320,192,280057,1,0,0:0:0:0:
192,192,280057,128,0,280128:0:0:0:0:
64,192,280057,128,0,280199:0:0:0:0:
320,192,280128,128,0,280199:0:0:0:0:
192,192,280199,1,0,0:0:0:0:
64,192,280271,1,0,0:0:0:0:
320,192,280271,128,0,280342:0:0:0:0:
448,192,280271,128,0,280414:0:0:0:0:
64,192,280342,128,0,280414:0:0:0:0:
320,192,280414,1,0,0:0:0:0:
192,192,280485,1,0,0:0:0:0:
448,192,280485,128,0,280557:0:0:0:0:
64,192,280485,128,0,280557:0:0:0:0:
192,192,280557,128,0,280629:0:0:0:0:
64,192,280629,128,0,280765:0:0:0:0:
320,192,280629,128,0,280697:0:0:0:0:
448,192,280629,128,0,280697:0:0:0:0:
192,192,280697,128,0,280833:0:0:0:0:
320,192,280765,128,0,280833:0:0:0:0:
448,192,280765,128,0,280901:0:0:0:0:
64,192,280833,128,0,280901:0:0:0:0:
192,192,280901,128,0,281038:0:0:0:0:
320,192,280901,128,0,280969:0:0:0:0:
448,192,280969,128,0,281038:0:0:0:0:
320,192,281038,128,0,281106:0:0:0:0:
64,192,281038,128,0,281106:0:0:0:0:
448,192,281106,128,0,281174:0:0:0:0:
192,192,281106,128,0,281174:0:0:0:0:
320,192,281174,128,0,281307:0:0:0:0:
64,192,281174,128,0,281374:0:0:0:0:
192,192,281240,128,0,281307:0:0:0:0:
448,192,281307,128,0,281374:0:0:0:0:
192,192,281374,128,0,281440:0:0:0:0:
320,192,281440,128,0,281507:0:0:0:0:
448,192,281440,128,0,281574:0:0:0:0:
64,192,281507,128,0,281574:0:0:0:0:
320,192,281574,128,0,281640:0:0:0:0:
192,192,281574,128,0,281640:0:0:0:0:
448,192,281640,128,0,281707:0:0:0:0:
64,192,281708,128,0,281773:0:0:0:0:
192,192,281708,128,0,281773:0:0:0:0:
320,192,281708,128,0,281838:0:0:0:0:
448,192,281773,128,0,281903:0:0:0:0:
192,192,281838,128,0,281968:0:0:0:0:
64,192,281838,128,0,281903:0:0:0:0:
320,192,281903,128,0,281968:0:0:0:0:
448,192,281968,128,0,282099:0:0:0:0:
64,192,281968,128,0,282034:0:0:0:0:
192,192,282034,128,0,282099:0:0:0:0:
64,192,282099,128,0,282164:0:0:0:0:
320,192,282099,128,0,282164:0:0:0:0:
192,192,282164,128,0,282229:0:0:0:0:
448,192,282164,128,0,282229:0:0:0:0:
320,192,282229,128,0,282420:0:0:0:0:
64,192,282229,128,0,282356:0:0:0:0:
448,192,282292,128,0,282356:0:0:0:0:
192,192,282356,128,0,282420:0:0:0:0:
448,192,282420,128,0,282484:0:0:0:0:
192,192,282484,128,0,282611:0:0:0:0:
64,192,282484,128,0,282548:0:0:0:0:
320,192,282548,128,0,282611:0:0:0:0:
448,192,282611,128,0,282675:0:0:0:0:
64,192,282611,128,0,282675:0:0:0:0:
192,192,282675,128,0,282740:0:0:0:0:
64,192,282740,128,0,282865:0:0:0:0:
320,192,282740,128,0,282802:0:0:0:0:
448,192,282740,128,0,282802:0:0:0:0:
192,192,282802,128,0,282865:0:0:0:0:
320,192,282865,128,0,282927:0:0:0:0:
448,192,282865,128,0,282927:0:0:0:0:
192,192,282927,128,0,282990:0:0:0:0:
64,192,282927,128,0,282990:0:0:0:0:
320,192,282990,128,0,283052:0:0:0:0:
448,192,282990,128,0,283115:0:0:0:0:
64,192,283052,128,0,283115:0:0:0:0:
192,192,283115,128,0,283177:0:0:0:0:
320,192,283115,128,0,283177:0:0:0:0:
448,192,283177,128,0,283240:0:0:0:0:
64,192,283177,128,0,283240:0:0:0:0:
192,192,283240,128,0,283301:0:0:0:0:
320,192,283240,128,0,283362:0:0:0:0:
448,192,283301,128,0,283362:0:0:0:0:
192,192,283362,128,0,283423:0:0:0:0:
64,192,283362,128,0,283423:0:0:0:0:
320,192,283423,128,0,283484:0:0:0:0:
448,192,283423,128,0,283484:0:0:0:0:
192,192,283484,128,0,283607:0:0:0:0:
64,192,283484,128,0,283546:0:0:0:0:
320,192,283546,128,0,283607:0:0:0:0:
64,192,283607,128,0,283668:0:0:0:0:
448,192,283607,128,0,283668:0:0:0:0:
320,192,283668,128,0,283730:0:0:0:0:
192,192,283668,128,0,283730:0:0:0:0:
64,192,283730,128,0,283850:0:0:0:0:
448,192,283730,128,0,283790:0:0:0:0:
192,192,283790,128,0,283850:0:0:0:0:
320,192,283850,128,0,283910:0:0:0:0:
448,192,283850,128,0,283970:0:0:0:0:
192,192,283910,128,0,283970:0:0:0:0:
64,192,283970,128,0,284090:0:0:0:0:
320,192,283970,128,0,284030:0:0:0:0:
448,192,284030,128,0,284090:0:0:0:0:
320,192,284090,128,0,284210:0:0:0:0:
192,192,284090,128,0,284150:0:0:0:0:
448,192,284150,128,0,284210:0:0:0:0:
192,192,284210,128,0,284330:0:0:0:0:
64,192,284210,128,0,284270:0:0:0:0:
320,192,284270,128,0,284330:0:0:0:0:
64,192,284330,128,0,284390:0:0:0:0:
448,192,284330,128,0,284450:0:0:0:0:
320,192,284390,128,0,284450:0:0:0:0:
192,192,284450,128,0,284510:0:0:0:0:
64,192,284450,128,0,284570:0:0:0:0:
448,192,284510,128,0,284570:0:0:0:0:
320,192,284570,128,0,284630:0:0:0:0:
192,192,284570,128,0,284630:0:0:0:0:
64,192,284630,128,0,284690:0:0:0:0:
448,192,284690,128,0,284750:0:0:0:0:
320,192,284690,128,0,284810:0:0:0:0:
192,192,284690,128,0,284810:0:0:0:0:
64,192,284750,128,0,284810:0:0:0:0:
448,192,284810,128,0,284870:0:0:0:0:
320,192,284870,128,0,284930:0:0:0:0:
192,192,284870,128,0,284990:0:0:0:0:
64,192,284930,128,0,285050:0:0:0:0:
320,192,284990,128,0,285050:0:0:0:0:
448,192,285050,128,0,285170:0:0:0:0:
192,192,285050,128,0,285110:0:0:0:0:
64,192,285110,128,0,285230:0:0:0:0:
192,192,285170,128,0,285230:0:0:0:0:
448,192,285230,128,0,285290:0:0:0:0:
320,192,285230,128,0,285350:0:0:0:0:
64,192,285290,128,0,285410:0:0:0:0:
448,192,285350,128,0,285410:0:0:0:0:
320,192,285410,128,0,285470:0:0:0:0:
192,192,285410,128,0,285530:0:0:0:0:
64,192,285470,128,0,285530:0:0:0:0:
320,192,285530,128,0,285590:0:0:0:0:
448,192,285530,128,0,285590:0:0:0:0:
192,192,285590,128,0,285650:0:0:0:0:
64,192,285650,128,0,285830:0:0:0:0:
320,192,285650,128,0,285770:0:0:0:0:
448,192,285650,128,0,285710:0:0:0:0:
192,192,285710,128,0,285770:0:0:0:0:
448,192,285770,128,0,285890:0:0:0:0:
192,192,285830,128,0,285890:0:0:0:0:
64,192,285890,128,0,285950:0:0:0:0:
320,192,285890,128,0,286010:0:0:0:0:
448,192,285950,128,0,286010:0:0:0:0:
192,192,286010,128,0,286070:0:0:0:0:
64,192,286010,128,0,286070:0:0:0:0:
320,192,286070,128,0,286130:0:0:0:0:
448,192,286070,128,0,286190:0:0:0:0:
192,192,286130,128,0,286190:0:0:0:0:
64,192,286130,128,0,286250:0:0:0:0:
320,192,286190,128,0,286250:0:0:0:0:
192,192,286250,128,0,286370:0:0:0:0:
320,192,286310,128,0,286370:0:0:0:0:
64,192,286370,128,0,286490:0:0:0:0:
448,192,286370,128,0,286430:0:0:0:0:
192,192,286430,128,0,286490:0:0:0:0:
320,192,286490,128,0,286550:0:0:0:0:
448,192,286490,128,0,286550:0:0:0:0:
192,192,286550,128,0,286610:0:0:0:0:
320,192,286610,128,0,286730:0:0:0:0:
64,192,286610,128,0,286730:0:0:0:0:
448,192,286610,128,0,286670:0:0:0:0:
64,192,286790,128,0,286850:0:0:0:0:
192,192,286790,128,0,286910:0:0:0:0:
320,192,286790,128,0,286910:0:0:0:0:
192,192,286970,128,0,287090:0:0:0:0:
320,192,286970,128,0,287030:0:0:0:0:
448,192,286970,128,0,287090:0:0:0:0:
192,192,287150,128,0,287210:0:0:0:0:
64,192,287150,128,0,287270:0:0:0:0:
448,192,287150,128,0,287270:0:0:0:0:
320,192,287330,128,0,287450:0:0:0:0:
448,192,287330,128,0,287450:0:0:0:0:
64,192,287330,128,0,287390:0:0:0:0:
192,192,287450,128,0,287510:0:0:0:0:
64,192,287450,128,0,287510:0:0:0:0:
320,192,287510,128,0,287570:0:0:0:0:
448,192,287570,128,0,287750:0:0:0:0:
192,192,287570,128,0,287690:0:0:0:0:
64,192,287570,128,0,287630:0:0:0:0:
320,192,287630,128,0,287690:0:0:0:0:
64,192,287690,128,0,287810:0:0:0:0:
320,192,287750,128,0,287810:0:0:0:0:
448,192,287810,128,0,287870:0:0:0:0:
192,192,287810,128,0,287930:0:0:0:0:
64,192,287870,128,0,287930:0:0:0:0:
320,192,287930,128,0,287990:0:0:0:0:
448,192,287930,128,0,287990:0:0:0:0:
192,192,287990,128,0,288050:0:0:0:0:
64,192,287990,128,0,288110:0:0:0:0:
320,192,288050,128,0,288110:0:0:0:0:
448,192,288050,128,0,288170:0:0:0:0:
192,192,288110,128,0,288170:0:0:0:0:
320,192,288170,128,0,288290:0:0:0:0:
192,192,288230,128,0,288290:0:0:0:0:
448,192,288290,128,0,288410:0:0:0:0:
64,192,288290,128,0,288350:0:0:0:0:
320,192,288350,128,0,288410:0:0:0:0:
192,192,288410,128,0,288470:0:0:0:0:
64,192,288410,128,0,288470:0:0:0:0:
320,192,288470,128,0,288530:0:0:0:0:
192,192,288530,128,0,288650:0:0:0:0:
448,192,288530,128,0,288650:0:0:0:0:
64,192,288530,128,0,288590:0:0:0:0:
448,192,288710,128,0,288770:0:0:0:0:
320,192,288710,128,0,288830:0:0:0:0:
192,192,288710,128,0,288830:0:0:0:0:
320,192,288890,128,0,289010:0:0:0:0:
192,192,288890,128,0,288950:0:0:0:0:
64,192,288890,128,0,289010:0:0:0:0:
320,192,289070,128,0,289130:0:0:0:0:
448,192,289070,128,0,289190:0:0:0:0:
64,192,289070,128,0,289190:0:0:0:0:
192,192,289250,128,0,289370:0:0:0:0:
64,192,289250,128,0,289370:0:0:0:0:
448,192,289250,128,0,289310:0:0:0:0:
320,192,289370,128,0,289430:0:0:0:0:
448,192,289370,128,0,289430:0:0:0:0:
192,192,289430,128,0,289490:0:0:0:0:
320,192,289490,128,0,289550:0:0:0:0:
64,192,289490,128,0,289570:0:0:0:0:
448,192,289530,128,0,289610:0:0:0:0:
192,192,289570,128,0,289650:0:0:0:0:
320,192,289610,128,0,289690:0:0:0:0:
64,192,289650,128,0,289710:0:0:0:0:
448,192,289690,128,0,289830:0:0:0:0:
192,192,289730,128,0,289790:0:0:0:0:
64,192,289770,128,0,289910:0:0:0:0:
320,192,289810,128,0,289870:0:0:0:0:
192,192,289850,128,0,289950:0:0:0:0:
448,192,289890,128,0,289990:0:0:0:0:
320,192,289930,128,0,290070:0:0:0:0:
64,192,289970,128,0,290030:0:0:0:0:
192,192,290010,128,0,290110:0:0:0:0:
448,192,290050,128,0,290150:0:0:0:0:
64,192,290090,128,0,290258:0:0:0:0:
320,192,290130,128,0,290210:0:0:0:0:
192,192,290170,128,0,290354:0:0:0:0:
448,192,290210,128,0,290306:0:0:0:0:
320,192,290258,128,0,290402:0:0:0:0:
64,192,290306,128,0,290498:0:0:0:0:
448,192,290354,128,0,290450:0:0:0:0:
192,192,290402,128,0,290594:0:0:0:0:
320,192,290450,128,0,290546:0:0:0:0:
448,192,290498,128,0,290642:0:0:0:0:
64,192,290546,128,0,290710:0:0:0:0:
320,192,290594,128,0,290770:0:0:0:0:
192,192,290642,128,0,290950:0:0:0:0:
448,192,290690,128,0,290830:0:0:0:0:
64,192,290750,128,0,291010:0:0:0:0:
320,192,290810,128,0,290890:0:0:0:0:
448,192,290870,128,0,291070:0:0:0:0:
320,192,290930,128,0,291190:0:0:0:0:
192,192,290990,128,0,291130:0:0:0:0:
64,192,291050,128,0,291250:0:0:0:0:
448,192,291110,128,0,291370:0:0:0:0:
192,192,291170,128,0,291310:0:0:0:0:
320,192,291230,128,0,291410:0:0:0:0:
64,192,291290,128,0,291370:0:0:0:0:
192,192,291350,128,0,291410:0:0:0:0:
64,192,291410,128,0,291890:0:0:0:0:
448,192,291410,128,0,291890:0:0:0:0:
192,192,291890,1,0,0:0:0:0:
448,192,291930,1,0,0:0:0:0:
64,192,291970,1,0,0:0:0:0:
320,192,292010,1,0,0:0:0:0:
192,192,292050,1,0,0:0:0:0:
64,192,292090,1,0,0:0:0:0:
448,192,292130,1,0,0:0:0:0:
320,192,292130,1,0,0:0:0:0:
448,192,292190,1,0,0:0:0:0:
192,192,292250,1,0,0:0:0:0:
64,192,292250,1,0,0:0:0:0:
320,192,292310,1,0,0:0:0:0:
192,192,292370,1,0,0:0:0:0:
448,192,292370,1,0,0:0:0:0:
64,192,292430,1,0,0:0:0:0:
320,192,292490,1,0,0:0:0:0:
448,192,292490,1,0,0:0:0:0:
64,192,292550,1,0,0:0:0:0:
192,192,292610,1,0,0:0:0:0:
320,192,292610,1,0,0:0:0:0:
448,192,292670,1,0,0:0:0:0:
320,192,292730,1,0,0:0:0:0:
64,192,292730,1,0,0:0:0:0:
448,192,292790,1,0,0:0:0:0:
192,192,292850,1,0,0:0:0:0:
192,192,292910,1,0,0:0:0:0:
320,192,292970,1,0,0:0:0:0:
320,192,293030,1,0,0:0:0:0:
64,192,293090,128,0,293270:0:0:0:0:
192,192,293150,128,0,293270:0:0:0:0:
448,192,293210,128,0,293270:0:0:0:0:
320,192,293270,128,0,293330:0:0:0:0:
192,192,293330,128,0,293390:0:0:0:0:
64,192,293330,128,0,293450:0:0:0:0:
448,192,293330,128,0,293450:0:0:0:0:
320,192,293390,128,0,293510:0:0:0:0:
192,192,293450,128,0,293570:0:0:0:0:
64,192,293510,128,0,293570:0:0:0:0:
320,192,293570,128,0,293630:0:0:0:0:
448,192,293570,128,0,293690:0:0:0:0:
192,192,293630,128,0,293690:0:0:0:0:
320,192,293690,128,0,293750:0:0:0:0:
64,192,293690,128,0,293750:0:0:0:0:
448,192,293750,128,0,293810:0:0:0:0:
64,192,293810,128,0,293990:0:0:0:0:
320,192,293810,128,0,293930:0:0:0:0:
192,192,293870,128,0,293990:0:0:0:0:
448,192,293930,128,0,294050:0:0:0:0:
320,192,293990,128,0,294050:0:0:0:0:
192,192,294050,128,0,294110:0:0:0:0:
64,192,294050,128,0,294230:0:0:0:0:
448,192,294110,128,0,294230:0:0:0:0:
192,192,294170,128,0,294290:0:0:0:0:
320,192,294230,128,0,294290:0:0:0:0:
448,192,294290,128,0,294350:0:0:0:0:
64,192,294290,128,0,294410:0:0:0:0:
192,192,294350,128,0,294470:0:0:0:0:
448,192,294410,128,0,294530:0:0:0:0:
320,192,294470,128,0,294530:0:0:0:0:
192,192,294530,128,0,294590:0:0:0:0:
64,192,294530,128,0,294650:0:0:0:0:
448,192,294590,128,0,294650:0:0:0:0:
192,192,294650,128,0,294710:0:0:0:0:
320,192,294650,128,0,294710:0:0:0:0:
64,192,294710,128,0,294770:0:0:0:0:
320,192,294770,128,0,294950:0:0:0:0:
192,192,294770,128,0,294890:0:0:0:0:
448,192,294830,128,0,294950:0:0:0:0:
64,192,294890,128,0,295010:0:0:0:0:
192,192,294950,128,0,295010:0:0:0:0:
448,192,295010,128,0,295070:0:0:0:0:
320,192,295010,128,0,295190:0:0:0:0:
64,192,295070,128,0,295190:0:0:0:0:
448,192,295130,128,0,295250:0:0:0:0:
192,192,295190,128,0,295250:0:0:0:0:
320,192,295250,128,0,295370:0:0:0:0:
64,192,295250,128,0,295370:0:0:0:0:
448,192,295310,128,0,295490:0:0:0:0:
192,192,295370,128,0,295430:0:0:0:0:
64,192,295430,128,0,295550:0:0:0:0:
192,192,295490,128,0,295670:0:0:0:0:
320,192,295490,128,0,295610:0:0:0:0:
448,192,295550,128,0,295670:0:0:0:0:
64,192,295610,128,0,295670:0:0:0:0:
320,192,295670,128,0,295790:0:0:0:0:
64,192,295730,128,0,295910:0:0:0:0:
448,192,295730,128,0,295850:0:0:0:0:
192,192,295790,128,0,295970:0:0:0:0:
320,192,295850,128,0,295910:0:0:0:0:
448,192,295910,128,0,296030:0:0:0:0:
320,192,295970,128,0,296150:0:0:0:0:
64,192,295970,128,0,296090:0:0:0:0:
192,192,296030,128,0,296150:0:0:0:0:
448,192,296090,128,0,296150:0:0:0:0:
64,192,296150,128,0,296270:0:0:0:0:
448,192,296210,128,0,296390:0:0:0:0:
192,192,296210,128,0,296270:0:0:0:0:
320,192,296270,128,0,296330:0:0:0:0:
192,192,296330,128,0,296450:0:0:0:0:
64,192,296330,128,0,296390:0:0:0:0:
320,192,296390,128,0,296510:0:0:0:0:
448,192,296450,128,0,296570:0:0:0:0:
64,192,296450,128,0,296510:0:0:0:0:
192,192,296510,128,0,296570:0:0:0:0:
320,192,296570,128,0,296630:0:0:0:0:
64,192,296570,128,0,296690:0:0:0:0:
448,192,296630,128,0,296750:0:0:0:0:
192,192,296690,128,0,296810:0:0:0:0:
320,192,296690,128,0,296750:0:0:0:0:
64,192,296750,128,0,296810:0:0:0:0:
448,192,296810,128,0,296870:0:0:0:0:
320,192,296810,128,0,296930:0:0:0:0:
64,192,296870,128,0,296930:0:0:0:0:
192,192,296930,128,0,297050:0:0:0:0:
448,192,296930,128,0,296990:0:0:0:0:
320,192,296990,128,0,297050:0:0:0:0:
448,192,297050,128,0,297110:0:0:0:0:
64,192,297050,128,0,297110:0:0:0:0:
192,192,297110,128,0,297170:0:0:0:0:
320,192,297170,128,0,297230:0:0:0:0:
448,192,297170,128,0,297290:0:0:0:0:
64,192,297170,128,0,297290:0:0:0:0:
192,192,297230,128,0,297350:0:0:0:0:
320,192,297290,128,0,297410:0:0:0:0:
448,192,297350,128,0,297410:0:0:0:0:
192,192,297410,128,0,297470:0:0:0:0:
64,192,297410,128,0,297530:0:0:0:0:
320,192,297470,128,0,297530:0:0:0:0:
192,192,297530,128,0,297590:0:0:0:0:
448,192,297530,128,0,297590:0:0:0:0:
64,192,297590,128,0,297650:0:0:0:0:
448,192,297650,128,0,297830:0:0:0:0:
192,192,297650,128,0,297770:0:0:0:0:
320,192,297710,128,0,297830:0:0:0:0:
64,192,297770,128,0,297890:0:0:0:0:
192,192,297830,128,0,297890:0:0:0:0:
320,192,297890,128,0,297950:0:0:0:0:
448,192,297890,128,0,298070:0:0:0:0:
64,192,297950,128,0,298070:0:0:0:0:
320,192,298010,128,0,298130:0:0:0:0:
192,192,298070,128,0,298130:0:0:0:0:
64,192,298130,128,0,298190:0:0:0:0:
448,192,298130,128,0,298250:0:0:0:0:
320,192,298190,128,0,298310:0:0:0:0:
64,192,298250,128,0,298370:0:0:0:0:
192,192,298310,128,0,298370:0:0:0:0:
320,192,298370,128,0,298430:0:0:0:0:
448,192,298370,128,0,298490:0:0:0:0:
64,192,298430,128,0,298490:0:0:0:0:
320,192,298490,128,0,298550:0:0:0:0:
192,192,298490,128,0,298610:0:0:0:0:
448,192,298550,128,0,298610:0:0:0:0:
64,192,298610,128,0,298790:0:0:0:0:
320,192,298610,128,0,298730:0:0:0:0:
192,192,298670,128,0,298790:0:0:0:0:
448,192,298730,128,0,298850:0:0:0:0:
320,192,298790,128,0,298850:0:0:0:0:
64,192,298850,128,0,298910:0:0:0:0:
192,192,298850,128,0,299030:0:0:0:0:
448,192,298910,128,0,299030:0:0:0:0:
64,192,298970,128,0,299090:0:0:0:0:
320,192,299030,128,0,299090:0:0:0:0:
192,192,299090,128,0,299210:0:0:0:0:
448,192,299090,128,0,299210:0:0:0:0:
64,192,299150,128,0,299330:0:0:0:0:
320,192,299210,128,0,299270:0:0:0:0:
448,192,299270,128,0,299390:0:0:0:0:
320,192,299330,128,0,299510:0:0:0:0:
192,192,299330,128,0,299450:0:0:0:0:
64,192,299390,128,0,299510:0:0:0:0:
448,192,299450,128,0,299510:0:0:0:0:
192,192,299510,128,0,299630:0:0:0:0:
448,192,299570,128,0,299630:0:0:0:0:
64,192,299570,128,0,299690:0:0:0:0:
320,192,299630,128,0,299750:0:0:0:0:
192,192,299690,128,0,299750:0:0:0:0:
448,192,299690,128,0,299810:0:0:0:0:
64,192,299750,128,0,299870:0:0:0:0:
192,192,299810,128,0,299990:0:0:0:0:
320,192,299810,128,0,299870:0:0:0:0:
448,192,299870,128,0,299930:0:0:0:0:
64,192,299930,128,0,299990:0:0:0:0:
320,192,299930,128,0,300050:0:0:0:0:
448,192,299990,128,0,300050:0:0:0:0:
64,192,300050,128,0,300170:0:0:0:0:
192,192,300050,128,0,300110:0:0:0:0:
320,192,300110,128,0,300170:0:0:0:0:
448,192,300170,128,0,300230:0:0:0:0:
192,192,300210,128,0,300270:0:0:0:0:
320,192,300250,128,0,300310:0:0:0:0:
64,192,300290,128,0,300410:0:0:0:0:
448,192,300290,128,0,300350:0:0:0:0:
192,192,300350,128,0,300410:0:0:0:0:
448,192,300410,128,0,300530:0:0:0:0:
320,192,300410,128,0,300470:0:0:0:0:
192,192,300470,128,0,300530:0:0:0:0:
64,192,300530,128,0,300590:0:0:0:0:
320,192,300570,128,0,300630:0:0:0:0:
192,192,300610,128,0,300670:0:0:0:0:
448,192,300650,128,0,300770:0:0:0:0:
64,192,300650,128,0,300710:0:0:0:0:
320,192,300710,128,0,300770:0:0:0:0:
192,192,300770,128,0,300830:0:0:0:0:
64,192,300770,128,0,300890:0:0:0:0:
320,192,300830,128,0,300890:0:0:0:0:
448,192,300890,128,0,300950:0:0:0:0:
192,192,300890,128,0,300950:0:0:0:0:
64,192,300950,128,0,301010:0:0:0:0:
320,192,301010,128,0,301070:0:0:0:0:
448,192,301010,128,0,301130:0:0:0:0:
192,192,301010,128,0,301130:0:0:0:0:
64,192,301070,128,0,301190:0:0:0:0:
320,192,301130,128,0,301250:0:0:0:0:
448,192,301190,128,0,301250:0:0:0:0:
64,192,301250,128,0,301310:0:0:0:0:
192,192,301250,128,0,301370:0:0:0:0:
320,192,301310,128,0,301370:0:0:0:0:
64,192,301370,128,0,301430:0:0:0:0:
448,192,301370,128,0,301430:0:0:0:0:
192,192,301430,128,0,301490:0:0:0:0:
448,192,301490,128,0,301670:0:0:0:0:
64,192,301490,128,0,301610:0:0:0:0:
320,192,301550,128,0,301670:0:0:0:0:
192,192,301610,128,0,301730:0:0:0:0:
64,192,301670,128,0,301730:0:0:0:0:
320,192,301730,128,0,301790:0:0:0:0:
448,192,301730,128,0,301910:0:0:0:0:
192,192,301790,128,0,301910:0:0:0:0:
320,192,301850,128,0,301970:0:0:0:0:
64,192,301910,128,0,301970:0:0:0:0:
192,192,301970,128,0,302030:0:0:0:0:
448,192,301970,128,0,302090:0:0:0:0:
320,192,302030,128,0,302150:0:0:0:0:
192,192,302090,128,0,302210:0:0:0:0:
64,192,302150,128,0,302210:0:0:0:0:
320,192,302210,128,0,302270:0:0:0:0:
448,192,302210,128,0,302330:0:0:0:0:
192,192,302270,128,0,302330:0:0:0:0:
320,192,302330,128,0,302390:0:0:0:0:
64,192,302330,128,0,302390:0:0:0:0:
448,192,302390,128,0,302450:0:0:0:0:
320,192,302450,128,0,302570:0:0:0:0:
64,192,302450,128,0,302540:0:0:0:0:
192,192,302510,128,0,302555:0:0:0:0:
448,192,302570,1,0,0:0:0:0:
64,192,302600,1,0,0:0:0:0:
320,192,302630,1,0,0:0:0:0:
192,192,302660,1,0,0:0:0:0:
448,192,302690,128,0,302750:0:0:0:0:
64,192,302690,128,0,302810:0:0:0:0:
320,192,302750,128,0,302870:0:0:0:0:
192,192,302810,128,0,302930:0:0:0:0:
448,192,302810,128,0,302870:0:0:0:0:
64,192,302870,128,0,302930:0:0:0:0:
320,192,302930,1,0,0:0:0:0:
448,192,302930,1,0,0:0:0:0:
320,192,303010,1,0,0:0:0:0:
448,192,303010,1,0,0:0:0:0:
64,192,303090,1,0,0:0:0:0:
192,192,303090,1,0,0:0:0:0:
64,192,303170,1,0,0:0:0:0:
320,192,303170,1,0,0:0:0:0:
448,192,303170,1,0,0:0:0:0:
192,192,303250,1,0,0:0:0:0:
448,192,303250,1,0,0:0:0:0:
320,192,303330,1,0,0:0:0:0:
64,192,303330,1,0,0:0:0:0:
64,192,303410,1,0,0:0:0:0:
448,192,303410,1,0,0:0:0:0:
192,192,303410,1,0,0:0:0:0:
64,192,303490,1,0,0:0:0:0:
192,192,303490,1,0,0:0:0:0:
192,192,303570,1,0,0:0:0:0:
448,192,303570,1,0,0:0:0:0:
320,192,303650,1,0,0:0:0:0:
448,192,303650,1,0,0:0:0:0:
64,192,303650,1,0,0:0:0:0:
320,192,303730,1,0,0:0:0:0:
192,192,303730,1,0,0:0:0:0:
64,192,303810,1,0,0:0:0:0:
448,192,303810,1,0,0:0:0:0:
64,192,303890,1,0,0:0:0:0:
192,192,303890,1,0,0:0:0:0:
320,192,303890,1,0,0:0:0:0:
448,192,303970,1,0,0:0:0:0:
320,192,303970,1,0,0:0:0:0:
320,192,304050,1,0,0:0:0:0:
448,192,304050,1,0,0:0:0:0:
64,192,304050,1,0,0:0:0:0:
192,192,304130,1,0,0:0:0:0:
448,192,304130,1,0,0:0:0:0:
192,192,304210,1,0,0:0:0:0:
64,192,304210,1,0,0:0:0:0:
192,192,304290,1,0,0:0:0:0:
64,192,304290,1,0,0:0:0:0:
320,192,304290,1,0,0:0:0:0:
320,192,304370,1,0,0:0:0:0:
448,192,304370,128,0,304490:0:0:0:0:
64,192,304370,128,0,304430:0:0:0:0:
64,192,304490,128,0,304610:0:0:0:0:
320,192,304550,1,0,0:0:0:0:
448,192,304550,1,0,0:0:0:0:
192,192,304610,128,0,304670:0:0:0:0:
192,192,304730,128,0,304850:0:0:0:0:
448,192,304730,128,0,304790:0:0:0:0:
320,192,304850,128,0,304970:0:0:0:0:
448,192,304850,128,0,305030:0:0:0:0:
64,192,304850,128,0,304910:0:0:0:0:
64,192,304970,128,0,305090:0:0:0:0:
320,192,305090,128,0,305270:0:0:0:0:
192,192,305210,128,0,305270:0:0:0:0:
64,192,305270,128,0,305330:0:0:0:0:
320,192,305330,128,0,305450:0:0:0:0:
448,192,305330,128,0,305390:0:0:0:0:
192,192,305330,128,0,305510:0:0:0:0:
448,192,305450,128,0,305570:0:0:0:0:
64,192,305570,128,0,305750:0:0:0:0:
192,192,305690,128,0,305810:0:0:0:0:
64,192,305810,128,0,305930:0:0:0:0:
448,192,305810,128,0,305930:0:0:0:0:
320,192,305810,128,0,305870:0:0:0:0:
448,192,305990,128,0,306110:0:0:0:0:
64,192,305990,128,0,306110:0:0:0:0:
320,192,305990,128,0,306050:0:0:0:0:
192,192,306050,128,0,306170:0:0:0:0:
64,192,306170,128,0,306230:0:0:0:0:
320,192,306170,128,0,306230:0:0:0:0:
448,192,306170,128,0,306290:0:0:0:0:
192,192,306290,128,0,306350:0:0:0:0:
64,192,306290,128,0,306410:0:0:0:0:
320,192,306290,128,0,306470:0:0:0:0:
192,192,306410,128,0,306530:0:0:0:0:
448,192,306530,128,0,306650:0:0:0:0:
64,192,306530,128,0,306710:0:0:0:0:
320,192,306650,128,0,306770:0:0:0:0:
64,192,306770,128,0,306830:0:0:0:0:
192,192,306770,128,0,306890:0:0:0:0:
320,192,306890,128,0,306950:0:0:0:0:
64,192,306890,128,0,307010:0:0:0:0:
448,192,306890,128,0,307070:0:0:0:0:
192,192,306950,128,0,307070:0:0:0:0:
320,192,307010,128,0,307130:0:0:0:0:
64,192,307130,1,0,0:0:0:0:
192,192,307130,1,0,0:0:0:0:
64,192,307190,1,0,0:0:0:0:
192,192,307190,1,0,0:0:0:0:
320,192,307250,1,0,0:0:0:0:
448,192,307250,1,0,0:0:0:0:
448,192,307310,1,0,0:0:0:0:
320,192,307310,1,0,0:0:0:0:
64,192,307370,1,0,0:0:0:0:
448,192,307430,1,0,0:0:0:0:
192,192,307490,1,0,0:0:0:0:
320,192,307490,1,0,0:0:0:0:
320,192,307550,1,0,0:0:0:0:
192,192,307550,1,0,0:0:0:0:
64,192,307610,1,0,0:0:0:0:
448,192,307610,1,0,0:0:0:0:
64,192,307670,1,0,0:0:0:0:
448,192,307670,1,0,0:0:0:0:
192,192,307730,128,0,307790:0:0:0:0:
320,192,307790,128,0,307850:0:0:0:0:
192,192,307850,128,0,307910:0:0:0:0:
64,192,307850,128,0,307910:0:0:0:0:
448,192,307850,128,0,307910:0:0:0:0:
320,192,307910,128,0,307970:0:0:0:0:
192,192,307970,128,0,308090:0:0:0:0:
64,192,307970,128,0,308030:0:0:0:0:
448,192,307970,128,0,308090:0:0:0:0:
320,192,308030,128,0,308150:0:0:0:0:
64,192,308090,128,0,308150:0:0:0:0:
192,192,308150,128,0,308210:0:0:0:0:
320,192,308210,128,0,308270:0:0:0:0:
448,192,308210,128,0,308270:0:0:0:0:
64,192,308210,128,0,308270:0:0:0:0:
192,192,308270,128,0,308330:0:0:0:0:
448,192,308330,128,0,308390:0:0:0:0:
320,192,308330,128,0,308450:0:0:0:0:
64,192,308330,128,0,308450:0:0:0:0:
192,192,308390,128,0,308510:0:0:0:0:
448,192,308450,128,0,308510:0:0:0:0:
320,192,308510,128,0,308570:0:0:0:0:
192,192,308570,128,0,308630:0:0:0:0:
448,192,308570,128,0,308690:0:0:0:0:
64,192,308570,128,0,308690:0:0:0:0:
320,192,308630,128,0,308750:0:0:0:0:
192,192,308690,128,0,308750:0:0:0:0:
64,192,308750,128,0,308810:0:0:0:0:
320,192,308810,128,0,308870:0:0:0:0:
448,192,308810,128,0,308930:0:0:0:0:
192,192,308810,128,0,308930:0:0:0:0:
64,192,308870,128,0,308990:0:0:0:0:
320,192,308930,128,0,309050:0:0:0:0:
448,192,308990,128,0,309050:0:0:0:0:
192,192,309050,1,0,0:0:0:0:
64,192,309050,1,0,0:0:0:0:
64,192,309110,1,0,0:0:0:0:
192,192,309110,1,0,0:0:0:0:
320,192,309170,1,0,0:0:0:0:
448,192,309170,1,0,0:0:0:0:
320,192,309230,1,0,0:0:0:0:
448,192,309230,1,0,0:0:0:0:
192,192,309290,128,0,309350:0:0:0:0:
64,192,309290,128,0,309350:0:0:0:0:
448,192,309350,128,0,309410:0:0:0:0:
320,192,309410,128,0,309470:0:0:0:0:
192,192,309410,128,0,309470:0:0:0:0:
64,192,309410,128,0,309470:0:0:0:0:
448,192,309470,128,0,309530:0:0:0:0:
320,192,309530,128,0,309590:0:0:0:0:
192,192,309530,128,0,309650:0:0:0:0:
64,192,309530,128,0,309650:0:0:0:0:
320,192,309650,128,0,309710:0:0:0:0:
192,192,309710,128,0,309770:0:0:0:0:
64,192,309770,128,0,309830:0:0:0:0:
448,192,309770,128,0,309830:0:0:0:0:
320,192,309770,128,0,309830:0:0:0:0:
192,192,309830,128,0,309890:0:0:0:0:
64,192,309890,128,0,310010:0:0:0:0:
448,192,309890,128,0,309950:0:0:0:0:
320,192,309890,128,0,310010:0:0:0:0:
192,192,309950,128,0,310070:0:0:0:0:
448,192,310010,128,0,310070:0:0:0:0:
320,192,310070,128,0,310130:0:0:0:0:
448,192,310130,128,0,310190:0:0:0:0:
64,192,310130,128,0,310190:0:0:0:0:
192,192,310130,128,0,310190:0:0:0:0:
320,192,310190,128,0,310250:0:0:0:0:
448,192,310250,128,0,310370:0:0:0:0:
192,192,310250,128,0,310370:0:0:0:0:
64,192,310250,128,0,310310:0:0:0:0:
320,192,310310,128,0,310430:0:0:0:0:
64,192,310370,128,0,310430:0:0:0:0:
192,192,310430,128,0,310490:0:0:0:0:
448,192,310490,128,0,310610:0:0:0:0:
64,192,310490,128,0,310610:0:0:0:0:
320,192,310490,128,0,310550:0:0:0:0:
192,192,310550,128,0,310670:0:0:0:0:
320,192,310610,128,0,310670:0:0:0:0:
448,192,310670,128,0,310730:0:0:0:0:
320,192,310730,128,0,310850:0:0:0:0:
64,192,310730,128,0,310850:0:0:0:0:
192,192,310730,128,0,310790:0:0:0:0:
448,192,310790,128,0,310910:0:0:0:0:
192,192,310850,128,0,310970:0:0:0:0:
64,192,310910,128,0,310970:0:0:0:0:
448,192,310970,1,0,0:0:0:0:
320,192,310970,1,0,0:0:0:0:
320,192,311030,1,0,0:0:0:0:
448,192,311030,1,0,0:0:0:0:
64,192,311090,1,0,0:0:0:0:
192,192,311090,1,0,0:0:0:0:
64,192,311150,1,0,0:0:0:0:
192,192,311150,1,0,0:0:0:0:
320,192,311210,128,0,311270:0:0:0:0:
448,192,311210,128,0,311330:0:0:0:0:
64,192,311270,128,0,311330:0:0:0:0:
320,192,311330,128,0,311450:0:0:0:0:
192,192,311330,128,0,311390:0:0:0:0:
448,192,311390,128,0,311510:0:0:0:0:
64,192,311450,1,0,0:0:0:0:
64,192,311530,1,0,0:0:0:0:
192,192,311570,128,0,311810:0:0:0:0:
320,192,311570,128,0,311630:0:0:0:0:
448,192,311570,128,0,311690:0:0:0:0:
320,192,311690,128,0,311750:0:0:0:0:
448,192,311750,128,0,311870:0:0:0:0:
64,192,311810,128,0,311870:0:0:0:0:
320,192,311810,128,0,311930:0:0:0:0:
192,192,311870,128,0,311930:0:0:0:0:
448,192,311930,128,0,311990:0:0:0:0:
64,192,311930,128,0,311990:0:0:0:0:
192,192,311990,128,0,312110:0:0:0:0:
320,192,311990,128,0,312110:0:0:0:0:
64,192,312050,128,0,312170:0:0:0:0:
448,192,312050,128,0,312110:0:0:0:0:
192,192,312170,128,0,312290:0:0:0:0:
320,192,312170,128,0,312290:0:0:0:0:
448,192,312170,1,0,0:0:0:0:
64,192,312290,128,0,312470:0:0:0:0:
448,192,312290,128,0,312410:0:0:0:0:
192,192,312350,128,0,312470:0:0:0:0:
320,192,312410,128,0,312470:0:0:0:0:
448,192,312470,128,0,312530:0:0:0:0:
320,192,312530,128,0,312710:0:0:0:0:
192,192,312530,128,0,312650:0:0:0:0:
64,192,312530,128,0,312590:0:0:0:0:
64,192,312650,128,0,312710:0:0:0:0:
192,192,312710,128,0,312830:0:0:0:0:
320,192,312770,128,0,312830:0:0:0:0:
64,192,312770,128,0,312890:0:0:0:0:
448,192,312830,128,0,312890:0:0:0:0:
192,192,312890,128,0,312950:0:0:0:0:
320,192,312890,128,0,312950:0:0:0:0:
448,192,312950,128,0,313070:0:0:0:0:
64,192,312950,128,0,313070:0:0:0:0:
320,192,313010,128,0,313130:0:0:0:0:
192,192,313010,128,0,313070:0:0:0:0:
448,192,313130,128,0,313250:0:0:0:0:
192,192,313130,128,0,313250:0:0:0:0:
64,192,313130,1,0,0:0:0:0:
320,192,313250,128,0,313430:0:0:0:0:
64,192,313250,128,0,313370:0:0:0:0:
448,192,313310,128,0,313430:0:0:0:0:
192,192,313370,128,0,313430:0:0:0:0:
64,192,313430,128,0,313490:0:0:0:0:
448,192,313490,128,0,313610:0:0:0:0:
320,192,313490,128,0,313610:0:0:0:0:
192,192,313490,128,0,313610:0:0:0:0:
64,192,313610,1,0,0:0:0:0:
448,192,313730,128,0,313810:0:0:0:0:
320,192,313770,128,0,313850:0:0:0:0:
192,192,313810,128,0,313890:0:0:0:0:
64,192,313850,128,0,313910:0:0:0:0:
448,192,313890,128,0,313970:0:0:0:0:
320,192,313930,128,0,314030:0:0:0:0:
192,192,313970,128,0,314030:0:0:0:0:
64,192,313970,128,0,314030:0:0:0:0:
448,192,314030,128,0,314090:0:0:0:0:
320,192,314090,128,0,314210:0:0:0:0:
192,192,314090,128,0,314270:0:0:0:0:
64,192,314090,128,0,314150:0:0:0:0:
448,192,314150,128,0,314270:0:0:0:0:
64,192,314210,128,0,314330:0:0:0:0:
320,192,314270,128,0,314390:0:0:0:0:
192,192,314330,128,0,314390:0:0:0:0:
448,192,314330,128,0,314390:0:0:0:0:
64,192,314390,128,0,314450:0:0:0:0:
448,192,314450,128,0,314510:0:0:0:0:
320,192,314450,128,0,314570:0:0:0:0:
192,192,314450,128,0,314810:0:0:0:0:
64,192,314510,128,0,314690:0:0:0:0:
448,192,314570,128,0,314630:0:0:0:0:
320,192,314630,128,0,314750:0:0:0:0:
448,192,314690,128,0,314870:0:0:0:0:
64,192,314750,128,0,314930:0:0:0:0:
320,192,314810,128,0,314990:0:0:0:0:
192,192,314870,128,0,314990:0:0:0:0:
448,192,314930,128,0,314990:0:0:0:0:
64,192,314990,128,0,315050:0:0:0:0:
448,192,315050,128,0,315230:0:0:0:0:
320,192,315050,128,0,315110:0:0:0:0:
192,192,315050,128,0,315170:0:0:0:0:
64,192,315110,128,0,315230:0:0:0:0:
320,192,315170,128,0,315290:0:0:0:0:
192,192,315230,128,0,315350:0:0:0:0:
64,192,315290,128,0,315350:0:0:0:0:
448,192,315290,128,0,315350:0:0:0:0:
320,192,315350,128,0,315410:0:0:0:0:
64,192,315410,128,0,315530:0:0:0:0:
448,192,315410,128,0,315650:0:0:0:0:
192,192,315410,128,0,315470:0:0:0:0:
192,192,315530,128,0,315590:0:0:0:0:
64,192,315590,128,0,315710:0:0:0:0:
320,192,315650,128,0,315710:0:0:0:0:
192,192,315650,128,0,315770:0:0:0:0:
448,192,315710,128,0,315770:0:0:0:0:
64,192,315770,128,0,315830:0:0:0:0:
320,192,315770,128,0,315830:0:0:0:0:
448,192,315830,128,0,315950:0:0:0:0:
192,192,315830,128,0,315950:0:0:0:0:
320,192,315890,128,0,316010:0:0:0:0:
64,192,315890,128,0,315950:0:0:0:0:
448,192,316010,128,0,316130:0:0:0:0:
192,192,316010,128,0,316130:0:0:0:0:
64,192,316010,1,0,0:0:0:0:
320,192,316130,128,0,316310:0:0:0:0:
64,192,316130,128,0,316250:0:0:0:0:
448,192,316190,128,0,316310:0:0:0:0:
192,192,316250,128,0,316310:0:0:0:0:
64,192,316310,128,0,316370:0:0:0:0:
192,192,316370,128,0,316550:0:0:0:0:
448,192,316370,128,0,316490:0:0:0:0:
320,192,316370,128,0,316430:0:0:0:0:
320,192,316490,128,0,316550:0:0:0:0:
448,192,316550,128,0,316670:0:0:0:0:
192,192,316610,128,0,316670:0:0:0:0:
320,192,316610,128,0,316730:0:0:0:0:
64,192,316670,128,0,316730:0:0:0:0:
448,192,316730,128,0,316790:0:0:0:0:
192,192,316730,128,0,316790:0:0:0:0:
64,192,316790,128,0,316910:0:0:0:0:
320,192,316790,128,0,316910:0:0:0:0:
192,192,316850,128,0,316970:0:0:0:0:
448,192,316850,128,0,316910:0:0:0:0:
64,192,316970,128,0,317090:0:0:0:0:
448,192,316970,128,0,317090:0:0:0:0:
320,192,316970,1,0,0:0:0:0:
192,192,317090,128,0,317270:0:0:0:0:
320,192,317090,128,0,317210:0:0:0:0:
64,192,317150,128,0,317270:0:0:0:0:
448,192,317210,128,0,317270:0:0:0:0:
320,192,317270,128,0,317330:0:0:0:0:
64,192,317330,128,0,317450:0:0:0:0:
192,192,317330,128,0,317450:0:0:0:0:
448,192,317330,128,0,317450:0:0:0:0:
320,192,317450,1,0,0:0:0:0:
192,192,317510,1,0,0:0:0:0:
448,192,317570,128,0,317650:0:0:0:0:
64,192,317610,128,0,317690:0:0:0:0:
192,192,317650,128,0,317730:0:0:0:0:
320,192,317690,128,0,317750:0:0:0:0:
448,192,317730,128,0,317810:0:0:0:0:
64,192,317770,128,0,317870:0:0:0:0:
320,192,317810,128,0,317870:0:0:0:0:
192,192,317810,128,0,317870:0:0:0:0:
448,192,317870,128,0,317930:0:0:0:0:
192,192,317930,128,0,317990:0:0:0:0:
64,192,317930,128,0,318110:0:0:0:0:
320,192,317930,128,0,318110:0:0:0:0:
448,192,317990,128,0,318050:0:0:0:0:
192,192,318050,128,0,318170:0:0:0:0:
448,192,318110,128,0,318230:0:0:0:0:
64,192,318170,128,0,318230:0:0:0:0:
320,192,318170,128,0,318230:0:0:0:0:
192,192,318230,128,0,318290:0:0:0:0:
448,192,318290,128,0,318350:0:0:0:0:
320,192,318290,128,0,318410:0:0:0:0:
64,192,318290,128,0,318530:0:0:0:0:
192,192,318350,128,0,318470:0:0:0:0:
448,192,318410,128,0,318470:0:0:0:0:
320,192,318470,128,0,318590:0:0:0:0:
192,192,318530,128,0,318650:0:0:0:0:
448,192,318530,128,0,318710:0:0:0:0:
64,192,318590,128,0,318770:0:0:0:0:
320,192,318650,128,0,318710:0:0:0:0:
192,192,318710,128,0,318770:0:0:0:0:
320,192,318770,128,0,318850:0:0:0:0:
448,192,318770,1,0,0:0:0:0:
448,192,318850,128,0,319010:0:0:0:0:
192,192,318850,128,0,318930:0:0:0:0:
320,192,318930,128,0,319010:0:0:0:0:
64,192,318930,1,0,0:0:0:0:
64,192,319010,128,0,319090:0:0:0:0:
192,192,319010,1,0,0:0:0:0:
448,192,319090,128,0,319170:0:0:0:0:
192,192,319090,128,0,319170:0:0:0:0:
64,192,319170,128,0,319250:0:0:0:0:
320,192,319170,1,0,0:0:0:0:
448,192,319250,128,0,319430:0:0:0:0:
320,192,319250,128,0,319430:0:0:0:0:
192,192,319250,128,0,319430:0:0:0:0:
64,192,319370,1,0,0:0:0:0:
192,192,319490,128,0,319550:0:0:0:0:
320,192,319490,128,0,319610:0:0:0:0:
64,192,319550,128,0,319610:0:0:0:0:
192,192,319610,128,0,319670:0:0:0:0:
448,192,319610,128,0,319670:0:0:0:0:
320,192,319670,128,0,319790:0:0:0:0:
64,192,319670,128,0,319790:0:0:0:0:
448,192,319730,128,0,319910:0:0:0:0:
192,192,319730,128,0,319910:0:0:0:0:
64,192,319850,1,0,0:0:0:0:
320,192,319850,1,0,0:0:0:0:
448,192,319970,128,0,320150:0:0:0:0:
192,192,319970,128,0,320030:0:0:0:0:
64,192,319970,128,0,320150:0:0:0:0:
192,192,320090,1,0,0:0:0:0:
320,192,320090,1,0,0:0:0:0:
64,192,320210,128,0,320390:0:0:0:0:
192,192,320210,128,0,320390:0:0:0:0:
320,192,320210,128,0,320390:0:0:0:0:
448,192,320330,1,0,0:0:0:0:
320,192,320450,128,0,320510:0:0:0:0:
192,192,320450,128,0,320570:0:0:0:0:
448,192,320510,128,0,320570:0:0:0:0:
320,192,320570,128,0,320630:0:0:0:0:
64,192,320570,128,0,320630:0:0:0:0:
192,192,320630,128,0,320750:0:0:0:0:
448,192,320630,128,0,320750:0:0:0:0:
64,192,320690,128,0,320870:0:0:0:0:
320,192,320690,128,0,320870:0:0:0:0:
448,192,320810,1,0,0:0:0:0:
192,192,320810,1,0,0:0:0:0:
64,192,320930,128,0,321110:0:0:0:0:
320,192,320930,128,0,320990:0:0:0:0:
448,192,320930,128,0,321110:0:0:0:0:
320,192,321050,1,0,0:0:0:0:
192,192,321050,1,0,0:0:0:0:
320,192,321170,128,0,321350:0:0:0:0:
192,192,321170,128,0,321350:0:0:0:0:
64,192,321170,128,0,321290:0:0:0:0:
448,192,321290,1,0,0:0:0:0:
192,192,321410,128,0,321490:0:0:0:0:
448,192,321450,128,0,321530:0:0:0:0:
64,192,321490,128,0,321570:0:0:0:0:
320,192,321530,128,0,321590:0:0:0:0:
192,192,321570,128,0,321610:0:0:0:0:
448,192,321610,128,0,321650:0:0:0:0:
64,192,321650,128,0,321710:0:0:0:0:
320,192,321650,128,0,321890:0:0:0:0:
192,192,321650,128,0,321770:0:0:0:0:
448,192,321710,128,0,321830:0:0:0:0:
64,192,321770,128,0,321890:0:0:0:0:
192,192,321830,128,0,321950:0:0:0:0:
448,192,321890,128,0,322070:0:0:0:0:
64,192,321950,128,0,322070:0:0:0:0:
192,192,322010,128,0,322070:0:0:0:0:
320,192,322070,128,0,322130:0:0:0:0:
192,192,322130,128,0,322250:0:0:0:0:
64,192,322130,128,0,322370:0:0:0:0:
448,192,322130,128,0,322190:0:0:0:0:
320,192,322190,128,0,322310:0:0:0:0:
448,192,322250,128,0,322430:0:0:0:0:
192,192,322310,128,0,322550:0:0:0:0:
320,192,322370,128,0,322490:0:0:0:0:
64,192,322430,128,0,322550:0:0:0:0:
448,192,322490,128,0,322550:0:0:0:0:
320,192,322550,128,0,322610:0:0:0:0:
448,192,322610,128,0,322790:0:0:0:0:
192,192,322610,128,0,322670:0:0:0:0:
64,192,322610,128,0,322790:0:0:0:0:
320,192,322730,128,0,322850:0:0:0:0:
192,192,322730,128,0,322850:0:0:0:0:
64,192,322850,128,0,323030:0:0:0:0:
448,192,322850,128,0,322910:0:0:0:0:
448,192,322970,128,0,323030:0:0:0:0:
192,192,322970,128,0,323090:0:0:0:0:
448,192,323090,128,0,323270:0:0:0:0:
320,192,323090,128,0,323270:0:0:0:0:
64,192,323090,128,0,323270:0:0:0:0:
192,192,323210,1,0,0:0:0:0:
192,192,323330,128,0,323450:0:0:0:0:
448,192,323330,128,0,323390:0:0:0:0:
320,192,323390,128,0,323450:0:0:0:0:
64,192,323450,128,0,323510:0:0:0:0:
448,192,323450,128,0,323510:0:0:0:0:
320,192,323510,128,0,323630:0:0:0:0:
192,192,323510,128,0,323630:0:0:0:0:
448,192,323570,128,0,323750:0:0:0:0:
64,192,323570,128,0,323750:0:0:0:0:
192,192,323690,1,0,0:0:0:0:
320,192,323690,1,0,0:0:0:0:
448,192,323810,128,0,323990:0:0:0:0:
64,192,323810,128,0,323870:0:0:0:0:
192,192,323810,128,0,323990:0:0:0:0:
64,192,323930,1,0,0:0:0:0:
320,192,323930,1,0,0:0:0:0:
64,192,324050,128,0,324230:0:0:0:0:
192,192,324050,128,0,324230:0:0:0:0:
448,192,324050,128,0,324230:0:0:0:0:
320,192,324170,1,0,0:0:0:0:
320,192,324290,128,0,324410:0:0:0:0:
64,192,324290,128,0,324350:0:0:0:0:
192,192,324350,128,0,324410:0:0:0:0:
448,192,324410,128,0,324470:0:0:0:0:
64,192,324410,128,0,324470:0:0:0:0:
192,192,324470,128,0,324590:0:0:0:0:
320,192,324470,128,0,324590:0:0:0:0:
64,192,324530,128,0,324710:0:0:0:0:
448,192,324530,128,0,324710:0:0:0:0:
320,192,324650,1,0,0:0:0:0:
192,192,324650,1,0,0:0:0:0:
64,192,324770,128,0,324950:0:0:0:0:
448,192,324770,128,0,324830:0:0:0:0:
320,192,324770,128,0,324950:0:0:0:0:
448,192,324890,1,0,0:0:0:0:
192,192,324890,1,0,0:0:0:0:
448,192,325010,128,0,325190:0:0:0:0:
192,192,325010,128,0,325250:0:0:0:0:
64,192,325010,128,0,325250:0:0:0:0:
320,192,325130,128,0,325250:0:0:0:0:
448,192,325250,128,0,325310:0:0:0:0:
64,192,325310,128,0,325430:0:0:0:0:
448,192,325370,128,0,325430:0:0:0:0:
320,192,325430,128,0,325490:0:0:0:0:
448,192,325490,128,0,325730:0:0:0:0:
192,192,325490,128,0,325610:0:0:0:0:
64,192,325490,128,0,325550:0:0:0:0:
320,192,325550,128,0,325670:0:0:0:0:
64,192,325610,128,0,325670:0:0:0:0:
192,192,325670,128,0,325730:0:0:0:0:
320,192,325730,128,0,325790:0:0:0:0:
64,192,325790,128,0,325910:0:0:0:0:
320,192,325850,128,0,325910:0:0:0:0:
448,192,325910,128,0,325970:0:0:0:0:
320,192,325970,128,0,326210:0:0:0:0:
192,192,325970,128,0,326030:0:0:0:0:
64,192,325970,128,0,326090:0:0:0:0:
448,192,326030,128,0,326150:0:0:0:0:
192,192,326090,128,0,326210:0:0:0:0:
64,192,326150,128,0,326210:0:0:0:0:
448,192,326210,128,0,326330:0:0:0:0:
192,192,326270,128,0,326390:0:0:0:0:
320,192,326330,128,0,326390:0:0:0:0:
64,192,326390,128,0,326450:0:0:0:0:
448,192,326450,128,0,326510:0:0:0:0:
320,192,326450,128,0,326630:0:0:0:0:
192,192,326510,128,0,326690:0:0:0:0:
448,192,326570,128,0,326690:0:0:0:0:
64,192,326630,128,0,326690:0:0:0:0:
320,192,326690,128,0,326870:0:0:0:0:
192,192,326750,128,0,326810:0:0:0:0:
448,192,326810,128,0,326870:0:0:0:0:
192,192,326870,128,0,326930:0:0:0:0:
320,192,326930,128,0,327170:0:0:0:0:
448,192,326930,128,0,327050:0:0:0:0:
64,192,326930,128,0,327890:0:0:0:0:
192,192,327050,1,0,0:0:0:0:
448,192,327170,128,0,327410:0:0:0:0:
192,192,327170,128,0,327290:0:0:0:0:
320,192,327290,1,0,0:0:0:0:
320,192,327410,128,0,327530:0:0:0:0:
192,192,327410,128,0,327650:0:0:0:0:
448,192,327530,1,0,0:0:0:0:
448,192,327650,128,0,327770:0:0:0:0:
320,192,327650,128,0,327770:0:0:0:0:
192,192,327770,1,0,0:0:0:0:
320,192,327890,128,0,328130:0:0:0:0:
192,192,327890,128,0,328010:0:0:0:0:
448,192,327890,128,0,328610:0:0:0:0:
64,192,328010,1,0,0:0:0:0:
64,192,328130,128,0,328250:0:0:0:0:
192,192,328130,128,0,328370:0:0:0:0:
320,192,328250,1,0,0:0:0:0:
64,192,328370,128,0,328490:0:0:0:0:
320,192,328370,128,0,328490:0:0:0:0:
192,192,328490,1,0,0:0:0:0:
192,192,328610,128,0,328730:0:0:0:0:
64,192,328610,1,0,0:0:0:0:
320,192,328610,128,0,328730:0:0:0:0:
448,192,328730,1,0,0:0:0:0:
64,192,328730,128,0,328850:0:0:0:0:
448,192,328850,128,0,328970:0:0:0:0:
320,192,328850,128,0,329090:0:0:0:0:
192,192,328850,128,0,329570:0:0:0:0:
64,192,328970,1,0,0:0:0:0:
448,192,329090,128,0,329330:0:0:0:0:
64,192,329090,128,0,329210:0:0:0:0:
320,192,329210,1,0,0:0:0:0:
320,192,329330,128,0,329450:0:0:0:0:
64,192,329330,128,0,329450:0:0:0:0:
448,192,329450,1,0,0:0:0:0:
64,192,329570,128,0,329690:0:0:0:0:
448,192,329570,128,0,329690:0:0:0:0:
320,192,329570,128,0,329810:0:0:0:0:
192,192,329690,1,0,0:0:0:0:
448,192,329810,128,0,329930:0:0:0:0:
64,192,329810,128,0,330050:0:0:0:0:
192,192,329810,128,0,330290:0:0:0:0:
320,192,329930,1,0,0:0:0:0:
448,192,330050,128,0,330170:0:0:0:0:
320,192,330050,128,0,330170:0:0:0:0:
64,192,330170,1,0,0:0:0:0:
448,192,330290,128,0,330530:0:0:0:0:
320,192,330290,128,0,330410:0:0:0:0:
64,192,330290,128,0,330770:0:0:0:0:
192,192,330410,1,0,0:0:0:0:
320,192,330530,128,0,330650:0:0:0:0:
192,192,330530,128,0,330650:0:0:0:0:
448,192,330650,1,0,0:0:0:0:
320,192,330770,128,0,330890:0:0:0:0:
192,192,330770,128,0,331010:0:0:0:0:
448,192,330770,128,0,331730:0:0:0:0:
64,192,330890,1,0,0:0:0:0:
64,192,331010,128,0,331130:0:0:0:0:
320,192,331010,128,0,331250:0:0:0:0:
192,192,331130,1,0,0:0:0:0:
64,192,331250,128,0,331370:0:0:0:0:
192,192,331250,128,0,331490:0:0:0:0:
320,192,331370,1,0,0:0:0:0:
320,192,331490,128,0,331650:0:0:0:0:
64,192,331490,1,0,0:0:0:0:
192,192,331570,5,0,0:0:0:0:
64,192,331650,1,0,0:0:0:0:
64,192,331730,128,0,331970:0:0:0:0:
192,192,331730,128,0,331890:0:0:0:0:
320,192,331730,1,0,0:0:0:0:
448,192,331810,1,0,0:0:0:0:
320,192,331890,1,0,0:0:0:0:
448,192,331970,128,0,332130:0:0:0:0:
320,192,331970,128,0,332210:0:0:0:0:
192,192,331970,1,0,0:0:0:0:
64,192,332050,1,0,0:0:0:0:
192,192,332130,1,0,0:0:0:0:
448,192,332210,128,0,332290:0:0:0:0:
64,192,332210,128,0,332370:0:0:0:0:
192,192,332210,128,0,332530:0:0:0:0:
320,192,332290,128,0,332450:0:0:0:0:
448,192,332370,128,0,332610:0:0:0:0:
64,192,332450,128,0,332610:0:0:0:0:
320,192,332530,128,0,332610:0:0:0:0:
192,192,332610,128,0,332690:0:0:0:0:
64,192,332690,5,0,0:0:0:0:
320,192,332690,128,0,332925:0:0:0:0:
448,192,332690,1,0,0:0:0:0:
192,192,332748,1,0,0:0:0:0:
64,192,332807,1,0,0:0:0:0:
448,192,332807,1,0,0:0:0:0:
192,192,332866,1,0,0:0:0:0:
448,192,332925,1,0,0:0:0:0:
64,192,332925,1,0,0:0:0:0:
320,192,333042,1,0,0:0:0:0:
448,192,333042,128,0,333278:0:0:0:0:
192,192,333042,1,0,0:0:0:0:
64,192,333101,1,0,0:0:0:0:
320,192,333160,1,0,0:0:0:0:
192,192,333160,1,0,0:0:0:0:
64,192,333219,1,0,0:0:0:0:
320,192,333278,1,0,0:0:0:0:
192,192,333278,1,0,0:0:0:0:
448,192,333395,1,0,0:0:0:0:
320,192,333395,128,0,333631:0:0:0:0:
64,192,333395,1,0,0:0:0:0:
192,192,333454,1,0,0:0:0:0:
448,192,333513,1,0,0:0:0:0:
64,192,333513,1,0,0:0:0:0:
192,192,333572,1,0,0:0:0:0:
448,192,333631,1,0,0:0:0:0:
64,192,333631,1,0,0:0:0:0:
320,192,333746,1,0,0:0:0:0:
448,192,333746,128,0,333977:0:0:0:0:
192,192,333746,1,0,0:0:0:0:
64,192,333804,1,0,0:0:0:0:
320,192,333861,1,0,0:0:0:0:
192,192,333861,1,0,0:0:0:0:
64,192,333919,1,0,0:0:0:0:
320,192,333977,1,0,0:0:0:0:
192,192,333977,1,0,0:0:0:0:
320,192,334092,128,0,334207:0:0:0:0:
448,192,334092,1,0,0:0:0:0:
64,192,334092,1,0,0:0:0:0:
192,192,334150,1,0,0:0:0:0:
448,192,334207,1,0,0:0:0:0:
64,192,334207,1,0,0:0:0:0:
64,192,334323,128,0,334438:0:0:0:0:
320,192,334323,1,0,0:0:0:0:
192,192,334323,1,0,0:0:0:0:
448,192,334381,1,0,0:0:0:0:
320,192,334438,1,0,0:0:0:0:
192,192,334438,1,0,0:0:0:0:
64,192,334554,1,0,0:0:0:0:
192,192,334554,128,0,334780:0:0:0:0:
448,192,334554,1,0,0:0:0:0:
320,192,334610,1,0,0:0:0:0:
64,192,334667,1,0,0:0:0:0:
448,192,334667,1,0,0:0:0:0:
320,192,334723,1,0,0:0:0:0:
64,192,334780,1,0,0:0:0:0:
448,192,334780,1,0,0:0:0:0:
192,192,334893,1,0,0:0:0:0:
64,192,334893,128,0,335120:0:0:0:0:
320,192,334893,1,0,0:0:0:0:
448,192,334950,1,0,0:0:0:0:
192,192,335006,1,0,0:0:0:0:
320,192,335006,1,0,0:0:0:0:
448,192,335063,1,0,0:0:0:0:
192,192,335120,1,0,0:0:0:0:
320,192,335120,1,0,0:0:0:0:
64,192,335233,1,0,0:0:0:0:
192,192,335233,128,0,335460:0:0:0:0:
448,192,335233,1,0,0:0:0:0:
320,192,335289,1,0,0:0:0:0:
64,192,335346,1,0,0:0:0:0:
448,192,335346,1,0,0:0:0:0:
320,192,335403,1,0,0:0:0:0:
448,192,335460,1,0,0:0:0:0:
64,192,335460,1,0,0:0:0:0:
192,192,335571,1,0,0:0:0:0:
64,192,335571,128,0,335793:0:0:0:0:
320,192,335571,1,0,0:0:0:0:
448,192,335626,1,0,0:0:0:0:
192,192,335682,1,0,0:0:0:0:
320,192,335682,1,0,0:0:0:0:
448,192,335737,1,0,0:0:0:0:
192,192,335793,1,0,0:0:0:0:
320,192,335793,1,0,0:0:0:0:
64,192,335904,1,0,0:0:0:0:
192,192,335904,128,0,336015:0:0:0:0:
448,192,335904,1,0,0:0:0:0:
320,192,335960,1,0,0:0:0:0:
64,192,336015,1,0,0:0:0:0:
448,192,336015,1,0,0:0:0:0:
320,192,336126,1,0,0:0:0:0:
192,192,336126,1,0,0:0:0:0:
448,192,336126,128,0,336237:0:0:0:0:
64,192,336182,1,0,0:0:0:0:
192,192,336237,1,0,0:0:0:0:
320,192,336237,1,0,0:0:0:0:
448,192,336349,1,0,0:0:0:0:
320,192,336349,128,0,336567:0:0:0:0:
64,192,336349,1,0,0:0:0:0:
192,192,336403,1,0,0:0:0:0:
448,192,336458,1,0,0:0:0:0:
64,192,336458,1,0,0:0:0:0:
192,192,336512,1,0,0:0:0:0:
448,192,336567,1,0,0:0:0:0:
64,192,336567,1,0,0:0:0:0:
192,192,336676,1,0,0:0:0:0:
64,192,336676,128,0,336894:0:0:0:0:
320,192,336676,1,0,0:0:0:0:
448,192,336730,1,0,0:0:0:0:
192,192,336785,1,0,0:0:0:0:
320,192,336785,1,0,0:0:0:0:
448,192,336839,1,0,0:0:0:0:
192,192,336894,1,0,0:0:0:0:
320,192,336894,1,0,0:0:0:0:
64,192,337003,1,0,0:0:0:0:
448,192,337003,1,0,0:0:0:0:
192,192,337003,128,0,337221:0:0:0:0:
320,192,337058,1,0,0:0:0:0:
64,192,337112,1,0,0:0:0:0:
448,192,337112,1,0,0:0:0:0:
320,192,337167,1,0,0:0:0:0:
64,192,337221,1,0,0:0:0:0:
448,192,337221,1,0,0:0:0:0:
320,192,337328,1,0,0:0:0:0:
192,192,337328,1,0,0:0:0:0:
448,192,337328,128,0,337542:0:0:0:0:
64,192,337381,1,0,0:0:0:0:
320,192,337435,1,0,0:0:0:0:
192,192,337435,1,0,0:0:0:0:
64,192,337488,1,0,0:0:0:0:
320,192,337542,1,0,0:0:0:0:
192,192,337542,1,0,0:0:0:0:
448,192,337649,1,0,0:0:0:0:
320,192,337649,128,0,337756:0:0:0:0:
64,192,337649,1,0,0:0:0:0:
192,192,337703,1,0,0:0:0:0:
448,192,337756,1,0,0:0:0:0:
64,192,337756,1,0,0:0:0:0:
320,192,337863,1,0,0:0:0:0:
192,192,337863,1,0,0:0:0:0:
64,192,337863,128,0,337971:0:0:0:0:
448,192,337917,1,0,0:0:0:0:
192,192,337971,1,0,0:0:0:0:
320,192,337971,1,0,0:0:0:0:
64,192,338078,1,0,0:0:0:0:
192,192,338183,1,0,0:0:0:0:
320,192,338288,1,0,0:0:0:0:
448,192,338393,1,0,0:0:0:0:
64,192,338499,1,0,0:0:0:0:
320,192,338534,1,0,0:0:0:0:
192,192,338569,1,0,0:0:0:0:
448,192,338656,1,0,0:0:0:0:
192,192,338692,1,0,0:0:0:0:
320,192,338727,1,0,0:0:0:0:
448,192,338762,1,0,0:0:0:0:
64,192,338814,1,0,0:0:0:0:
320,192,338849,1,0,0:0:0:0:
192,192,338885,1,0,0:0:0:0:
64,192,338921,128,0,339076:0:0:0:0:
448,192,338972,128,0,339024:0:0:0:0:
192,192,339007,128,0,339145:0:0:0:0:
320,192,339041,128,0,339110:0:0:0:0:
448,192,339076,128,0,339231:0:0:0:0:
64,192,339127,128,0,339179:0:0:0:0:
320,192,339162,128,0,339300:0:0:0:0:
192,192,339196,128,0,339265:0:0:0:0:
64,192,339231,128,0,339386:0:0:0:0:
448,192,339283,128,0,339334:0:0:0:0:
192,192,339317,128,0,339455:0:0:0:0:
320,192,339352,128,0,339421:0:0:0:0:
448,192,339386,128,0,339541:0:0:0:0:
64,192,339438,128,0,339489:0:0:0:0:
320,192,339472,128,0,339610:0:0:0:0:
192,192,339507,128,0,339576:0:0:0:0:
64,192,339541,128,0,339696:0:0:0:0:
448,192,339593,128,0,339645:0:0:0:0:
192,192,339627,128,0,339764:0:0:0:0:
320,192,339662,128,0,339731:0:0:0:0:
448,192,339696,128,0,339849:0:0:0:0:
64,192,339748,128,0,339798:0:0:0:0:
320,192,339781,128,0,339917:0:0:0:0:
192,192,339815,128,0,339883:0:0:0:0:
64,192,339849,128,0,340002:0:0:0:0:
448,192,339900,128,0,339951:0:0:0:0:
192,192,339934,128,0,340070:0:0:0:0:
320,192,339968,128,0,340036:0:0:0:0:
448,192,340002,128,0,340154:0:0:0:0:
64,192,340053,128,0,340103:0:0:0:0:
320,192,340086,128,0,340222:0:0:0:0:
192,192,340120,128,0,340188:0:0:0:0:
64,192,340154,128,0,340307:0:0:0:0:
448,192,340205,128,0,340256:0:0:0:0:
192,192,340239,128,0,340375:0:0:0:0:
320,192,340273,128,0,340341:0:0:0:0:
448,192,340307,128,0,340459:0:0:0:0:
64,192,340358,128,0,340409:0:0:0:0:
320,192,340392,128,0,340527:0:0:0:0:
192,192,340425,128,0,340493:0:0:0:0:
64,192,340459,128,0,340612:0:0:0:0:
448,192,340510,128,0,340561:0:0:0:0:
192,192,340544,128,0,340678:0:0:0:0:
320,192,340578,128,0,340645:0:0:0:0:
448,192,340612,128,0,340762:0:0:0:0:
64,192,340662,128,0,340712:0:0:0:0:
320,192,340695,128,0,340862:0:0:0:0:
192,192,340728,128,0,340812:0:0:0:0:
64,192,340762,128,0,340912:0:0:0:0:
448,192,340812,128,0,340962:0:0:0:0:
192,192,340862,128,0,340962:0:0:0:0:
320,192,340912,128,0,340962:0:0:0:0:
64,192,340962,128,0,341095:0:0:0:0:
448,192,341028,128,0,341128:0:0:0:0:
192,192,341095,1,0,0:0:0:0:
64,192,341162,128,0,341362:0:0:0:0:
192,192,341262,128,0,341312:0:0:0:0:
320,192,341362,128,0,341412:0:0:0:0:
448,192,341362,128,0,341512:0:0:0:0:
192,192,341362,128,0,341562:0:0:0:0:
320,192,341462,1,0,0:0:0:0:
64,192,341462,1,0,0:0:0:0:
320,192,341562,1,0,0:0:0:0:
64,192,341562,1,0,0:0:0:0:
448,192,341662,1,0,0:0:0:0:
192,192,341662,1,0,0:0:0:0:
320,192,341762,1,0,0:0:0:0:
64,192,341762,1,0,0:0:0:0:
320,192,341862,1,0,0:0:0:0:
64,192,341862,1,0,0:0:0:0:
320,192,341962,1,0,0:0:0:0:
192,192,341962,1,0,0:0:0:0:
448,192,342062,1,0,0:0:0:0:
320,192,342062,1,0,0:0:0:0:
64,192,342062,1,0,0:0:0:0:
64,192,342162,1,0,0:0:0:0:
192,192,342195,1,0,0:0:0:0:
320,192,342228,1,0,0:0:0:0:
64,192,342262,1,0,0:0:0:0:
448,192,342262,1,0,0:0:0:0:
448,192,342312,1,0,0:0:0:0:
320,192,342362,128,0,342412:0:0:0:0:
192,192,342362,128,0,342462:0:0:0:0:
64,192,342362,128,0,342412:0:0:0:0:
320,192,342462,1,0,0:0:0:0:
64,192,342462,1,0,0:0:0:0:
320,192,342562,1,0,0:0:0:0:
192,192,342562,1,0,0:0:0:0:
448,192,342662,128,0,342762:0:0:0:0:
192,192,342662,128,0,342712:0:0:0:0:
64,192,342662,128,0,342762:0:0:0:0:
320,192,342762,1,0,0:0:0:0:
192,192,342762,1,0,0:0:0:0:
192,192,342862,1,0,0:0:0:0:
448,192,342862,1,0,0:0:0:0:
64,192,342895,1,0,0:0:0:0:
320,192,342962,128,0,343012:0:0:0:0:
448,192,342962,128,0,343112:0:0:0:0:
192,192,342962,128,0,343162:0:0:0:0:
320,192,343062,1,0,0:0:0:0:
64,192,343062,1,0,0:0:0:0:
320,192,343162,1,0,0:0:0:0:
64,192,343162,1,0,0:0:0:0:
448,192,343262,1,0,0:0:0:0:
192,192,343262,1,0,0:0:0:0:
320,192,343362,1,0,0:0:0:0:
64,192,343362,1,0,0:0:0:0:
320,192,343462,1,0,0:0:0:0:
64,192,343462,1,0,0:0:0:0:
320,192,343562,1,0,0:0:0:0:
192,192,343562,1,0,0:0:0:0:
448,192,343662,1,0,0:0:0:0:
320,192,343662,1,0,0:0:0:0:
64,192,343662,1,0,0:0:0:0:
64,192,343762,1,0,0:0:0:0:
192,192,343795,1,0,0:0:0:0:
320,192,343828,1,0,0:0:0:0:
64,192,343862,1,0,0:0:0:0:
448,192,343862,1,0,0:0:0:0:
448,192,343912,1,0,0:0:0:0:
320,192,343962,128,0,344012:0:0:0:0:
192,192,343962,128,0,344062:0:0:0:0:
64,192,343962,128,0,344012:0:0:0:0:
320,192,344062,1,0,0:0:0:0:
64,192,344062,1,0,0:0:0:0:
320,192,344162,1,0,0:0:0:0:
192,192,344162,1,0,0:0:0:0:
448,192,344262,128,0,344362:0:0:0:0:
192,192,344262,128,0,344312:0:0:0:0:
64,192,344262,128,0,344362:0:0:0:0:
320,192,344362,1,0,0:0:0:0:
192,192,344362,1,0,0:0:0:0:
192,192,344462,1,0,0:0:0:0:
448,192,344462,1,0,0:0:0:0:
64,192,344495,1,0,0:0:0:0:
448,192,344562,1,0,0:0:0:0:
320,192,344562,1,0,0:0:0:0:
192,192,344562,1,0,0:0:0:0:
64,192,344612,1,0,0:0:0:0:
448,192,344662,1,0,0:0:0:0:
192,192,344712,1,0,0:0:0:0:
448,192,344762,1,0,0:0:0:0:
192,192,344812,1,0,0:0:0:0:
64,192,344862,1,0,0:0:0:0:
320,192,344862,1,0,0:0:0:0:
192,192,344912,1,0,0:0:0:0:
448,192,344962,1,0,0:0:0:0:
320,192,344962,1,0,0:0:0:0:
64,192,345012,1,0,0:0:0:0:
448,192,345062,1,0,0:0:0:0:
64,192,345112,1,0,0:0:0:0:
192,192,345162,1,0,0:0:0:0:
320,192,345162,1,0,0:0:0:0:
64,192,345212,1,0,0:0:0:0:
448,192,345262,1,0,0:0:0:0:
320,192,345312,1,0,0:0:0:0:
448,192,345362,1,0,0:0:0:0:
192,192,345362,1,0,0:0:0:0:
64,192,345402,1,0,0:0:0:0:
320,192,345442,1,0,0:0:0:0:
192,192,345482,1,0,0:0:0:0:
448,192,345522,1,0,0:0:0:0:
320,192,345562,1,0,0:0:0:0:
64,192,345602,1,0,0:0:0:0:
192,192,345642,1,0,0:0:0:0:
320,192,345682,1,0,0:0:0:0:
448,192,345722,1,0,0:0:0:0:
192,192,345762,1,0,0:0:0:0:
320,192,345802,1,0,0:0:0:0:
64,192,345842,1,0,0:0:0:0:
192,192,345882,1,0,0:0:0:0:
320,192,345922,1,0,0:0:0:0:
64,192,345962,1,0,0:0:0:0:
448,192,346002,1,0,0:0:0:0:
320,192,346042,1,0,0:0:0:0:
192,192,346082,1,0,0:0:0:0:
448,192,346122,1,0,0:0:0:0:
64,192,346162,1,0,0:0:0:0:
192,192,346195,1,0,0:0:0:0:
320,192,346228,1,0,0:0:0:0:
448,192,346262,1,0,0:0:0:0:
64,192,346295,1,0,0:0:0:0:
192,192,346328,1,0,0:0:0:0:
320,192,346362,1,0,0:0:0:0:
64,192,346395,1,0,0:0:0:0:
448,192,346428,1,0,0:0:0:0:
320,192,346462,1,0,0:0:0:0:
192,192,346495,1,0,0:0:0:0:
64,192,346528,1,0,0:0:0:0:
448,192,346562,1,0,0:0:0:0:
192,192,346595,1,0,0:0:0:0:
320,192,346628,1,0,0:0:0:0:
448,192,346662,1,0,0:0:0:0:
64,192,346695,1,0,0:0:0:0:
192,192,346728,1,0,0:0:0:0:
320,192,346762,1,0,0:0:0:0:
64,192,346795,1,0,0:0:0:0:
448,192,346828,1,0,0:0:0:0:
320,192,346862,1,0,0:0:0:0:
192,192,346895,1,0,0:0:0:0:
64,192,346928,1,0,0:0:0:0:
320,192,346962,1,0,0:0:0:0:
448,192,346987,1,0,0:0:0:0:
64,192,347012,1,0,0:0:0:0:
192,192,347037,1,0,0:0:0:0:
320,192,347062,1,0,0:0:0:0:
448,192,347087,1,0,0:0:0:0:
64,192,347112,1,0,0:0:0:0:
192,192,347137,1,0,0:0:0:0:
320,192,347162,1,0,0:0:0:0:
448,192,347187,1,0,0:0:0:0:
64,192,347212,1,0,0:0:0:0:
192,192,347237,1,0,0:0:0:0:
320,192,347262,1,0,0:0:0:0:
448,192,347287,1,0,0:0:0:0:
64,192,347312,1,0,0:0:0:0:
192,192,347337,1,0,0:0:0:0:
320,192,347362,1,0,0:0:0:0:
448,192,347387,1,0,0:0:0:0:
64,192,347412,1,0,0:0:0:0:
192,192,347437,1,0,0:0:0:0:
320,192,347462,1,0,0:0:0:0:
448,192,347487,1,0,0:0:0:0:
64,192,347512,1,0,0:0:0:0:
192,192,347537,1,0,0:0:0:0:
320,192,347562,1,0,0:0:0:0:
448,192,347587,1,0,0:0:0:0:
64,192,347612,1,0,0:0:0:0:
192,192,347637,1,0,0:0:0:0:
320,192,347662,1,0,0:0:0:0:
448,192,347687,1,0,0:0:0:0:
64,192,347712,1,0,0:0:0:0:
192,192,347737,1,0,0:0:0:0:
448,192,347762,1,0,0:0:0:0:
320,192,347762,1,0,0:0:0:0:
64,192,347862,1,0,0:0:0:0:
64,192,347962,1,0,0:0:0:0:
192,192,348062,1,0,0:0:0:0:
64,192,348162,1,0,0:0:0:0:
64,192,348262,1,0,0:0:0:0:
320,192,348362,1,0,0:0:0:0:
64,192,348462,1,0,0:0:0:0:
192,192,348562,1,0,0:0:0:0:
64,192,348562,1,0,0:0:0:0:
320,192,348662,1,0,0:0:0:0:
448,192,348662,1,0,0:0:0:0:
192,192,348762,1,0,0:0:0:0:
64,192,348762,1,0,0:0:0:0:
448,192,348862,1,0,0:0:0:0:
64,192,348862,1,0,0:0:0:0:
192,192,348962,1,0,0:0:0:0:
320,192,348962,1,0,0:0:0:0:
448,192,349062,1,0,0:0:0:0:
64,192,349062,1,0,0:0:0:0:
320,192,349162,1,0,0:0:0:0:
192,192,349162,1,0,0:0:0:0:
192,192,349262,1,0,0:0:0:0:
64,192,349262,1,0,0:0:0:0:
320,192,349362,1,0,0:0:0:0:
192,192,349412,1,0,0:0:0:0:
448,192,349462,1,0,0:0:0:0:
64,192,349512,1,0,0:0:0:0:
448,192,349562,1,0,0:0:0:0:
320,192,349612,1,0,0:0:0:0:
192,192,349662,1,0,0:0:0:0:
64,192,349712,1,0,0:0:0:0:
448,192,349762,1,0,0:0:0:0:
192,192,349812,1,0,0:0:0:0:
448,192,349862,1,0,0:0:0:0:
320,192,349912,1,0,0:0:0:0:
64,192,349962,1,0,0:0:0:0:
192,192,350012,1,0,0:0:0:0:
448,192,350062,1,0,0:0:0:0:
320,192,350112,1,0,0:0:0:0:
192,192,350162,1,0,0:0:0:0:
64,192,350162,1,0,0:0:0:0:
448,192,350162,1,0,0:0:0:0:
320,192,350212,1,0,0:0:0:0:
192,192,350262,1,0,0:0:0:0:
64,192,350312,1,0,0:0:0:0:
320,192,350362,1,0,0:0:0:0:
448,192,350362,1,0,0:0:0:0:
192,192,350412,1,0,0:0:0:0:
64,192,350462,1,0,0:0:0:0:
448,192,350462,1,0,0:0:0:0:
192,192,350512,1,0,0:0:0:0:
64,192,350562,1,0,0:0:0:0:
448,192,350562,1,0,0:0:0:0:
320,192,350562,1,0,0:0:0:0:
64,192,350712,1,0,0:0:0:0:
320,192,350762,1,0,0:0:0:0:
448,192,350762,1,0,0:0:0:0:
192,192,350795,1,0,0:0:0:0:
64,192,350828,1,0,0:0:0:0:
448,192,350862,1,0,0:0:0:0:
192,192,350895,1,0,0:0:0:0:
320,192,350928,1,0,0:0:0:0:
448,192,350962,128,0,351161:0:0:0:0:
192,192,350962,128,0,351111:0:0:0:0:
64,192,350962,128,0,351061:0:0:0:0:
320,192,351061,128,0,351260:0:0:0:0:
64,192,351161,128,0,351210:0:0:0:0:
192,192,351161,128,0,351409:0:0:0:0:
448,192,351260,128,0,351310:0:0:0:0:
64,192,351260,128,0,351508:0:0:0:0:
448,192,351360,128,0,351459:0:0:0:0:
320,192,351360,128,0,351508:0:0:0:0:
192,192,351459,128,0,351656:0:0:0:0:
64,192,351558,128,0,351706:0:0:0:0:
448,192,351558,128,0,351755:0:0:0:0:
320,192,351656,128,0,351706:0:0:0:0:
320,192,351755,128,0,351902:0:0:0:0:
64,192,351755,128,0,351952:0:0:0:0:
192,192,351853,128,0,351902:0:0:0:0:
448,192,351853,128,0,352050:0:0:0:0:
320,192,351952,128,0,352099:0:0:0:0:
192,192,351952,128,0,352099:0:0:0:0:
64,192,352050,128,0,352148:0:0:0:0:
192,192,352148,128,0,352294:0:0:0:0:
320,192,352148,128,0,352196:0:0:0:0:
448,192,352148,128,0,352440:0:0:0:0:
320,192,352245,1,0,0:0:0:0:
320,192,352343,128,0,352538:0:0:0:0:
192,192,352343,128,0,352391:0:0:0:0:
64,192,352343,128,0,352538:0:0:0:0:
192,192,352440,1,0,0:0:0:0:
448,192,352538,128,0,352683:0:0:0:0:
192,192,352538,128,0,352586:0:0:0:0:
64,192,352586,128,0,352683:0:0:0:0:
320,192,352635,128,0,352683:0:0:0:0:
192,192,352683,128,0,352780:0:0:0:0:
320,192,352732,128,0,352828:0:0:0:0:
448,192,352732,128,0,352926:0:0:0:0:
64,192,352780,128,0,352877:0:0:0:0:
192,192,352828,128,0,352877:0:0:0:0:
320,192,352877,128,0,353022:0:0:0:0:
192,192,352926,128,0,353070:0:0:0:0:
64,192,352926,128,0,353118:0:0:0:0:
448,192,353022,128,0,353070:0:0:0:0:
320,192,353119,128,0,353263:0:0:0:0:
448,192,353119,128,0,353215:0:0:0:0:
64,192,353215,128,0,353311:0:0:0:0:
192,192,353311,128,0,353454:0:0:0:0:
320,192,353311,128,0,353358:0:0:0:0:
448,192,353311,128,0,353454:0:0:0:0:
64,192,353406,128,0,353454:0:0:0:0:
320,192,353406,128,0,353598:0:0:0:0:
192,192,353503,128,0,353646:0:0:0:0:
448,192,353503,128,0,353550:0:0:0:0:
64,192,353503,128,0,353598:0:0:0:0:
448,192,353598,128,0,353741:0:0:0:0:
192,192,353694,128,0,353741:0:0:0:0:
320,192,353694,128,0,353789:0:0:0:0:
64,192,353694,128,0,353931:0:0:0:0:
192,192,353789,128,0,353978:0:0:0:0:
448,192,353884,128,0,354073:0:0:0:0:
320,192,353884,128,0,353931:0:0:0:0:
320,192,353978,128,0,354026:0:0:0:0:
64,192,354074,128,0,354168:0:0:0:0:
320,192,354074,128,0,354357:0:0:0:0:
192,192,354074,128,0,354263:0:0:0:0:
448,192,354168,1,0,0:0:0:0:
64,192,354263,1,0,0:0:0:0:
64,192,354357,128,0,354640:0:0:0:0:
448,192,354452,1,0,0:0:0:0:
320,192,354452,128,0,354640:0:0:0:0:
192,192,354452,128,0,354546:0:0:0:0:
448,192,354546,1,0,0:0:0:0:
192,192,354640,1,0,0:0:0:0:
192,192,354733,128,0,355015:0:0:0:0:
64,192,354828,128,0,355015:0:0:0:0:
448,192,354828,128,0,354921:0:0:0:0:
320,192,354921,1,0,0:0:0:0:
448,192,355015,1,0,0:0:0:0:
448,192,355108,128,0,355387:0:0:0:0:
64,192,355201,1,0,0:0:0:0:
192,192,355201,128,0,355387:0:0:0:0:
320,192,355201,128,0,355293:0:0:0:0:
64,192,355293,1,0,0:0:0:0:
320,192,355387,1,0,0:0:0:0:
320,192,355479,128,0,355572:0:0:0:0:
448,192,355572,128,0,355664:0:0:0:0:
64,192,355572,128,0,355633:0:0:0:0:
192,192,355602,128,0,355757:0:0:0:0:
320,192,355664,128,0,355849:0:0:0:0:
64,192,355695,128,0,355941:0:0:0:0:
448,192,355757,1,0,0:0:0:0:
448,192,355849,1,0,0:0:0:0:
320,192,355941,128,0,356032:0:0:0:0:
192,192,355941,128,0,356032:0:0:0:0:
448,192,355971,128,0,356215:0:0:0:0:
64,192,356032,1,0,0:0:0:0:
192,192,356124,1,0,0:0:0:0:
320,192,356154,128,0,356307:0:0:0:0:
192,192,356215,1,0,0:0:0:0:
448,192,356307,128,0,356579:0:0:0:0:
64,192,356307,128,0,356398:0:0:0:0:
192,192,356337,128,0,356489:0:0:0:0:
320,192,356398,1,0,0:0:0:0:
64,192,356489,1,0,0:0:0:0:
64,192,356579,1,0,0:0:0:0:
320,192,356671,1,0,0:0:0:0:
448,192,356671,128,0,356761:0:0:0:0:
192,192,356671,128,0,356738:0:0:0:0:
64,192,356716,128,0,356829:0:0:0:0:
320,192,356761,128,0,356919:0:0:0:0:
192,192,356806,128,0,356874:0:0:0:0:
448,192,356852,128,0,356964:0:0:0:0:
64,192,356897,1,0,0:0:0:0:
192,192,356942,1,0,0:0:0:0:
320,192,356987,128,0,357153:0:0:0:0:
448,192,357033,128,0,357183:0:0:0:0:
192,192,357033,128,0,357123:0:0:0:0:
64,192,357033,128,0,357093:0:0:0:0:
64,192,357213,1,0,0:0:0:0:
192,192,357213,1,0,0:0:0:0:
448,192,357302,1,0,0:0:0:0:
64,192,357302,1,0,0:0:0:0:
448,192,357393,1,0,0:0:0:0:
320,192,357393,1,0,0:0:0:0:
320,192,357482,1,0,0:0:0:0:
64,192,357482,1,0,0:0:0:0:
448,192,357572,1,0,0:0:0:0:
192,192,357572,1,0,0:0:0:0:
64,192,357661,1,0,0:0:0:0:
192,192,357661,1,0,0:0:0:0:
320,192,357751,1,0,0:0:0:0:
448,192,357751,1,0,0:0:0:0:
64,192,357840,1,0,0:0:0:0:
320,192,357840,1,0,0:0:0:0:
192,192,357929,1,0,0:0:0:0:
448,192,357929,1,0,0:0:0:0:
320,192,357973,1,0,0:0:0:0:
192,192,358017,1,0,0:0:0:0:
64,192,358106,1,0,0:0:0:0:
448,192,358106,1,0,0:0:0:0:
192,192,358150,1,0,0:0:0:0:
448,192,358194,1,0,0:0:0:0:
64,192,358283,1,0,0:0:0:0:
320,192,358283,1,0,0:0:0:0:
448,192,358327,1,0,0:0:0:0:
64,192,358371,1,0,0:0:0:0:
320,192,358415,128,0,358636:0:0:0:0:
448,192,358460,128,0,358547:0:0:0:0:
192,192,358460,128,0,358547:0:0:0:0:
64,192,358547,1,0,0:0:0:0:
192,192,358636,1,0,0:0:0:0:
64,192,358636,1,0,0:0:0:0:
448,192,358723,1,0,0:0:0:0:
320,192,358723,1,0,0:0:0:0:
320,192,358811,1,0,0:0:0:0:
192,192,358811,1,0,0:0:0:0:
64,192,358898,1,0,0:0:0:0:
192,192,358898,1,0,0:0:0:0:
448,192,358986,1,0,0:0:0:0:
320,192,358986,1,0,0:0:0:0:
192,192,359073,1,0,0:0:0:0:
64,192,359073,1,0,0:0:0:0:
320,192,359160,1,0,0:0:0:0:
192,192,359160,1,0,0:0:0:0:
448,192,359246,1,0,0:0:0:0:
320,192,359246,1,0,0:0:0:0:
64,192,359334,1,0,0:0:0:0:
192,192,359334,1,0,0:0:0:0:
320,192,359377,1,0,0:0:0:0:
192,192,359420,1,0,0:0:0:0:
320,192,359464,1,0,0:0:0:0:
448,192,359508,1,0,0:0:0:0:
64,192,359508,1,0,0:0:0:0:
192,192,359551,1,0,0:0:0:0:
320,192,359594,1,0,0:0:0:0:
192,192,359637,1,0,0:0:0:0:
448,192,359681,1,0,0:0:0:0:
320,192,359681,1,0,0:0:0:0:
64,192,359724,1,0,0:0:0:0:
192,192,359767,1,0,0:0:0:0:
320,192,359810,128,0,359895:0:0:0:0:
448,192,359853,128,0,359938:0:0:0:0:
64,192,359853,128,0,359938:0:0:0:0:
192,192,359853,128,0,359938:0:0:0:0:
320,192,359938,1,0,0:0:0:0:
320,192,360025,128,0,360153:0:0:0:0:
64,192,360196,1,0,0:0:0:0:
448,192,360196,1,0,0:0:0:0:
64,192,360281,1,0,0:0:0:0:
320,192,360367,1,0,0:0:0:0:
192,192,360367,1,0,0:0:0:0:
448,192,360409,128,0,360516:0:0:0:0:
64,192,360452,1,0,0:0:0:0:
192,192,360494,128,0,360601:0:0:0:0:
320,192,360538,1,0,0:0:0:0:
320,192,360622,1,0,0:0:0:0:
448,192,360622,1,0,0:0:0:0:
64,192,360708,1,0,0:0:0:0:
192,192,360708,1,0,0:0:0:0:
192,192,360792,128,0,360877:0:0:0:0:
64,192,360792,128,0,360887:0:0:0:0:
448,192,360866,128,0,360961:0:0:0:0:
320,192,360877,128,0,360961:0:0:0:0:
192,192,360961,1,0,0:0:0:0:
64,192,361014,128,0,361215:0:0:0:0:
320,192,361046,128,0,361161:0:0:0:0:
448,192,361046,1,0,0:0:0:0:
448,192,361215,1,0,0:0:0:0:
320,192,361215,1,0,0:0:0:0:
192,192,361299,1,0,0:0:0:0:
64,192,361383,1,0,0:0:0:0:
320,192,361467,1,0,0:0:0:0:
192,192,361551,128,0,361719:0:0:0:0:
448,192,361635,128,0,361789:0:0:0:0:
64,192,361719,128,0,361803:0:0:0:0:
320,192,361775,128,0,361845:0:0:0:0:
192,192,361831,128,0,361900:0:0:0:0:
448,192,361887,128,0,361998:0:0:0:0:
64,192,361887,128,0,361956:0:0:0:0:
320,192,361928,128,0,362081:0:0:0:0:
192,192,361970,128,0,362039:0:0:0:0:
64,192,362012,128,0,362123:0:0:0:0:
448,192,362053,128,0,362164:0:0:0:0:
192,192,362095,128,0,362206:0:0:0:0:
320,192,362137,128,0,362248:0:0:0:0:
64,192,362178,128,0,362331:0:0:0:0:
448,192,362220,128,0,362289:0:0:0:0:
192,192,362262,128,0,362414:0:0:0:0:
320,192,362303,128,0,362373:0:0:0:0:
448,192,362345,128,0,362456:0:0:0:0:
64,192,362387,128,0,362503:0:0:0:0:
320,192,362428,128,0,362570:0:0:0:0:
192,192,362470,128,0,362537:0:0:0:0:
448,192,362512,128,0,362603:0:0:0:0:
64,192,362554,128,0,362636:0:0:0:0:
192,192,362586,128,0,362669:0:0:0:0:
320,192,362619,128,0,362701:0:0:0:0:
448,192,362652,128,0,362734:0:0:0:0:
64,192,362685,128,0,362767:0:0:0:0:
192,192,362718,128,0,362800:0:0:0:0:
320,192,362751,128,0,362833:0:0:0:0:
448,192,362784,128,0,362866:0:0:0:0:
64,192,362817,128,0,362899:0:0:0:0:
192,192,362849,128,0,362932:0:0:0:0:
320,192,362882,128,0,362964:0:0:0:0:
448,192,362915,128,0,362997:0:0:0:0:
64,192,362948,128,0,363030:0:0:0:0:
192,192,362981,128,0,363063:0:0:0:0:
320,192,363014,128,0,363096:0:0:0:0:
448,192,363047,128,0,363129:0:0:0:0:
64,192,363080,128,0,363162:0:0:0:0:
192,192,363112,128,0,363195:0:0:0:0:
320,192,363145,128,0,363211:0:0:0:0:
448,192,363178,1,0,0:0:0:0:
64,192,363211,128,0,363319:0:0:0:0:
320,192,363265,1,0,0:0:0:0:
192,192,363319,1,0,0:0:0:0:
64,192,363373,128,0,363535:0:0:0:0:
192,192,363454,128,0,363535:0:0:0:0:
320,192,363535,128,0,363589:0:0:0:0:
448,192,363535,1,0,0:0:0:0:
192,192,363589,1,0,0:0:0:0:
64,192,363589,128,0,363697:0:0:0:0:
320,192,363643,1,0,0:0:0:0:
448,192,363697,128,0,363805:0:0:0:0:
192,192,363697,1,0,0:0:0:0:
64,192,363751,1,0,0:0:0:0:
192,192,363805,1,0,0:0:0:0:
64,192,363860,5,0,0:0:0:0:
320,192,363860,1,0,0:0:0:0:
448,192,363860,1,0,0:0:0:0:
192,192,363940,1,0,0:0:0:0:
320,192,363940,1,0,0:0:0:0:
320,192,364022,1,0,0:0:0:0:
192,192,364102,1,0,0:0:0:0:
448,192,364102,1,0,0:0:0:0:
64,192,364102,1,0,0:0:0:0:
64,192,364183,1,0,0:0:0:0:
320,192,364183,1,0,0:0:0:0:
64,192,364263,1,0,0:0:0:0:
320,192,364344,1,0,0:0:0:0:
448,192,364344,1,0,0:0:0:0:
192,192,364344,1,0,0:0:0:0:
64,192,364424,1,0,0:0:0:0:
448,192,364424,1,0,0:0:0:0:
448,192,364504,1,0,0:0:0:0:
320,192,364584,1,0,0:0:0:0:
64,192,364584,1,0,0:0:0:0:
192,192,364584,1,0,0:0:0:0:
448,192,364664,1,0,0:0:0:0:
192,192,364664,1,0,0:0:0:0:
192,192,364743,1,0,0:0:0:0:
64,192,364824,1,0,0:0:0:0:
320,192,364824,1,0,0:0:0:0:
448,192,364824,1,0,0:0:0:0:
320,192,364903,1,0,0:0:0:0:
64,192,364983,1,0,0:0:0:0:
192,192,364983,1,0,0:0:0:0:
448,192,365014,1,0,0:0:0:0:
320,192,365046,1,0,0:0:0:0:
192,192,365078,1,0,0:0:0:0:
64,192,365109,1,0,0:0:0:0:
320,192,365142,1,0,0:0:0:0:
448,192,365142,1,0,0:0:0:0:
448,192,365221,1,0,0:0:0:0:
192,192,365221,1,0,0:0:0:0:
448,192,365300,1,0,0:0:0:0:
192,192,365378,1,0,0:0:0:0:
64,192,365378,1,0,0:0:0:0:
320,192,365378,1,0,0:0:0:0:
64,192,365458,1,0,0:0:0:0:
448,192,365458,1,0,0:0:0:0:
64,192,365536,1,0,0:0:0:0:
320,192,365615,1,0,0:0:0:0:
192,192,365615,1,0,0:0:0:0:
448,192,365615,1,0,0:0:0:0:
64,192,365693,1,0,0:0:0:0:
320,192,365693,1,0,0:0:0:0:
320,192,365772,1,0,0:0:0:0:
192,192,365811,1,0,0:0:0:0:
448,192,365850,1,0,0:0:0:0:
64,192,365889,1,0,0:0:0:0:
320,192,365929,1,0,0:0:0:0:
192,192,365929,1,0,0:0:0:0:
192,192,366007,1,0,0:0:0:0:
64,192,366085,1,0,0:0:0:0:
320,192,366085,1,0,0:0:0:0:
448,192,366085,1,0,0:0:0:0:
448,192,366162,1,0,0:0:0:0:
64,192,366241,1,0,0:0:0:0:
192,192,366266,1,0,0:0:0:0:
320,192,366292,1,0,0:0:0:0:
448,192,366318,1,0,0:0:0:0:
192,192,366344,1,0,0:0:0:0:
320,192,366370,1,0,0:0:0:0:
64,192,366397,1,0,0:0:0:0:
448,192,366474,1,0,0:0:0:0:
64,192,366474,1,0,0:0:0:0:
64,192,366552,1,0,0:0:0:0:
448,192,366629,1,0,0:0:0:0:
192,192,366629,1,0,0:0:0:0:
320,192,366629,1,0,0:0:0:0:
320,192,366706,1,0,0:0:0:0:
64,192,366706,1,0,0:0:0:0:
320,192,366783,1,0,0:0:0:0:
192,192,366861,1,0,0:0:0:0:
64,192,366861,1,0,0:0:0:0:
448,192,366861,1,0,0:0:0:0:
192,192,366937,1,0,0:0:0:0:
448,192,367014,1,0,0:0:0:0:
320,192,367044,1,0,0:0:0:0:
192,192,367075,1,0,0:0:0:0:
64,192,367106,1,0,0:0:0:0:
320,192,367136,1,0,0:0:0:0:
448,192,367168,1,0,0:0:0:0:
64,192,367244,1,0,0:0:0:0:
192,192,367270,1,0,0:0:0:0:
320,192,367295,1,0,0:0:0:0:
448,192,367321,1,0,0:0:0:0:
192,192,367346,1,0,0:0:0:0:
320,192,367371,1,0,0:0:0:0:
64,192,367397,1,0,0:0:0:0:
448,192,367474,1,0,0:0:0:0:
192,192,367550,1,0,0:0:0:0:
448,192,367550,1,0,0:0:0:0:
64,192,367626,1,0,0:0:0:0:
320,192,367626,128,0,367701:0:0:0:0:
448,192,367663,128,0,367720:0:0:0:0:
192,192,367701,128,0,367853:0:0:0:0:
64,192,367739,128,0,367853:0:0:0:0:
320,192,367778,1,0,0:0:0:0:
448,192,367778,128,0,367929:0:0:0:0:
320,192,367853,128,0,368004:0:0:0:0:
64,192,367929,1,0,0:0:0:0:
192,192,367929,128,0,368080:0:0:0:0:
64,192,368004,128,0,368155:0:0:0:0:
448,192,368080,1,0,0:0:0:0:
320,192,368080,128,0,368231:0:0:0:0:
192,192,368155,128,0,368306:0:0:0:0:
64,192,368231,1,0,0:0:0:0:
448,192,368231,128,0,368457:0:0:0:0:
320,192,368306,1,0,0:0:0:0:
192,192,368382,1,0,0:0:0:0:
64,192,368382,128,0,368532:0:0:0:0:
320,192,368457,128,0,368606:0:0:0:0:
192,192,368532,128,0,368681:0:0:0:0:
448,192,368606,128,0,368755:0:0:0:0:
64,192,368681,128,0,368780:0:0:0:0:
320,192,368730,128,0,368780:0:0:0:0:
192,192,368780,1,0,0:0:0:0:
320,192,368830,1,0,0:0:0:0:
448,192,368830,1,0,0:0:0:0:
64,192,368830,1,0,0:0:0:0:
192,192,368867,1,0,0:0:0:0:
320,192,368904,1,0,0:0:0:0:
64,192,368941,1,0,0:0:0:0:
448,192,368979,1,0,0:0:0:0:
192,192,369016,1,0,0:0:0:0:
448,192,369053,1,0,0:0:0:0:
320,192,369090,1,0,0:0:0:0:
64,192,369128,1,0,0:0:0:0:
448,192,369165,1,0,0:0:0:0:
64,192,369202,1,0,0:0:0:0:
320,192,369239,1,0,0:0:0:0:
192,192,369276,1,0,0:0:0:0:
448,192,369349,1,0,0:0:0:0:
192,192,369424,1,0,0:0:0:0:
320,192,369460,1,0,0:0:0:0:
192,192,369497,1,0,0:0:0:0:
448,192,369534,1,0,0:0:0:0:
64,192,369571,1,0,0:0:0:0:
320,192,369607,1,0,0:0:0:0:
64,192,369644,1,0,0:0:0:0:
192,192,369681,1,0,0:0:0:0:
448,192,369718,1,0,0:0:0:0:
64,192,369754,1,0,0:0:0:0:
448,192,369791,1,0,0:0:0:0:
320,192,369828,1,0,0:0:0:0:
64,192,369865,1,0,0:0:0:0:
192,192,369865,1,0,0:0:0:0:
320,192,369938,1,0,0:0:0:0:
448,192,370011,1,0,0:0:0:0:
64,192,370047,1,0,0:0:0:0:
448,192,370083,1,0,0:0:0:0:
320,192,370120,1,0,0:0:0:0:
192,192,370157,1,0,0:0:0:0:
448,192,370193,1,0,0:0:0:0:
192,192,370229,1,0,0:0:0:0:
320,192,370266,1,0,0:0:0:0:
64,192,370303,1,0,0:0:0:0:
448,192,370339,1,0,0:0:0:0:
64,192,370375,1,0,0:0:0:0:
192,192,370411,1,0,0:0:0:0:
320,192,370448,1,0,0:0:0:0:
64,192,370484,1,0,0:0:0:0:
320,192,370520,1,0,0:0:0:0:
192,192,370556,1,0,0:0:0:0:
448,192,370593,1,0,0:0:0:0:
64,192,370617,1,0,0:0:0:0:
192,192,370641,1,0,0:0:0:0:
320,192,370665,1,0,0:0:0:0:
448,192,370738,1,0,0:0:0:0:
192,192,370810,1,0,0:0:0:0:
192,192,370882,1,0,0:0:0:0:
448,192,370905,1,0,0:0:0:0:
320,192,370929,1,0,0:0:0:0:
64,192,370953,1,0,0:0:0:0:
320,192,371026,1,0,0:0:0:0:
448,192,371026,1,0,0:0:0:0:
192,192,371097,1,0,0:0:0:0:
64,192,371169,1,0,0:0:0:0:
448,192,371169,1,0,0:0:0:0:
320,192,371240,1,0,0:0:0:0:
448,192,371313,1,0,0:0:0:0:
64,192,371313,1,0,0:0:0:0:
320,192,371384,1,0,0:0:0:0:
64,192,371455,1,0,0:0:0:0:
448,192,371455,1,0,0:0:0:0:
192,192,371526,1,0,0:0:0:0:
64,192,371598,1,0,0:0:0:0:
448,192,371598,1,0,0:0:0:0:
448,192,371669,1,0,0:0:0:0:
64,192,371669,1,0,0:0:0:0:
192,192,371740,1,0,0:0:0:0:
448,192,371740,1,0,0:0:0:0:
320,192,371810,1,0,0:0:0:0:
64,192,371882,1,0,0:0:0:0:
448,192,371917,1,0,0:0:0:0:
64,192,371952,1,0,0:0:0:0:
448,192,371988,1,0,0:0:0:0:
320,192,372023,1,0,0:0:0:0:
192,192,372023,1,0,0:0:0:0:
64,192,372093,1,0,0:0:0:0:
448,192,372165,1,0,0:0:0:0:
192,192,372235,1,0,0:0:0:0:
320,192,372306,1,0,0:0:0:0:
448,192,372306,1,0,0:0:0:0:
64,192,372329,1,0,0:0:0:0:
192,192,372376,1,0,0:0:0:0:
320,192,372446,1,0,0:0:0:0:
448,192,372446,1,0,0:0:0:0:
192,192,372516,1,0,0:0:0:0:
64,192,372516,1,0,0:0:0:0:
320,192,372539,1,0,0:0:0:0:
448,192,372586,1,0,0:0:0:0:
64,192,372655,1,0,0:0:0:0:
192,192,372655,1,0,0:0:0:0:
320,192,372726,1,0,0:0:0:0:
448,192,372726,1,0,0:0:0:0:
64,192,372749,1,0,0:0:0:0:
320,192,372795,1,0,0:0:0:0:
64,192,372866,1,0,0:0:0:0:
192,192,372866,1,0,0:0:0:0:
448,192,372889,1,0,0:0:0:0:
192,192,372935,1,0,0:0:0:0:
448,192,373005,1,0,0:0:0:0:
64,192,373028,1,0,0:0:0:0:
448,192,373074,1,0,0:0:0:0:
64,192,373144,1,0,0:0:0:0:
320,192,373167,1,0,0:0:0:0:
64,192,373213,1,0,0:0:0:0:
320,192,373282,1,0,0:0:0:0:
192,192,373305,1,0,0:0:0:0:
320,192,373351,1,0,0:0:0:0:
64,192,373421,1,0,0:0:0:0:
192,192,373421,1,0,0:0:0:0:
448,192,373421,1,0,0:0:0:0:
320,192,373489,1,0,0:0:0:0:
64,192,373558,1,0,0:0:0:0:
192,192,373558,1,0,0:0:0:0:
448,192,373604,1,0,0:0:0:0:
64,192,373650,1,0,0:0:0:0:
192,192,373696,1,0,0:0:0:0:
320,192,373696,1,0,0:0:0:0:
448,192,373765,1,0,0:0:0:0:
320,192,373834,1,0,0:0:0:0:
64,192,373834,1,0,0:0:0:0:
320,192,373903,1,0,0:0:0:0:
192,192,373903,1,0,0:0:0:0:
448,192,373972,1,0,0:0:0:0:
64,192,373972,1,0,0:0:0:0:
320,192,374041,1,0,0:0:0:0:
64,192,374110,1,0,0:0:0:0:
192,192,374110,1,0,0:0:0:0:
320,192,374179,1,0,0:0:0:0:
64,192,374179,1,0,0:0:0:0:
448,192,374248,1,0,0:0:0:0:
192,192,374248,1,0,0:0:0:0:
64,192,374317,1,0,0:0:0:0:
448,192,374386,1,0,0:0:0:0:
320,192,374386,1,0,0:0:0:0:
192,192,374455,1,0,0:0:0:0:
448,192,374455,1,0,0:0:0:0:
320,192,374524,1,0,0:0:0:0:
64,192,374524,1,0,0:0:0:0:
192,192,374593,1,0,0:0:0:0:
448,192,374662,1,0,0:0:0:0:
320,192,374662,1,0,0:0:0:0:
64,192,374708,1,0,0:0:0:0:
448,192,374754,1,0,0:0:0:0:
320,192,374800,1,0,0:0:0:0:
192,192,374800,1,0,0:0:0:0:
64,192,374869,1,0,0:0:0:0:
192,192,374938,1,0,0:0:0:0:
448,192,374938,1,0,0:0:0:0:
192,192,375007,1,0,0:0:0:0:
320,192,375007,1,0,0:0:0:0:
64,192,375076,1,0,0:0:0:0:
448,192,375076,1,0,0:0:0:0:
192,192,375145,1,0,0:0:0:0:
320,192,375179,1,0,0:0:0:0:
448,192,375214,1,0,0:0:0:0:
192,192,375283,1,0,0:0:0:0:
64,192,375306,1,0,0:0:0:0:
448,192,375329,1,0,0:0:0:0:
320,192,375352,1,0,0:0:0:0:
192,192,375421,1,0,0:0:0:0:
448,192,375489,1,0,0:0:0:0:
64,192,375512,1,0,0:0:0:0:
320,192,375558,1,0,0:0:0:0:
448,192,375593,1,0,0:0:0:0:
64,192,375627,1,0,0:0:0:0:
192,192,375627,1,0,0:0:0:0:
320,192,375696,1,0,0:0:0:0:
448,192,375765,1,0,0:0:0:0:
192,192,375765,1,0,0:0:0:0:
448,192,375834,1,0,0:0:0:0:
64,192,375834,1,0,0:0:0:0:
192,192,375903,1,0,0:0:0:0:
320,192,375903,1,0,0:0:0:0:
448,192,375972,1,0,0:0:0:0:
64,192,376041,1,0,0:0:0:0:
320,192,376041,1,0,0:0:0:0:
448,192,376110,1,0,0:0:0:0:
64,192,376110,1,0,0:0:0:0:
192,192,376179,1,0,0:0:0:0:
320,192,376219,1,0,0:0:0:0:
64,192,376258,1,0,0:0:0:0:
192,192,376297,1,0,0:0:0:0:
448,192,376337,1,0,0:0:0:0:
320,192,376376,1,0,0:0:0:0:
64,192,376416,1,0,0:0:0:0:
448,192,376455,1,0,0:0:0:0:
192,192,376489,1,0,0:0:0:0:
320,192,376524,1,0,0:0:0:0:
64,192,376558,1,0,0:0:0:0:
448,192,376593,1,0,0:0:0:0:
192,192,376627,1,0,0:0:0:0:
320,192,376662,1,0,0:0:0:0:
64,192,376696,1,0,0:0:0:0:
448,192,376731,1,0,0:0:0:0:
320,192,376754,1,0,0:0:0:0:
192,192,376777,1,0,0:0:0:0:
64,192,376800,1,0,0:0:0:0:
448,192,376869,1,0,0:0:0:0:
448,192,376938,1,0,0:0:0:0:
64,192,377007,1,0,0:0:0:0:
192,192,377030,1,0,0:0:0:0:
320,192,377053,1,0,0:0:0:0:
448,192,377076,1,0,0:0:0:0:
64,192,377145,1,0,0:0:0:0:
64,192,377214,1,0,0:0:0:0:
448,192,377283,1,0,0:0:0:0:
320,192,377283,1,0,0:0:0:0:
448,192,377352,1,0,0:0:0:0:
320,192,377352,1,0,0:0:0:0:
448,192,377420,1,0,0:0:0:0:
320,192,377420,1,0,0:0:0:0:
448,192,377489,1,0,0:0:0:0:
320,192,377489,1,0,0:0:0:0:
64,192,377558,1,0,0:0:0:0:
192,192,377593,1,0,0:0:0:0:
320,192,377627,1,0,0:0:0:0:
64,192,377662,1,0,0:0:0:0:
448,192,377696,1,0,0:0:0:0:
320,192,377731,1,0,0:0:0:0:
192,192,377765,1,0,0:0:0:0:
448,192,377834,1,0,0:0:0:0:
320,192,377834,1,0,0:0:0:0:
64,192,377834,1,0,0:0:0:0:
192,192,377972,1,0,0:0:0:0:
448,192,377972,1,0,0:0:0:0:
320,192,378041,1,0,0:0:0:0:
192,192,378041,1,0,0:0:0:0:
192,192,378110,1,0,0:0:0:0:
448,192,378110,1,0,0:0:0:0:
64,192,378248,1,0,0:0:0:0:
192,192,378248,1,0,0:0:0:0:
320,192,378248,1,0,0:0:0:0:
64,192,378386,1,0,0:0:0:0:
448,192,378386,1,0,0:0:0:0:
192,192,378455,1,0,0:0:0:0:
448,192,378455,1,0,0:0:0:0:
64,192,378524,1,0,0:0:0:0:
448,192,378524,1,0,0:0:0:0:
192,192,378662,1,0,0:0:0:0:
320,192,378662,1,0,0:0:0:0:
64,192,378662,1,0,0:0:0:0:
448,192,378731,1,0,0:0:0:0:
64,192,378731,1,0,0:0:0:0:
192,192,378800,1,0,0:0:0:0:
320,192,378800,1,0,0:0:0:0:
192,192,378869,1,0,0:0:0:0:
64,192,378938,1,0,0:0:0:0:
320,192,378938,1,0,0:0:0:0:
448,192,378938,1,0,0:0:0:0:
448,192,379006,1,0,0:0:0:0:
320,192,379006,1,0,0:0:0:0:
192,192,379074,1,0,0:0:0:0:
320,192,379142,1,0,0:0:0:0:
64,192,379142,1,0,0:0:0:0:
64,192,379210,1,0,0:0:0:0:
448,192,379256,1,0,0:0:0:0:
320,192,379301,1,0,0:0:0:0:
192,192,379347,1,0,0:0:0:0:
64,192,379347,1,0,0:0:0:0:
448,192,379392,1,0,0:0:0:0:
192,192,379415,1,0,0:0:0:0:
320,192,379438,1,0,0:0:0:0:
64,192,379483,1,0,0:0:0:0:
448,192,379551,1,0,0:0:0:0:
320,192,379551,1,0,0:0:0:0:
448,192,379619,1,0,0:0:0:0:
192,192,379688,1,0,0:0:0:0:
64,192,379688,1,0,0:0:0:0:
448,192,379756,1,0,0:0:0:0:
320,192,379756,1,0,0:0:0:0:
64,192,379801,1,0,0:0:0:0:
320,192,379824,1,0,0:0:0:0:
192,192,379847,1,0,0:0:0:0:
448,192,379892,1,0,0:0:0:0:
192,192,379960,1,0,0:0:0:0:
64,192,379960,1,0,0:0:0:0:
448,192,380028,1,0,0:0:0:0:
320,192,380028,1,0,0:0:0:0:
64,192,380063,1,0,0:0:0:0:
192,192,380097,1,0,0:0:0:0:
320,192,380131,1,0,0:0:0:0:
448,192,380165,1,0,0:0:0:0:
448,192,380233,1,0,0:0:0:0:
64,192,380233,1,0,0:0:0:0:
192,192,380301,1,0,0:0:0:0:
320,192,380301,1,0,0:0:0:0:
192,192,380438,1,0,0:0:0:0:
64,192,380438,1,0,0:0:0:0:
320,192,380472,1,0,0:0:0:0:
448,192,380506,1,0,0:0:0:0:
192,192,380540,1,0,0:0:0:0:
64,192,380574,1,0,0:0:0:0:
64,192,380642,1,0,0:0:0:0:
320,192,380642,1,0,0:0:0:0:
448,192,380710,1,0,0:0:0:0:
192,192,380710,1,0,0:0:0:0:
192,192,380847,1,0,0:0:0:0:
320,192,380847,1,0,0:0:0:0:
64,192,380881,1,0,0:0:0:0:
320,192,380915,1,0,0:0:0:0:
64,192,380983,1,0,0:0:0:0:
448,192,380983,1,0,0:0:0:0:
192,192,381017,1,0,0:0:0:0:
320,192,381051,1,0,0:0:0:0:
448,192,381119,1,0,0:0:0:0:
192,192,381119,1,0,0:0:0:0:
64,192,381119,1,0,0:0:0:0:
64,192,381188,1,0,0:0:0:0:
192,192,381188,1,0,0:0:0:0:
320,192,381256,1,0,0:0:0:0:
192,192,381324,1,0,0:0:0:0:
448,192,381324,1,0,0:0:0:0:
448,192,381392,1,0,0:0:0:0:
64,192,381438,1,0,0:0:0:0:
192,192,381483,1,0,0:0:0:0:
320,192,381528,1,0,0:0:0:0:
448,192,381528,1,0,0:0:0:0:
64,192,381574,1,0,0:0:0:0:
320,192,381597,1,0,0:0:0:0:
192,192,381619,1,0,0:0:0:0:
448,192,381665,1,0,0:0:0:0:
64,192,381733,1,0,0:0:0:0:
192,192,381733,1,0,0:0:0:0:
64,192,381801,1,0,0:0:0:0:
320,192,381869,1,0,0:0:0:0:
448,192,381869,1,0,0:0:0:0:
64,192,381938,1,0,0:0:0:0:
192,192,381938,1,0,0:0:0:0:
448,192,381983,1,0,0:0:0:0:
192,192,382006,1,0,0:0:0:0:
320,192,382028,1,0,0:0:0:0:
64,192,382074,1,0,0:0:0:0:
320,192,382142,1,0,0:0:0:0:
448,192,382142,1,0,0:0:0:0:
64,192,382210,1,0,0:0:0:0:
192,192,382210,1,0,0:0:0:0:
448,192,382244,1,0,0:0:0:0:
320,192,382278,1,0,0:0:0:0:
192,192,382313,1,0,0:0:0:0:
64,192,382347,1,0,0:0:0:0:
64,192,382415,1,0,0:0:0:0:
448,192,382415,1,0,0:0:0:0:
320,192,382483,1,0,0:0:0:0:
192,192,382483,1,0,0:0:0:0:
320,192,382619,1,0,0:0:0:0:
448,192,382619,1,0,0:0:0:0:
192,192,382653,1,0,0:0:0:0:
64,192,382688,1,0,0:0:0:0:
320,192,382722,1,0,0:0:0:0:
448,192,382756,1,0,0:0:0:0:
448,192,382824,1,0,0:0:0:0:
192,192,382824,1,0,0:0:0:0:
64,192,382892,1,0,0:0:0:0:
320,192,382892,1,0,0:0:0:0:
320,192,383028,1,0,0:0:0:0:
192,192,383028,1,0,0:0:0:0:
448,192,383063,1,0,0:0:0:0:
192,192,383097,1,0,0:0:0:0:
448,192,383165,1,0,0:0:0:0:
64,192,383165,1,0,0:0:0:0:
320,192,383199,1,0,0:0:0:0:
192,192,383233,1,0,0:0:0:0:
448,192,383301,1,0,0:0:0:0:
320,192,383301,1,0,0:0:0:0:
64,192,383301,1,0,0:0:0:0:
320,192,383369,1,0,0:0:0:0:
448,192,383369,1,0,0:0:0:0:
192,192,383438,1,0,0:0:0:0:
64,192,383506,1,0,0:0:0:0:
320,192,383506,1,0,0:0:0:0:
64,192,383574,1,0,0:0:0:0:
448,192,383619,1,0,0:0:0:0:
320,192,383665,1,0,0:0:0:0:
64,192,383710,1,0,0:0:0:0:
192,192,383710,1,0,0:0:0:0:
448,192,383756,1,0,0:0:0:0:
192,192,383778,1,0,0:0:0:0:
320,192,383801,1,0,0:0:0:0:
64,192,383847,1,0,0:0:0:0:
320,192,383915,1,0,0:0:0:0:
448,192,383915,1,0,0:0:0:0:
448,192,383983,1,0,0:0:0:0:
64,192,384051,1,0,0:0:0:0:
192,192,384051,1,0,0:0:0:0:
320,192,384119,1,0,0:0:0:0:
448,192,384119,1,0,0:0:0:0:
64,192,384165,1,0,0:0:0:0:
320,192,384188,1,0,0:0:0:0:
192,192,384210,1,0,0:0:0:0:
448,192,384256,1,0,0:0:0:0:
64,192,384324,1,0,0:0:0:0:
192,192,384324,1,0,0:0:0:0:
320,192,384392,1,0,0:0:0:0:
448,192,384392,1,0,0:0:0:0:
64,192,384426,1,0,0:0:0:0:
192,192,384460,1,0,0:0:0:0:
320,192,384494,1,0,0:0:0:0:
448,192,384528,1,0,0:0:0:0:
64,192,384597,1,0,0:0:0:0:
448,192,384597,1,0,0:0:0:0:
320,192,384665,1,0,0:0:0:0:
192,192,384665,1,0,0:0:0:0:
64,192,384801,1,0,0:0:0:0:
192,192,384801,1,0,0:0:0:0:
320,192,384835,1,0,0:0:0:0:
448,192,384869,1,0,0:0:0:0:
192,192,384903,1,0,0:0:0:0:
64,192,384938,1,0,0:0:0:0:
320,192,385006,1,0,0:0:0:0:
64,192,385006,1,0,0:0:0:0:
192,192,385074,1,0,0:0:0:0:
448,192,385074,1,0,0:0:0:0:
320,192,385210,1,0,0:0:0:0:
192,192,385210,1,0,0:0:0:0:
64,192,385244,1,0,0:0:0:0:
320,192,385278,1,0,0:0:0:0:
448,192,385347,1,0,0:0:0:0:
64,192,385347,1,0,0:0:0:0:
192,192,385381,1,0,0:0:0:0:
320,192,385415,1,0,0:0:0:0:
448,192,385483,128,0,385619:0:0:0:0:
192,192,385483,128,0,385551:0:0:0:0:
64,192,385483,128,0,385619:0:0:0:0:
320,192,385551,128,0,385619:0:0:0:0:
192,192,385619,1,0,0:0:0:0:
192,192,385688,128,0,385756:0:0:0:0:
320,192,385688,128,0,385756:0:0:0:0:
448,192,385756,1,0,0:0:0:0:
64,192,385824,1,0,0:0:0:0:
448,192,385892,128,0,386028:0:0:0:0:
192,192,385892,128,0,386028:0:0:0:0:
320,192,385892,128,0,385960:0:0:0:0:
64,192,385960,128,0,386028:0:0:0:0:
320,192,386028,1,0,0:0:0:0:
64,192,386097,128,0,386165:0:0:0:0:
320,192,386097,128,0,386165:0:0:0:0:
192,192,386165,1,0,0:0:0:0:
448,192,386233,1,0,0:0:0:0:
320,192,386301,128,0,386438:0:0:0:0:
64,192,386301,128,0,386369:0:0:0:0:
192,192,386301,128,0,386369:0:0:0:0:
448,192,386369,128,0,386438:0:0:0:0:
64,192,386438,1,0,0:0:0:0:
192,192,386438,1,0,0:0:0:0:
64,192,386506,128,0,386574:0:0:0:0:
448,192,386506,128,0,386574:0:0:0:0:
192,192,386574,1,0,0:0:0:0:
320,192,386574,1,0,0:0:0:0:
192,192,386642,1,0,0:0:0:0:
64,192,386710,128,0,386847:0:0:0:0:
448,192,386710,128,0,386778:0:0:0:0:
320,192,386710,128,0,386778:0:0:0:0:
192,192,386778,128,0,386847:0:0:0:0:
448,192,386847,1,0,0:0:0:0:
320,192,386847,1,0,0:0:0:0:
192,192,386915,128,0,386983:0:0:0:0:
448,192,386915,128,0,386983:0:0:0:0:
64,192,386983,1,0,0:0:0:0:
320,192,386983,1,0,0:0:0:0:
320,192,387051,1,0,0:0:0:0:
192,192,387051,1,0,0:0:0:0:
64,192,387119,128,0,387392:0:0:0:0:
448,192,387119,1,0,0:0:0:0:
448,192,387392,128,0,387665:0:0:0:0:
192,192,387392,1,0,0:0:0:0:
192,192,387528,1,0,0:0:0:0:
320,192,387665,128,0,387801:0:0:0:0:
192,192,387665,128,0,387733:0:0:0:0:
64,192,387665,128,0,387733:0:0:0:0:
448,192,387733,1,0,0:0:0:0:
192,192,387801,1,0,0:0:0:0:
64,192,387801,1,0,0:0:0:0:
320,192,387869,128,0,387938:0:0:0:0:
64,192,387869,128,0,388006:0:0:0:0:
448,192,387869,1,0,0:0:0:0:
448,192,387938,1,0,0:0:0:0:
192,192,387938,1,0,0:0:0:0:
320,192,388006,1,0,0:0:0:0:
448,192,388074,128,0,388210:0:0:0:0:
64,192,388074,128,0,388142:0:0:0:0:
192,192,388074,128,0,388142:0:0:0:0:
320,192,388142,1,0,0:0:0:0:
192,192,388210,1,0,0:0:0:0:
64,192,388210,1,0,0:0:0:0:
448,192,388278,128,0,388347:0:0:0:0:
192,192,388278,128,0,388415:0:0:0:0:
320,192,388278,1,0,0:0:0:0:
64,192,388347,1,0,0:0:0:0:
320,192,388347,1,0,0:0:0:0:
448,192,388415,1,0,0:0:0:0:
64,192,388483,128,0,388551:0:0:0:0:
320,192,388483,128,0,388551:0:0:0:0:
192,192,388483,1,0,0:0:0:0:
192,192,388551,1,0,0:0:0:0:
448,192,388619,128,0,388688:0:0:0:0:
320,192,388619,128,0,388688:0:0:0:0:
64,192,388619,1,0,0:0:0:0:
64,192,388688,1,0,0:0:0:0:
448,192,388756,128,0,388824:0:0:0:0:
320,192,388756,128,0,388824:0:0:0:0:
192,192,388756,128,0,388892:0:0:0:0:
64,192,388824,1,0,0:0:0:0:
320,192,388892,1,0,0:0:0:0:
448,192,388892,1,0,0:0:0:0:
448,192,388960,128,0,389097:0:0:0:0:
192,192,388960,128,0,389028:0:0:0:0:
64,192,388960,1,0,0:0:0:0:
64,192,389028,1,0,0:0:0:0:
320,192,389028,1,0,0:0:0:0:
192,192,389097,1,0,0:0:0:0:
192,192,389165,1,0,0:0:0:0:
320,192,389165,128,0,389233:0:0:0:0:
448,192,389165,128,0,389233:0:0:0:0:
64,192,389233,1,0,0:0:0:0:
320,192,389301,1,0,0:0:0:0:
448,192,389301,1,0,0:0:0:0:
448,192,389369,128,0,389438:0:0:0:0:
64,192,389369,128,0,389438:0:0:0:0:
192,192,389369,128,0,389438:0:0:0:0:
320,192,389438,1,0,0:0:0:0:
64,192,389506,1,0,0:0:0:0:
448,192,389574,128,0,389642:0:0:0:0:
192,192,389574,128,0,389642:0:0:0:0:
320,192,389574,1,0,0:0:0:0:
320,192,389642,1,0,0:0:0:0:
64,192,389710,128,0,389778:0:0:0:0:
192,192,389710,128,0,389778:0:0:0:0:
448,192,389710,1,0,0:0:0:0:
448,192,389778,1,0,0:0:0:0:
320,192,389847,128,0,389983:0:0:0:0:
192,192,389847,128,0,389915:0:0:0:0:
64,192,389847,128,0,389915:0:0:0:0:
448,192,389915,1,0,0:0:0:0:
192,192,389983,1,0,0:0:0:0:
64,192,389983,1,0,0:0:0:0:
320,192,390051,128,0,390119:0:0:0:0:
64,192,390051,128,0,390188:0:0:0:0:
448,192,390051,1,0,0:0:0:0:
448,192,390119,1,0,0:0:0:0:
192,192,390119,1,0,0:0:0:0:
320,192,390188,1,0,0:0:0:0:
448,192,390256,128,0,390392:0:0:0:0:
64,192,390256,128,0,390324:0:0:0:0:
192,192,390256,128,0,390324:0:0:0:0:
320,192,390324,1,0,0:0:0:0:
192,192,390392,1,0,0:0:0:0:
64,192,390392,1,0,0:0:0:0:
448,192,390460,128,0,390528:0:0:0:0:
192,192,390460,128,0,390597:0:0:0:0:
320,192,390460,1,0,0:0:0:0:
64,192,390528,1,0,0:0:0:0:
320,192,390528,1,0,0:0:0:0:
448,192,390597,1,0,0:0:0:0:
64,192,390665,128,0,390733:0:0:0:0:
320,192,390665,128,0,390733:0:0:0:0:
192,192,390665,1,0,0:0:0:0:
192,192,390733,1,0,0:0:0:0:
448,192,390801,128,0,390869:0:0:0:0:
320,192,390801,128,0,390869:0:0:0:0:
64,192,390801,1,0,0:0:0:0:
64,192,390869,1,0,0:0:0:0:
448,192,390937,128,0,391006:0:0:0:0:
320,192,390937,128,0,391006:0:0:0:0:
192,192,390937,128,0,391074:0:0:0:0:
64,192,391006,1,0,0:0:0:0:
320,192,391074,1,0,0:0:0:0:
448,192,391074,1,0,0:0:0:0:
448,192,391142,128,0,391278:0:0:0:0:
192,192,391142,128,0,391210:0:0:0:0:
64,192,391142,1,0,0:0:0:0:
64,192,391210,1,0,0:0:0:0:
320,192,391210,1,0,0:0:0:0:
192,192,391278,1,0,0:0:0:0:
192,192,391347,1,0,0:0:0:0:
320,192,391347,128,0,391415:0:0:0:0:
448,192,391347,128,0,391415:0:0:0:0:
64,192,391415,1,0,0:0:0:0:
320,192,391483,1,0,0:0:0:0:
448,192,391483,1,0,0:0:0:0:
448,192,391551,128,0,391619:0:0:0:0:
64,192,391551,128,0,391619:0:0:0:0:
192,192,391551,128,0,391619:0:0:0:0:
320,192,391619,1,0,0:0:0:0:
64,192,391687,1,0,0:0:0:0:
448,192,391756,128,0,391824:0:0:0:0:
192,192,391756,128,0,391824:0:0:0:0:
320,192,391756,1,0,0:0:0:0:
320,192,391824,1,0,0:0:0:0:
448,192,391892,128,0,391960:0:0:0:0:
192,192,391892,1,0,0:0:0:0:
64,192,391892,128,0,391960:0:0:0:0:
192,192,391960,1,0,0:0:0:0:
64,192,392028,128,0,392165:0:0:0:0:
320,192,392028,128,0,392097:0:0:0:0:
448,192,392028,128,0,392097:0:0:0:0:
192,192,392097,1,0,0:0:0:0:
448,192,392165,1,0,0:0:0:0:
320,192,392165,1,0,0:0:0:0:
64,192,392233,128,0,392301:0:0:0:0:
320,192,392233,128,0,392369:0:0:0:0:
192,192,392233,1,0,0:0:0:0:
192,192,392301,1,0,0:0:0:0:
448,192,392301,1,0,0:0:0:0:
64,192,392369,1,0,0:0:0:0:
448,192,392437,128,0,392506:0:0:0:0:
320,192,392437,128,0,392506:0:0:0:0:
192,192,392437,128,0,392574:0:0:0:0:
64,192,392506,1,0,0:0:0:0:
448,192,392574,1,0,0:0:0:0:
320,192,392574,1,0,0:0:0:0:
448,192,392642,128,0,392778:0:0:0:0:
192,192,392642,128,0,392710:0:0:0:0:
64,192,392642,1,0,0:0:0:0:
64,192,392710,1,0,0:0:0:0:
320,192,392710,1,0,0:0:0:0:
192,192,392778,1,0,0:0:0:0:
64,192,392847,128,0,392915:0:0:0:0:
320,192,392847,128,0,392915:0:0:0:0:
448,192,392847,1,0,0:0:0:0:
448,192,392915,1,0,0:0:0:0:
192,192,392983,128,0,393051:0:0:0:0:
64,192,392983,128,0,393051:0:0:0:0:
320,192,392983,1,0,0:0:0:0:
320,192,393051,1,0,0:0:0:0:
448,192,393119,128,0,393256:0:0:0:0:
192,192,393119,128,0,393187:0:0:0:0:
64,192,393119,128,0,393187:0:0:0:0:
320,192,393187,1,0,0:0:0:0:
64,192,393256,1,0,0:0:0:0:
192,192,393256,1,0,0:0:0:0:
448,192,393324,128,0,393392:0:0:0:0:
192,192,393324,128,0,393460:0:0:0:0:
320,192,393324,1,0,0:0:0:0:
320,192,393392,1,0,0:0:0:0:
64,192,393392,1,0,0:0:0:0:
448,192,393460,1,0,0:0:0:0:
448,192,393528,1,0,0:0:0:0:
64,192,393528,128,0,393597:0:0:0:0:
192,192,393528,128,0,393597:0:0:0:0:
320,192,393597,1,0,0:0:0:0:
64,192,393665,1,0,0:0:0:0:
192,192,393665,1,0,0:0:0:0:
192,192,393733,128,0,393801:0:0:0:0:
320,192,393733,128,0,393801:0:0:0:0:
448,192,393733,128,0,393801:0:0:0:0:
64,192,393801,1,0,0:0:0:0:
320,192,393869,1,0,0:0:0:0:
448,192,393937,128,0,394006:0:0:0:0:
192,192,393937,128,0,394006:0:0:0:0:
64,192,393937,1,0,0:0:0:0:
64,192,394006,1,0,0:0:0:0:
320,192,394074,128,0,394142:0:0:0:0:
448,192,394074,128,0,394142:0:0:0:0:
192,192,394074,1,0,0:0:0:0:
192,192,394142,1,0,0:0:0:0:
64,192,394210,128,0,394347:0:0:0:0:
320,192,394210,128,0,394278:0:0:0:0:
448,192,394210,128,0,394278:0:0:0:0:
192,192,394278,1,0,0:0:0:0:
448,192,394347,1,0,0:0:0:0:
320,192,394347,1,0,0:0:0:0:
64,192,394415,128,0,394483:0:0:0:0:
320,192,394415,128,0,394551:0:0:0:0:
192,192,394415,1,0,0:0:0:0:
192,192,394483,1,0,0:0:0:0:
448,192,394483,1,0,0:0:0:0:
64,192,394551,1,0,0:0:0:0:
448,192,394619,128,0,394687:0:0:0:0:
320,192,394619,128,0,394687:0:0:0:0:
192,192,394619,128,0,394756:0:0:0:0:
64,192,394687,1,0,0:0:0:0:
448,192,394756,1,0,0:0:0:0:
320,192,394756,1,0,0:0:0:0:
448,192,394824,128,0,394960:0:0:0:0:
192,192,394824,128,0,394892:0:0:0:0:
64,192,394824,1,0,0:0:0:0:
64,192,394892,1,0,0:0:0:0:
320,192,394892,1,0,0:0:0:0:
192,192,394960,1,0,0:0:0:0:
64,192,395028,128,0,395097:0:0:0:0:
320,192,395028,128,0,395097:0:0:0:0:
448,192,395028,1,0,0:0:0:0:
448,192,395097,1,0,0:0:0:0:
192,192,395165,128,0,395233:0:0:0:0:
64,192,395165,128,0,395233:0:0:0:0:
320,192,395165,1,0,0:0:0:0:
320,192,395233,1,0,0:0:0:0:
448,192,395301,1,0,0:0:0:0:
64,192,395301,1,0,0:0:0:0:
192,192,395301,1,0,0:0:0:0:
320,192,395347,1,0,0:0:0:0:
64,192,395392,1,0,0:0:0:0:
320,192,395437,1,0,0:0:0:0:
192,192,395437,1,0,0:0:0:0:
448,192,395483,1,0,0:0:0:0:
192,192,395528,1,0,0:0:0:0:
320,192,395574,1,0,0:0:0:0:
448,192,395574,1,0,0:0:0:0:
64,192,395619,1,0,0:0:0:0:
320,192,395665,1,0,0:0:0:0:
448,192,395710,1,0,0:0:0:0:
64,192,395710,1,0,0:0:0:0:
192,192,395756,1,0,0:0:0:0:
448,192,395801,1,0,0:0:0:0:
192,192,395847,1,0,0:0:0:0:
64,192,395847,1,0,0:0:0:0:
320,192,395881,1,0,0:0:0:0:
448,192,395915,1,0,0:0:0:0:
64,192,395949,1,0,0:0:0:0:
320,192,395983,1,0,0:0:0:0:
192,192,396017,1,0,0:0:0:0:
64,192,396051,1,0,0:0:0:0:
448,192,396085,1,0,0:0:0:0:
320,192,396119,1,0,0:0:0:0:
192,192,396153,1,0,0:0:0:0:
448,192,396187,1,0,0:0:0:0:
64,192,396222,1,0,0:0:0:0:
320,192,396256,1,0,0:0:0:0:
448,192,396290,1,0,0:0:0:0:
192,192,396324,1,0,0:0:0:0:
64,192,396358,1,0,0:0:0:0:
448,192,396392,128,0,396528:0:0:0:0:
320,192,396392,128,0,396528:0:0:0:0:
192,192,396528,1,0,0:0:0:0:
64,192,396597,128,0,396733:0:0:0:0:
448,192,396597,128,0,396733:0:0:0:0:
192,192,396597,128,0,396733:0:0:0:0:
320,192,396665,1,0,0:0:0:0:
64,192,396801,128,0,396937:0:0:0:0:
448,192,396801,128,0,396937:0:0:0:0:
320,192,396801,128,0,396937:0:0:0:0:
192,192,396937,1,0,0:0:0:0:
192,192,397074,1,0,0:0:0:0:
448,192,397074,1,0,0:0:0:0:
64,192,397074,1,0,0:0:0:0:
448,192,397142,128,0,397210:0:0:0:0:
192,192,397142,128,0,397210:0:0:0:0:
64,192,397142,128,0,397210:0:0:0:0:
320,192,397210,1,0,0:0:0:0:
192,192,397278,1,0,0:0:0:0:
448,192,397278,1,0,0:0:0:0:
64,192,397278,1,0,0:0:0:0:
448,192,397347,128,0,397415:0:0:0:0:
192,192,397347,128,0,397415:0:0:0:0:
64,192,397347,128,0,397415:0:0:0:0:
192,192,397483,1,0,0:0:0:0:
64,192,397483,1,0,0:0:0:0:
448,192,397483,1,0,0:0:0:0:
320,192,397551,1,0,0:0:0:0:
448,192,397551,1,0,0:0:0:0:
192,192,397619,1,0,0:0:0:0:
320,192,397619,1,0,0:0:0:0:
192,192,397687,1,0,0:0:0:0:
64,192,397687,1,0,0:0:0:0:
448,192,397756,128,0,397824:0:0:0:0:
320,192,397756,128,0,397824:0:0:0:0:
64,192,397756,128,0,397824:0:0:0:0:
448,192,397892,1,0,0:0:0:0:
192,192,397960,1,0,0:0:0:0:
320,192,397960,1,0,0:0:0:0:
64,192,397960,1,0,0:0:0:0:
448,192,398028,1,0,0:0:0:0:
192,192,398028,1,0,0:0:0:0:
64,192,398028,1,0,0:0:0:0:
320,192,398097,128,0,398165:0:0:0:0:
192,192,398097,128,0,398165:0:0:0:0:
64,192,398097,128,0,398165:0:0:0:0:
448,192,398233,1,0,0:0:0:0:
320,192,398233,1,0,0:0:0:0:
64,192,398233,1,0,0:0:0:0:
64,192,398301,1,0,0:0:0:0:
192,192,398301,1,0,0:0:0:0:
448,192,398369,1,0,0:0:0:0:
320,192,398369,1,0,0:0:0:0:
448,192,398437,128,0,398506:0:0:0:0:
192,192,398437,128,0,398506:0:0:0:0:
64,192,398437,128,0,398506:0:0:0:0:
64,192,398574,1,0,0:0:0:0:
192,192,398642,1,0,0:0:0:0:
320,192,398642,1,0,0:0:0:0:
448,192,398642,1,0,0:0:0:0:
64,192,398710,1,0,0:0:0:0:
448,192,398710,1,0,0:0:0:0:
320,192,398710,1,0,0:0:0:0:
448,192,398778,128,0,398847:0:0:0:0:
320,192,398778,128,0,398847:0:0:0:0:
192,192,398778,128,0,398847:0:0:0:0:
192,192,398915,1,0,0:0:0:0:
448,192,398915,1,0,0:0:0:0:
64,192,398915,1,0,0:0:0:0:
448,192,398983,1,0,0:0:0:0:
320,192,398983,1,0,0:0:0:0:
64,192,399051,1,0,0:0:0:0:
192,192,399051,1,0,0:0:0:0:
448,192,399119,1,0,0:0:0:0:
320,192,399119,1,0,0:0:0:0:
64,192,399119,1,0,0:0:0:0:
192,192,399187,1,0,0:0:0:0:
448,192,399256,1,0,0:0:0:0:
320,192,399256,1,0,0:0:0:0:
320,192,399324,1,0,0:0:0:0:
64,192,399324,1,0,0:0:0:0:
448,192,399392,1,0,0:0:0:0:
192,192,399392,1,0,0:0:0:0:
64,192,399392,1,0,0:0:0:0:
320,192,399460,1,0,0:0:0:0:
192,192,399528,1,0,0:0:0:0:
64,192,399528,1,0,0:0:0:0:
448,192,399597,1,0,0:0:0:0:
192,192,399597,1,0,0:0:0:0:
448,192,399665,1,0,0:0:0:0:
320,192,399665,1,0,0:0:0:0:
64,192,399665,1,0,0:0:0:0:
448,192,399756,1,0,0:0:0:0:
320,192,399756,1,0,0:0:0:0:
192,192,399756,1,0,0:0:0:0:
448,192,399847,1,0,0:0:0:0:
320,192,399847,1,0,0:0:0:0:
64,192,399847,1,0,0:0:0:0:
448,192,399937,1,0,0:0:0:0:
192,192,399937,1,0,0:0:0:0:
64,192,399937,1,0,0:0:0:0:
320,192,400028,1,0,0:0:0:0:
192,192,400028,1,0,0:0:0:0:
64,192,400028,1,0,0:0:0:0:
448,192,400119,1,0,0:0:0:0:
192,192,400119,1,0,0:0:0:0:
64,192,400119,1,0,0:0:0:0:
448,192,400210,128,0,400319:0:0:0:0:
320,192,400210,128,0,400428:0:0:0:0:
64,192,400265,128,0,400374:0:0:0:0:
192,192,400319,128,0,400701:0:0:0:0:
448,192,400374,128,0,400483:0:0:0:0:
64,192,400428,128,0,400592:0:0:0:0:
320,192,400483,128,0,400537:0:0:0:0:
448,192,400537,128,0,400647:0:0:0:0:
320,192,400592,128,0,400810:0:0:0:0:
64,192,400647,128,0,400756:0:0:0:0:
448,192,400701,128,0,400919:0:0:0:0:
192,192,400756,128,0,400865:0:0:0:0:
64,192,400810,128,0,401028:0:0:0:0:
320,192,400865,128,0,400974:0:0:0:0:
192,192,400919,128,0,401137:0:0:0:0:
448,192,400974,128,0,401083:0:0:0:0:
320,192,401028,128,0,401410:0:0:0:0:
64,192,401083,128,0,401192:0:0:0:0:
448,192,401137,128,0,401301:0:0:0:0:
192,192,401192,128,0,401247:0:0:0:0:
64,192,401247,128,0,401356:0:0:0:0:
192,192,401301,128,0,401519:0:0:0:0:
448,192,401356,128,0,401465:0:0:0:0:
64,192,401410,128,0,401628:0:0:0:0:
320,192,401465,128,0,401574:0:0:0:0:
448,192,401519,128,0,401792:0:0:0:0:
192,192,401574,128,0,401683:0:0:0:0:
320,192,401628,128,0,401737:0:0:0:0:
64,192,401683,128,0,401937:0:0:0:0:
192,192,401737,128,0,401892:0:0:0:0:
320,192,401792,128,0,401847:0:0:0:0:
448,192,401847,128,0,401983:0:0:0:0:
320,192,401892,128,0,402028:0:0:0:0:
192,192,401937,128,0,402074:0:0:0:0:
64,192,401983,128,0,402165:0:0:0:0:
448,192,402028,128,0,402119:0:0:0:0:
320,192,402074,128,0,402210:0:0:0:0:
192,192,402119,128,0,402256:0:0:0:0:
448,192,402165,128,0,402301:0:0:0:0:
64,192,402210,128,0,402347:0:0:0:0:
320,192,402256,128,0,402392:0:0:0:0:
192,192,402301,128,0,402369:0:0:0:0:
448,192,402347,128,0,402415:0:0:0:0:
64,192,402392,1,0,0:0:0:0:
192,192,402415,1,0,0:0:0:0:
320,192,402437,1,0,0:0:0:0:
448,192,402460,1,0,0:0:0:0:
192,192,404028,1,0,0:0:0:0:
64,192,404028,1,0,0:0:0:0:
320,192,404074,1,0,0:0:0:0:
448,192,404074,1,0,0:0:0:0:
64,192,404119,1,0,0:0:0:0:
192,192,404165,1,0,0:0:0:0:
320,192,404165,1,0,0:0:0:0:
448,192,404210,1,0,0:0:0:0:
192,192,404256,1,0,0:0:0:0:
448,192,404301,1,0,0:0:0:0:
64,192,404301,1,0,0:0:0:0:
320,192,404347,1,0,0:0:0:0:
192,192,404392,1,0,0:0:0:0:
320,192,404437,1,0,0:0:0:0:
64,192,404437,1,0,0:0:0:0:
448,192,404483,1,0,0:0:0:0:
64,192,404528,1,0,0:0:0:0:
192,192,404574,5,0,0:0:0:0:
448,192,404574,1,0,0:0:0:0:
320,192,404574,1,0,0:0:0:0:
64,192,404710,1,0,0:0:0:0:
448,192,404733,1,0,0:0:0:0:
320,192,404814,1,0,0:0:0:0:
64,192,404837,1,0,0:0:0:0:
192,192,404921,1,0,0:0:0:0:
320,192,404945,1,0,0:0:0:0:
64,192,404992,1,0,0:0:0:0:
448,192,405029,1,0,0:0:0:0:
192,192,405066,1,0,0:0:0:0:
320,192,405102,1,0,0:0:0:0:
448,192,405139,1,0,0:0:0:0:
192,192,405139,1,0,0:0:0:0:
64,192,405139,1,0,0:0:0:0:
320,192,405251,1,0,0:0:0:0:
64,192,405276,1,0,0:0:0:0:
192,192,405365,1,0,0:0:0:0:
320,192,405391,1,0,0:0:0:0:
64,192,405443,1,0,0:0:0:0:
448,192,405482,1,0,0:0:0:0:
192,192,405508,1,0,0:0:0:0:
64,192,405601,1,0,0:0:0:0:
448,192,405628,1,0,0:0:0:0:
320,192,405682,1,0,0:0:0:0:
192,192,405722,1,0,0:0:0:0:
448,192,405763,1,0,0:0:0:0:
320,192,405763,1,0,0:0:0:0:
64,192,405763,1,0,0:0:0:0:
192,192,405846,1,0,0:0:0:0:
448,192,405874,1,0,0:0:0:0:
320,192,405972,1,0,0:0:0:0:
192,192,406001,1,0,0:0:0:0:
64,192,406101,1,0,0:0:0:0:
320,192,406130,1,0,0:0:0:0:
448,192,406233,1,0,0:0:0:0:
64,192,406262,1,0,0:0:0:0:
192,192,406368,1,0,0:0:0:0:
448,192,406414,1,0,0:0:0:0:
320,192,406460,1,0,0:0:0:0:
192,192,406460,1,0,0:0:0:0:
64,192,406460,1,0,0:0:0:0:
448,192,406506,1,0,0:0:0:0:
64,192,406538,1,0,0:0:0:0:
192,192,406647,1,0,0:0:0:0:
448,192,406679,1,0,0:0:0:0:
320,192,406792,1,0,0:0:0:0:
192,192,406824,1,0,0:0:0:0:
64,192,406941,1,0,0:0:0:0:
320,192,406974,1,0,0:0:0:0:
192,192,407041,1,0,0:0:0:0:
448,192,407091,1,0,0:0:0:0:
64,192,407142,1,0,0:0:0:0:
320,192,407193,1,0,0:0:0:0:
192,192,407244,1,0,0:0:0:0:
64,192,407244,1,0,0:0:0:0:
448,192,407278,1,0,0:0:0:0:
320,192,407312,1,0,0:0:0:0:
192,192,407399,1,0,0:0:0:0:
64,192,407433,1,0,0:0:0:0:
448,192,407451,1,0,0:0:0:0:
192,192,407503,1,0,0:0:0:0:
448,192,407556,1,0,0:0:0:0:
320,192,407556,1,0,0:0:0:0:
64,192,407591,1,0,0:0:0:0:
192,192,407626,1,0,0:0:0:0:
448,192,407714,1,0,0:0:0:0:
320,192,407750,1,0,0:0:0:0:
64,192,407768,1,0,0:0:0:0:
448,192,407821,1,0,0:0:0:0:
192,192,407876,1,0,0:0:0:0:
64,192,407876,1,0,0:0:0:0:
320,192,407912,1,0,0:0:0:0:
448,192,407948,1,0,0:0:0:0:
64,192,408039,1,0,0:0:0:0:
192,192,408076,1,0,0:0:0:0:
320,192,408094,1,0,0:0:0:0:
64,192,408149,1,0,0:0:0:0:
320,192,408205,1,0,0:0:0:0:
448,192,408205,1,0,0:0:0:0:
192,192,408242,1,0,0:0:0:0:
64,192,408279,1,0,0:0:0:0:
320,192,408372,1,0,0:0:0:0:
448,192,408410,1,0,0:0:0:0:
192,192,408429,1,0,0:0:0:0:
320,192,408485,1,0,0:0:0:0:
192,192,408542,1,0,0:0:0:0:
64,192,408542,1,0,0:0:0:0:
448,192,408580,1,0,0:0:0:0:
320,192,408618,1,0,0:0:0:0:
192,192,408715,1,0,0:0:0:0:
64,192,408753,1,0,0:0:0:0:
448,192,408773,1,0,0:0:0:0:
192,192,408831,1,0,0:0:0:0:
320,192,408890,1,0,0:0:0:0:
448,192,408890,1,0,0:0:0:0:
64,192,408929,1,0,0:0:0:0:
192,192,408969,1,0,0:0:0:0:
448,192,409069,1,0,0:0:0:0:
320,192,409109,1,0,0:0:0:0:
64,192,409129,1,0,0:0:0:0:
448,192,409189,1,0,0:0:0:0:
192,192,409249,1,0,0:0:0:0:
64,192,409249,1,0,0:0:0:0:
320,192,409289,1,0,0:0:0:0:
448,192,409330,1,0,0:0:0:0:
64,192,409432,1,0,0:0:0:0:
192,192,409473,1,0,0:0:0:0:
320,192,409493,1,0,0:0:0:0:
64,192,409555,1,0,0:0:0:0:
448,192,409618,1,0,0:0:0:0:
320,192,409618,1,0,0:0:0:0:
192,192,409659,1,0,0:0:0:0:
64,192,409701,1,0,0:0:0:0:
320,192,409806,1,0,0:0:0:0:
448,192,409849,1,0,0:0:0:0:
192,192,409870,1,0,0:0:0:0:
320,192,409934,1,0,0:0:0:0:
448,192,409999,1,0,0:0:0:0:
192,192,409999,1,0,0:0:0:0:
64,192,409999,1,0,0:0:0:0:
320,192,410064,1,0,0:0:0:0:
64,192,410107,1,0,0:0:0:0:
448,192,410151,1,0,0:0:0:0:
192,192,410194,1,0,0:0:0:0:
448,192,410260,1,0,0:0:0:0:
320,192,410260,1,0,0:0:0:0:
64,192,410260,1,0,0:0:0:0:
192,192,410326,1,0,0:0:0:0:
320,192,410371,1,0,0:0:0:0:
64,192,410415,1,0,0:0:0:0:
448,192,410460,1,0,0:0:0:0:
320,192,410526,1,0,0:0:0:0:
192,192,410526,1,0,0:0:0:0:
64,192,410526,1,0,0:0:0:0:
448,192,410594,1,0,0:0:0:0:
192,192,410639,1,0,0:0:0:0:
320,192,410685,1,0,0:0:0:0:
64,192,410730,1,0,0:0:0:0:
448,192,410799,1,0,0:0:0:0:
320,192,410799,1,0,0:0:0:0:
192,192,410799,1,0,0:0:0:0:
64,192,410868,1,0,0:0:0:0:
448,192,410915,1,0,0:0:0:0:
192,192,410961,1,0,0:0:0:0:
320,192,411008,1,0,0:0:0:0:
448,192,411078,1,0,0:0:0:0:
192,192,411078,1,0,0:0:0:0:
64,192,411078,1,0,0:0:0:0:
448,192,411149,1,0,0:0:0:0:
320,192,411220,1,0,0:0:0:0:
192,192,411220,1,0,0:0:0:0:
192,192,411292,1,0,0:0:0:0:
448,192,411364,1,0,0:0:0:0:
320,192,411364,1,0,0:0:0:0:
64,192,411364,1,0,0:0:0:0:
64,192,411437,1,0,0:0:0:0:
448,192,411510,1,0,0:0:0:0:
192,192,411510,1,0,0:0:0:0:
448,192,411583,1,0,0:0:0:0:
320,192,411656,1,0,0:0:0:0:
64,192,411656,1,0,0:0:0:0:
320,192,411731,1,0,0:0:0:0:
192,192,411731,1,0,0:0:0:0:
448,192,411806,1,0,0:0:0:0:
192,192,411806,1,0,0:0:0:0:
64,192,411881,1,0,0:0:0:0:
448,192,411881,1,0,0:0:0:0:
320,192,411956,1,0,0:0:0:0:
192,192,411956,1,0,0:0:0:0:
64,192,411994,1,0,0:0:0:0:
320,192,412032,1,0,0:0:0:0:
192,192,412071,1,0,0:0:0:0:
448,192,412109,1,0,0:0:0:0:
192,192,412148,1,0,0:0:0:0:
320,192,412186,1,0,0:0:0:0:
448,192,412225,1,0,0:0:0:0:
192,192,412264,1,0,0:0:0:0:
64,192,412264,1,0,0:0:0:0:
320,192,412421,1,0,0:0:0:0:
448,192,412579,1,0,0:0:0:0:
64,192,412737,1,0,0:0:0:0:
320,192,412737,1,0,0:0:0:0:
192,192,412895,1,0,0:0:0:0:
64,192,413053,1,0,0:0:0:0:
320,192,413211,1,0,0:0:0:0:
448,192,413211,1,0,0:0:0:0:
192,192,413369,1,0,0:0:0:0:
64,192,413527,1,0,0:0:0:0:
448,192,413685,1,0,0:0:0:0:
192,192,413685,1,0,0:0:0:0:
320,192,413842,1,0,0:0:0:0:
64,192,414000,1,0,0:0:0:0:
320,192,414158,1,0,0:0:0:0:
192,192,414158,1,0,0:0:0:0:
448,192,414316,1,0,0:0:0:0:
64,192,414474,1,0,0:0:0:0:
320,192,414474,1,0,0:0:0:0:
448,192,414632,1,0,0:0:0:0:
192,192,414790,1,0,0:0:0:0:
64,192,414790,1,0,0:0:0:0:
320,192,414948,1,0,0:0:0:0:
448,192,415106,1,0,0:0:0:0:
64,192,415264,1,0,0:0:0:0:
320,192,415264,1,0,0:0:0:0:
192,192,415421,1,0,0:0:0:0:
448,192,415461,1,0,0:0:0:0:
320,192,415500,1,0,0:0:0:0:
192,192,415540,1,0,0:0:0:0:
64,192,415579,1,0,0:0:0:0:
448,192,415619,1,0,0:0:0:0:
192,192,415658,1,0,0:0:0:0:
320,192,415698,1,0,0:0:0:0:
448,192,415737,1,0,0:0:0:0:
64,192,415737,1,0,0:0:0:0:
192,192,415790,1,0,0:0:0:0:
320,192,415842,1,0,0:0:0:0:
448,192,415842,1,0,0:0:0:0:
192,192,415895,1,0,0:0:0:0:
320,192,415948,1,0,0:0:0:0:
448,192,415948,1,0,0:0:0:0:
192,192,416000,1,0,0:0:0:0:
64,192,416053,1,0,0:0:0:0:
320,192,416053,1,0,0:0:0:0:
448,192,416106,1,0,0:0:0:0:
64,192,416158,5,0,0:0:0:0:
192,192,416211,1,0,0:0:0:0:
320,192,416211,1,0,0:0:0:0:
320,192,416290,1,0,0:0:0:0:
192,192,416369,1,0,0:0:0:0:
448,192,416369,1,0,0:0:0:0:
64,192,416408,1,0,0:0:0:0:
320,192,416448,1,0,0:0:0:0:
448,192,416487,1,0,0:0:0:0:
64,192,416527,1,0,0:0:0:0:
192,192,416527,1,0,0:0:0:0:
192,192,416606,1,0,0:0:0:0:
320,192,416685,1,0,0:0:0:0:
64,192,416685,1,0,0:0:0:0:
192,192,416842,1,0,0:0:0:0:
320,192,416842,1,0,0:0:0:0:
448,192,417000,1,0,0:0:0:0:
192,192,417000,1,0,0:0:0:0:
64,192,417158,1,0,0:0:0:0:
448,192,417158,1,0,0:0:0:0:
64,192,417316,1,0,0:0:0:0:
192,192,417316,1,0,0:0:0:0:
320,192,417316,1,0,0:0:0:0:
448,192,417356,1,0,0:0:0:0:
64,192,417395,1,0,0:0:0:0:
320,192,417435,1,0,0:0:0:0:
192,192,417474,1,0,0:0:0:0:
64,192,417514,1,0,0:0:0:0:
448,192,417553,1,0,0:0:0:0:
192,192,417592,1,0,0:0:0:0:
320,192,417632,1,0,0:0:0:0:
64,192,417671,1,0,0:0:0:0:
320,192,417711,1,0,0:0:0:0:
192,192,417750,1,0,0:0:0:0:
448,192,417790,1,0,0:0:0:0:
320,192,417829,1,0,0:0:0:0:
64,192,417869,1,0,0:0:0:0:
448,192,417908,1,0,0:0:0:0:
192,192,417948,1,0,0:0:0:0:
320,192,417987,1,0,0:0:0:0:
192,192,418027,1,0,0:0:0:0:
448,192,418066,1,0,0:0:0:0:
64,192,418106,1,0,0:0:0:0:
192,192,418145,1,0,0:0:0:0:
320,192,418185,1,0,0:0:0:0:
64,192,418224,1,0,0:0:0:0:
448,192,418264,1,0,0:0:0:0:
192,192,418303,1,0,0:0:0:0:
448,192,418342,1,0,0:0:0:0:
64,192,418382,1,0,0:0:0:0:
320,192,418421,1,0,0:0:0:0:
448,192,418461,1,0,0:0:0:0:
192,192,418500,1,0,0:0:0:0:
320,192,418540,1,0,0:0:0:0:
64,192,418579,1,0,0:0:0:0:
192,192,418624,1,0,0:0:0:0:
64,192,418670,1,0,0:0:0:0:
320,192,418715,1,0,0:0:0:0:
192,192,418760,1,0,0:0:0:0:
448,192,418805,1,0,0:0:0:0:
64,192,418850,1,0,0:0:0:0:
320,192,418895,1,0,0:0:0:0:
448,192,418940,1,0,0:0:0:0:
320,192,418985,1,0,0:0:0:0:
192,192,419030,1,0,0:0:0:0:
448,192,419076,1,0,0:0:0:0:
64,192,419121,1,0,0:0:0:0:
320,192,419166,1,0,0:0:0:0:
192,192,419211,1,0,0:0:0:0:
64,192,419256,1,0,0:0:0:0:
192,192,419301,1,0,0:0:0:0:
448,192,419346,1,0,0:0:0:0:
64,192,419391,1,0,0:0:0:0:
320,192,419436,1,0,0:0:0:0:
192,192,419482,1,0,0:0:0:0:
448,192,419527,1,0,0:0:0:0:
320,192,419572,1,0,0:0:0:0:
448,192,419617,1,0,0:0:0:0:
64,192,419662,1,0,0:0:0:0:
320,192,419707,1,0,0:0:0:0:
192,192,419752,1,0,0:0:0:0:
448,192,419797,1,0,0:0:0:0:
64,192,419842,1,0,0:0:0:0:
192,192,419895,1,0,0:0:0:0:
320,192,419948,1,0,0:0:0:0:
64,192,420000,1,0,0:0:0:0:
448,192,420053,1,0,0:0:0:0:
320,192,420106,1,0,0:0:0:0:
192,192,420158,1,0,0:0:0:0:
448,192,420211,1,0,0:0:0:0:
64,192,420264,1,0,0:0:0:0:
192,192,420316,1,0,0:0:0:0:
320,192,420369,1,0,0:0:0:0:
64,192,420421,1,0,0:0:0:0:
448,192,420474,1,0,0:0:0:0:
320,192,420527,1,0,0:0:0:0:
192,192,420579,1,0,0:0:0:0:
448,192,420632,1,0,0:0:0:0:
64,192,420685,1,0,0:0:0:0:
192,192,420737,1,0,0:0:0:0:
320,192,420790,1,0,0:0:0:0:
64,192,420842,1,0,0:0:0:0:
448,192,420895,1,0,0:0:0:0:
320,192,420948,1,0,0:0:0:0:
192,192,421000,1,0,0:0:0:0:
64,192,421053,1,0,0:0:0:0:
448,192,421106,1,0,0:0:0:0:
320,192,421169,1,0,0:0:0:0:
192,192,421232,1,0,0:0:0:0:
448,192,421295,1,0,0:0:0:0:
320,192,421358,1,0,0:0:0:0:
64,192,421421,1,0,0:0:0:0:
192,192,421485,1,0,0:0:0:0:
448,192,421548,1,0,0:0:0:0:
64,192,421611,1,0,0:0:0:0:
192,192,421674,1,0,0:0:0:0:
320,192,421737,1,0,0:0:0:0:
448,192,421800,1,0,0:0:0:0:
64,192,421864,1,0,0:0:0:0:
320,192,421927,1,0,0:0:0:0:
448,192,421990,1,0,0:0:0:0:
192,192,422053,1,0,0:0:0:0:
64,192,422116,1,0,0:0:0:0:
320,192,422179,1,0,0:0:0:0:
192,192,422242,1,0,0:0:0:0:
64,192,422306,1,0,0:0:0:0:
448,192,422369,1,0,0:0:0:0:
192,192,422432,1,0,0:0:0:0:
448,192,422495,1,0,0:0:0:0:
320,192,422558,1,0,0:0:0:0:
64,192,422621,1,0,0:0:0:0:
192,192,422685,1,0,0:0:0:0:
320,192,422748,1,0,0:0:0:0:
192,192,422811,1,0,0:0:0:0:
64,192,422874,1,0,0:0:0:0:
448,192,422937,1,0,0:0:0:0:
320,192,423000,1,0,0:0:0:0:
64,192,423064,1,0,0:0:0:0:
320,192,423127,1,0,0:0:0:0:
448,192,423190,1,0,0:0:0:0:
192,192,423253,1,0,0:0:0:0:
64,192,423316,1,0,0:0:0:0:
448,192,423379,1,0,0:0:0:0:
64,192,423442,1,0,0:0:0:0:
192,192,423506,1,0,0:0:0:0:
320,192,423569,1,0,0:0:0:0:
448,192,423632,1,0,0:0:0:0:
64,192,423671,1,0,0:0:0:0:
320,192,423711,1,0,0:0:0:0:
192,192,423750,1,0,0:0:0:0:
448,192,423790,1,0,0:0:0:0:
64,192,423842,1,0,0:0:0:0:
320,192,423895,1,0,0:0:0:0:
192,192,423948,1,0,0:0:0:0:
64,192,424027,1,0,0:0:0:0:
192,192,424106,5,0,0:0:0:0:
