osu file format v14

[General]
AudioFilename: audio.mp3
AudioLeadIn: 0
PreviewTime: 291890
Countdown: 0
SampleSet: Normal
StackLeniency: 0.7
Mode: 1
LetterboxInBreaks: 0
WidescreenStoryboard: 0

[Editor]
Bookmarks: 34575,80988,123885,153342,180837,338499,361887,404574
DistanceSpacing: 1
BeatDivisor: 8
GridSize: 32
TimelineZoom: 5.599996

[Metadata]
Title:Parallel Universe Shifter
TitleUnicode:Parallel Universe Shifter
Artist:Camellia
ArtistUnicode:かめりあ
Creator:Kyoko Sakura
Version:Unidentified Dimension
Source:osu!mania 4K World Cup 2023
Tags:kamelcamellia cametek masaya oya ooya かめるかめりあ かめてく 大箭将也 大箭マサヤ full flavor mwc23 mwc 4k 2023 grandfinals gf custom tb tiebreaker osu! original moombahcore electro hitech jungle terror psytrance dnb d'n'b drum n and bass drum'n'bass gabba glitchhop symphonic hardcore artcore dark synthwave metal breakcore speedcore featured artist fa electronic instrumental paradise_
BeatmapID:4475199
BeatmapSetID:2128550

[Difficulty]
HPDrainRate:3
CircleSize:2
OverallDifficulty:8.5
ApproachRate:10
SliderMultiplier:1.4
SliderTickRate:1

[Events]
//Background and Video events
0,0,"background.jpg",0,0
//Break Periods
2,226452,230602
2,412464,415287
//Storyboard Layer 0 (Background)
//Storyboard Layer 1 (Fail)
//Storyboard Layer 2 (Pass)
//Storyboard Layer 3 (Foreground)
//Storyboard Layer 4 (Overlay)
//Storyboard Sound Samples

[TimingPoints]
975,400,4,1,0,100,1,0
975,-50,4,1,0,100,0,0
6350,-71.428571428571,4,1,0,100,0,0
6416,-69.463739927758,4,1,0,100,0,0
6483,-67.576699553994,4,1,0,100,0,0
6550,-65.789473684211,4,1,0,100,0,0
6650,-63.291139240506,4,1,0,100,0,0
6750,-60.975609756098,4,1,0,100,0,0
6850,-58.823529411765,4,1,0,100,0,0
6950,-56.818181818182,4,1,0,100,0,0
7050,-54.945054945055,4,1,0,100,0,0
7150,-53.191489361702,4,1,0,100,0,0
7250,-51.546391752577,4,1,0,100,0,0
7350,-50,4,1,0,100,0,0
7950,-57.142857142857,4,1,0,100,0,0
8050,-58.536585365854,4,1,0,100,0,0
8150,-60,4,1,0,100,0,0
8450,-64.864864864865,4,1,0,100,0,0
8775,-50,4,1,0,100,0,0
8950,-52.173913043478,4,1,0,100,0,0
9000,-52.747252747253,4,1,0,100,0,0
9050,-53.333333333333,4,1,0,100,0,0
9100,-53.932584269663,4,1,0,100,0,0
9150,-54.545454545455,4,1,0,100,0,0
9250,-55.813953488372,4,1,0,100,0,0
9350,-57.142857142857,4,1,0,100,0,0
9450,-58.536585365854,4,1,0,100,0,0
9550,-60,4,1,0,100,0,0
9650,-61.538461538462,4,1,0,100,0,0
9750,-63.157894736842,4,1,0,100,0,0
9850,-64.864864864865,4,1,0,100,0,0
10050,-62.5,4,1,0,100,0,0
10150,-59.52380952381,4,1,0,100,0,0
10250,-56.818181818182,4,1,0,100,0,0
10350,-54.347826086957,4,1,0,100,0,0
10450,-52.083333333333,4,1,0,100,0,0
10550,-50,4,1,0,100,0,0
11150,-57.142857142857,4,1,0,100,0,0
11250,-58.536585365854,4,1,0,100,0,0
11350,-60,4,1,0,100,0,0
11650,-64.864864864865,4,1,0,100,0,0
11975,-50,4,1,0,100,0,0
12150,-52.173913043478,4,1,0,100,0,0
12200,-52.747252747253,4,1,0,100,0,0
12250,-53.333333333333,4,1,0,100,0,0
12300,-53.932584269663,4,1,0,100,0,0
12350,-54.545454545455,4,1,0,100,0,0
12450,-55.813953488372,4,1,0,100,0,0
12550,-57.142857142857,4,1,0,100,0,0
12650,-58.536585365854,4,1,0,100,0,0
12750,-60,4,1,0,100,0,0
12850,-61.538461538462,4,1,0,100,0,0
12950,-63.157894736842,4,1,0,100,0,0
13050,-64.102564102564,4,1,0,100,0,0
13150,-62.277580071174,4,1,0,100,0,0
13200,-61.02877070619,4,1,0,100,0,0
13250,-59.82905982906,4,1,0,100,0,0
13300,-58.675607711651,4,1,0,100,0,0
13350,-57.565789473684,4,1,0,100,0,0
13400,-56.497175141243,4,1,0,100,0,0
13450,-55.467511885895,4,1,0,100,0,0
13500,-54.474708171206,4,1,0,100,0,0
13550,-53.516819571865,4,1,0,100,0,0
13600,-52.59203606311,4,1,0,100,0,0
13650,-51.698670605613,4,1,0,100,0,0
13750,-50,4,1,0,100,0,0
13875,-71.428571428571,4,1,0,70,0,0
19675,-71.428571428571,4,1,0,100,0,0
19750,-71.428571428571,4,1,0,100,0,0
19816,-66.711140760507,4,1,0,100,0,0
19883,-62.519537355424,4,1,0,100,0,0
19950,-58.823529411765,4,1,0,100,0,0
20016,-55.586436909394,4,1,0,100,0,0
20083,-52.645433008686,4,1,0,100,0,0
20175,-50,4,1,0,100,0,0
20750,-55.555555555556,4,1,0,100,0,0
20850,-52.631578947368,4,1,0,100,0,0
20975,-50,4,1,0,100,0,0
21350,-57.142857142857,4,1,0,100,0,0
21650,-64,4,1,0,100,0,0
21750,-50,4,1,0,100,0,0
21850,-51.612903225806,4,1,0,100,0,0
21950,-53.333333333333,4,1,0,100,0,0
22050,-55.172413793103,4,1,0,100,0,0
22150,-57.142857142857,4,1,0,100,0,0
22250,-59.259259259259,4,1,0,100,0,0
22350,-61.538461538462,4,1,0,100,0,0
22450,-64,4,1,0,100,0,0
22550,-66.666666666667,4,1,0,100,0,0
22750,-61.538461538462,4,1,0,100,0,0
22850,-59.259259259259,4,1,0,100,0,0
22950,-57.142857142857,4,1,0,100,0,0
23050,-55.172413793103,4,1,0,100,0,0
23100,-54.237288135593,4,1,0,100,0,0
23150,-53.333333333333,4,1,0,100,0,0
23250,-51.612903225806,4,1,0,100,0,0
23350,-50,4,1,0,100,0,0
23775,-57.142857142857,4,1,0,100,0,0
24175,-50,4,1,0,100,0,0
24575,-57.142857142857,4,1,0,100,0,0
24975,-66.666666666667,4,1,0,100,0,0
25150,-50,4,1,0,100,0,0
25250,-51.428571428571,4,1,0,100,0,0
25350,-52.941176470588,4,1,0,100,0,0
25450,-54.545454545455,4,1,0,100,0,0
25650,-58.064516129032,4,1,0,100,0,0
25750,-60,4,1,0,100,0,0
25850,-62.068965517241,4,1,0,100,0,0
25950,-64.285714285714,4,1,0,100,0,0
26050,-65.359477124183,4,1,0,100,0,0
26150,-62.5,4,1,0,100,0,0
26250,-58.823529411765,4,1,0,100,0,0
26350,-55.555555555556,4,1,0,100,0,0
26450,-52.631578947368,4,1,0,100,0,0
26550,-50,4,1,0,100,0,0
26975,-57.142857142857,4,1,0,100,0,0
27375,-50,4,1,0,100,0,0
27750,-66.666666666667,4,1,0,100,0,0
27816,-63.191153238547,4,1,0,100,0,0
27883,-60.015003750938,4,1,0,100,0,0
27950,-57.142857142857,4,1,0,100,0,0
28016,-54.570259208731,4,1,0,100,0,0
28083,-52.18525766471,4,1,0,100,0,0
28150,-50,4,1,0,100,0,0
28450,-56.818181818182,4,1,0,100,0,0
28550,-59.52380952381,4,1,0,100,0,0
28650,-62.5,4,1,0,100,0,0
29725,-10,4,1,0,50,0,0
30175,-62.5,4,1,0,50,0,0
34550,-50,4,1,0,100,0,0
34850,-37.5,4,1,0,100,0,0
35150,-30,4,1,0,100,0,0
35450,-25,4,1,0,100,0,0
35750,-21.428571428571,4,1,0,100,0,0
36050,-18.75,4,1,0,100,0,0
36350,-16.666666666667,4,1,0,100,0,0
36650,-15,4,1,0,100,0,0
36950,-13.636363636364,4,1,0,100,0,0
37250,-12.5,4,1,0,100,0,0
37550,-11.538461538462,4,1,0,100,0,0
37850,-10.714285714286,4,1,0,100,0,0
38150,-10,4,1,0,100,0,0
38575,-66.666666666667,4,1,0,100,0,0
39375,-50,4,1,0,100,0,0
39550,-61.538461538462,4,1,0,100,0,0
39650,-59.259259259259,4,1,0,100,0,0
39750,-57.142857142857,4,1,0,100,0,0
39816,-55.82693649686,4,1,0,100,0,0
39883,-54.551653597,4,1,0,100,0,0
39950,-53.333333333333,4,1,0,100,0,0
40016,-52.18525766471,4,1,0,100,0,0
40083,-51.06926268752,4,1,0,100,0,0
40150,-50,4,1,0,100,0,0
40250,-51.612903225806,4,1,0,100,0,0
40350,-53.333333333333,4,1,0,100,0,0
40416,-54.53306066803,4,1,0,100,0,0
40483,-55.807464248343,4,1,0,100,0,0
40550,-57.142857142857,4,1,0,100,0,0
40616,-58.522311631309,4,1,0,100,0,0
40683,-59.992500937383,4,1,0,100,0,0
40750,-61.538461538462,4,1,0,100,0,0
40816,-63.141278610892,4,1,0,100,0,0
40883,-64.856100526956,4,1,0,100,0,0
40950,-66.666666666667,4,1,0,100,0,0
41150,-67.796610169492,4,1,0,100,0,0
41250,-68.376068376068,4,1,0,100,0,0
41450,-69.565217391304,4,1,0,100,0,0
41550,-70.175438596491,4,1,0,100,0,0
41750,-71.428571428571,4,1,0,100,0,0
41850,-72.072072072072,4,1,0,100,0,0
41950,-72.727272727273,4,1,0,100,0,0
42050,-73.394495412844,4,1,0,100,0,0
42150,-74.074074074074,4,1,0,100,0,0
42250,-74.766355140187,4,1,0,100,0,0
42350,-75.471698113208,4,1,0,100,0,0
42450,-76.190476190476,4,1,0,100,0,0
42575,-50,4,1,0,100,0,0
42750,-61.538461538462,4,1,0,100,0,0
42850,-59.259259259259,4,1,0,100,0,0
42950,-57.142857142857,4,1,0,100,0,0
43016,-55.82693649686,4,1,0,100,0,0
43083,-54.551653597,4,1,0,100,0,0
43150,-53.333333333333,4,1,0,100,0,0
43216,-52.18525766471,4,1,0,100,0,0
43283,-51.06926268752,4,1,0,100,0,0
43350,-50,4,1,0,100,0,0
43450,-51.612903225806,4,1,0,100,0,0
43550,-53.333333333333,4,1,0,100,0,0
43616,-54.53306066803,4,1,0,100,0,0
43683,-55.807464248343,4,1,0,100,0,0
43750,-57.142857142857,4,1,0,100,0,0
43816,-58.522311631309,4,1,0,100,0,0
43883,-59.992500937383,4,1,0,100,0,0
43950,-61.538461538462,4,1,0,100,0,0
44016,-63.141278610892,4,1,0,100,0,0
44083,-64.856100526956,4,1,0,100,0,0
44150,-66.666666666667,4,1,0,100,0,0
44350,-67.796610169492,4,1,0,100,0,0
44450,-68.376068376068,4,1,0,100,0,0
44550,-68.965517241379,4,1,0,100,0,0
44650,-69.565217391304,4,1,0,100,0,0
44750,-70.175438596491,4,1,0,100,0,0
44850,-70.796460176991,4,1,0,100,0,0
44900,-71.111111111111,4,1,0,100,0,0
44950,-71.428571428571,4,1,0,100,0,0
45050,-72.072072072072,4,1,0,100,0,0
45150,-72.727272727273,4,1,0,100,0,0
45250,-73.394495412844,4,1,0,100,0,0
45350,-74.074074074074,4,1,0,100,0,0
45550,-75.471698113208,4,1,0,100,0,0
45650,-76.190476190476,4,1,0,100,0,0
45775,-50,4,1,0,100,0,0
45950,-61.538461538462,4,1,0,100,0,0
46050,-59.259259259259,4,1,0,100,0,0
46150,-57.142857142857,4,1,0,100,0,0
46216,-55.82693649686,4,1,0,100,0,0
46283,-54.551653597,4,1,0,100,0,0
46350,-53.333333333333,4,1,0,100,0,0
46416,-52.18525766471,4,1,0,100,0,0
46483,-51.06926268752,4,1,0,100,0,0
46550,-50,4,1,0,100,0,0
46650,-51.612903225806,4,1,0,100,0,0
46750,-53.333333333333,4,1,0,100,0,0
46816,-54.53306066803,4,1,0,100,0,0
46883,-55.807464248343,4,1,0,100,0,0
46950,-57.142857142857,4,1,0,100,0,0
47016,-58.522311631309,4,1,0,100,0,0
47083,-59.992500937383,4,1,0,100,0,0
47150,-61.538461538462,4,1,0,100,0,0
47216,-63.141278610892,4,1,0,100,0,0
47283,-64.856100526956,4,1,0,100,0,0
47350,-66.666666666667,4,1,0,100,0,0
47550,-67.796610169492,4,1,0,100,0,0
47650,-68.376068376068,4,1,0,100,0,0
47850,-69.565217391304,4,1,0,100,0,0
47950,-70.175438596491,4,1,0,100,0,0
48150,-71.428571428571,4,1,0,100,0,0
48250,-72.072072072072,4,1,0,100,0,0
48350,-72.727272727273,4,1,0,100,0,0
48450,-73.394495412844,4,1,0,100,0,0
48550,-74.074074074074,4,1,0,100,0,0
48650,-74.766355140187,4,1,0,100,0,0
48750,-75.471698113208,4,1,0,100,0,0
48850,-76.190476190476,4,1,0,100,0,0
48950,-76.923076923077,4,1,0,100,0,0
49050,-75.65011820331,4,1,0,100,0,0
49150,-74.418604651163,4,1,0,100,0,0
49250,-73.226544622426,4,1,0,100,0,0
49350,-72.072072072072,4,1,0,100,0,0
49450,-70.953436807095,4,1,0,100,0,0
49550,-69.868995633188,4,1,0,100,0,0
49650,-68.817204301075,4,1,0,100,0,0
49750,-67.796610169492,4,1,0,100,0,0
49850,-66.805845511482,4,1,0,100,0,0
49950,-65.843621399177,4,1,0,100,0,0
50050,-64.908722109533,4,1,0,100,0,0
50150,-64,4,1,0,100,0,0
50250,-63.116370808678,4,1,0,100,0,0
50350,-62.256809338521,4,1,0,100,0,0
50450,-61.420345489443,4,1,0,100,0,0
50550,-60.606060606061,4,1,0,100,0,0
50650,-59.81308411215,4,1,0,100,0,0
50750,-59.040590405904,4,1,0,100,0,0
50850,-58.287795992714,4,1,0,100,0,0
50950,-57.553956834532,4,1,0,100,0,0
51050,-56.83836589698,4,1,0,100,0,0
51150,-56.140350877193,4,1,0,100,0,0
51200,-55.797733217088,4,1,0,100,0,0
51250,-55.459272097054,4,1,0,100,0,0
51300,-55.124892334195,4,1,0,100,0,0
51350,-54.794520547945,4,1,0,100,0,0
51400,-54.468085106383,4,1,0,100,0,0
51450,-54.14551607445,4,1,0,100,0,0
51500,-53.826745164003,4,1,0,100,0,0
51550,-53.511705685619,4,1,0,100,0,0
51600,-53.200332502078,4,1,0,100,0,0
51650,-52.892561983471,4,1,0,100,0,0
51700,-52.588331963846,4,1,0,100,0,0
51750,-52.287581699346,4,1,0,100,0,0
51800,-51.990251827782,4,1,0,100,0,0
51850,-51.696284329564,4,1,0,100,0,0
51900,-51.40562248996,4,1,0,100,0,0
51950,-51.11821086262,4,1,0,100,0,0
52000,-50.833995234313,4,1,0,100,0,0
52050,-50.552922590837,4,1,0,100,0,0
52175,-50,4,1,0,100,0,0
52350,-50.632911392405,4,1,0,100,0,0
52450,-50.955414012739,4,1,0,100,0,0
52550,-51.282051282051,4,1,0,100,0,0
52650,-51.612903225806,4,1,0,100,0,0
52750,-51.948051948052,4,1,0,100,0,0
52800,-52.117263843648,4,1,0,100,0,0
52850,-52.287581699346,4,1,0,100,0,0
52975,413.793103448276,4,1,0,100,1,8
52975,-51.020408163265,4,1,0,100,0,0
53000,-51.181443477615,4,1,0,100,0,0
53052,-51.346686369224,4,1,0,100,0,0
53156,-51.677164567087,4,1,0,100,0,0
53259,-52.015195733119,4,1,0,100,0,0
53311,-52.185875107274,4,1,0,100,0,0
53362,-52.354363707727,4,1,0,100,0,0
53466,-52.701342068034,4,1,0,100,0,0
53569,-53.049547122367,4,1,0,100,0,0
53803,428.571428571429,4,1,0,100,1,0
53803,-51.813471502591,4,1,0,100,0,0
53829,-51.996747928018,4,1,0,100,0,0
53883,-52.184820732658,4,1,0,100,0,0
53936,-52.370738384635,4,1,0,100,0,0
53990,-52.56153133759,4,1,0,100,0,0
54097,-52.943720269352,4,1,0,100,0,0
54204,-53.33150790638,4,1,0,100,0,0
54311,-53.725018179994,4,1,0,100,0,0
54419,-54.124378706446,4,1,0,100,0,0
54526,-54.533537807586,4,1,0,100,0,0
54660,444.444444444444,4,1,0,100,1,8
54660,-52.910052910053,4,1,0,100,0,0
54743,-53.297362110312,4,1,0,100,0,0
54854,-53.690383442345,4,1,0,100,0,0
54909,-53.887279207633,4,1,0,100,0,0
54965,-54.089244210808,4,1,0,100,0,0
55076,-54.494075531608,4,1,0,100,0,0
55187,-54.905012475605,4,1,0,100,0,0
55298,-55.322194218862,4,1,0,100,0,0
55409,-55.745764199807,4,1,0,100,0,0
55549,461.538461538462,4,1,0,100,1,0
55549,-54.347826086957,4,1,0,100,0,0
55750,-55.169693129789,4,1,0,100,0,0
55866,-55.593702191223,4,1,0,100,0,0
55981,-56.020538841109,4,1,0,100,0,0
56097,-56.453980525517,4,1,0,100,0,0
56212,-56.898039699174,4,1,0,100,0,0
56270,-57.122699310567,4,1,0,100,0,0
56327,-57.345220713864,4,1,0,100,0,0
56472,480,4,1,0,100,1,8
56472,-55.555555555556,4,1,0,100,0,0
56502,-55.788005578801,4,1,0,100,0,0
56562,-56.022408963585,4,1,0,100,0,0
56622,-56.258790436006,4,1,0,100,0,0
56682,-56.497175141243,4,1,0,100,0,0
56802,-56.980056980057,4,1,0,100,0,0
56922,-57.471264367816,4,1,0,100,0,0
56982,-57.720057720058,4,1,0,100,0,0
57042,-57.971014492754,4,1,0,100,0,0
57162,-58.479532163743,4,1,0,100,0,0
57432,500,4,1,0,100,1,0
57432,-57.142857142857,4,1,0,100,0,0
57463,-57.386833164999,4,1,0,100,0,0
57525,-57.636887608069,4,1,0,100,0,0
57588,-57.885109634398,4,1,0,100,0,0
57650,-58.139534883721,4,1,0,100,0,0
57775,-58.651026392962,4,1,0,100,0,0
57900,-59.171597633136,4,1,0,100,0,0
58025,-59.701492537313,4,1,0,100,0,0
58150,-60.240963855422,4,1,0,100,0,0
58275,-60.790273556231,4,1,0,100,0,0
58432,521.739130434783,4,1,0,100,1,8
58432,-58.823529411765,4,1,0,100,0,0
58529,-59.389591162738,4,1,0,100,0,0
58660,-59.966653251308,4,1,0,100,0,0
58790,-60.559610281779,4,1,0,100,0,0
58921,-61.159748324411,4,1,0,100,0,0
59475,545.454545454546,4,1,0,100,1,0
59475,-100,4,1,0,100,0,0
59577,-96.394591887832,4,1,0,100,0,0
59713,-93.040115998067,4,1,0,100,0,0
59850,-89.889029280888,4,1,0,100,0,0
59986,-86.965187350518,4,1,0,100,0,0
60122,-84.225562361662,4,1,0,100,0,0
60259,-81.634943996807,4,1,0,100,0,0
60395,-79.216189392656,4,1,0,100,0,0
60531,-76.936640413777,4,1,0,100,0,0
60668,-74.769237799305,4,1,0,100,0,0
60804,-72.735152916074,4,1,0,100,0,0
60940,-70.79502433748,4,1,0,100,0,0
61077,-68.968787540306,4,1,0,100,0,0
61145,-68.090551590687,4,1,0,100,0,0
61213,-67.234401002609,4,1,0,100,0,0
61281,-66.399513036421,4,1,0,100,0,0
61350,-65.573277762193,4,1,0,100,0,0
61418,-64.778890692426,4,1,0,100,0,0
61486,-64.003520438099,4,1,0,100,0,0
61554,-63.246492211356,4,1,0,100,0,0
61622,-62.507162776483,4,1,0,100,0,0
61759,-61.068915968425,4,1,0,100,0,0
61895,-59.705168670522,4,1,0,100,0,0
62031,-58.40099937539,4,1,0,100,0,0
62168,-57.143605503946,4,1,0,100,0,0
62304,-55.947821924366,4,1,0,100,0,0
62440,-54.792800334868,4,1,0,100,0,0
62577,-53.692431377053,4,1,0,100,0,0
62713,-52.635388351857,4,1,0,100,0,0
62850,-51.611834842129,4,1,0,100,0,0
62986,-50.634380318737,4,1,0,100,0,0
63122,-49.693260849759,4,1,0,100,0,0
63259,-48.779942462772,4,1,0,100,0,0
63327,-48.338971033546,4,1,0,100,0,0
63395,-47.905900952994,4,1,0,100,0,0
63463,-47.480521741654,4,1,0,100,0,0
63531,-47.06263033005,4,1,0,100,0,0
63600,-46.646045954729,4,1,0,100,0,0
63668,-46.242652046123,4,1,0,100,0,0
63736,-45.846175399272,4,1,0,100,0,0
63804,-45.4564396044,4,1,0,100,0,0
63872,-45.073274199769,4,1,0,100,0,0
63940,-44.691020826221,4,1,0,100,0,0
64009,-44.320598074136,4,1,0,100,0,0
64077,-43.956265362866,4,1,0,100,0,0
64145,-43.597873729367,4,1,0,100,0,0
64213,-43.245279029509,4,1,0,100,0,0
64281,-42.898341744773,4,1,0,100,0,0
64350,-42.55194653213,4,1,0,100,0,0
64418,-42.216001444826,4,1,0,100,0,0
64486,-41.885319339562,4,1,0,100,0,0
64554,-41.559777501206,4,1,0,100,0,0
64622,-41.239257000277,4,1,0,100,0,0
64690,-40.919037199125,4,1,0,100,0,0
64759,-40.608286696365,4,1,0,100,0,0
64827,-40.302220470695,4,1,0,100,0,0
64895,-40.000733397709,4,1,0,100,0,0
64940,-39.799331103679,4,1,0,100,0,0
64986,-39.604259954012,4,1,0,100,0,0
65031,-39.411091708316,4,1,0,100,0,0
65100,-39.118533040069,4,1,0,100,0,0
65168,-38.834432999478,4,1,0,100,0,0
65213,-38.648683759876,4,1,0,100,0,0
65259,-38.460634409487,4,1,0,100,0,0
65304,-38.278435409161,4,1,0,100,0,0
65372,-38.006364396544,4,1,0,100,0,0
65440,-37.734217353704,4,1,0,100,0,0
65486,-37.558820153793,4,1,0,100,0,0
65531,-37.385045981607,4,1,0,100,0,0
65577,-37.209064344109,4,1,0,100,0,0
65622,-37.038504199018,4,1,0,100,0,0
65668,-36.865762436914,4,1,0,100,0,0
65713,-36.698327969228,4,1,0,100,0,0
65781,-36.448181767556,4,1,0,100,0,0
65850,-36.197818728845,4,1,0,100,0,0
65918,-35.954426596937,4,1,0,100,0,0
65986,-35.714285714286,4,1,0,100,0,0
66565,-10,4,1,0,100,0,0
67622,-50,4,1,0,100,0,0
67713,-52.631578947368,4,1,0,100,0,0
67804,-55.555555555556,4,1,0,100,0,0
67895,-58.823529411765,4,1,0,100,0,0
67986,-62.5,4,1,0,100,0,0
68077,-66.666666666667,4,1,0,100,0,0
68202,-71.428571428571,4,1,0,100,0,1
68475,-71.447299423178,4,1,0,100,0,1
68543,-68.978610302493,4,1,0,100,0,1
68611,-66.67482260827,4,1,0,100,0,1
68679,-64.519947910501,4,1,0,100,0,1
68748,540.540540540541,4,1,0,100,1,8
68748,-62.5,4,1,0,100,0,1
68883,-66.642030056664,4,1,0,100,0,1
68916,-65.575757575758,4,1,0,100,0,1
69018,-62.485562485562,4,1,0,100,0,1
69052,-61.519217648397,4,1,0,100,0,1
69153,-58.8171341596,4,1,0,100,0,1
69187,-57.960145703878,4,1,0,100,0,1
69288,535.714285714286,4,1,0,100,1,8
69288,-55.555555555556,4,1,0,100,0,1
69421,-66.691598105211,4,1,0,100,0,1
69455,-65.579798970336,4,1,0,100,0,1
69555,-62.514606216406,4,1,0,100,0,1
69589,-61.536691971475,4,1,0,100,0,1
69689,-58.829997800748,4,1,0,100,0,1
69723,-57.963163596966,4,1,0,100,0,1
69824,530.973451327434,4,1,0,100,1,8
69824,-55.555555555556,4,1,0,100,0,1
69956,-66.68344237544,4,1,0,100,0,1
69989,-65.594059405941,4,1,0,100,0,1
70089,-62.5,4,1,0,100,0,1
70133,-61.229205175601,4,1,0,100,0,1
70177,-60.009057971014,4,1,0,100,0,1
70222,-58.810474922326,4,1,0,100,0,1
70266,-57.683935568132,4,1,0,100,0,1
70310,-56.599743699274,4,1,0,100,0,1
70355,526.315789473684,4,1,0,100,1,0
70355,-55.555555555556,4,1,0,100,0,1
70486,-66.683569979716,4,1,0,100,0,1
70530,-65.228174603175,4,1,0,100,0,1
70574,-63.834951456311,4,1,0,100,0,1
70618,-62.5,4,1,0,100,0,1
70683,-60.627017058552,4,1,0,100,0,1
70749,-58.836689038031,4,1,0,100,0,1
70815,-57.149065623642,4,1,0,100,0,1
70881,521.739130434783,4,1,0,100,1,8
70881,-55.555555555556,4,1,0,100,0,1
71011,-66.675198361915,4,1,0,100,0,1
71044,-65.567581172917,4,1,0,100,0,1
71141,-62.514998800096,4,1,0,100,0,1
71174,-61.540278762107,4,1,0,100,0,1
71272,-58.816888688191,4,1,0,100,0,1
71304,-57.979078566659,4,1,0,100,0,1
71403,517.241379310345,4,1,0,100,1,8
71403,-55.555555555556,4,1,0,100,0,1
71532,-66.649511065363,4,1,0,100,0,1
71564,-65.569620253165,4,1,0,100,0,1
71661,-62.5,4,1,0,100,0,1
71693,-61.549429657795,4,1,0,100,0,1
71790,-58.836892321672,4,1,0,100,0,1
71823,-57.967770814682,4,1,0,100,0,1
71920,512.820512820513,4,1,0,100,1,8
71920,-55.555555555556,4,1,0,100,0,1
72090,-65.239551478084,4,1,0,100,0,1
72176,-62.5,4,1,0,100,0,1
72219,-61.214729794357,4,1,0,100,0,1
72261,-60.009376465073,4,1,0,100,0,1
72347,-57.683641279856,4,1,0,100,0,1
72433,508.474576271186,4,1,0,100,1,0
72433,-55.555555555556,4,1,0,100,0,1
72687,-62.515352493245,4,1,0,100,0,1
72750,-60.6385513462,4,1,0,100,0,1
72814,-58.843930635838,4,1,0,100,0,1
72877,-57.178162210739,4,1,0,100,0,1
72942,504.201680672269,4,1,0,100,1,8
72942,-55.555555555556,4,1,0,100,0,1
73068,-66.666666666667,4,1,0,100,0,1
73099,-65.590838105154,4,1,0,100,0,1
73194,-62.5,4,1,0,100,0,1
73225,-61.553492916463,4,1,0,100,0,1
73320,-58.823529411765,4,1,0,100,0,1
73351,-57.98435342844,4,1,0,100,0,1
73446,500,4,1,0,100,1,8
73446,-55.555555555556,4,1,0,100,0,1
73571,-66.666666666667,4,1,0,100,0,1
73602,-65.582371458552,4,1,0,100,0,1
73696,-62.5,4,1,0,100,0,1
73727,-61.546036435254,4,1,0,100,0,1
73821,-58.823529411765,4,1,0,100,0,1
73852,-57.977736549165,4,1,0,100,0,1
73946,495.867768595041,4,1,0,100,1,8
73946,-55.555555555556,4,1,0,100,0,9
74069,-66.70252824099,4,1,0,100,0,1
74100,-65.608465608466,4,1,0,100,0,1
74193,-62.531517902168,4,1,0,100,0,1
74235,-61.234567901235,4,1,0,100,0,1
74276,-60.019361084221,4,1,0,100,0,1
74317,-58.851447555766,4,1,0,100,0,1
74442,491.803278688525,4,1,0,100,1,0
74442,-55.555555555556,4,1,0,100,0,1
74564,-57.048769740961,4,1,0,100,0,1
74605,-57.568772451236,4,1,0,100,0,1
74646,-58.098342071702,4,1,0,100,0,1
74687,-58.637745068828,4,1,0,100,0,1
74810,-60.317771675167,4,1,0,100,0,1
74934,487.80487804878,4,1,0,100,1,8
74934,-62.5,4,1,0,100,0,1
74994,-63.427976035426,4,1,0,100,0,1
75055,-64.400100501184,4,1,0,100,0,1
75177,-66.436571490935,4,1,0,100,0,1
75238,-67.503881126636,4,1,0,100,0,1
75299,-68.606043530323,4,1,0,100,0,1
75421,483.870967741935,4,1,0,100,1,8
75421,-71.428571428571,4,1,0,100,0,1
75481,-70.124601564764,4,1,0,100,0,1
75541,-68.867387592487,4,1,0,100,0,1
75662,-66.464344076571,4,1,0,100,0,1
75723,-65.315376103209,4,1,0,100,0,1
75783,-64.223348637244,4,1,0,100,0,1
75905,480,4,1,0,100,1,8
75905,-62.5,4,1,0,100,0,1
75965,-61.491160645657,4,1,0,100,0,1
76025,-60.514372163389,4,1,0,100,0,1
76145,-58.651026392962,4,1,0,100,0,1
76265,-56.899004267425,4,1,0,100,0,1
76385,476.190476190476,4,1,0,100,1,0
76385,-55.555555555556,4,1,0,100,0,1
76623,-62.5,4,1,0,100,0,1
76682,-60.62149770759,4,1,0,100,0,1
76742,-58.823529411765,4,1,0,100,0,1
76801,-57.156580211335,4,1,0,100,0,1
76861,472.44094488189,4,1,0,100,1,8
76861,-55.555555555556,4,1,0,100,0,9
76979,-66.666666666667,4,1,0,100,0,1
77008,-65.591995553085,4,1,0,100,0,1
77097,-62.5,4,1,0,100,0,1
77126,-61.554512258738,4,1,0,100,0,1
77215,-58.823529411765,4,1,0,100,0,1
77244,-57.985257985258,4,1,0,100,0,1
77334,468.75,4,1,0,100,1,8
77334,-55.555555555556,4,1,0,100,0,9
77451,-66.676144441285,4,1,0,100,0,1
77480,-65.594405594406,4,1,0,100,0,1
77568,-62.516662223407,4,1,0,100,0,1
77597,-61.564715148333,4,1,0,100,0,1
77685,-58.845671267252,4,1,0,100,0,1
77714,-58.0014840465,4,1,0,100,0,1
77803,465.116279069767,4,1,0,100,1,8
77803,-55.555555555556,4,1,0,100,0,9
77919,-66.67622598222,4,1,0,100,0,1
77948,-65.58533145275,4,1,0,100,0,1
78035,-62.516805592901,4,1,0,100,0,1
78074,-61.232552014748,4,1,0,100,0,1
78113,-60,4,1,0,100,0,1
78151,-58.845861807137,4,1,0,100,0,1
78190,-57.706626954579,4,1,0,100,0,1
78229,-56.610664718773,4,1,0,100,0,1
78268,461.538461538462,4,1,0,100,1,0
78268,-55.555555555556,4,1,0,100,0,9
78383,-66.676308938386,4,1,0,100,0,1
78421,-65.242003962638,4,1,0,100,0,1
78460,-63.832733314871,4,1,0,100,0,1
78498,-62.516951451044,4,1,0,100,0,1
78556,-60.610044701551,4,1,0,100,0,1
78614,-58.816024496045,4,1,0,100,0,1
78671,-57.153483758988,4,1,0,100,0,1
78729,458.015267175573,4,1,0,100,1,8
78729,-55.555555555556,4,1,0,100,0,9
78843,-66.686080372743,4,1,0,100,0,1
78872,-65.578465063001,4,1,0,100,0,1
78958,-62.5,4,1,0,100,0,1
78986,-61.559139784946,4,1,0,100,0,1
79072,-58.838643371017,4,1,0,100,0,1
79101,-57.974683544304,4,1,0,100,0,1
79187,454.545454545455,4,1,0,100,1,8
79187,-55.555555555556,4,1,0,100,0,9
79300,-66.676479246394,4,1,0,100,0,1
79329,-65.557163531114,4,1,0,100,0,1
79414,-62.48275862069,4,1,0,100,0,1
79442,-61.532192339038,4,1,0,100,0,1
79527,-58.81589197611,4,1,0,100,0,1
79556,-57.943207981581,4,1,0,100,0,1
79642,451.127819548872,4,1,0,100,1,8
79642,-55.555555555556,4,1,0,100,0,9
79698,-54.018602432626,4,1,0,100,0,1
79754,-52.613240418118,4,1,0,100,0,1
79811,-51.255940257977,4,1,0,100,0,1
79867,-49.988964908409,4,1,0,100,0,1
79923,-48.783114365712,4,1,0,100,0,1
79980,-47.614042463738,4,1,0,100,0,1
80093,447.761194029851,4,1,0,100,1,0
80093,-45.454545454546,4,1,0,100,0,8
80960,-50,4,1,0,100,0,0
81128,-37.267904509284,4,1,0,100,0,0
81296,-29.704016913319,4,1,0,100,0,0
81464,-24.69244288225,4,1,0,100,0,0
81632,-21.127819548872,4,1,0,100,0,0
81800,-18.462549277267,4,1,0,100,0,0
81884,428.571428571429,4,1,0,100,1,8
81964,-16.449239003178,4,1,0,100,0,0
82125,-14.858739990935,4,1,0,100,0,0
82285,-13.54123640369,4,1,0,100,0,0
82446,-12.438345769571,4,1,0,100,0,0
82607,-11.501578762718,4,1,0,100,0,0
82767,-10.700685453161,4,1,0,100,0,0
82928,-10,4,1,0,100,0,0
83169,-65.789473684211,4,1,0,100,0,0
83598,-50,4,1,0,100,0,1
83919,-64.935064935065,4,1,0,100,0,1
84027,425.531914893617,4,1,0,100,1,8
84027,-64.935064935065,4,1,0,100,0,1
84452,413.793103448276,4,1,0,100,1,8
84452,-66.666666666667,4,1,0,100,0,1
84866,410.958904109589,4,1,0,100,1,8
84866,-66.666666666667,4,1,0,100,0,1
85277,408.163265306122,4,1,0,100,1,0
85277,-66.666666666667,4,1,0,100,0,1
85685,405.405405405405,4,1,0,100,1,8
85685,-66.666666666667,4,1,0,100,0,1
86091,402.684563758389,4,1,0,100,1,8
86091,-66.666666666667,4,1,0,100,0,1
86493,400,4,1,0,100,1,8
86493,-66.666666666667,4,1,0,100,0,1
86893,397.350993377483,4,1,0,100,1,0
86893,-50,4,1,0,100,0,1
87191,-66.666666666667,4,1,0,100,0,1
87291,394.736842105263,4,1,0,100,1,8
87291,-66.666666666667,4,1,0,100,0,1
87686,392.156862745098,4,1,0,100,1,8
87686,-66.666666666667,4,1,0,100,0,1
88078,389.61038961039,4,1,0,100,1,8
88078,-66.666666666667,4,1,0,100,0,1
88467,387.096774193548,4,1,0,100,1,0
88467,-66.666666666667,4,1,0,100,0,1
88563,-68.246746376045,4,1,0,100,0,1
88660,-69.921225699212,4,1,0,100,0,1
88757,-71.679940729765,4,1,0,100,0,1
88854,384.615384615385,4,1,0,100,1,8
88854,-74.074074074074,4,1,0,100,0,1
88950,-76.040370523987,4,1,0,100,0,1
89046,-78.113904274961,4,1,0,100,0,1
89094,-79.193664506839,4,1,0,100,0,1
89142,-80.303693969923,4,1,0,100,0,1
89190,-81.445283577669,4,1,0,100,0,1
89239,382.165605095541,4,1,0,100,1,8
89239,-83.333333333333,4,1,0,100,0,1
89334,-80.658783783784,4,1,0,100,0,1
89430,-78.125,4,1,0,100,0,1
89525,-75.769596953348,4,1,0,100,0,1
89621,379.746835443038,4,1,0,100,1,8
89621,-74.074074074074,4,1,0,100,0,1
89668,-73.003919157765,4,1,0,100,0,1
89715,-71.964245132944,4,1,0,100,0,1
89810,-69.950666372138,4,1,0,100,0,1
89858,-68.975531837653,4,1,0,100,0,1
89905,-68.046701525679,4,1,0,100,0,1
90001,377.358490566038,4,1,0,100,1,0
90001,-50,4,1,0,100,0,1
90284,-66.666666666667,4,1,0,100,0,1
90378,375,4,1,0,100,1,8
90378,-66.666666666667,4,1,0,100,0,1
90753,372.670807453416,4,1,0,100,1,8
90753,-66.666666666667,4,1,0,100,0,1
91126,370.37037037037,4,1,0,100,1,8
91126,-66.666666666667,4,1,0,100,0,1
91496,368.098159509202,4,1,0,100,1,0
91496,-66.666666666667,4,1,0,100,0,1
91864,365.853658536585,4,1,0,100,1,8
91864,-66.666666666667,4,1,0,100,0,1
92230,363.636363636364,4,1,0,100,1,8
92230,-66.666666666667,4,1,0,100,0,1
92594,361.44578313253,4,1,0,100,1,8
92594,-66.666666666667,4,1,0,100,0,1
92955,359.281437125748,4,1,0,100,1,0
92955,-50,4,1,0,100,0,1
93224,-66.666666666667,4,1,0,100,0,1
93315,357.142857142857,4,1,0,100,1,8
93315,-66.666666666667,4,1,0,100,0,1
93672,355.029585798817,4,1,0,100,1,8
93672,-66.666666666667,4,1,0,100,0,1
94027,352.941176470588,4,1,0,100,1,8
94027,-66.666666666667,4,1,0,100,0,1
94380,350.877192982456,4,1,0,100,1,0
94380,-66.666666666667,4,1,0,100,0,1
94555,-61.363636363636,4,1,0,100,0,1
94643,-59.003496503497,4,1,0,100,0,1
94731,348.837209302326,4,1,0,100,1,8
94731,-57.142857142857,4,1,0,100,0,1
94789,-55.762081784387,4,1,0,100,0,1
94847,-54.446460980036,4,1,0,100,0,1
94963,-51.993067590988,4,1,0,100,0,1
95079,346.820809248555,4,1,0,100,1,8
95079,-50,4,1,0,100,0,1
95252,-53.18170671898,4,1,0,100,0,1
95339,-54.939835338822,4,1,0,100,0,1
95426,344.827586206897,4,1,0,100,1,8
95426,-57.142857142857,4,1,0,100,0,1
95598,-61.336604618913,4,1,0,100,0,1
95771,342.857142857143,4,1,0,100,1,0
95771,-66.666666666667,4,1,0,100,0,0
96092,-69.558599695586,4,1,0,100,0,0
96263,-71.109958506224,4,1,0,100,0,0
96521,-73.561368209256,4,1,0,100,0,0
96606,-74.419867010449,4,1,0,100,0,0
96778,-76.187829952765,4,1,0,100,0,0
97121,-80,4,1,0,100,0,0
97292,-82.046678635548,4,1,0,100,0,0
97463,-84.213759213759,4,1,0,100,0,0
97549,-85.340802987862,4,1,0,100,0,0
97635,-86.484781580192,4,1,0,100,0,0
97806,-88.896093370076,4,1,0,100,0,0
97892,-90.138067061144,4,1,0,100,0,0
98149,-94.129763130793,4,1,0,100,0,0
98492,-100,4,1,0,100,0,0
98578,-95.238095238095,4,1,0,100,0,0
98663,-90.909090909091,4,1,0,100,0,0
98749,-86.95652173913,4,1,0,100,0,0
98835,-83.333333333333,4,1,0,100,0,0
99006,-100,4,1,0,100,0,0
99092,-95.238095238095,4,1,0,100,0,0
99177,-90.909090909091,4,1,0,100,0,0
99263,-86.95652173913,4,1,0,100,0,0
99349,-83.333333333333,4,1,0,100,0,0
99521,-100,4,1,0,100,0,0
99607,-95.238095238095,4,1,0,100,0,0
99692,-90.909090909091,4,1,0,100,0,0
99778,-86.95652173913,4,1,0,100,0,0
99864,-83.333333333333,4,1,0,100,0,0
100035,-100,4,1,0,100,0,0
100121,-95.238095238095,4,1,0,100,0,0
100206,-90.909090909091,4,1,0,100,0,0
100292,-86.95652173913,4,1,0,100,0,0
100378,-83.333333333333,4,1,0,100,0,0
100549,-100,4,1,0,100,0,0
100635,-93.004338394794,4,1,0,100,0,0
100720,-86.923466801825,4,1,0,100,0,0
100806,-81.588962892483,4,1,0,100,0,0
100892,-76.923076923077,4,1,0,100,0,0
101256,-66.666666666667,4,1,0,100,0,0
101577,-69.558599695586,4,1,0,100,0,0
101748,-71.109958506224,4,1,0,100,0,0
102006,-73.561368209256,4,1,0,100,0,0
102091,-74.419867010449,4,1,0,100,0,0
102263,-76.187829952765,4,1,0,100,0,0
102606,-80,4,1,0,100,0,0
102777,-82.046678635548,4,1,0,100,0,0
102948,-84.213759213759,4,1,0,100,0,0
103034,-85.340802987862,4,1,0,100,0,0
103120,-86.484781580192,4,1,0,100,0,0
103291,-88.896093370076,4,1,0,100,0,0
103377,-90.138067061144,4,1,0,100,0,0
103634,-94.129763130793,4,1,0,100,0,0
103977,-100,4,1,0,100,0,0
104063,-100.630776001174,4,1,0,100,0,0
104149,-101.269560082669,4,1,0,100,0,0
104235,-101.908935601278,4,1,0,100,0,0
104321,-102.564102564103,4,1,0,100,0,0
104406,-103.227748100218,4,1,0,100,0,0
104492,-103.892170225655,4,1,0,100,0,0
104578,-104.573170731707,4,1,0,100,0,0
104663,-105.263157894737,4,1,0,100,0,0
104749,-105.962310781588,4,1,0,100,0,0
104835,-106.66252040737,4,1,0,100,0,0
104921,-107.380449244737,4,1,0,100,0,0
105006,-108.108108108108,4,1,0,100,0,0
105092,-108.837061716643,4,1,0,100,0,0
105178,-109.584664536741,4,1,0,100,0,0
105263,-110.34260897539,4,1,0,100,0,0
105349,-109.89010989011,4,1,0,100,0,0
105435,-108.495232065841,4,1,0,100,0,0
105521,-105.971014492754,4,1,0,100,0,0
105606,-103.561581750198,4,1,0,100,0,0
105692,-101.285460992908,4,1,0,100,0,0
105778,-99.082170990822,4,1,0,100,0,0
105863,-96.972697694158,4,1,0,100,0,0
105906,-95.951289498548,4,1,0,100,0,0
105949,-94.95117390401,4,1,0,100,0,0
105992,-93.994241053065,4,1,0,100,0,0
106035,-93.034302582024,4,1,0,100,0,0
106121,-91.172069825436,4,1,0,100,0,0
106206,-89.382925318643,4,1,0,100,0,0
106263,-88.235294117647,4,1,0,100,0,0
106321,-87.116759332804,4,1,0,100,0,0
106378,-86.026228273828,4,1,0,100,0,0
106463,-84.431580243872,4,1,0,100,0,0
106549,-82.894975512425,4,1,0,100,0,0
106606,-81.906980912268,4,1,0,100,0,0
106663,-80.942260007085,4,1,0,100,0,0
106742,-80,4,1,0,100,0,1
106892,-78.052946199829,4,1,0,100,0,1
106978,-77.10911136108,4,1,0,100,0,1
107063,-76.187829952765,4,1,0,100,0,1
107149,-75.288303130148,4,1,0,100,0,1
107235,-74.419867010449,4,1,0,100,0,1
107321,-73.561368209256,4,1,0,100,0,1
107406,-72.722450603368,4,1,0,100,0,1
107463,-72.176888654909,4,1,0,100,0,1
107521,-71.639451338994,4,1,0,100,0,1
107578,-71.109958506224,4,1,0,100,0,1
107635,-70.588235294118,4,1,0,100,0,1
107692,-70.074111934577,4,1,0,100,0,1
107749,-69.558599695586,4,1,0,100,0,1
107806,-69.059312429165,4,1,0,100,0,1
107863,-68.567141785446,4,1,0,100,0,1
107921,-68.081936685289,4,1,0,100,0,1
107978,-67.603550295858,4,1,0,100,0,1
108035,-67.131839882483,4,1,0,100,0,1
108092,-66.666666666667,4,1,0,100,0,1
108178,-67.370488583354,4,1,0,100,0,1
108263,-68.089330024814,4,1,0,100,0,1
108349,-68.823676950088,4,1,0,100,0,1
108435,-69.565217391304,4,1,0,100,0,1
108521,-70.331923619121,4,1,0,100,0,1
108606,-71.115718543475,4,1,0,100,0,1
108692,-71.907756813417,4,1,0,100,0,1
108778,-72.727272727273,4,1,0,100,0,1
108835,-73.280811857391,4,1,0,100,0,1
108892,-73.842841765339,4,1,0,100,0,1
108949,-74.423650664497,4,1,0,100,0,1
109006,-75.003416700834,4,1,0,100,0,1
109063,-75.592286501377,4,1,0,100,0,1
109121,-76.190476190476,4,1,0,100,0,1
109178,-76.798208788133,4,1,0,100,0,1
109235,-77.415714487234,4,1,0,100,0,1
109292,-78.043230944255,4,1,0,100,0,1
109349,-78.692285632349,4,1,0,100,0,1
109406,-79.340754662426,4,1,0,100,0,1
109463,-80,4,1,0,100,0,1
109549,-79.008788359026,4,1,0,100,0,1
109635,-78.052946199829,4,1,0,100,0,1
109721,-77.10911136108,4,1,0,100,0,1
109806,-76.187829952765,4,1,0,100,0,1
109892,-75.298640670054,4,1,0,100,0,1
109978,-74.419867010449,4,1,0,100,0,1
110063,-73.561368209256,4,1,0,100,0,1
110149,-72.722450603368,4,1,0,100,0,1
110235,-71.911880409127,4,1,0,100,0,1
110321,-71.109958506224,4,1,0,100,0,1
110406,-70.325724544755,4,1,0,100,0,1
110492,-69.567423569707,4,1,0,100,0,1
110578,-68.816664575229,4,1,0,100,0,1
110663,-68.081936685289,4,1,0,100,0,1
110749,-67.362731851124,4,1,0,100,0,1
110835,-66.666666666667,4,1,0,100,0,1
110892,-67.131498470948,4,1,0,100,0,1
110949,-67.611186398916,4,1,0,100,0,1
111006,-68.089330024814,4,1,0,100,0,1
111063,-68.574284643259,4,1,0,100,0,1
111121,-69.066196828593,4,1,0,100,0,1
111178,-69.565217391304,4,1,0,100,0,1
111235,-70.071501532176,4,1,0,100,0,1
111292,-70.585209003215,4,1,0,100,0,1
111349,-71.115718543475,4,1,0,100,0,1
111406,-71.644908616188,4,1,0,100,0,1
111463,-72.182033407865,4,1,0,100,0,1
111521,-72.727272727273,4,1,0,100,0,1
111606,-73.565683646113,4,1,0,100,0,1
111692,-74.413559322034,4,1,0,100,0,1
111778,-75.291535190012,4,1,0,100,0,1
111863,-76.190476190476,4,1,0,100,0,1
111949,-77.111142335254,4,1,0,100,0,1
112035,-78.043230944255,4,1,0,100,0,1
112121,-79.009501871581,4,1,0,100,0,1
112206,-80,4,1,0,100,0,1
112378,-78.052946199829,4,1,0,100,0,1
112463,-77.10911136108,4,1,0,100,0,1
112549,-76.187829952765,4,1,0,100,0,1
112635,-75.298640670054,4,1,0,100,0,1
112721,-74.419867010449,4,1,0,100,0,1
112806,-73.561368209256,4,1,0,100,0,1
112892,-72.732095490716,4,1,0,100,0,1
112949,-72.176888654909,4,1,0,100,0,1
113006,-71.639451338994,4,1,0,100,0,1
113063,-71.109958506224,4,1,0,100,0,1
113121,-70.588235294118,4,1,0,100,0,1
113178,-70.074111934577,4,1,0,100,0,1
113235,-69.567423569707,4,1,0,100,0,1
113292,-69.068010075567,4,1,0,100,0,1
113349,-68.567141785446,4,1,0,100,0,1
113406,-68.081936685289,4,1,0,100,0,1
113463,-67.603550295858,4,1,0,100,0,1
113521,-67.131839882483,4,1,0,100,0,1
113578,-66.666666666667,4,1,0,100,0,1
113663,-67.370488583354,4,1,0,100,0,1
113749,-68.089330024814,4,1,0,100,0,1
113835,-68.815047021944,4,1,0,100,0,1
113921,-69.565217391304,4,1,0,100,0,1
114006,-70.331923619121,4,1,0,100,0,1
114092,-71.106504275719,4,1,0,100,0,1
114178,-71.907756813417,4,1,0,100,0,1
114263,-72.727272727273,4,1,0,100,0,1
114435,-66.666666666667,4,1,0,100,0,1
114478,-67.607482769938,4,1,0,100,0,1
114521,-68.575233022636,4,1,0,100,0,1
114563,-69.571090847687,4,1,0,100,0,1
114606,-70.596298834818,4,1,0,100,0,1
114692,-72.714436992587,4,1,0,100,0,1
114778,-74.990899162723,4,1,0,100,0,1
114863,-77.414505824878,4,1,0,100,0,1
114949,-66.666666666667,4,1,0,100,0,1
115292,-76.923076923077,4,1,0,100,0,1
115378,-79.214780600462,4,1,0,100,0,1
115421,-80.412612823819,4,1,0,100,0,1
115463,-81.64722685075,4,1,0,100,0,1
115549,-84.233791748527,4,1,0,100,0,1
115656,-66.666666666667,4,1,0,100,0,1
115978,-76.923076923077,4,1,0,100,0,1
116021,-78.052110592786,4,1,0,100,0,1
116063,-79.214780600462,4,1,0,100,0,1
116149,-81.64722685075,4,1,0,100,0,1
116192,-82.890285161914,4,1,0,100,0,1
116235,-84.202774027249,4,1,0,100,0,1
116342,-66.666666666667,4,1,0,100,0,1
116663,-86.95652173913,4,1,0,100,0,1
116749,-84.797492369875,4,1,0,100,0,1
116835,-82.766394267542,4,1,0,100,0,1
116921,-80.808080808081,4,1,0,100,0,1
117006,-78.940295642158,4,1,0,100,0,1
117063,-77.749205869006,4,1,0,100,0,1
117121,-76.593525313862,4,1,0,100,0,1
117178,-75.471698113208,4,1,0,100,0,1
117263,-73.839965522195,4,1,0,100,0,1
117349,-72.277297335302,4,1,0,100,0,1
117406,-71.277517767377,4,1,0,100,0,1
117463,-70.305019833128,4,1,0,100,0,1
117521,-69.358701885774,4,1,0,100,0,1
117606,-67.978178211275,4,1,0,100,0,1
117713,-66.666666666667,4,1,0,100,0,0
121806,-90.909090909091,4,1,0,100,0,0
121892,-88.904740289216,4,1,0,100,0,0
121978,-86.964795432921,4,1,0,100,0,0
122063,-85.10770376808,4,1,0,100,0,0
122149,-83.3282684009,4,1,0,100,0,0
122235,-81.641160007146,4,1,0,100,0,0
122321,-80.002334130828,4,1,0,100,0,0
122406,-78.428007551055,4,1,0,100,0,0
122492,-76.931709780596,4,1,0,100,0,0
122549,-75.943056555697,4,1,0,100,0,0
122606,-74.995897379793,4,1,0,100,0,0
122663,-74.072073045545,4,1,0,100,0,0
122749,-72.720521932849,4,1,0,100,0,0
122835,-71.432293023498,4,1,0,100,0,0
122892,-70.593687245765,4,1,0,100,0,0
122949,-69.760341932529,4,1,0,100,0,0
123006,-68.960313867512,4,1,0,100,0,0
123092,-67.800801147322,4,1,0,100,0,0
123178,-66.666666666667,4,1,0,100,0,0
123885,-20,4,1,0,100,0,0
125128,-16,4,1,0,100,0,0
125256,-13.333333333333,4,1,0,100,0,0
125385,-11.428571428571,4,1,0,100,0,0
125513,-10,4,1,0,100,0,0
125599,-66.666666666667,4,1,0,100,0,0
125921,-58.823529411765,4,1,0,100,0,0
126435,-67.786561264822,4,1,0,100,0,0
126521,-69.559926992496,4,1,0,100,0,0
126605,-69.444444444444,4,1,0,100,0,0
126628,352.941176470588,4,1,0,100,1,8
126628,-69.444444444444,4,1,0,100,0,0
126870,-73.529411764706,4,1,0,100,0,0
127157,-57.142857142857,4,1,0,100,0,0
127334,363.636363636364,4,1,0,100,1,0
127334,-57.803468208092,4,1,0,100,0,0
127356,-58.823529411765,4,1,0,100,0,0
127402,-59.171597633136,4,1,0,100,0,0
127447,-59.880239520958,4,1,0,100,0,0
127493,-60.606060606061,4,1,0,100,0,0
127584,-62.111801242236,4,1,0,100,0,0
127856,-67.114093959732,4,1,0,100,0,0
128061,375,4,1,0,100,1,8
128061,-68.965517241379,4,1,0,100,0,0
128131,-70.921985815603,4,1,0,100,0,0
128412,-78.125,4,1,0,100,0,0
128506,-80.645161290323,4,1,0,100,0,0
128600,-83.333333333333,4,1,0,100,0,0
128693,-86.206896551724,4,1,0,100,0,0
128811,387.096774193548,4,1,0,100,1,0
128811,-52.083333333333,4,1,0,100,0,0
129367,-59.880239520958,4,1,0,100,0,0
129464,-61.349693251534,4,1,0,100,0,0
129586,400,4,1,0,100,1,8
129586,-60.975609756098,4,1,0,100,0,0
129861,-66.225165562914,4,1,0,100,0,0
130161,-50.251256281407,4,1,0,100,0,0
130386,413.793103448276,4,1,0,100,1,0
130386,-50.761421319797,4,1,0,100,0,0
130411,-51.282051282051,4,1,0,100,0,0
130463,-52.083333333333,4,1,0,100,0,0
130515,-52.631578947368,4,1,0,100,0,0
130567,-53.191489361702,4,1,0,100,0,0
130670,-54.347826086957,4,1,0,100,0,0
130877,-57.471264367816,4,1,0,100,0,0
130980,-58.479532163743,4,1,0,100,0,0
131213,428.571428571429,4,1,0,100,1,8
131213,-60.606060606061,4,1,0,100,0,0
131293,-62.111801242236,4,1,0,100,0,0
131400,-64.102564102564,4,1,0,100,0,0
131507,-65.359477124183,4,1,0,100,0,0
131614,-67.567567567568,4,1,0,100,0,0
132042,-100,4,1,0,100,0,0
132070,444.444444444444,4,1,0,100,1,0
132153,-97.563206615199,4,1,0,100,0,0
132264,-95.242347394364,4,1,0,100,0,0
132375,-93.029340962216,4,1,0,100,0,0
132486,-90.916839987725,4,1,0,100,0,0
132597,-88.898149691615,4,1,0,100,0,0
132708,-86.967156974658,4,1,0,100,0,0
132819,-85.118268586204,4,1,0,100,0,0
132931,-83.346357015597,4,1,0,100,0,0
133069,-81.631715903873,4,1,0,100,0,0
133153,-80.000600042003,4,1,0,100,0,0
133264,-78.433391181575,4,1,0,100,0,0
133375,-76.926405677524,4,1,0,100,0,0
133431,-76.20095447661,4,1,0,100,0,0
133486,-75.476237651787,4,1,0,100,0,0
133569,-74.765175942801,4,1,0,100,0,0
133597,-74.079733296291,4,1,0,100,0,0
133653,-73.394621672951,4,1,0,100,0,0
133708,-72.733967976869,4,1,0,100,0,0
133764,-72.073411357678,4,1,0,100,0,0
133819,-71.436225788303,4,1,0,100,0,0
133931,-70.183981259706,4,1,0,100,0,0
134069,-68.964179490495,4,1,0,100,0,0
134153,-67.796394701381,4,1,0,100,0,0
134264,-66.667500062505,4,1,0,100,0,0
134375,-65.575584683865,4,1,0,100,0,0
134486,-64.518860848315,4,1,0,100,0,0
134597,-63.495654244553,4,1,0,100,0,0
134708,-62.504395114976,4,1,0,100,0,0
134819,-61.543610219955,4,1,0,100,0,0
134931,-60.611915532016,4,1,0,100,0,0
135069,-59.699988805552,4,1,0,100,0,0
135153,-58.822880589442,4,1,0,100,0,0
135208,-58.397757385953,4,1,0,100,0,0
135264,-57.971172032959,4,1,0,100,0,0
135319,-57.558227383599,4,1,0,100,0,0
135375,-57.143775582367,4,1,0,100,0,0
135431,-56.742493562871,4,1,0,100,0,0
135486,-56.339664898899,4,1,0,100,0,0
135542,-55.942515472569,4,1,0,100,0,0
135597,-55.557870611522,4,1,0,100,0,0
135653,-55.171628975192,4,1,0,100,0,0
135708,-54.797476418487,4,1,0,100,0,0
135764,-54.421699287711,4,1,0,100,0,0
135819,-54.057615504693,4,1,0,100,0,0
135875,-53.691883293397,4,1,0,100,0,0
135931,-53.337467245414,4,1,0,100,0,0
135986,-52.981382503129,4,1,0,100,0,0
136042,-52.630020724366,4,1,0,100,0,0
136097,-52.28944014119,4,1,0,100,0,0
136153,-51.947166429643,4,1,0,100,0,0
136208,-51.615338456476,4,1,0,100,0,0
136264,-51.281804719503,4,1,0,100,0,0
136319,-50.958396239035,4,1,0,100,0,0
136375,-50.633271936654,4,1,0,100,0,0
136431,-50.317966523881,4,1,0,100,0,0
136486,-50.000937576178,4,1,0,100,0,0
136523,-49.793654646972,4,1,0,100,0,0
136560,-49.5880832388,4,1,0,100,0,0
136597,-49.384202240948,4,1,0,100,0,0
136653,-49.078794794868,4,1,0,100,0,0
136708,-48.78249574651,4,1,0,100,0,0
136745,-48.585172093362,4,1,0,100,0,0
136782,-48.389438344978,4,1,0,100,0,0
136819,-48.195275362843,4,1,0,100,0,0
136875,-47.904352981334,4,1,0,100,0,0
136931,-47.622024181594,4,1,0,100,0,0
136968,-47.433958907765,4,1,0,100,0,0
137005,-47.247373177171,4,1,0,100,0,0
137042,-47.057266390188,4,1,0,100,0,0
137079,-46.873626663385,4,1,0,100,0,0
137116,-46.691414663188,4,1,0,100,0,0
137153,-46.51061380405,4,1,0,100,0,0
137208,-46.244428643277,4,1,0,100,0,0
137264,-45.976516026691,4,1,0,100,0,0
137319,-45.716392065424,4,1,0,100,0,0
137375,-45.454545454545,4,1,0,100,0,0
137847,-10,4,1,0,100,0,0
138708,-100,4,1,0,100,0,0
138782,-92.323651452282,4,1,0,100,0,0
138857,-85.741811175337,4,1,0,100,0,0
138931,-80.035971223022,4,1,0,100,0,0
139005,-75.04215851602,4,1,0,100,0,0
139079,-70.578905630452,4,1,0,100,0,0
139153,-66.666666666667,4,1,0,100,0,0
139486,-86.01994384742,4,1,0,100,0,0
139708,-87.909369743742,4,1,0,100,0,0
139819,-88.885554221689,4,1,0,100,0,0
139931,-89.883662114315,4,1,0,100,0,0
140153,-91.958186710826,4,1,0,100,0,0
140264,-93.026908177154,4,1,0,100,0,0
140375,-94.120762711864,4,1,0,100,0,0
140597,-96.387502712085,4,1,0,100,0,0
140708,-97.562314702976,4,1,0,100,0,0
140819,-98.766118274789,4,1,0,100,0,0
140931,-100,4,1,0,100,0,0
141069,-96.594857539958,4,1,0,100,0,0
141153,-93.44145203983,4,1,0,100,0,0
141264,-90.487427780942,4,1,0,100,0,0
141375,-87.714454742654,4,1,0,100,0,0
141486,-85.106382978723,4,1,0,100,0,0
141597,-82.648927868,4,1,0,100,0,0
141708,-80.329408365239,4,1,0,100,0,0
141819,-78.136528124231,4,1,0,100,0,0
141931,-76.060191518468,4,1,0,100,0,0
142069,-74.074074074074,4,1,0,100,0,0
142264,-58.823529411765,4,1,0,100,0,0
142319,-61.512884455528,4,1,0,100,0,0
142375,-64.516129032258,4,1,0,100,0,0
142431,-67.765567765568,4,1,0,100,0,0
142486,-71.428571428571,4,1,0,100,0,0
142736,-58.823529411765,4,1,0,100,0,1
142958,-76.923076923077,4,1,0,100,0,1
143181,441.176470588235,4,1,0,100,1,8
143181,-76.923076923077,4,1,0,100,0,1
143623,437.956204379562,4,1,0,100,1,8
143623,-76.923076923077,4,1,0,100,0,1
144061,434.782608695652,4,1,0,100,1,8
144061,-76.923076923077,4,1,0,100,0,1
144495,431.654676258993,4,1,0,100,1,0
144495,-76.923076923077,4,1,0,100,0,1
144575,-71.428571428571,4,1,0,100,0,1
144629,-72.463768115942,4,1,0,100,0,1
144683,-73.529411764706,4,1,0,100,0,1
144791,-75.187969924812,4,1,0,100,0,1
144927,428.571428571429,4,1,0,100,1,8
144927,-76.923076923077,4,1,0,100,0,1
145356,425.531914893617,4,1,0,100,1,8
145356,-76.923076923077,4,1,0,100,0,1
145781,422.535211267606,4,1,0,100,1,8
145781,-76.923076923077,4,1,0,100,0,1
146204,419.58041958042,4,1,0,100,1,0
146204,-58.823529411765,4,1,0,100,0,1
146413,-76.923076923077,4,1,0,100,0,1
146623,416.666666666667,4,1,0,100,1,8
146623,-76.923076923077,4,1,0,100,0,1
147040,413.793103448276,4,1,0,100,1,8
147040,-76.923076923077,4,1,0,100,0,1
147454,410.958904109589,4,1,0,100,1,8
147454,-76.923076923077,4,1,0,100,0,1
147865,408.163265306122,4,1,0,100,1,0
147865,-76.923076923077,4,1,0,100,0,1
147941,-78.277886497065,4,1,0,100,0,1
148043,-79.681274900398,4,1,0,100,0,1
148145,-81.135902636917,4,1,0,100,0,1
148273,405.405405405405,4,1,0,100,1,8
148273,-83.333333333333,4,1,0,100,0,1
148349,-84.921683336479,4,1,0,100,0,1
148450,-86.571758368603,4,1,0,100,0,1
148551,-88.304552590267,4,1,0,100,0,1
148678,402.684563758389,4,1,0,100,1,8
148678,-90.09009009009,4,1,0,100,0,1
148753,-88.707902267224,4,1,0,100,0,1
148854,-86.590318214048,4,1,0,100,0,1
148954,-84.571476538236,4,1,0,100,0,1
149081,400,4,1,0,100,1,8
149081,-83.333333333333,4,1,0,100,0,1
149156,-81.466395112016,4,1,0,100,0,1
149256,-79.681274900398,4,1,0,100,0,1
149356,-77.972709551657,4,1,0,100,0,1
149481,397.350993377483,4,1,0,100,1,0
149481,-58.823529411765,4,1,0,100,0,1
149679,-76.923076923077,4,1,0,100,0,1
149878,394.736842105263,4,1,0,100,1,8
149878,-76.923076923077,4,1,0,100,0,1
150273,392.156862745098,4,1,0,100,1,8
150273,-76.923076923077,4,1,0,100,0,1
150665,389.61038961039,4,1,0,100,1,8
150665,-76.923076923077,4,1,0,100,0,1
151055,387.096774193548,4,1,0,100,1,0
151055,-76.923076923077,4,1,0,100,0,1
151224,-71.428571428571,4,1,0,100,0,1
151272,-72.583058964382,4,1,0,100,0,1
151321,-73.80073800738,4,1,0,100,0,1
151369,-75.03384258364,4,1,0,100,0,1
151442,384.615384615385,4,1,0,100,1,8
151442,-76.923076923077,4,1,0,100,0,1
151538,-73.529411764706,4,1,0,100,0,1
151586,-75.187969924812,4,1,0,100,0,1
151634,-76.923076923077,4,1,0,100,0,1
151730,-73.529411764706,4,1,0,100,0,1
151778,-75.187969924812,4,1,0,100,0,1
151802,-76.923076923077,4,1,0,100,0,1
151826,382.165605095541,4,1,0,100,1,8
151826,-76.923076923077,4,1,0,100,0,1
151897,-75.341792072391,4,1,0,100,0,1
151993,-73.808560251296,4,1,0,100,0,1
152088,-72.351518815173,4,1,0,100,0,1
152209,379.746835443038,4,1,0,100,1,8
152209,-71.428571428571,4,1,0,100,0,1
152232,-70.73930977845,4,1,0,100,0,1
152280,-70.063223277998,4,1,0,100,0,1
152375,-68.735377863218,4,1,0,100,0,1
152470,-67.456927239072,4,1,0,100,0,1
152517,-66.828889829313,4,1,0,100,0,1
152588,377.358490566038,5,1,0,100,1,0
152588,-66.666666666667,5,1,0,100,0,0
153319,-50,5,1,0,100,0,0
153460,-34.429824561404,5,1,0,100,0,0
153602,-26.298157453936,5,1,0,100,0,0
153743,-21.244925575101,5,1,0,100,0,0
153885,-17.840909090909,5,1,0,100,0,0
154026,-15.362035225049,5,1,0,100,0,0
154098,363.636363636364,4,1,0,100,1,8
154166,-13.534482758621,4,1,0,100,0,0
154302,-12.104857363146,4,1,0,100,0,0
154438,-10.956036287509,4,1,0,100,0,0
154575,-10,4,1,0,100,0,0
154825,-66.666666666667,4,1,0,100,0,0
155007,-71.428571428571,4,1,0,100,0,0
155188,-74.074074074074,4,1,0,100,0,0
155552,-58.823529411765,4,1,0,100,0,1
155916,361.44578313253,4,1,0,100,1,8
155916,-66.666666666667,4,1,0,100,0,1
155953,-67.717126242731,4,1,0,100,0,1
156013,-68.801219744616,4,1,0,100,0,1
156074,-69.920588804958,4,1,0,100,0,1
156164,-71.689570259751,4,1,0,100,0,1
156277,359.281437125748,4,1,0,100,1,8
156277,-74.074074074074,4,1,0,100,0,1
156344,-76.023144824091,4,1,0,100,0,1
156434,-78.101271315139,4,1,0,100,0,1
156524,-80.296203773922,4,1,0,100,0,1
156637,357.142857142857,4,1,0,100,1,8
156637,-66.666666666667,4,1,0,100,0,1
156674,-67.711099309612,4,1,0,100,0,1
156733,-68.807339449541,4,1,0,100,0,1
156793,-69.920482588429,4,1,0,100,0,1
156882,-71.669477234401,4,1,0,100,0,1
156994,355.029585798817,4,1,0,100,1,0
156994,-74.074074074074,4,1,0,100,0,1
157060,-76.0285267599,4,1,0,100,0,1
157149,-78.112966752481,4,1,0,100,0,1
157238,-80.314925001697,4,1,0,100,0,1
157349,352.941176470588,4,1,0,100,1,8
157349,-66.666666666667,4,1,0,100,0,1
157385,-67.704936898232,4,1,0,100,0,1
157444,-68.794823822887,4,1,0,100,0,1
157503,-69.92037396506,4,1,0,100,0,1
157562,-71.083366894885,4,1,0,100,0,1
157621,-72.285702584265,4,1,0,100,0,1
157679,-73.507975511224,4,1,0,100,0,1
157702,350.877192982456,4,1,0,100,1,8
157702,-74.074074074074,4,1,0,100,0,1
157767,-76.028331925401,4,1,0,100,0,1
157855,-78.112829642817,4,1,0,100,0,1
157943,-80.314852527286,4,1,0,100,0,1
158053,348.837209302326,4,1,0,100,1,8
158053,-66.666666666667,4,1,0,100,0,1
158089,-67.717024331561,4,1,0,100,0,1
158147,-68.80100934432,4,1,0,100,0,1
158205,-69.920262852106,4,1,0,100,0,1
158292,-71.669130934779,4,1,0,100,0,1
158380,-73.507729895952,4,1,0,100,0,1
158402,346.820809248555,4,1,0,100,1,0
158402,-74.074074074074,4,1,0,100,0,1
158748,344.827586206897,4,1,0,100,1,8
158748,-66.666666666667,4,1,0,100,0,1
158783,-67.710786622704,4,1,0,100,0,1
158841,-68.788132551741,4,1,0,100,0,1
158898,-69.920149162985,4,1,0,100,0,1
159093,342.857142857143,4,1,0,100,1,8
159093,-74.074074074074,4,1,0,100,0,1
159157,-76.027928626843,4,1,0,100,0,1
159243,-78.112545831341,4,1,0,100,0,1
159328,-80.314702507786,4,1,0,100,0,1
159436,340.909090909091,4,1,0,100,1,8
159436,-66.666666666667,4,1,0,100,0,1
159471,-67.704403764444,4,1,0,100,0,1
159528,-68.794383473209,4,1,0,100,0,1
159585,-69.920032807054,4,1,0,100,0,1
159641,-71.083131826899,4,1,0,100,0,1
159698,-72.285581040404,4,1,0,100,0,1
159777,338.983050847458,4,1,0,100,1,0
159777,-74.074074074074,4,1,0,100,0,1
160010,-77.968674532533,4,1,0,100,0,1
160116,337.078651685393,4,1,0,100,1,8
160116,-80,4,1,0,100,0,1
160151,-80.968741740948,4,1,0,100,0,1
160207,-81.961232580198,4,1,0,100,0,1
160263,-82.97835668382,4,1,0,100,0,1
160319,-84.021042658755,4,1,0,100,0,1
160375,-85.090266380508,4,1,0,100,0,1
160453,335.195530726257,4,1,0,100,1,8
160453,-86.95652173913,4,1,0,100,0,1
160515,-84.943455550484,4,1,0,100,0,1
160599,-82.998860314157,4,1,0,100,0,1
160683,-81.141306980575,4,1,0,100,0,1
160788,333.333333333333,4,1,0,100,1,8
160788,-80,4,1,0,100,0,1
160822,-78.857277771219,4,1,0,100,0,1
160878,-77.726839030974,4,1,0,100,0,1
160933,-76.647695979438,4,1,0,100,0,1
161122,331.491712707182,4,1,0,100,1,0
161122,-74.074074074074,4,1,0,100,0,1
161453,329.67032967033,4,1,0,100,1,8
161453,-66.666666666667,4,1,0,100,0,1
161487,-67.700640078779,4,1,0,100,0,1
161542,-68.787259765706,4,1,0,100,0,1
161597,-69.909329717821,4,1,0,100,0,1
161783,327.868852459016,4,1,0,100,1,8
161783,-74.074074074074,4,1,0,100,0,1
161844,-76.020952116071,4,1,0,100,0,1
161926,-78.098957093195,4,1,0,100,0,1
162008,-80.293757649939,4,1,0,100,0,1
162111,326.086956521739,4,1,0,100,1,8
162111,-66.666666666667,4,1,0,100,0,1
162144,-67.713526088401,4,1,0,100,0,1
162199,-68.79378745674,4,1,0,100,0,1
162253,-69.93006993007,4,1,0,100,0,1
162308,-71.082813658366,4,1,0,100,0,1
162362,-72.274198554516,4,1,0,100,0,1
162437,324.324324324324,4,1,0,100,1,0
162437,-74.074074074074,4,1,0,100,0,1
162497,-76.045627376426,4,1,0,100,0,1
162578,-78.125,4,1,0,100,0,1
162659,-80.321285140562,4,1,0,100,0,1
162761,322.58064516129,4,1,0,100,1,8
162761,-66.666666666667,4,1,0,100,0,1
162794,-67.703529806322,4,1,0,100,0,1
162848,-68.793661611859,4,1,0,100,0,1
162902,-69.919473547493,4,1,0,100,0,1
162982,-71.656757476262,4,1,0,100,0,1
163084,320.855614973262,4,1,0,100,1,8
163084,-74.074074074074,4,1,0,100,0,1
163144,-72.072072072072,4,1,0,100,0,1
163224,-70.175438596491,4,1,0,100,0,1
163304,-68.376068376068,4,1,0,100,0,1
163404,319.148936170213,4,1,0,100,1,8
163404,-66.666666666667,4,1,0,100,0,1
163463,-65.060485920504,4,1,0,100,0,1
163543,-63.510965565148,4,1,0,100,0,1
163623,-62.033536880876,4,1,0,100,0,1
163724,317.460317460317,4,1,0,100,1,0
163724,-60.606060606061,4,1,0,100,0,1
164041,315.789473684211,4,1,0,100,1,8
164041,-68.965517241379,4,1,0,100,0,1
164198,-57.142857142857,4,1,0,100,0,1
164357,314.13612565445,4,1,0,100,1,8
164357,-57.142857142857,4,1,0,100,0,9
164514,-76.923076923077,4,1,0,100,0,1
164671,312.5,4,1,0,100,1,8
164671,-50,4,1,0,100,0,1
164983,310.880829015544,4,1,0,100,1,0
164983,-86.95652173913,4,1,0,100,0,1
165138,-44.444444444444,4,1,0,100,0,1
165294,309.278350515464,4,1,0,100,1,8
165294,-44.444444444444,4,1,0,100,0,9
165448,-100,4,1,0,100,0,1
165604,307.692307692308,4,1,0,100,1,8
165604,-40,4,1,0,100,0,1
165738,-94.832113180737,4,1,0,100,0,1
165815,-88.319907940161,4,1,0,100,0,1
165911,306.122448979592,4,1,0,100,1,8
165911,-83.333333333333,4,1,0,100,0,9
165942,-79.893475366178,4,1,0,100,0,1
165993,-76.726342710997,4,1,0,100,0,1
166044,-73.80073800738,4,1,0,100,0,1
166217,304.568527918782,4,1,0,100,1,0
166217,-58.823529411765,4,1,0,100,0,0
166502,-90.909090909091,4,1,0,100,0,0
166553,-83.287671232877,4,1,0,100,0,0
166604,-76.845298281092,4,1,0,100,0,0
166654,-71.428571428572,4,1,0,100,0,0
166807,-66.666666666667,4,1,0,100,0,0
166883,-68.965517241379,4,1,0,100,0,0
166959,-71.428571428571,4,1,0,100,0,0
167035,-74.074074074074,4,1,0,100,0,0
167111,-76.923076923077,4,1,0,100,0,0
167187,-80,4,1,0,100,0,0
167263,-83.333333333333,4,1,0,100,0,0
167416,-66.666666666667,4,1,0,100,0,0
167492,-68.960313867512,4,1,0,100,0,0
167568,-71.417408970152,4,1,0,100,0,0
167644,-74.056068708475,4,1,0,100,0,0
167720,-76.897189971395,4,1,0,100,0,0
167796,-79.965004374453,4,1,0,100,0,0
167873,-83.333333333333,4,1,0,100,0,0
168044,-66.666666666667,4,1,0,100,0,0
168653,307.692307692308,4,1,0,100,1,8
168653,-66.666666666667,4,1,0,100,0,8
168654,300,4,1,0,100,1,0
168654,-68.965517241379,4,1,0,100,0,1
168710,-71.428571428571,4,1,0,100,0,1
168785,-74.074074074074,4,1,0,100,0,1
168860,-76.923076923077,4,1,0,100,0,1
168935,-68.965517241379,4,1,0,100,0,1
169010,-71.428571428571,4,1,0,100,0,1
169085,-74.074074074074,4,1,0,100,0,1
169160,-76.923076923077,4,1,0,100,0,1
169235,-68.965517241379,4,1,0,100,0,1
169310,-71.428571428571,4,1,0,100,0,1
169385,-74.074074074074,4,1,0,100,0,1
169460,-76.923076923077,4,1,0,100,0,1
169535,-68.965517241379,4,1,0,100,0,1
169610,-71.428571428571,4,1,0,100,0,1
169685,-74.074074074074,4,1,0,100,0,1
169760,-76.923076923077,4,1,0,100,0,1
169835,-78.125,4,1,0,100,0,1
169885,-76.530612244898,4,1,0,100,0,1
169935,-75,4,1,0,100,0,1
169985,-73.529411764706,4,1,0,100,0,1
170060,-71.428571428571,4,1,0,100,0,1
170135,-69.444444444444,4,1,0,100,0,1
170185,-68.181818181818,4,1,0,100,0,1
170235,-66.964285714286,4,1,0,100,0,1
170285,-65.789473684211,4,1,0,100,0,1
170360,-64.102564102564,4,1,0,100,0,1
170454,-62.5,4,1,0,100,0,0
170585,-68.965517241379,4,1,0,100,0,0
170735,-76.923076923077,4,1,0,100,0,0
170810,-81.632653061224,4,1,0,100,0,0
170885,-86.206896551724,4,1,0,100,0,0
171035,-58.823529411765,4,1,0,100,0,0
171354,-64.516129032258,4,1,0,100,0,0
171654,-71.428571428571,4,1,0,100,0,0
171954,-80,4,1,0,100,0,0
172254,-90.909090909091,4,1,0,100,0,0
172554,-104.166666666667,4,1,0,100,0,0
172854,-114.942528735632,4,1,0,100,0,0
173304,-83.333333333333,4,1,0,100,0,0
173454,-83.333333333333,4,1,0,100,0,1
173754,298.507462686567,4,1,0,100,1,8
173754,-81.30081300813,4,1,0,100,0,1
173903,-80.645161290323,4,1,0,100,0,1
174052,-79.365079365079,4,1,0,100,0,1
174201,-78.125,4,1,0,100,0,1
174351,297.029702970297,4,1,0,100,1,8
174351,-77.519379844961,4,1,0,100,0,1
174573,-75.757575757576,4,1,0,100,0,1
174648,295.566502463054,4,1,0,100,1,0
174648,-75.757575757576,4,1,0,100,0,1
174795,-74.626865671642,4,1,0,100,0,1
174944,294.117647058824,4,1,0,100,1,8
174944,-74.074074074074,4,1,0,100,0,1
175238,292.682926829268,4,1,0,100,1,8
175238,-72.463768115942,4,1,0,100,0,1
175530,291.26213592233,4,1,0,100,1,8
175530,-70.921985815603,4,1,0,100,0,1
175675,-69.93006993007,4,1,0,100,0,1
175822,289.855072463768,4,1,0,100,1,0
175822,-69.444444444444,4,1,0,100,0,1
176112,288.461538461538,4,1,0,100,1,8
176112,-68.027210884354,4,1,0,100,0,1
176400,287.081339712919,4,1,0,100,1,8
176400,-66.666666666667,4,1,0,100,0,1
176543,-65.789473684211,4,1,0,100,0,1
176687,285.714285714286,4,1,0,100,1,8
176687,-65.359477124183,4,1,0,100,0,1
176829,-64.516129032258,4,1,0,100,0,1
176973,284.36018957346,4,1,0,100,1,0
176973,-64.102564102564,4,1,0,100,0,1
177097,-65.789473684211,4,1,0,100,0,1
177168,-66.666666666667,4,1,0,100,0,1
177257,283.018867924528,4,1,0,100,1,8
177257,-68.027210884354,4,1,0,100,0,1
177310,-68.955434809093,4,1,0,100,0,1
177357,-69.593016107218,4,1,0,100,0,1
177404,-70.256448449641,4,1,0,100,0,1
177451,-70.918431274276,4,1,0,100,0,1
177540,281.69014084507,4,1,0,100,1,8
177540,-72.463768115942,4,1,0,100,0,1
177733,-75.749435908456,4,1,0,100,0,1
177822,280.373831775701,4,1,0,100,1,8
177822,-77.519379844961,4,1,0,100,0,1
177944,-80,4,1,0,100,0,1
178102,279.06976744186,4,1,0,100,1,0
178102,-83.333333333333,4,1,0,100,0,1
178171,-82.644628099174,4,1,0,100,0,1
178381,277.777777777778,4,1,0,100,1,8
178381,-81.30081300813,4,1,0,100,0,1
178519,-80,4,1,0,100,0,1
178659,276.497695852535,4,1,0,100,1,8
178659,-79.365079365079,4,1,0,100,0,1
178797,-78.125,4,1,0,100,0,1
178936,275.229357798165,4,1,0,100,1,8
178936,-77.519379844961,4,1,0,100,0,1
179073,-76.335877862595,4,1,0,100,0,1
179211,273.972602739726,4,1,0,100,1,0
179211,-75.757575757576,4,1,0,100,0,1
179279,-75.187969924812,4,1,0,100,0,1
179347,-74.626865671642,4,1,0,100,0,1
179416,-74.074074074074,4,1,0,100,0,1
179485,272.727272727273,4,1,0,100,1,8
179485,-74.074074074074,4,1,0,100,0,1
179689,-72.463768115942,4,1,0,100,0,1
179757,271.493212669683,4,1,0,100,1,8
179757,-72.463768115942,4,1,0,100,0,1
179892,-71.428571428571,4,1,0,100,0,1
180029,270.27027027027,4,1,0,100,1,8
180029,-70.921985815603,4,1,0,100,0,1
180299,269.058295964126,4,1,0,100,1,0
180299,-69.444444444444,4,1,0,100,0,0
180837,-33.333333333333,4,1,0,100,0,0
180938,-21.052631578947,4,1,0,100,0,0
181038,-15.384615384615,4,1,0,100,0,0
181139,-12.121212121212,4,1,0,100,0,0
181240,-10,4,1,0,100,0,0
181375,260.869565217391,4,1,0,100,1,0
181375,-66.666666666667,4,1,0,100,0,0
181461,-70.548408937035,4,1,0,100,0,0
181548,-74.964028776978,4,1,0,100,0,0
181635,-79.969301611665,4,1,0,100,0,0
181722,-85.690789473684,4,1,0,100,0,0
181809,-92.29406554473,4,1,0,100,0,0
181896,-100,4,1,0,100,0,0
182418,-76.923076923077,4,1,0,100,0,1
182680,259.74025974026,4,1,0,100,1,8
182680,-111.111111111111,4,1,0,100,0,1
182853,-119.047619047619,4,1,0,100,0,1
182940,258.620689655172,4,1,0,100,1,8
182940,-83.333333333333,4,1,0,100,0,1
182983,-84.388185654008,4,1,0,100,0,1
183026,-85.470085470085,4,1,0,100,0,1
183112,-87.719298245614,4,1,0,100,0,1
183198,257.510729613734,4,1,0,100,1,8
183198,-90.909090909091,4,1,0,100,0,1
183369,-96.121605007265,4,1,0,100,0,1
183456,256.410256410256,4,1,0,100,1,0
183456,-100,4,1,0,100,0,1
183498,-101.498691618428,4,1,0,100,0,1
183541,-103.080330179183,4,1,0,100,0,1
183626,-106.356460324055,4,1,0,100,0,1
183712,255.31914893617,4,1,0,100,1,8
183712,-111.111111111111,4,1,0,100,0,1
183882,-119.047619047619,4,1,0,100,0,1
183967,254.237288135593,4,1,0,100,1,8
183967,-83.333333333333,4,1,0,100,0,1
184009,-84.375620408974,4,1,0,100,0,1
184051,-85.444310414154,4,1,0,100,0,1
184136,-87.692148973486,4,1,0,100,0,1
184222,253.164556962025,4,1,0,100,1,8
184222,-90.909090909091,4,1,0,100,0,1
184264,-92.160862596532,4,1,0,100,0,1
184306,-93.447588091896,4,1,0,100,0,1
184348,-94.77075217261,4,1,0,100,0,1
184390,-96.131924918307,4,1,0,100,0,1
184475,252.100840336134,4,1,0,100,1,0
184475,-100,4,1,0,100,0,1
184727,251.046025104603,4,1,0,100,1,8
184727,-111.111111111111,4,1,0,100,0,1
184894,-119.030682410964,4,1,0,100,0,1
184978,250,4,1,0,100,1,8
184978,-83.333333333333,4,1,0,100,0,1
185019,-84.371097836725,4,1,0,100,0,1
185061,-85.461320206475,4,1,0,100,0,1
185144,-87.700834911948,4,1,0,100,0,1
185228,248.96265560166,4,1,0,100,1,8
185228,-90.909090909091,4,1,0,100,0,1
185393,-96.120440069485,4,1,0,100,0,1
185477,247.933884297521,4,1,0,100,1,0
185477,-100,4,1,0,100,0,1
185518,-101.510376161434,4,1,0,100,0,1
185559,-103.067076718477,4,1,0,100,0,1
185642,-106.369290156552,4,1,0,100,0,1
185725,246.913580246914,4,1,0,100,1,8
185725,-111.111111111111,4,1,0,100,0,1
185807,-114.926484273218,4,1,0,100,0,1
185889,-119.01320227426,4,1,0,100,0,1
185972,245.901639344262,4,1,0,100,1,8
185972,-125,4,1,0,100,0,1
186012,-122.266401590457,4,1,0,100,0,1
186053,-119.585824704681,4,1,0,100,0,1
186135,-114.562473804312,4,1,0,100,0,1
186218,244.897959183673,4,1,0,100,1,8
186218,-111.111111111111,4,1,0,100,0,1
186258,-108.937305469097,4,1,0,100,0,1
186299,-106.795693300205,4,1,0,100,0,1
186381,-102.755525730822,4,1,0,100,0,1
186463,243.90243902439,4,1,0,100,1,0
186463,-76.923076923077,4,1,0,100,0,1
186706,242.914979757085,4,1,0,100,1,8
186706,-111.111111111111,4,1,0,100,0,1
186867,-118.995152049361,4,1,0,100,0,1
186949,241.935483870968,4,1,0,100,1,8
186949,-83.333333333333,4,1,0,100,0,1
186989,-84.379358437936,4,1,0,100,0,1
187029,-85.45197740113,4,1,0,100,0,1
187110,-87.709760429125,4,1,0,100,0,1
187191,240.963855421687,4,1,0,100,1,8
187191,-90.909090909091,4,1,0,100,0,1
187351,-96.130833665736,4,1,0,100,0,1
187432,240,4,1,0,100,1,0
187432,-100,4,1,0,100,0,1
187472,-101.522842639594,4,1,0,100,0,1
187512,-103.092783505155,4,1,0,100,0,1
187592,-106.382978723404,4,1,0,100,0,1
187672,239.043824701195,4,1,0,100,1,8
187672,-111.111111111111,4,1,0,100,0,1
187831,-119.029832162956,4,1,0,100,0,1
187911,238.095238095238,4,1,0,100,1,8
187911,-83.333333333333,4,1,0,100,0,1
187950,-84.37023644936,4,1,0,100,0,1
188030,-86.580086580087,4,1,0,100,0,1
188069,-87.699904193382,4,1,0,100,0,1
188149,237.154150197628,4,1,0,100,1,8
188149,-90.909090909091,4,1,0,100,0,1
188188,-92.144488752952,4,1,0,100,0,1
188228,-93.446935490204,4,1,0,100,0,1
188267,-94.752766940043,4,1,0,100,0,1
188307,-96.130543662654,4,1,0,100,0,1
188387,236.220472440945,4,1,0,100,1,0
188387,-100,4,1,0,100,0,1
188623,235.294117647059,4,1,0,100,1,9
188858,234.375,4,1,0,100,1,9
189092,233.463035019455,4,1,0,100,1,9
189326,232.558139534884,4,1,0,100,1,0
189326,-100,4,1,0,100,0,1
189442,-94.78672985782,4,1,0,100,0,1
189559,231.660231660232,4,1,0,100,1,8
189559,-90.909090909091,4,1,0,100,0,9
189616,-88.71989860583,4,1,0,100,0,1
189674,-86.59793814433,4,1,0,100,0,1
189732,-84.575110753121,4,1,0,100,0,1
189790,230.769230769231,4,1,0,100,1,8
189790,-83.333333333333,4,1,0,100,0,9
189905,-88.471849865952,4,1,0,100,0,1
189963,-91.31156613171,4,1,0,100,0,1
190021,229.885057471264,4,1,0,100,1,8
190021,-95.238095238095,4,1,0,100,0,9
190135,-101.977476279152,4,1,0,100,0,1
190251,229.007633587786,4,1,0,100,1,0
190251,-111.111111111111,4,1,0,100,0,0
190694,-125,4,1,0,80,0,0
190771,-117.677286742035,4,1,0,80,0,0
190847,-111.165048543689,4,1,0,80,0,0
190923,-105.263157894737,4,1,0,80,0,0
191000,-100.021838829439,4,1,0,80,0,0
191076,-95.277719991679,4,1,0,80,0,0
191152,-90.909090909091,4,1,0,80,0,0
191209,-91.673338670937,4,1,0,80,0,0
191267,-92.750101255569,4,1,0,80,0,0
191324,-93.833230895308,4,1,0,80,0,0
191381,-94.941956882255,4,1,0,80,0,0
191438,-96.077197398783,4,1,0,80,0,0
191496,-97.26056487577,4,1,0,80,0,0
191553,-98.452278589854,4,1,0,80,0,0
191610,-99.673558215452,4,1,0,80,0,0
191667,-100.925517849273,4,1,0,80,0,0
191725,-102.232142857143,4,1,0,80,0,0
191782,-103.549626950034,4,1,0,80,0,0
191839,-104.901511681173,4,1,0,80,0,0
191896,-106.289162218612,4,1,0,80,0,0
191954,-107.739355445777,4,1,0,80,0,0
192011,-109.203624225083,4,1,0,80,0,0
192068,-110.708242687938,4,1,0,80,0,0
192312,-117.647058823529,4,1,0,80,0,0
192526,-125,4,1,0,80,0,0
192603,-117.677286742035,4,1,0,80,0,0
192679,-111.165048543689,4,1,0,80,0,0
192755,-105.263157894737,4,1,0,80,0,0
192832,-100.021838829439,4,1,0,80,0,0
192908,-95.277719991679,4,1,0,80,0,0
192984,-90.909090909091,4,1,0,80,0,0
193041,-91.673338670937,4,1,0,80,0,0
193099,-92.750101255569,4,1,0,80,0,0
193156,-93.833230895308,4,1,0,80,0,0
193213,-94.941956882255,4,1,0,80,0,0
193270,-96.077197398783,4,1,0,80,0,0
193328,-97.26056487577,4,1,0,80,0,0
193385,-98.452278589854,4,1,0,80,0,0
193442,-99.673558215452,4,1,0,80,0,0
193499,-100.925517849273,4,1,0,80,0,0
193557,-102.232142857143,4,1,0,80,0,0
193614,-103.549626950034,4,1,0,80,0,0
193671,-104.901511681173,4,1,0,80,0,0
193728,-106.289162218612,4,1,0,80,0,0
193786,-107.739355445777,4,1,0,80,0,0
193843,-109.203624225083,4,1,0,80,0,0
193900,-110.708242687938,4,1,0,80,0,0
194373,-115.384615384615,4,1,0,80,0,0
194831,-119.047619047619,4,1,0,80,0,0
195060,-122.448979591837,4,1,0,80,0,0
195289,-125,4,1,0,80,0,0
195365,-117.677286742035,4,1,0,80,0,0
195441,-111.165048543689,4,1,0,80,0,0
195518,-105.263157894737,4,1,0,80,0,0
195594,-100.021838829439,4,1,0,80,0,0
195670,-95.277719991679,4,1,0,80,0,0
195747,-90.909090909091,4,1,0,100,0,0
195804,-93.013809910642,4,1,0,100,0,0
195861,-95.218295218295,4,1,0,100,0,0
195918,-97.529812606474,4,1,0,100,0,0
195976,-100,4,1,0,100,0,0
196033,-102.552619793999,4,1,0,100,0,0
196090,-105.238970588235,4,1,0,100,0,0
196147,-108.069844266163,4,1,0,100,0,0
196205,-111.111111111111,4,1,0,100,0,0
196262,-114.271457085828,4,1,0,100,0,0
196319,-117.616846430406,4,1,0,100,0,0
196376,-121.164021164021,4,1,0,100,0,0
196434,-125,4,1,0,100,0,0
196510,-122.959621993127,4,1,0,100,0,0
196586,-120.984784446323,4,1,0,100,0,0
196663,-119.047619047619,4,1,0,100,0,0
196739,-117.195496417605,4,1,0,100,0,0
196815,-115.400120943358,4,1,0,100,0,0
196892,-113.636363636364,4,1,0,100,0,0
196968,-111.9475948377,4,1,0,100,0,0
197044,-110.308285163776,4,1,0,100,0,0
197121,-108.695652173913,4,1,0,100,0,0
197197,-107.149541456111,4,1,0,100,0,0
197273,-105.64679830227,4,1,0,100,0,0
197350,-104.166666666667,4,1,0,100,0,0
197426,-102.745872218234,4,1,0,100,0,0
197502,-101.363314447592,4,1,0,100,0,0
197541,-100.668190610164,4,1,0,100,0,0
197579,-100,4,1,0,100,0,0
197808,-105.263157894737,4,1,0,100,0,0
198037,-111.111111111111,4,1,0,100,0,0
198137,-90.909090909091,4,1,0,100,0,0
198175,-91.834002677376,4,1,0,100,0,0
198213,-92.77792804977,4,1,0,100,0,0
198251,-93.741459415141,4,1,0,100,0,0
198366,-96.783295711061,4,1,0,100,0,0
198480,-100,4,1,0,100,0,0
198538,-98.749460974558,4,1,0,100,0,0
198595,-97.550585729499,4,1,0,100,0,0
198652,-96.380471380471,4,1,0,100,0,0
198709,-95.238095238095,4,1,0,100,0,0
198767,-94.1031436203,4,1,0,100,0,0
198824,-93.013809910642,4,1,0,100,0,0
198881,-91.949407749448,4,1,0,100,0,0
198938,-90.909090909091,4,1,0,100,0,0
198996,-91.967871485944,4,1,0,100,0,0
199053,-93.032703635994,4,1,0,100,0,0
199110,-94.122482531854,4,1,0,100,0,0
199167,-95.238095238095,4,1,0,100,0,0
199225,-96.400757735214,4,1,0,100,0,0
199282,-97.571367703451,4,1,0,100,0,0
199339,-98.770756954928,4,1,0,100,0,0
199396,-100,4,1,0,100,0,0
199640,-105.263157894737,4,1,0,100,0,0
199869,-111.111111111111,4,1,0,100,0,0
199969,-90.909090909091,4,1,0,100,0,0
200007,-91.834002677376,4,1,0,100,0,0
200045,-92.77792804977,4,1,0,100,0,0
200083,-93.741459415141,4,1,0,100,0,0
200198,-96.783295711061,4,1,0,100,0,0
200313,-90.909090909091,4,1,0,100,0,0
200370,-93.013809910642,4,1,0,100,0,0
200427,-95.218295218295,4,1,0,100,0,0
200484,-97.571367703451,4,1,0,100,0,0
200542,-100,4,1,0,100,0,0
200599,-102.552619793999,4,1,0,100,0,0
200656,-105.238970588235,4,1,0,100,0,0
200713,-108.120868744098,4,1,0,100,0,0
200771,-109.89010989011,4,1,0,100,0,0
200828,-109.595597032783,4,1,0,100,0,0
200885,-108.120868744098,4,1,0,100,0,0
200942,-106.660456450862,4,1,0,100,0,0
201000,-105.263157894737,4,1,0,100,0,0
201057,-103.901996370236,4,1,0,100,0,0
201114,-102.575587905935,4,1,0,100,0,0
201171,-101.260225514039,4,1,0,100,0,0
201229,-100,4,1,0,100,0,0
201701,-100,4,1,0,100,0,0
201730,-99.05915432032,4,1,0,100,0,0
201815,-96.400757735214,4,1,0,100,0,0
201844,-95.526123683387,4,1,0,100,0,0
201930,-93.023255813953,4,1,0,100,0,0
201959,-92.208576605597,4,1,0,100,0,0
202044,-89.90087349102,4,1,0,100,0,0
202073,-89.139743090697,4,1,0,100,0,0
202159,-100,4,1,0,100,0,0
202617,-86.95652173913,4,1,0,100,0,0
202646,-87.680673877668,4,1,0,100,0,0
202731,-89.874411302983,4,1,0,100,0,0
202760,-90.648193963384,4,1,0,100,0,0
202846,-93.023255813953,4,1,0,100,0,0
202875,-93.852459016393,4,1,0,100,0,0
202960,-96.370331404524,4,1,0,100,0,0
202989,-97.26056487577,4,1,0,100,0,0
203075,-100,4,1,0,100,0,0
203533,-100,4,1,0,100,0,0
203562,-99.527353724127,4,1,0,100,0,0
203647,-98.167398992605,4,1,0,100,0,0
203676,-97.711877966825,4,1,0,100,0,0
203762,-96.385542168675,4,1,0,100,0,0
203819,-95.526123683387,4,1,0,100,0,0
203876,-94.681895705204,4,1,0,100,0,0
203934,-93.838037186908,4,1,0,100,0,0
203991,-93.023255813953,4,1,0,100,0,0
204048,-92.222501887742,4,1,0,100,0,0
204105,-91.435416250749,4,1,0,100,0,0
204163,-90.648193963384,4,1,0,100,0,0
204220,-89.887640449438,4,1,0,100,0,0
204277,-89.139743090697,4,1,0,100,0,0
204334,-88.404188582734,4,1,0,100,0,0
204392,-87.668086328181,4,1,0,100,0,0
204449,-82.644628099174,4,1,0,100,0,0
204487,-84.033613445378,4,1,0,100,0,0
204525,-85.470085470085,4,1,0,100,0,0
204563,-86.95652173913,4,1,0,100,0,0
204621,-87.719298245614,4,1,0,100,0,0
204678,-82.644628099174,4,1,0,100,0,0
204716,-84.033613445378,4,1,0,100,0,0
204754,-85.470085470085,4,1,0,100,0,0
204792,-86.95652173913,4,1,0,100,0,0
204893,-80,4,1,0,100,0,0
205236,-86.476280387066,4,1,0,100,0,0
205351,-88.888888888889,4,1,0,100,0,0
205580,-94.117647058824,4,1,0,100,0,0
205637,-95.516162669447,4,1,0,100,0,0
205694,-96.982530439386,4,1,0,100,0,0
205751,-98.468153722118,4,1,0,100,0,0
205809,-80,4,1,0,100,0,0
205923,-82.060470324748,4,1,0,100,0,0
206152,-86.496694995279,4,1,0,100,0,0
206267,-88.888888888889,4,1,0,100,0,0
206381,-91.439980034939,4,1,0,100,0,0
206496,-94.117647058824,4,1,0,100,0,0
206553,-95.516162669447,4,1,0,100,0,0
206610,-96.982530439386,4,1,0,100,0,0
206667,-98.468153722118,4,1,0,100,0,0
206725,-100,4,1,0,100,0,0
206839,-101.260225514039,4,1,0,100,0,0
206954,-102.564102564103,4,1,0,100,0,0
207068,-103.89021209028,4,1,0,100,0,0
207125,-104.566210045662,4,1,0,100,0,0
207183,-105.263157894737,4,1,0,100,0,0
207240,-105.957200694043,4,1,0,100,0,0
207297,-106.660456450862,4,1,0,100,0,0
207412,-108.108108108108,4,1,0,100,0,0
207469,-108.840304182509,4,1,0,100,0,0
207526,-109.582485943295,4,1,0,100,0,0
207584,-110.348150825202,4,1,0,100,0,0
207641,-111.111111111111,4,1,0,100,0,0
207755,-112.669126691267,4,1,0,100,0,0
207870,-114.285714285714,4,1,0,100,0,0
207984,-115.934691811163,4,1,0,100,0,0
208042,-116.792043860768,4,1,0,100,0,0
208099,-117.647058823529,4,1,0,100,0,0
208156,-118.514684952775,4,1,0,100,0,0
208213,-119.395203336809,4,1,0,100,0,0
208328,-121.212121212121,4,1,0,100,0,0
208385,-122.133333333333,4,1,0,100,0,0
208442,-123.068655112186,4,1,0,100,0,0
208500,-124.035206499661,4,1,0,100,0,0
208557,-80,4,1,0,100,0,0
208900,-86.476280387066,4,1,0,100,0,0
209015,-88.888888888889,4,1,0,100,0,0
209244,-94.117647058824,4,1,0,100,0,0
209301,-95.516162669447,4,1,0,100,0,0
209358,-96.982530439386,4,1,0,100,0,0
209415,-98.468153722118,4,1,0,100,0,0
209473,-80,4,1,0,100,0,0
209587,-82.060470324748,4,1,0,100,0,0
209816,-86.496694995279,4,1,0,100,0,0
209931,-88.888888888889,4,1,0,100,0,0
210045,-91.439980034939,4,1,0,100,0,0
210160,-94.117647058824,4,1,0,100,0,0
210217,-95.516162669447,4,1,0,100,0,0
210274,-96.982530439386,4,1,0,100,0,0
210331,-98.468153722118,4,1,0,100,0,0
210389,-100,4,1,0,100,0,0
210503,-101.271420674406,4,1,0,100,0,0
210618,-102.564102564103,4,1,0,100,0,0
210732,-103.901996370236,4,1,0,100,0,0
210790,-104.578148190433,4,1,0,100,0,0
210847,-105.263157894737,4,1,0,100,0,0
210904,-105.957200694043,4,1,0,100,0,0
210961,-106.672877605683,4,1,0,100,0,0
211076,-108.108108108108,4,1,0,100,0,0
211133,-108.840304182509,4,1,0,100,0,0
211190,-109.595597032783,4,1,0,100,0,0
211248,-110.348150825202,4,1,0,100,0,0
211305,-111.111111111111,4,1,0,100,0,0
211419,-112.682986837249,4,1,0,100,0,0
211534,-114.285714285714,4,1,0,100,0,0
211648,-115.949367088608,4,1,0,100,0,0
211763,-117.647058823529,4,1,0,100,0,0
211877,-119.41076782688,4,1,0,100,0,0
211992,-121.212121212121,4,1,0,100,0,0
212049,-122.133333333333,4,1,0,100,0,0
212221,-80,4,1,0,100,0,0
212564,-86.476280387066,4,1,0,100,0,0
212679,-88.888888888889,4,1,0,100,0,0
212908,-94.117647058824,4,1,0,100,0,0
212965,-95.516162669447,4,1,0,100,0,0
213022,-96.982530439386,4,1,0,100,0,0
213079,-98.468153722118,4,1,0,100,0,0
213137,-80,4,1,0,100,0,0
213251,-82.060470324748,4,1,0,100,0,0
213480,-86.496694995279,4,1,0,100,0,0
213595,-88.888888888889,4,1,0,100,0,0
213709,-91.439980034939,4,1,0,100,0,0
213824,-94.117647058824,4,1,0,100,0,0
213881,-95.516162669447,4,1,0,100,0,0
213938,-96.982530439386,4,1,0,100,0,0
213995,-98.468153722118,4,1,0,100,0,0
214053,-100,4,1,0,100,0,0
214167,-101.271420674406,4,1,0,100,0,0
214282,-102.564102564103,4,1,0,100,0,0
214396,-103.901996370236,4,1,0,100,0,0
214454,-104.578148190433,4,1,0,100,0,0
214511,-105.263157894737,4,1,0,100,0,0
214568,-105.969458583989,4,1,0,100,0,0
214625,-106.672877605683,4,1,0,100,0,0
214740,-108.108108108108,4,1,0,100,0,0
214797,-108.853238265003,4,1,0,100,0,0
214855,-109.595597032783,4,1,0,100,0,0
214912,-110.348150825202,4,1,0,100,0,0
214969,-111.111111111111,4,1,0,100,0,0
215084,-106.64803818838,4,1,0,100,0,0
215198,-102.564102564103,4,1,0,100,0,0
215313,-98.749460974558,4,1,0,100,0,0
215427,-95.238095238095,4,1,0,100,0,0
215542,-91.940178661046,4,1,0,100,0,0
215656,-88.888888888889,4,1,0,100,0,0
215771,-86.009389671362,4,1,0,100,0,0
215828,-84.650217170317,4,1,0,100,0,0
215899,229.007633587786,4,1,0,100,1,8
215899,-84.745762711864,4,1,0,100,0,0
215900,230.769230769231,4,1,0,100,1,0
215900,-83.333333333333,4,1,0,100,0,0
215957,-83.678963836135,4,1,0,100,0,0
216015,-84.033613445378,4,1,0,100,0,0
216073,-84.391282013649,4,1,0,100,0,0
216130,240,4,1,0,100,1,8
216130,-81.30081300813,4,1,0,100,0,0
216190,-81.632653061224,4,1,0,100,0,0
216250,-81.967213114754,4,1,0,100,0,0
216310,-82.304526748971,4,1,0,100,0,0
216370,250,4,1,0,100,1,8
216370,-79.365079365079,4,1,0,100,0,0
216432,-79.678735339113,4,1,0,100,0,0
216495,-80,4,1,0,100,0,0
216557,-80.318704619932,4,1,0,100,0,0
216620,260.869565217391,4,1,0,100,1,8
216620,-77.519379844961,4,1,0,100,0,0
216685,-77.819851516145,4,1,0,100,0,0
216750,-78.122661558263,4,1,0,100,0,0
216815,-78.427837374921,4,1,0,100,0,0
216881,272.727272727273,4,1,0,100,1,0
216881,-75.757575757576,4,1,0,100,0,0
216949,-76.044568245125,4,1,0,100,0,0
217017,-76.333743429147,4,1,0,100,0,0
217085,-76.625126305153,4,1,0,100,0,0
217154,285.714285714286,4,1,0,100,1,8
217154,-73.529411764706,4,1,0,100,0,0
217225,-73.798833668783,4,1,0,100,0,0
217296,-74.070237231949,4,1,0,100,0,0
217368,-74.347509618384,4,1,0,100,0,0
217440,300,4,1,0,100,1,8
217440,-71.428571428571,4,1,0,100,0,0
217515,-71.68458781362,4,1,0,100,0,0
217590,-71.942446043165,4,1,0,100,0,0
217665,-72.202166064982,4,1,0,100,0,0
217740,315.789473684211,4,1,0,100,1,8
217740,-68.965517241379,4,1,0,100,0,0
217818,-69.31952792524,4,1,0,100,0,0
217897,-69.681801142252,4,1,0,100,0,0
217976,-70.047880829934,4,1,0,100,0,0
218056,333.333333333333,4,1,0,100,1,0
218056,-66.666666666667,4,1,0,100,0,0
218139,-67.000663970544,4,1,0,100,0,0
218222,-67.338024751274,4,1,0,100,0,0
218306,-67.682926829268,4,1,0,100,0,0
218389,352.941176470588,4,1,0,100,1,8
218389,-64.102564102564,4,1,0,100,0,0
218477,-64.411356835267,4,1,0,100,0,0
218521,-64.566871524729,4,1,0,100,0,0
218565,-64.723138980565,4,1,0,100,0,0
218653,-65.037954160218,4,1,0,100,0,0
218742,375,4,1,0,100,1,8
218742,-61.349693251534,4,1,0,100,0,0
218835,-61.72534689645,4,1,0,100,0,0
218882,-61.916948732766,4,1,0,100,0,0
218929,-62.109743776604,4,1,0,100,0,0
219023,-62.498958350694,4,1,0,100,0,0
219070,-62.695400665407,4,1,0,100,0,0
219117,400,4,1,0,100,1,8
219117,-58.823529411765,4,1,0,100,0,0
219217,-59.171597633136,4,1,0,100,0,0
219267,-59.347181008902,4,1,0,100,0,0
219317,-59.52380952381,4,1,0,100,0,0
219417,-59.880239520958,4,1,0,100,0,0
219467,-60.06006006006,4,1,0,100,0,0
219517,428.571428571429,4,1,0,100,1,0
219517,-56.179775280899,4,1,0,100,0,0
219624,-54.644808743169,4,1,0,100,0,0
219677,-53.915146629044,4,1,0,100,0,0
219731,-53.191489361702,4,1,0,100,0,0
219784,-52.499877336735,4,1,0,100,0,0
219838,-51.813471502591,4,1,0,100,0,0
219892,-51.14478275417,4,1,0,100,0,0
219945,461.538461538462,4,1,0,100,1,8
219945,-46.728971962617,4,1,0,100,0,0
220002,-46.35761589404,4,1,0,100,0,0
220060,-45.771578029643,4,1,0,100,0,0
220118,-45.200172191132,4,1,0,100,0,0
220175,-44.652349564108,4,1,0,100,0,0
220233,-44.108380592313,4,1,0,100,0,0
220291,-43.577505706578,4,1,0,100,0,0
220348,-43.068088597211,4,1,0,100,0,0
220407,500,4,1,0,100,1,8
220407,-39.370078740158,4,1,0,100,0,0
220657,-37.037037037037,4,1,0,100,0,0
220907,545.454545454546,4,1,0,100,1,8
220907,-32.154340836013,4,1,0,100,0,0
221179,-29.850746268657,4,1,0,100,0,0
221452,600,4,1,0,100,1,0
221452,-25,4,1,0,100,0,0
221602,-10,4,1,0,60,0,0
221677,-43.668122270742,4,1,0,60,0,0
223814,-46.783625730994,4,1,0,60,0,0
226214,-50.377833753149,4,1,0,60,0,0
228614,-54.570259208731,4,1,0,60,0,0
230902,-54.570259208731,4,1,0,80,0,0
231052,571.428571428571,5,1,0,80,1,0
231052,-62.5,5,1,0,80,0,0
231194,-62.306484671406,5,1,0,80,0,0
231337,-62.112813824584,5,1,0,80,0,0
231480,-61.920343243478,5,1,0,80,0,0
231623,-61.72906180467,5,1,0,80,0,0
231766,-61.538958521773,5,1,0,80,0,0
231909,-61.350022543315,5,1,0,80,0,0
232052,-61.162243150685,5,1,0,80,0,0
232194,-60.976910929965,5,1,0,80,0,0
232337,-60.791405169663,5,1,0,80,0,0
232480,-60.607024688216,5,1,0,80,0,0
232623,-60.423759277664,5,1,0,80,0,0
232766,-60.241598853143,5,1,0,80,0,0
232909,-60.060533451037,5,1,0,80,0,0
233052,-59.880553227158,5,1,0,80,0,0
233194,-59.702895825498,5,1,0,80,0,0
233338,545.454545454546,5,1,0,80,1,0
233338,-62.5,5,1,0,80,0,0
233474,-62.330034964236,5,1,0,80,0,0
233610,-62.160991841014,5,1,0,80,0,0
233747,-61.991630277599,5,1,0,80,0,0
233883,-61.8244152606,5,1,0,80,0,0
234019,-61.658099901946,5,1,0,80,0,0
234156,-61.491463902651,5,1,0,80,0,0
234292,-61.326932697767,5,1,0,80,0,0
234428,-61.163279607568,5,1,0,80,0,0
234565,-60.999303903452,5,1,0,80,0,0
234701,-60.837392412334,5,1,0,80,0,0
234838,-60.675157110283,5,1,0,80,0,0
234974,-60.514959564248,5,1,0,80,0,0
235110,-60.35560571359,5,1,0,80,0,0
235247,-60.195926429653,5,1,0,80,0,0
235383,-60.038246178822,5,1,0,80,0,0
235520,521.739130434783,5,1,0,80,1,0
235520,-62.5,5,1,0,80,0,0
235650,-62.330137681809,5,1,0,80,0,0
235780,-62.161196163698,5,1,0,80,0,0
235911,-61.991878974743,5,1,0,80,0,0
236041,-61.824763676544,5,1,0,80,0,0
236172,-61.657271835596,5,1,0,80,0,0
236302,-61.491953305008,5,1,0,80,0,0
236433,-61.326257452742,5,1,0,80,0,0
236563,-61.162706867397,5,1,0,80,0,0
236693,-61.000026305713,5,1,0,80,0,0
236824,-60.836967421469,5,1,0,80,0,0
236954,-60.676012769001,5,1,0,80,0,0
237085,-60.514679231606,5,1,0,80,0,0
237215,-60.355423167575,5,1,0,80,0,0
237346,-60.195787737019,5,1,0,80,0,0
237476,-60.038203514263,5,1,0,80,0,0
237607,500,4,1,0,80,1,0
237607,-62.5,4,1,0,80,0,0
237732,-62.305295950156,4,1,0,80,0,0
237857,-62.111801242236,4,1,0,80,0,0
237982,-61.919504643963,4,1,0,80,0,0
238107,-61.728395061728,4,1,0,80,0,0
238232,-61.538461538462,4,1,0,80,0,0
238357,-61.349693251534,4,1,0,80,0,0
238482,-61.162079510703,4,1,0,80,0,0
238607,-60.975609756098,4,1,0,80,0,0
238732,-58.997050147493,4,1,0,83,0,0
238857,-57.142857142857,4,1,0,85,0,0
238982,-55.401662049861,4,1,0,88,0,0
239107,-53.763440860215,4,1,0,90,0,0
239232,-52.219321148825,4,1,0,93,0,0
239357,-50.761421319797,4,1,0,95,0,0
239482,-49.382716049383,4,1,0,98,0,0
239607,480,4,1,0,100,1,0
239607,-50,4,1,0,100,0,0
241407,-58.823529411765,4,1,0,100,0,0
241527,461.538461538462,4,1,0,100,1,0
241527,-50.000000000001,4,1,0,100,0,0
241642,-50.952249516975,4,1,0,100,0,0
241757,-51.941474395048,4,1,0,100,0,0
241873,-52.978992078981,4,1,0,100,0,0
241988,-54.049306084207,4,1,0,100,0,0
242103,-55.163758068372,4,1,0,100,0,0
242219,-56.33544921875,4,1,0,100,0,0
242334,-57.547228630214,4,1,0,100,0,0
242450,-58.823529411765,4,1,0,100,0,0
242680,-55.719891337157,4,1,0,100,0,0
242796,-54.275600089381,4,1,0,100,0,0
242911,-52.91581626803,4,1,0,100,0,0
243027,-51.611532353665,4,1,0,100,0,0
243084,-50.993911669484,4,1,0,100,0,0
243142,-50.38044605526,4,1,0,100,0,0
243257,-49.206721542202,4,1,0,100,0,0
243373,444.444444444444,5,1,0,100,1,0
243373,-50,5,1,0,100,0,0
244261,-49.019607843137,5,1,0,100,0,0
245151,428.571428571429,4,1,0,100,1,0
245151,-50,4,1,0,100,0,0
246865,400,4,1,0,100,1,8
246865,-41.666666666666,4,1,0,100,0,0
247065,-43.243243243243,4,1,0,100,0,0
247365,-45.845272206304,4,1,0,100,0,0
247665,-48.780487804878,4,1,0,100,0,0
247965,-52.117263843648,4,1,0,100,0,0
248265,-55.944055944056,4,1,0,100,0,0
248465,-58.823529411765,4,1,0,100,0,0
248765,-60.836501901141,4,1,0,100,0,0
248865,-61.538461538462,4,1,0,100,0,0
249065,-62.992125984252,4,1,0,100,0,0
249165,-63.745019920319,4,1,0,100,0,0
249265,-64.516129032258,4,1,0,100,0,0
249465,-66.115702479339,4,1,0,100,0,0
249565,-66.945606694561,4,1,0,100,0,0
249665,-67.796610169492,4,1,0,100,0,0
249765,-68.669527896996,4,1,0,100,0,0
249865,-69.565217391304,4,1,0,100,0,0
250065,-71.428571428571,4,1,0,100,0,0
254065,-71.428571428571,4,1,0,100,0,0
254165,-69.565217391304,4,1,0,100,0,0
254265,-67.796610169492,4,1,0,100,0,0
254365,-66.115702479339,4,1,0,100,0,0
254465,-64.516129032258,4,1,0,100,0,0
254565,-62.992125984252,4,1,0,100,0,0
254665,-61.538461538462,4,1,0,100,0,0
254865,-58.823529411765,4,1,0,100,0,0
255165,-60.836501901141,4,1,0,100,0,0
255265,-61.538461538462,4,1,0,100,0,0
255465,-62.992125984252,4,1,0,100,0,0
255565,-63.745019920319,4,1,0,100,0,0
255665,-64.516129032258,4,1,0,100,0,0
255865,-66.115702479339,4,1,0,100,0,0
255965,-66.945606694561,4,1,0,100,0,0
256065,-67.796610169492,4,1,0,100,0,0
256165,-68.669527896996,4,1,0,100,0,0
256265,-69.565217391304,4,1,0,100,0,0
256465,-71.428571428571,4,1,0,100,0,0
260465,-71.428571428571,4,1,0,100,0,0
260565,-69.565217391304,4,1,0,100,0,0
260665,-67.796610169492,4,1,0,100,0,0
260765,-66.115702479339,4,1,0,100,0,0
260865,-64.516129032258,4,1,0,100,0,0
260965,-62.992125984252,4,1,0,100,0,0
261065,-61.538461538462,4,1,0,100,0,0
261165,-60.15037593985,4,1,0,100,0,0
261265,-58.823529411765,4,1,0,100,0,0
262065,-58.823529411765,4,1,0,100,0,0
262365,-64.360418342719,4,1,0,100,0,0
262465,-66.445182724252,4,1,0,100,0,0
262531,-67.896729075077,4,1,0,100,0,0
262598,-69.43660871603,4,1,0,100,0,0
262665,-71.047957371226,4,1,0,100,0,0
262731,-72.710086706778,4,1,0,100,0,0
262798,-74.478880582425,4,1,0,100,0,0
262865,397.350993377483,5,1,0,100,1,0
262865,-76.923076923078,5,1,0,100,0,0
263063,-72.737266397948,4,1,0,100,0,0
263163,-70.791726105563,4,1,0,100,0,0
263262,-68.965517241379,4,1,0,100,0,0
263328,-67.799504739134,4,1,0,100,0,0
263394,-66.672264673776,4,1,0,100,0,0
263461,-65.565648224608,4,1,0,100,0,0
263527,-64.510887227819,4,1,0,100,0,0
263593,-63.694267515924,4,1,0,100,0,0
263659,-62.893081761006,4,1,0,100,0,0
263725,-63.453597563892,4,1,0,100,0,0
263792,-64.451875662939,4,1,0,100,0,0
263858,-65.466448445172,4,1,0,100,0,0
263924,-66.513473992062,4,1,0,100,0,0
263990,-67.59453469315,4,1,0,100,0,0
264057,-68.72852233677,4,1,0,100,0,0
264123,-69.883410591375,4,1,0,100,0,0
264189,-71.077774801322,4,1,0,100,0,0
264255,-72.313674188742,4,1,0,100,0,0
264321,-73.593313733104,4,1,0,100,0,0
264388,-74.939511763432,4,1,0,100,0,0
264455,394.736842105263,4,1,0,100,1,0
264455,-76.923076923077,4,1,0,100,0,0
264553,-74.779641740119,4,1,0,100,0,0
264652,-72.732300884956,4,1,0,100,0,0
264751,-70.794078061911,4,1,0,100,0,0
264849,-68.974560713349,4,1,0,100,0,0
264915,-67.800979633926,4,1,0,100,0,0
264981,-66.666666666667,4,1,0,100,0,0
265047,-65.56968337073,4,1,0,100,0,0
265112,-64.524043179588,4,1,0,100,0,0
265178,-63.694267515924,4,1,0,100,0,0
265244,-62.893081761006,4,1,0,100,0,0
265310,-63.462188118334,4,1,0,100,0,0
265376,-64.454465248505,4,1,0,100,0,0
265441,-65.462510474831,4,1,0,100,0,0
265507,-66.518847006652,4,1,0,100,0,0
265573,-67.609833846048,4,1,0,100,0,0
265639,-68.737204338546,4,1,0,100,0,0
265705,-69.902809401884,4,1,0,100,0,0
265770,-71.090047393365,4,1,0,100,0,0
265836,-72.337538506674,4,1,0,100,0,0
265935,-74.293085752488,4,1,0,100,0,0
266033,392.156862745098,5,1,0,100,1,0
266033,-76.923076923077,5,1,0,100,0,0
266229,-72.727272727273,4,1,0,100,0,0
266327,-70.796460176991,4,1,0,100,0,0
266425,-68.965517241379,4,1,0,100,0,0
266490,-67.802473406555,4,1,0,100,0,0
266555,-66.678006463684,4,1,0,100,0,0
266621,-65.573770491803,4,1,0,100,0,0
266686,-64.521438564727,4,1,0,100,0,0
266751,-63.502348938928,4,1,0,100,0,0
266817,-62.893081761006,4,1,0,100,0,0
266882,-63.452289536435,4,1,0,100,0,0
266948,-64.449388757071,4,1,0,100,0,0
267013,-65.462490409954,4,1,0,100,0,0
267078,-66.507951300929,4,1,0,100,0,0
267144,-67.604226771274,4,1,0,100,0,0
267209,-68.719798305203,4,1,0,100,0,0
267274,-69.872804792295,4,1,0,100,0,0
267340,-71.08382458142,4,1,0,100,0,0
267405,-72.318237093267,4,1,0,100,0,0
267470,-73.596279872121,4,1,0,100,0,0
267536,-74.941049556559,4,1,0,100,0,0
267602,389.61038961039,5,1,0,100,1,0
267602,-76.923076923077,5,1,0,100,0,0
267699,-78.121862071736,4,1,0,100,0,0
267796,-79.358602962177,4,1,0,100,0,0
267894,-80.648505203798,4,1,0,100,0,0
267991,-68.97467681955,4,1,0,100,0,0
268056,-70.175438596491,4,1,0,100,0,0
268121,-71.428571428571,4,1,0,100,0,0
268186,-72.727272727273,4,1,0,100,0,0
268283,-74.074074074074,4,1,0,100,0,0
268381,-62.893081761006,4,1,0,100,0,0
268446,-63.458487572713,4,1,0,100,0,0
268511,-64.446831364125,4,1,0,100,0,0
268576,-65.466448445172,4,1,0,100,0,0
268640,-66.502400054566,4,1,0,100,0,0
268705,-67.588645107622,4,1,0,100,0,0
268770,-68.710964684326,4,1,0,100,0,0
268835,-69.871186197753,4,1,0,100,0,0
268900,-71.071262608315,4,1,0,100,0,0
268965,-72.313283393903,4,1,0,100,0,0
269030,-73.599486690759,4,1,0,100,0,0
269161,387.096774193548,4,1,0,100,1,0
269161,-76.923076923077,4,1,0,100,0,0
269354,-72.737524668734,4,1,0,100,0,0
269451,-70.801317233809,4,1,0,100,0,0
269548,-68.965517241379,4,1,0,100,0,0
269612,-67.805519053876,4,1,0,100,0,0
269677,-66.666666666667,4,1,0,100,0,0
269741,-65.582104728012,4,1,0,100,0,0
269806,-64.516129032258,4,1,0,100,0,0
269870,-63.499876938223,4,1,0,100,0,0
269935,-62.893081761006,4,1,0,100,0,0
269999,-63.450944386149,4,1,0,100,0,0
270064,-64.446831364125,4,1,0,100,0,0
270128,-65.458420371608,4,1,0,100,0,0
270193,-66.518847006652,4,1,0,100,0,0
270257,-67.597072540218,4,1,0,100,0,0
270322,-68.72852233677,4,1,0,100,0,0
270386,-69.880192486525,4,1,0,100,0,0
270451,-71.090047393365,4,1,0,100,0,0
270515,-72.322930293403,4,1,0,100,0,0
270580,-73.61963190184,4,1,0,100,0,0
270644,-74.942631125398,4,1,0,100,0,0
270709,384.615384615385,4,1,0,100,1,0
270709,-76.923076923077,4,1,0,100,0,0
270805,-74.769081186193,4,1,0,100,0,0
270901,-72.732431665563,4,1,0,100,0,0
270997,-70.803793389191,4,1,0,100,0,0
271093,-68.974795945825,4,1,0,100,0,0
271157,-67.8070716868,4,1,0,100,0,0
271221,-66.678227694442,4,1,0,100,0,0
271285,-65.586353944563,4,1,0,100,0,0
271350,-64.513422818792,4,1,0,100,0,0
271414,-63.694267515924,4,1,0,100,0,0
271478,-62.893081761006,4,1,0,100,0,0
271542,-63.457222075522,4,1,0,100,0,0
271606,-64.44422097077,4,1,0,100,0,0
271670,-65.462408063198,4,1,0,100,0,0
271734,-66.513285358428,4,1,0,100,0,0
271798,-67.598452883263,4,1,0,100,0,0
271862,-68.719616814412,4,1,0,100,0,0
271926,-69.878598429776,4,1,0,100,0,0
271991,-71.096400802493,4,1,0,100,0,0
272055,-72.337663559314,4,1,0,100,0,0
272151,-74.283009572752,4,1,0,100,0,0
272247,382.165605095541,5,1,0,100,1,0
272247,-76.923076923077,5,1,0,100,0,0
272438,-72.727272727273,4,1,0,100,0,0
272533,-70.806302131603,4,1,0,100,0,0
272629,-68.965517241379,4,1,0,100,0,0
272692,-67.808644714653,4,1,0,100,0,0
272756,-66.672484509992,4,1,0,100,0,0
272820,-65.573770491803,4,1,0,100,0,0
272883,-64.527027027027,4,1,0,100,0,0
272947,-63.497340425532,4,1,0,100,0,0
273011,-62.893081761006,4,1,0,100,0,0
273075,-63.462304220865,4,1,0,100,0,0
273138,-64.438959879377,4,1,0,100,0,0
273202,-65.462386938328,4,1,0,100,0,0
273266,-66.518847006652,4,1,0,100,0,0
273329,-67.592641679478,4,1,0,100,0,0
273393,-68.719570255655,4,1,0,100,0,0
273457,-69.88471306159,4,1,0,100,0,0
273520,-71.070894378432,4,1,0,100,0,0
273584,-72.317858256998,4,1,0,100,0,0
273648,-73.609360416446,4,1,0,100,0,0
273711,-74.926542605289,4,1,0,100,0,0
273776,379.746835443038,4,1,0,100,1,0
273776,-76.923076923077,4,1,0,100,0,0
273839,-77.866459022776,4,1,0,100,0,0
273902,-78.833267638944,4,1,0,100,0,0
273965,-79.82438635003,4,1,0,100,0,0
274029,-80.857085102082,4,1,0,100,0,0
274092,-81.900081900082,4,1,0,100,0,0
274155,-82.970338104128,4,1,0,100,0,0
274219,-84.086609207484,4,1,0,100,0,0
274282,-85.215168299957,4,1,0,100,0,0
274345,-86.374433167782,4,1,0,100,0,0
274408,-87.565674255692,4,1,0,100,0,0
274472,-88.809946714032,4,1,0,100,0,0
274536,377.358490566038,4,1,0,100,1,8
274536,-89.285714285714,4,1,0,100,0,8
274630,-85.941596188479,4,1,0,100,0,0
274724,-81.488846619402,4,1,0,100,0,0
274819,-77.434196337794,4,1,0,100,0,0
274913,-73.80073800738,4,1,0,100,0,0
275007,-70.492983423865,4,1,0,100,0,0
275102,-67.438241239289,4,1,0,100,0,0
275196,-64.665523156089,4,1,0,100,0,0
275290,375,4,1,0,100,1,0
275290,-62.5,4,1,0,100,0,0
275454,-72.721990897647,4,1,0,100,0,0
275547,-70.808976051292,4,1,0,100,0,0
275641,-68.975018368846,4,1,0,100,0,0
275735,-67.233661593554,4,1,0,100,0,0
275829,-65.578064966818,4,1,0,100,0,0
275922,-64.018412752536,4,1,0,100,0,0
276040,363.636363636364,4,1,0,100,1,8
276040,-63.694267515924,4,1,0,100,0,0
276199,-75.046904315197,4,1,0,100,0,0
276290,-73.059360730594,4,1,0,100,0,0
276380,-71.194562613075,4,1,0,100,0,0
276471,-69.403397715789,4,1,0,100,0,0
276562,-67.700147861587,4,1,0,100,0,0
276653,-66.078495443488,4,1,0,100,0,0
276768,352.941176470588,4,1,0,100,1,0
276768,-64.935064935065,4,1,0,100,0,0
276922,-77.507465308273,4,1,0,100,0,0
277010,-75.466050966308,4,1,0,100,0,0
277098,-73.529411764706,4,1,0,100,0,0
277187,-71.669306046209,4,1,0,100,0,0
277275,-69.92037396506,4,1,0,100,0,0
277363,-68.25476623226,4,1,0,100,0,0
277473,342.857142857143,4,1,0,100,1,8
277473,-67.567567567568,4,1,0,100,0,0
277708,-62.893081761006,4,1,0,100,0,0
277965,-58.823529411765,4,1,0,100,0,0
278159,333.333333333333,4,1,0,100,1,0
278159,-55.555555555556,4,1,0,100,0,0
278304,-80.834482925531,4,1,0,100,0,0
278408,-78.178030569014,4,1,0,100,0,0
278471,-76.652093588993,4,1,0,100,0,0
278554,-74.730388866515,4,1,0,100,0,0
278658,-72.454336413727,4,1,0,100,0,0
278721,-71.141783017562,4,1,0,100,0,0
278826,315.789473684211,4,1,0,100,1,8
278826,-71.942446043166,4,1,0,100,0,0
278964,-86.767895878525,4,1,0,100,0,0
279043,-84.477296726505,4,1,0,100,0,0
279122,-82.304526748971,4,1,0,100,0,0
279201,-80.240722166499,4,1,0,100,0,0
279279,-78.302132246354,4,1,0,100,0,0
279358,-76.431888544892,4,1,0,100,0,0
279457,300,4,1,0,100,1,0
279457,-76.923076923077,4,1,0,100,0,0
279588,-90.917342369599,4,1,0,100,0,0
279663,-88.507304429783,4,1,0,100,0,0
279738,-86.221737633421,4,1,0,100,0,0
279813,-84.051241888566,4,1,0,100,0,0
279888,-81.987340390702,4,1,0,100,0,0
279963,-80.022368981679,4,1,0,100,0,0
280057,285.714285714286,4,1,0,100,1,8
280057,-81.30081300813,4,1,0,100,0,0
280253,-74.074074074074,4,1,0,100,0,0
280467,-66.666666666667,4,1,0,100,0,0
280629,272.727272727273,4,1,0,100,1,0
280629,-62.5,4,1,0,100,0,0
280748,-82.816678823243,4,1,0,100,0,0
280816,-82.560746530934,4,1,0,100,0,0
280884,-82.306391204543,4,1,0,100,0,0
281021,-81.798670208774,4,1,0,100,0,0
281089,-81.548981759962,4,1,0,100,0,0
281174,266.666666666667,4,1,0,100,1,8
281174,-83.289141217207,4,1,0,100,0,0
281224,-83.159435637088,4,1,0,100,0,0
281290,-82.988841575234,4,1,0,100,0,0
281357,-82.816377171216,4,1,0,100,0,0
281424,-82.644628099174,4,1,0,100,0,0
281557,-82.305795314427,4,1,0,100,0,0
281624,-82.13615528963,4,1,0,100,0,0
281708,260.869565217391,4,1,0,100,1,0
281708,-83.333333333333,4,1,0,100,0,0
281822,-82.988212806626,4,1,0,100,0,0
281887,-82.816722301701,4,1,0,100,0,0
281952,-82.645939086294,4,1,0,100,0,0
282017,-82.47324764136,4,1,0,100,0,0
282082,-82.303876654766,4,1,0,100,0,0
282148,-82.135199899105,4,1,0,100,0,0
282229,255.31914893617,4,1,0,100,1,8
282229,-83.333333333333,4,1,0,100,0,0
282276,-83.162451583504,4,1,0,100,0,0
282340,-82.989573521291,4,1,0,100,0,0
282404,-82.817412725682,4,1,0,100,0,0
282468,-82.645964742035,4,1,0,100,0,0
282596,-82.307840989627,4,1,0,100,0,0
282659,-82.138494181187,4,1,0,100,0,0
282740,250,4,1,0,100,1,0
282740,-83.288912579957,4,1,0,100,0,0
282849,-82.98755186722,4,1,0,100,0,0
282911,-82.81710670156,4,1,0,100,0,0
282974,-82.644628099174,4,1,0,100,0,0
283099,-82.304526748971,4,1,0,100,0,0
283161,-82.136872884976,4,1,0,100,0,0
283240,244.897959183673,4,1,0,100,1,8
283240,-83.333333333333,4,1,0,100,0,0
283285,-83.160788839483,4,1,0,100,0,0
283347,-82.988957387711,4,1,0,100,0,0
283408,-82.81783456715,4,1,0,100,0,0
283469,-82.647416003238,4,1,0,100,0,0
283530,-82.474920891402,4,1,0,100,0,0
283592,-82.30590922834,4,1,0,100,0,0
283653,-82.137588842698,4,1,0,100,0,0
283730,240,4,1,0,100,1,0
283730,-83.333333333333,4,1,0,100,0,0
284675,-83.333333333333,4,1,0,100,0,0
284795,-88.235294117647,4,1,0,100,0,0
284855,-90.909090909091,4,1,0,100,0,0
284915,-93.75,4,1,0,100,0,0
284975,-96.774193548387,4,1,0,100,0,0
285035,-100,4,1,0,100,0,0
285095,-103.448275862069,4,1,0,100,0,0
285155,-107.142857142857,4,1,0,100,0,0
285215,-111.111111111111,4,1,0,100,0,0
285275,-115.384615384615,4,1,0,100,0,0
285335,-120,4,1,0,100,0,0
285395,-125,4,1,0,100,0,0
285530,-100,4,1,0,100,0,0
285575,-98.901098901099,4,1,0,100,0,0
285635,-97.826086956522,4,1,0,100,0,0
285695,-96.774193548387,4,1,0,100,0,0
285755,-95.744680851064,4,1,0,100,0,0
285815,-94.736842105263,4,1,0,100,0,0
285875,-93.75,4,1,0,100,0,0
285935,-92.783505154639,4,1,0,100,0,0
285995,-91.836734693878,4,1,0,100,0,0
286055,-90.909090909091,4,1,0,100,0,0
286115,-90,4,1,0,100,0,0
286175,-89.108910891089,4,1,0,100,0,0
286235,-88.235294117647,4,1,0,100,0,0
286295,-87.378640776699,4,1,0,100,0,0
286355,-86.538461538462,4,1,0,100,0,0
286415,-85.714285714286,4,1,0,100,0,0
286475,-84.905660377358,4,1,0,100,0,0
286535,-84.11214953271,4,1,0,100,0,0
286595,-83.333333333333,4,1,0,100,0,0
286775,-90.909090909091,4,1,0,100,0,0
286955,-100,4,1,0,100,0,0
287135,-109.89010989011,4,1,0,100,0,0
287315,-117.647058823529,4,1,0,100,0,0
287435,-100,4,1,0,100,0,0
287495,-98.901098901099,4,1,0,100,0,0
287555,-97.826086956522,4,1,0,100,0,0
287615,-96.774193548387,4,1,0,100,0,0
287675,-95.744680851064,4,1,0,100,0,0
287735,-94.736842105263,4,1,0,100,0,0
287795,-93.75,4,1,0,100,0,0
287855,-92.783505154639,4,1,0,100,0,0
287915,-91.836734693878,4,1,0,100,0,0
287975,-90.909090909091,4,1,0,100,0,0
288035,-90,4,1,0,100,0,0
288095,-89.108910891089,4,1,0,100,0,0
288155,-88.235294117647,4,1,0,100,0,0
288215,-87.378640776699,4,1,0,100,0,0
288275,-86.538461538462,4,1,0,100,0,0
288335,-85.714285714286,4,1,0,100,0,0
288395,-84.905660377358,4,1,0,100,0,0
288455,-84.11214953271,4,1,0,100,0,0
288515,-83.333333333333,4,1,0,100,0,0
288575,-85.365853658537,4,1,0,100,0,0
288635,-87.5,4,1,0,100,0,0
288695,-89.74358974359,4,1,0,100,0,0
288755,-92.105263157895,4,1,0,100,0,0
288815,-94.594594594595,4,1,0,100,0,0
288875,-97.222222222222,4,1,0,100,0,0
288935,-100,4,1,0,100,0,0
288995,-102.941176470588,4,1,0,100,0,0
289055,-106.060606060606,4,1,0,100,0,0
289115,-109.375,4,1,0,100,0,0
289175,-112.903225806452,4,1,0,100,0,0
289235,-116.666666666667,4,1,0,100,0,0
289295,-120.689655172414,4,1,0,100,0,0
289355,-125,4,1,0,100,0,0
289475,-100,4,1,0,100,0,0
289515,-99.378881987578,4,1,0,100,0,0
289555,-98.765432098765,4,1,0,100,0,0
289595,-98.159509202454,4,1,0,100,0,0
289655,-97.26443768997,4,1,0,100,0,0
289715,-96.385542168675,4,1,0,100,0,0
289775,-95.522388059701,4,1,0,100,0,0
289835,-94.674556213018,4,1,0,100,0,0
289895,-93.841642228739,4,1,0,100,0,0
289955,-93.023255813953,4,1,0,100,0,0
289995,-92.485549132948,4,1,0,100,0,0
290035,-91.954022988506,4,1,0,100,0,0
290075,-91.428571428571,4,1,0,100,0,0
290135,-90.651558073654,4,1,0,100,0,0
290195,-89.887640449438,4,1,0,100,0,0
290255,-89.136490250696,4,1,0,100,0,0
290315,-88.397790055249,4,1,0,100,0,0
290375,-87.671232876712,4,1,0,100,0,0
290435,-86.95652173913,4,1,0,100,0,0
290475,-86.486486486486,4,1,0,100,0,0
290515,-86.021505376344,4,1,0,100,0,0
290555,-85.561497326203,4,1,0,100,0,0
290615,-84.880636604775,4,1,0,100,0,0
290675,-84.210526315789,4,1,0,100,0,0
290715,-83.769633507853,4,1,0,100,0,0
290755,-83.333333333333,4,1,0,100,0,0
290795,-82.901554404145,4,1,0,100,0,0
290855,-82.262210796915,4,1,0,100,0,0
290915,-81.632653061224,4,1,0,100,0,0
290955,-81.218274111675,4,1,0,100,0,0
290995,-80.808080808081,4,1,0,100,0,0
291035,-80.402010050251,4,1,0,100,0,0
291075,-80,4,1,0,100,0,0
291115,-79.601990049751,4,1,0,100,0,0
291155,-79.207920792079,4,1,0,100,0,0
291215,-78.624078624079,4,1,0,100,0,0
291275,-78.048780487805,4,1,0,100,0,0
291335,-77.481840193705,4,1,0,100,0,0
291395,-76.923076923077,4,1,0,100,0,0
292115,-101.851851851852,4,1,0,100,0,0
292175,-103.77358490566,4,1,0,100,0,0
292235,-105.769230769231,4,1,0,100,0,0
292295,-107.843137254902,4,1,0,100,0,0
292355,-110,4,1,0,100,0,0
292475,-114.583333333333,4,1,0,100,0,0
292595,-119.565217391304,4,1,0,100,0,0
292655,-122.222222222222,4,1,0,100,0,0
292715,-125,4,1,0,100,0,0
292835,-100,4,1,0,100,0,0
292895,-97.560975609756,4,1,0,100,0,0
292955,-95.238095238095,4,1,0,100,0,0
293015,-93.023255813953,4,1,0,100,0,0
293075,-90.909090909091,4,1,0,100,0,0
293135,-88.888888888889,4,1,0,100,0,0
293195,-86.95652173913,4,1,0,100,0,0
293255,-85.106382978723,4,1,0,100,0,0
293330,-83.333333333333,4,1,0,100,0,1
300050,-83.333333333333,4,1,0,100,0,0
300170,-85.714285714286,4,1,0,100,0,0
300290,-88.235294117647,4,1,0,100,0,0
300410,-90.909090909091,4,1,0,100,0,0
300530,-93.75,4,1,0,100,0,0
300650,-96.774193548387,4,1,0,100,0,0
300770,-100,4,1,0,100,0,0
300830,-95.238095238095,4,1,0,100,0,0
300890,-90.909090909091,4,1,0,100,0,0
300950,-86.95652173913,4,1,0,100,0,0
301010,-83.333333333333,4,1,0,100,0,1
302570,-83.333333333333,4,1,0,100,0,1
302610,-82.56880733945,4,1,0,100,0,1
302650,-81.818181818182,4,1,0,100,0,1
302690,-81.081081081081,4,1,0,100,0,1
302750,-80,4,1,0,100,0,1
302810,-78.947368421053,4,1,0,100,0,1
302870,-77.922077922078,4,1,0,100,0,1
302930,-76.923076923077,4,1,0,100,0,1
304850,-76.923076923077,4,1,0,100,0,0
306890,-76.923076923077,4,1,0,100,0,0
307130,-80.459770114943,4,1,0,100,0,0
307190,-81.395348837209,4,1,0,100,0,0
307250,-82.352941176471,4,1,0,100,0,0
307310,-83.333333333333,4,1,0,100,0,0
307490,-86.41975308642,4,1,0,100,0,0
307550,-87.5,4,1,0,100,0,0
307610,-88.607594936709,4,1,0,100,0,0
307670,-89.74358974359,4,1,0,100,0,0
307730,-90.909090909091,4,1,0,100,0,0
307850,-71.428571428571,4,1,0,100,0,0
307970,-72.164948453608,4,1,0,100,0,0
308210,-73.684210526316,4,1,0,100,0,0
308330,-74.468085106383,4,1,0,100,0,0
308570,-76.086956521739,4,1,0,100,0,0
308690,-76.923076923077,4,1,0,100,0,0
308810,-77.777777777778,4,1,0,100,0,0
309050,-79.545454545455,4,1,0,100,0,0
309110,-80,4,1,0,100,0,0
309170,-80.459770114943,4,1,0,100,0,0
309230,-80.924855491329,4,1,0,100,0,0
309290,-81.395348837209,4,1,0,100,0,0
309410,-82.352941176471,4,1,0,100,0,0
309530,-83.333333333333,4,1,0,100,0,0
309770,-71.428571428571,4,1,0,100,0,0
309890,-72.164948453608,4,1,0,100,0,0
310130,-73.684210526316,4,1,0,100,0,0
310250,-74.468085106383,4,1,0,100,0,0
310490,-76.086956521739,4,1,0,100,0,0
310610,-76.923076923077,4,1,0,100,0,0
310730,-77.777777777778,4,1,0,100,0,0
310970,-79.545454545455,4,1,0,100,0,0
311030,-80,4,1,0,100,0,0
311090,-80.459770114943,4,1,0,100,0,0
311150,-80.924855491329,4,1,0,100,0,0
311210,-81.395348837209,4,1,0,100,0,0
311330,-83.333333333333,4,1,0,100,0,0
311370,-81.30081300813,4,1,0,100,0,0
311410,-79.365079365079,4,1,0,100,0,0
311450,-76.923076923077,4,1,0,100,0,0
311570,-90.909090909091,4,1,0,100,0,1
313490,-90.909090909091,4,1,0,100,0,1
313610,-87.912087912088,4,1,0,100,0,1
313730,-85.106382978723,4,1,0,100,0,1
313790,-83.769633507853,4,1,0,100,0,1
313850,-82.474226804124,4,1,0,100,0,1
313910,-81.218274111675,4,1,0,100,0,1
313970,-80.645161290323,4,1,0,100,0,1
314030,-81.218274111675,4,1,0,100,0,1
314090,-82.474226804124,4,1,0,100,0,1
314150,-83.769633507853,4,1,0,100,0,1
314210,-85.106382978723,4,1,0,100,0,1
314270,-86.486486486486,4,1,0,100,0,1
314330,-87.912087912088,4,1,0,100,0,1
314390,-89.385474860335,4,1,0,100,0,1
314450,-90.909090909091,4,1,0,100,0,1
314510,-92.485549132948,4,1,0,100,0,1
314570,-94.117647058824,4,1,0,100,0,1
314630,-95.808383233533,4,1,0,100,0,1
314690,-97.560975609756,4,1,0,100,0,1
314750,-99.378881987578,4,1,0,100,0,1
314810,-101.26582278481,4,1,0,100,0,1
314870,-103.225806451613,4,1,0,100,0,1
314930,-104.166666666667,4,1,0,100,0,1
314990,-103.225806451613,4,1,0,100,0,1
315050,-101.26582278481,4,1,0,100,0,1
315110,-99.378881987578,4,1,0,100,0,1
315170,-97.560975609756,4,1,0,100,0,1
315230,-95.808383233533,4,1,0,100,0,1
315290,-94.117647058824,4,1,0,100,0,1
315410,-90.909090909091,4,1,0,100,0,1
317330,-90.909090909091,4,1,0,100,0,1
317450,-87.912087912088,4,1,0,100,0,1
317570,-85.106382978723,4,1,0,100,0,1
317630,-83.769633507853,4,1,0,100,0,1
317690,-82.474226804124,4,1,0,100,0,1
317750,-81.218274111675,4,1,0,100,0,1
317810,-80.645161290323,4,1,0,100,0,1
317870,-81.218274111675,4,1,0,100,0,1
317930,-82.474226804124,4,1,0,100,0,1
317990,-83.769633507853,4,1,0,100,0,1
318050,-85.106382978723,4,1,0,100,0,1
318110,-86.486486486486,4,1,0,100,0,1
318170,-87.912087912088,4,1,0,100,0,1
318230,-89.385474860335,4,1,0,100,0,1
318290,-90.909090909091,4,1,0,100,0,1
318350,-92.485549132948,4,1,0,100,0,1
318410,-94.117647058824,4,1,0,100,0,1
318470,-95.808383233533,4,1,0,100,0,1
318530,-97.560975609756,4,1,0,100,0,1
318590,-99.378881987578,4,1,0,100,0,1
318650,-101.26582278481,4,1,0,100,0,1
318710,-103.225806451613,4,1,0,100,0,1
318770,-83.333333333333,4,1,0,100,0,1
318850,-85.714285714286,4,1,0,100,0,1
318930,-88.235294117647,4,1,0,100,0,1
319010,-90.909090909091,4,1,0,100,0,1
319090,-93.75,4,1,0,100,0,1
319170,-96.774193548387,4,1,0,100,0,1
319250,-100,4,1,0,100,0,0
321170,-100,4,1,0,100,0,0
321410,-93.023255813953,4,1,0,100,0,0
321470,-91.428571428571,4,1,0,100,0,0
321530,-89.887640449438,4,1,0,100,0,0
321590,-88.397790055249,4,1,0,100,0,0
321650,-87.719298245614,4,1,0,100,0,0
321710,-88.397790055249,4,1,0,100,0,0
321770,-89.887640449438,4,1,0,100,0,0
321830,-91.428571428571,4,1,0,100,0,0
321890,-93.023255813953,4,1,0,100,0,0
321950,-94.674556213018,4,1,0,100,0,0
322010,-96.385542168675,4,1,0,100,0,0
322070,-98.159509202454,4,1,0,100,0,0
322130,-100,4,1,0,100,0,0
322190,-101.910828025478,4,1,0,100,0,0
322250,-103.896103896104,4,1,0,100,0,0
322310,-105.960264900662,4,1,0,100,0,0
322370,-108.108108108108,4,1,0,100,0,0
322430,-110.344827586207,4,1,0,100,0,0
322490,-112.676056338028,4,1,0,100,0,0
322550,-115.107913669065,4,1,0,100,0,0
322610,-117.647058823529,4,1,0,100,0,0
322730,-112.676056338028,4,1,0,100,0,0
322850,-108.108108108108,4,1,0,100,0,0
322970,-103.896103896104,4,1,0,100,0,0
323090,-100,4,1,0,100,0,0
325235,-90.909090909091,4,1,0,100,0,0
325295,-93.75,4,1,0,100,0,0
325355,-96.774193548387,4,1,0,100,0,0
325415,-100,4,1,0,100,0,0
325475,-88.495575221239,4,1,0,100,0,0
325535,-90.909090909091,4,1,0,100,0,0
325595,-94.339622641509,4,1,0,100,0,0
325655,-97.087378640777,4,1,0,100,0,0
325715,-86.206896551724,4,1,0,100,0,0
325775,-88.495575221239,4,1,0,100,0,0
325835,-91.743119266055,4,1,0,100,0,0
325895,-94.339622641509,4,1,0,100,0,0
325955,-84.033613445378,4,1,0,100,0,0
326015,-86.206896551724,4,1,0,100,0,0
326075,-89.285714285714,4,1,0,100,0,0
326135,-91.743119266055,4,1,0,100,0,0
326195,-81.967213114754,4,1,0,100,0,0
326255,-84.033613445378,4,1,0,100,0,0
326315,-86.95652173913,4,1,0,100,0,0
326375,-89.285714285714,4,1,0,100,0,0
326435,-80,4,1,0,100,0,0
326495,-81.967213114754,4,1,0,100,0,0
326555,-84.745762711864,4,1,0,100,0,0
326615,-86.95652173913,4,1,0,100,0,0
326675,-78.125,4,1,0,100,0,0
326735,-80.160320641283,4,1,0,100,0,0
326795,-82.304526748971,4,1,0,100,0,0
326855,-84.566596194503,4,1,0,100,0,0
326915,-86.95652173913,4,1,0,100,0,0
326990,-86.95652173913,4,1,0,80,0,0
327155,-89.385474860335,4,1,0,80,0,0
327395,-91.954022988506,4,1,0,80,0,0
327635,-94.674556213018,4,1,0,80,0,0
327875,-97.560975609756,4,1,0,80,0,0
328115,-100.62893081761,4,1,0,80,0,0
328355,-103.896103896104,4,1,0,80,0,0
328595,-107.38255033557,4,1,0,80,0,0
328835,-111.111111111111,4,1,0,80,0,0
331475,-111.111111111111,4,1,0,80,0,0
331555,-109.489051094891,4,1,0,81,0,0
331635,-107.913669064748,4,1,0,83,0,0
331715,-106.382978723404,4,1,0,84,0,0
331795,-104.895104895105,4,1,0,85,0,0
331875,-103.448275862069,4,1,0,87,0,0
331955,-102.040816326531,4,1,0,88,0,0
332035,-100.671140939597,4,1,0,89,0,0
332115,-99.337748344371,4,1,0,91,0,0
332195,-98.039215686275,4,1,0,92,0,0
332275,-96.774193548387,4,1,0,93,0,0
332355,-95.541401273885,4,1,0,95,0,0
332435,-94.339622641509,4,1,0,96,0,0
332515,-93.167701863354,4,1,0,97,0,0
332595,-92.024539877301,4,1,0,99,0,0
332690,235.294117647059,4,1,0,100,1,0
332690,-80,4,1,0,100,0,0
332748,-83.289030657452,4,1,0,100,0,0
332807,-86.924357314592,4,1,0,100,0,0
332866,-90.891510346161,4,1,0,100,0,0
332925,-95.238095238095,4,1,0,100,0,0
333042,-80,4,1,0,100,0,0
333101,-83.333333333333,4,1,0,100,0,0
333160,-86.95652173913,4,1,0,100,0,0
333219,-90.909090909091,4,1,0,100,0,0
333278,-95.238095238095,4,1,0,100,0,0
333395,-80,4,1,0,100,0,0
333454,-83.333333333333,4,1,0,100,0,0
333513,-86.95652173913,4,1,0,100,0,0
333572,-90.909090909091,4,1,0,100,0,0
333631,230.769230769231,4,1,0,100,1,0
333631,-97.087378640777,4,1,0,100,0,0
333746,-81.30081300813,4,1,0,100,0,0
333804,-84.761310681393,4,1,0,100,0,0
333861,-88.461685750393,4,1,0,100,0,0
333919,-92.574039193684,4,1,0,100,0,0
333977,-97.087378640777,4,1,0,100,0,0
334092,-81.30081300813,4,1,0,100,0,0
334150,-84.766524572493,4,1,0,100,0,0
334207,-88.47294671167,4,1,0,100,0,0
334265,-92.592592592593,4,1,0,100,0,0
334323,-97.114628943528,4,1,0,100,0,0
334381,-102.10103871577,4,1,0,100,0,0
334438,-107.52688172043,4,1,0,100,0,0
334554,226.415094339623,5,1,0,100,1,0
334554,-80,4,1,0,100,0,0
334610,-83.302617029119,4,1,0,100,0,0
334667,-86.95652173913,4,1,0,100,0,0
334723,-90.872537193406,4,1,0,100,0,0
334780,-95.238095238095,4,1,0,100,0,0
334893,-80,4,1,0,100,0,0
334950,-83.348632274647,4,1,0,100,0,0
335006,-86.923224200651,4,1,0,100,0,0
335063,-90.890890890891,4,1,0,100,0,0
335120,-95.238095238095,4,1,0,100,0,0
335233,-80,4,1,0,100,0,0
335289,-83.302617029119,4,1,0,100,0,0
335346,-86.95652173913,4,1,0,100,0,0
335403,-90.945674044266,4,1,0,100,0,0
335460,222.222222222222,5,1,0,100,1,0
335460,-97.087378640777,5,1,0,100,0,0
335571,-81.30081300813,4,1,0,100,0,0
335626,-84.713424406624,4,1,0,100,0,0
335682,-88.495575221239,4,1,0,100,0,0
335737,-92.553989827399,4,1,0,100,0,0
335793,-97.087378640777,4,1,0,100,0,0
335904,-81.30081300813,4,1,0,100,0,0
335960,-84.778125716031,4,1,0,100,0,0
336015,-88.495575221239,4,1,0,100,0,0
336071,-92.631227572394,4,1,0,100,0,0
336126,-97.087378640777,4,1,0,100,0,0
336182,-102.087740274073,4,1,0,100,0,0
336237,-107.52688172043,4,1,0,100,0,0
336349,218.181818181818,4,1,0,100,1,0
336349,-80,4,1,0,100,0,0
336403,-83.301490256018,4,1,0,100,0,0
336458,-86.95652173913,4,1,0,100,0,0
336512,-90.871196331805,4,1,0,100,0,0
336567,-95.238095238095,4,1,0,100,0,0
336676,-80,4,1,0,100,0,0
336730,-83.301490256018,4,1,0,100,0,0
336785,-86.95652173913,4,1,0,100,0,0
336839,-90.871196331805,4,1,0,100,0,0
336894,-95.238095238095,4,1,0,100,0,0
337003,-80,4,1,0,100,0,0
337058,-83.365200764818,4,1,0,100,0,0
337112,-86.95652173913,4,1,0,100,0,0
337167,-90.947017104714,4,1,0,100,0,0
337221,214.285714285714,4,1,0,100,1,0
337221,-97.087378640777,4,1,0,100,0,0
337328,-81.30081300813,4,1,0,100,0,0
337381,-84.712215976566,4,1,0,100,0,0
337435,-88.495575221239,4,1,0,100,0,0
337488,-92.552547357495,4,1,0,100,0,0
337542,-97.087378640777,4,1,0,100,0,0
337649,-81.30081300813,4,1,0,100,0,0
337703,-84.768072447744,4,1,0,100,0,0
337756,-88.471260578086,4,1,0,100,0,0
337810,-92.592592592593,4,1,0,100,0,0
337863,-97.028867594769,4,1,0,100,0,0
337917,-102.008490147627,4,1,0,100,0,0
337971,-107.52688172043,4,1,0,100,0,0
338078,210.526315789474,5,1,0,100,1,0
338078,-80,5,1,0,100,0,0
338499,-66.666666666667,5,1,0,100,0,0
338656,-48.147377185679,5,1,0,100,0,0
338814,-37.628111273792,5,1,0,100,0,0
338921,206.896551724138,4,1,0,100,1,8
338972,-30.881174899866,4,1,0,100,0,0
339127,-26.261708770934,4,1,0,100,0,0
339283,-22.825282478907,4,1,0,100,0,0
339438,-20.199109248101,4,1,0,100,0,0
339593,-18.11489211732,4,1,0,100,0,0
339748,203.389830508475,5,1,0,100,1,8
339748,-16.420559420701,5,1,0,100,0,0
339900,-15.040967616075,5,1,0,100,0,0
340053,-13.868153610936,5,1,0,100,0,0
340205,-12.871094293425,5,1,0,100,0,0
340358,-12.002490789269,5,1,0,100,0,0
340510,-11.248358702524,5,1,0,100,0,0
340562,200,4,1,0,100,1,8
340662,-10.583390528483,4,1,0,100,0,0
340812,-10,4,1,0,100,0,0
340962,-100,4,1,0,100,0,0
341362,-106.382978723404,4,1,0,100,0,0
341562,-112.359550561798,4,1,0,100,0,0
341862,-125,4,1,0,100,0,0
342062,-83.333333333333,4,1,0,100,0,0
342162,-85.365853658537,4,1,0,100,0,0
342195,-86.05851979346,4,1,0,100,0,0
342228,-86.762518591968,4,1,0,100,0,0
342262,-87.5,4,1,0,100,0,0
342312,-88.607594936709,4,1,0,100,0,0
342362,-89.74358974359,4,1,0,100,0,0
342662,-97.222222222222,4,1,0,100,0,0
342962,-106.060606060606,4,1,0,100,0,0
343162,-112.903225806452,4,1,0,100,0,0
343462,-125,4,1,0,100,0,0
343662,-83.333333333333,4,1,0,100,0,0
343762,-85.470085470085,4,1,0,100,0,0
343795,-86.206896551724,4,1,0,100,0,0
343828,-86.95652173913,4,1,0,100,0,0
343862,-87.719298245614,4,1,0,100,0,0
343912,-88.495575221239,4,1,0,100,0,0
343962,-90.09009009009,4,1,0,100,0,0
344262,-97.087378640777,4,1,0,100,0,0
344562,-133.333333333333,4,1,0,100,0,0
344612,-131.958762886598,4,1,0,100,0,0
344662,-130.612244897959,4,1,0,100,0,0
344712,-129.292929292929,4,1,0,100,0,0
344762,-128,4,1,0,100,0,0
344812,-126.732673267327,4,1,0,100,0,0
344862,-125.490196078431,4,1,0,100,0,0
344912,-124.271844660194,4,1,0,100,0,0
344962,-123.076923076923,4,1,0,100,0,0
345012,-121.904761904762,4,1,0,100,0,0
345062,-120.754716981132,4,1,0,100,0,0
345112,-119.626168224299,4,1,0,100,0,0
345162,-118.518518518519,4,1,0,100,0,0
345212,-117.43119266055,4,1,0,100,0,0
345262,-116.363636363636,4,1,0,100,0,0
345312,-115.315315315315,4,1,0,100,0,0
345362,-114.285714285714,4,1,0,100,0,0
345412,-113.274336283186,4,1,0,100,0,0
345462,-112.280701754386,4,1,0,100,0,0
345512,-111.304347826087,4,1,0,100,0,0
345562,-110.344827586207,4,1,0,100,0,0
345612,-109.401709401709,4,1,0,100,0,0
345662,-108.474576271186,4,1,0,100,0,0
345712,-107.563025210084,4,1,0,100,0,0
345762,-106.666666666667,4,1,0,100,0,0
345812,-105.785123966942,4,1,0,100,0,0
345862,-104.918032786885,4,1,0,100,0,0
345912,-104.065040650407,4,1,0,100,0,0
345962,-103.225806451613,4,1,0,100,0,0
346012,-102.4,4,1,0,100,0,0
346062,-101.587301587302,4,1,0,100,0,0
346112,-100.787401574803,4,1,0,100,0,0
346162,-90.909090909091,4,1,0,100,0,0
346212,-94.339622641509,4,1,0,100,0,0
346262,-97.087378640777,4,1,0,100,0,0
346312,-100,4,1,0,100,0,0
346349,-90.09009009009,4,1,0,100,0,0
346399,-93.457943925234,4,1,0,100,0,0
346449,-96.153846153846,4,1,0,100,0,0
346499,-99.009900990099,4,1,0,100,0,0
346549,-89.285714285714,4,1,0,100,0,0
346599,-92.592592592593,4,1,0,100,0,0
346649,-95.238095238095,4,1,0,100,0,0
346699,-98.039215686275,4,1,0,100,0,0
346749,-88.495575221239,4,1,0,100,0,0
346799,-91.743119266055,4,1,0,100,0,0
346849,-94.339622641509,4,1,0,100,0,0
346899,-97.087378640777,4,1,0,100,0,0
346949,-87.719298245614,4,1,0,100,0,0
346982,-89.285714285714,4,1,0,100,0,0
347016,-90.909090909091,4,1,0,100,0,0
347049,-93.457943925234,4,1,0,100,0,0
347099,-96.153846153846,4,1,0,100,0,0
347149,-86.95652173913,4,1,0,100,0,0
347199,-90.09009009009,4,1,0,100,0,0
347249,-92.592592592593,4,1,0,100,0,0
347299,-95.238095238095,4,1,0,100,0,0
347349,-86.206896551724,4,1,0,100,0,0
347382,-87.719298245614,4,1,0,100,0,0
347416,-89.285714285714,4,1,0,100,0,0
347449,-91.743119266055,4,1,0,100,0,0
347499,-94.339622641509,4,1,0,100,0,0
347549,-85.470085470085,4,1,0,100,0,0
347599,-86.95652173913,4,1,0,100,0,0
347649,-89.285714285714,4,1,0,100,0,0
347699,-90.909090909091,4,1,0,100,0,0
347749,-92.592592592593,4,1,0,100,0,0
348549,-142.857142857143,4,1,0,70,0,0
348649,-137.931034482759,4,1,0,72,0,0
348749,-133.333333333333,4,1,0,73,0,0
348849,-129.032258064516,4,1,0,75,0,0
348949,-125,4,1,0,76,0,0
349049,-121.212121212121,4,1,0,78,0,0
349149,-117.647058823529,4,1,0,79,0,0
349249,-114.285714285714,4,1,0,81,0,0
349349,-111.111111111111,4,1,0,82,0,0
349399,-109.58904109589,4,1,0,83,0,0
349449,-108.108108108108,4,1,0,84,0,0
349499,-106.666666666667,4,1,0,84,0,0
349549,-105.263157894737,4,1,0,85,0,0
349599,-103.896103896104,4,1,0,86,0,0
349649,-102.564102564103,4,1,0,87,0,0
349699,-101.26582278481,4,1,0,87,0,0
349749,-100,4,1,0,88,0,0
349799,-98.765432098765,4,1,0,89,0,0
349849,-97.560975609756,4,1,0,90,0,0
349899,-96.385542168675,4,1,0,90,0,0
349949,-95.238095238095,4,1,0,91,0,0
349999,-94.117647058824,4,1,0,92,0,0
350049,-93.023255813953,4,1,0,93,0,0
350099,-91.954022988506,4,1,0,93,0,0
350149,-90.909090909091,4,1,0,94,0,0
350199,-89.887640449438,4,1,0,95,0,0
350249,-88.888888888889,4,1,0,96,0,0
350299,-87.912087912088,4,1,0,96,0,0
350349,-86.95652173913,4,1,0,97,0,0
350399,-86.021505376344,4,1,0,98,0,0
350449,-85.106382978723,4,1,0,99,0,0
350499,-84.210526315789,4,1,0,99,0,0
350549,-83.333333333333,4,1,0,100,0,0
350962,199.335548172757,4,1,0,100,1,0
350962,-100,4,1,0,100,0,1
351161,198.675496688741,4,1,0,100,1,8
351161,-100,4,1,0,100,0,1
351360,198.019801980197,4,1,0,100,1,8
351360,-100,4,1,0,100,0,1
351558,197.36842105263,4,1,0,100,1,8
351558,-100,4,1,0,100,0,1
351755,196.721311475409,4,1,0,100,1,0
351755,-100,4,1,0,100,0,1
351952,196.078431372548,4,1,0,100,1,8
351952,-100,4,1,0,100,0,1
352148,195.43973941368,4,1,0,100,1,8
352148,-100,4,1,0,100,0,1
352343,194.805194805194,4,1,0,100,1,8
352343,-100,4,1,0,100,0,1
352538,194.174757281553,4,1,0,100,1,0
352538,-100,4,1,0,100,0,1
352732,193.548387096774,4,1,0,100,1,8
352732,-100,4,1,0,100,0,1
352926,192.926045016077,4,1,0,100,1,8
352926,-100,4,1,0,100,0,1
353119,192.307692307692,4,1,0,100,1,8
353119,-100,4,1,0,100,0,1
353311,191.693290734824,4,1,0,100,1,0
353311,-100,4,1,0,100,0,1
353346,-101.239124703401,4,1,0,100,0,1
353394,-102.536715620828,4,1,0,100,0,1
353442,-103.868001081958,4,1,0,100,0,1
353503,191.08280254777,4,1,0,100,1,8
353503,-105.263157894737,4,1,0,100,0,1
353538,-106.644332774986,4,1,0,100,0,1
353586,-108.092812676853,4,1,0,100,0,1
353694,190.47619047619,4,1,0,100,1,8
353694,-111.111111111111,4,1,0,100,0,1
353729,-112.659353691076,4,1,0,100,0,1
353777,-114.285714285714,4,1,0,100,0,1
353824,-115.924344112264,4,1,0,100,0,1
353884,189.873417721518,4,1,0,100,1,8
353884,-117.647058823529,4,1,0,100,0,1
354074,189.274447949526,4,1,0,100,1,0
354074,-125,4,1,0,100,0,0
354263,188.679245283018,4,1,0,100,1,8
354263,-125,4,1,0,100,0,0
354452,188.08777429467,4,1,0,100,1,8
354452,-125,4,1,0,100,0,0
354640,187.499999999999,4,1,0,100,1,8
354640,-125,4,1,0,100,0,0
354828,186.915887850467,4,1,0,100,1,0
354828,-125,4,1,0,100,0,0
355015,186.335403726707,4,1,0,100,1,8
355015,-125,4,1,0,100,0,0
355201,185.758513931888,4,1,0,100,1,8
355201,-125,4,1,0,100,0,0
355387,185.185185185185,4,1,0,100,1,8
355387,-125,4,1,0,100,0,0
355572,184.615384615384,4,1,0,100,1,0
355572,-125,4,1,0,100,0,0
355757,184.049079754601,4,1,0,100,1,8
355757,-125,4,1,0,100,0,0
355941,183.48623853211,4,1,0,100,1,8
355941,-125,4,1,0,100,0,0
356124,182.926829268292,4,1,0,100,1,8
356124,-125,4,1,0,100,0,0
356307,182.370820668692,4,1,0,100,1,0
356307,-125,4,1,0,100,0,0
356386,-121.212121212121,4,1,0,100,0,0
356489,181.818181818181,4,1,0,100,1,8
356489,-117.647058823529,4,1,0,100,0,0
356568,-113.636363636364,4,1,0,100,0,0
356671,181.268882175227,4,1,0,100,1,8
356671,-110.622173328444,4,1,0,100,0,0
356704,-109.299516908213,4,1,0,100,0,0
356750,-107.507721549062,4,1,0,100,0,0
356795,-105.810826610546,4,1,0,100,0,0
356852,180.722891566265,4,1,0,100,1,8
356852,-105.263157894737,4,1,0,100,0,0
357033,180.18018018018,4,1,0,100,1,0
357033,-100,4,1,0,100,0,1
357213,179.640718562874,4,1,0,100,1,8
357213,-100,4,1,0,100,0,1
357393,179.10447761194,4,1,0,100,1,8
357393,-100,4,1,0,100,0,1
357572,178.571428571428,4,1,0,100,1,8
357572,-100,4,1,0,100,0,1
357751,178.041543026706,4,1,0,100,1,0
357751,-100,4,1,0,100,0,1
357929,177.514792899408,4,1,0,100,1,8
357929,-100,4,1,0,100,0,1
358106,176.991150442477,4,1,0,100,1,8
358106,-100,4,1,0,100,0,1
358283,176.470588235294,4,1,0,100,1,8
358283,-100,4,1,0,100,0,1
358460,175.953079178886,4,1,0,100,1,0
358460,-100,4,1,0,100,0,1
358636,175.438596491228,4,1,0,100,1,8
358636,-100,4,1,0,100,0,1
358811,174.927113702624,4,1,0,100,1,8
358811,-100,4,1,0,100,0,1
358986,174.418604651163,4,1,0,100,1,8
358986,-100,4,1,0,100,0,1
359160,173.913043478261,4,1,0,100,1,0
359160,-100,4,1,0,100,0,1
359334,173.410404624277,4,1,0,100,1,8
359334,-100,4,1,0,100,0,1
359366,-100.998374738797,4,1,0,100,0,1
359409,-102.016885553471,4,1,0,100,0,1
359453,-103.080568720379,4,1,0,100,0,1
359508,172.910662824207,4,1,0,100,1,8
359508,-104.166666666667,4,1,0,100,0,1
359540,-104.982098428303,4,1,0,100,0,1
359583,-105.810397553517,4,1,0,100,0,1
359626,-106.651871031379,4,1,0,100,0,1
359681,172.413793103448,4,1,0,100,1,8
359681,-107.52688172043,4,1,0,100,0,1
359713,-108.40108401084,4,1,0,100,0,1
359756,-109.289617486339,4,1,0,100,0,1
359853,171.919770773638,4,1,0,100,1,0
359853,-111.111111111111,4,1,0,100,0,0
360025,171.428571428571,4,1,0,100,1,8
360025,-111.111111111111,4,1,0,100,0,0
360196,170.94017094017,4,1,0,100,1,8
360196,-111.111111111111,4,1,0,100,0,0
360367,170.454545454545,4,1,0,100,1,8
360367,-111.111111111111,4,1,0,100,0,0
360538,169.971671388101,4,1,0,100,1,0
360538,-111.111111111111,4,1,0,100,0,0
360708,169.491525423728,4,1,0,100,1,8
360708,-111.111111111111,4,1,0,100,0,0
360877,169.014084507042,4,1,0,100,1,8
360877,-111.111111111111,4,1,0,100,0,0
360961,-107.52688172043,4,1,0,100,0,0
361046,168.539325842696,4,1,0,100,1,8
361046,-105.263157894737,4,1,0,100,0,0
361088,-103.636475133378,4,1,0,100,0,0
361130,-102.059303098013,4,1,0,100,0,0
361172,-100.529415263815,4,1,0,100,0,0
361215,168.067226890756,4,1,0,100,1,0
361215,-100,4,1,0,100,0,0
361887,166.666666666666,5,1,0,100,1,0
361887,-66.666666666667,5,1,0,100,0,0
362012,-40.824516599781,5,1,0,100,0,0
362137,-29.420270803208,5,1,0,100,0,0
362262,-22.996300863132,5,1,0,100,0,0
362387,-18.87492620393,5,1,0,100,0,0
362512,-16.006293806322,5,1,0,100,0,0
362554,164.383561643835,4,1,0,100,1,8
362636,-13.909260410193,4,1,0,100,0,0
362759,-12.309553929927,4,1,0,100,0,0
362882,-11.039857932123,4,1,0,100,0,0
363006,-10,4,1,0,100,0,0
363211,162.162162162162,5,1,0,100,1,0
363211,-142.857142857143,5,1,0,100,0,0
363535,-142.857142857143,4,1,0,100,0,0
363589,-139.544869042508,4,1,0,100,0,0
363643,-136.382710868653,4,1,0,100,0,0
363697,-133.360689372179,4,1,0,100,0,0
363751,-130.469690887194,4,1,0,100,0,0
363805,-127.70137524558,4,1,0,100,0,0
363860,161.725067385445,4,1,0,100,1,0
363860,-125,4,1,0,100,0,1
364022,161.290322580645,4,1,0,100,1,8
364022,-125,4,1,0,100,0,1
364183,160.857908847185,4,1,0,100,1,8
364183,-125,4,1,0,100,0,1
364344,160.427807486631,4,1,0,100,1,8
364344,-125,4,1,0,100,0,1
364504,160,4,1,0,100,1,0
364504,-125,4,1,0,100,0,1
364664,159.574468085106,4,1,0,100,1,8
364664,-125,4,1,0,100,0,1
364824,159.151193633952,4,1,0,100,1,8
364824,-125,4,1,0,100,0,1
364983,158.730158730159,4,1,0,100,1,8
364983,-125,4,1,0,100,0,1
365142,158.311345646438,4,1,0,100,1,0
365142,-125,4,1,0,100,0,1
365300,157.894736842105,4,1,0,100,1,8
365300,-125,4,1,0,100,0,1
365458,157.48031496063,4,1,0,100,1,8
365458,-125,4,1,0,100,0,1
365615,157.068062827225,4,1,0,100,1,8
365615,-125,4,1,0,100,0,1
365772,156.657963446475,4,1,0,100,1,0
365772,-125,4,1,0,100,0,1
365929,156.25,4,1,0,100,1,8
365929,-125,4,1,0,100,0,1
366085,155.844155844156,4,1,0,100,1,8
366085,-125,4,1,0,100,0,1
366241,155.440414507772,4,1,0,100,1,8
366241,-125,4,1,0,100,0,1
366397,155.038759689922,4,1,0,100,1,0
366397,-125,4,1,0,100,0,1
366552,154.639175257732,4,1,0,100,1,8
366552,-125,4,1,0,100,0,1
366706,154.241645244216,4,1,0,100,1,8
366706,-125,4,1,0,100,0,1
366861,153.846153846154,4,1,0,100,1,8
366861,-125,4,1,0,100,0,1
367014,153.452685421995,4,1,0,100,1,0
367014,-125,4,1,0,100,0,1
367168,153.061224489796,4,1,0,100,1,8
367168,-125,4,1,0,100,0,1
367321,152.671755725191,4,1,0,100,1,8
367321,-125,4,1,0,100,0,1
367474,152.284263959391,4,1,0,100,1,8
367474,-125,4,1,0,100,0,1
367626,151.898734177215,4,1,0,100,1,0
367626,-125,4,1,0,100,0,1
367778,151.515151515152,4,1,0,100,1,8
367778,-125,4,1,0,100,0,1
367929,151.133501259446,4,1,0,100,1,8
367929,-125,4,1,0,100,0,1
368080,150.753768844221,4,1,0,100,1,8
368080,-125,4,1,0,100,0,1
368193,-123.456790123457,4,1,0,100,0,1
368231,150.375939849624,4,1,0,100,1,0
368231,-123.456790123457,4,1,0,100,0,1
368306,-121.951219512195,4,1,0,100,0,1
368382,150,4,1,0,100,1,8
368382,-121.951219512195,4,1,0,100,0,1
368419,-121.951219512195,4,1,0,100,0,1
368457,-120.481927710843,4,1,0,100,0,1
368532,149.625935162095,4,1,0,100,1,8
368532,-120.481927710843,4,1,0,100,0,1
368606,-119.047619047619,4,1,0,100,0,1
368681,149.253731343284,4,1,0,100,1,8
368681,-119.047619047619,4,1,0,100,0,1
368718,-117.647058823529,4,1,0,100,0,1
368830,148.883374689827,4,1,0,100,1,0
368830,-117.647058823529,4,1,0,100,0,1
368979,148.514851485149,4,1,0,100,1,8
368979,-117.647058823529,4,1,0,100,0,1
369128,148.148148148149,4,1,0,100,1,8
369128,-117.647058823529,4,1,0,100,0,1
369276,147.783251231527,4,1,0,100,1,8
369276,-117.647058823529,4,1,0,100,0,1
369424,147.420147420147,4,1,0,100,1,0
369424,-117.647058823529,4,1,0,100,0,1
369571,147.058823529411,4,1,0,100,1,8
369571,-117.647058823529,4,1,0,100,0,1
369718,146.699266503667,4,1,0,100,1,8
369718,-117.647058823529,4,1,0,100,0,1
369865,146.341463414633,4,1,0,100,1,8
369865,-117.647058823529,4,1,0,100,0,1
370011,145.985401459853,4,1,0,100,1,0
370011,-117.647058823529,4,1,0,100,0,1
370157,145.631067961164,4,1,0,100,1,8
370157,-117.647058823529,4,1,0,100,0,1
370303,145.278450363195,4,1,0,100,1,8
370303,-117.647058823529,4,1,0,100,0,1
370448,144.927536231883,4,1,0,100,1,8
370448,-117.647058823529,4,1,0,100,0,1
370593,144.578313253011,4,1,0,100,1,0
370593,-117.647058823529,4,1,0,100,0,1
370738,144.230769230768,4,1,0,100,1,8
370738,-117.647058823529,4,1,0,100,0,1
370882,143.88489208633,4,1,0,100,1,8
370882,-117.647058823529,4,1,0,100,0,1
371026,143.540669856458,4,1,0,100,1,8
371026,-117.647058823529,4,1,0,100,0,1
371169,143.198090692123,4,1,0,100,1,0
371169,-117.647058823529,4,1,0,100,0,1
371313,142.857142857142,4,1,0,100,1,8
371313,-117.647058823529,4,1,0,100,0,1
371455,142.51781472684,4,1,0,100,1,8
371455,-117.647058823529,4,1,0,100,0,1
371598,142.180094786729,4,1,0,100,1,8
371598,-117.647058823529,4,1,0,100,0,1
371740,141.843971631205,4,1,0,100,1,0
371740,-117.647058823529,4,1,0,100,0,1
371882,141.509433962263,4,1,0,100,1,8
371882,-117.647058823529,4,1,0,100,0,1
372023,141.176470588234,4,1,0,100,1,8
372023,-117.647058823529,4,1,0,100,0,1
372165,140.845070422534,4,1,0,100,1,8
372165,-117.647058823529,4,1,0,100,0,1
372306,140.515222482435,4,1,0,100,1,0
372306,-117.647058823529,4,1,0,100,0,1
372446,140.186915887849,4,1,0,100,1,8
372446,-117.647058823529,4,1,0,100,0,1
372586,139.860139860139,4,1,0,100,1,8
372586,-117.647058823529,4,1,0,100,0,1
372726,139.534883720929,4,1,0,100,1,8
372726,-117.647058823529,4,1,0,100,0,1
372866,139.21113689095,4,1,0,100,1,0
372866,-119.047619047619,4,1,0,100,0,1
373005,138.888888888888,4,1,0,100,1,8
373005,-120.481927710843,4,1,0,100,0,1
373144,138.568129330253,4,1,0,100,1,8
373144,-121.951219512195,4,1,0,100,0,1
373282,138.248847926266,4,1,0,100,1,8
373282,-123.456790123457,4,1,0,100,0,1
373351,-125,4,1,0,100,0,0
373421,137.931034482757,4,1,0,100,1,0
373421,-125,4,1,0,100,0,1
376731,-111.111111111111,4,1,0,100,0,1
376765,-112.65306122449,4,1,0,100,0,1
376800,-114.285714285714,4,1,0,100,0,1
376834,-115.917681646367,4,1,0,100,0,1
376869,-117.647058823529,4,1,0,100,0,1
376938,-121.212121212121,4,1,0,100,0,1
377007,-111.111111111111,4,1,0,100,0,1
377041,-112.65306122449,4,1,0,100,0,1
377076,-114.285714285714,4,1,0,100,0,1
377110,-115.917681646367,4,1,0,100,0,1
377145,-117.647058823529,4,1,0,100,0,1
377214,-121.212121212121,4,1,0,100,0,1
377283,-123.456790123457,4,1,0,100,0,1
377352,-121.198765976201,4,1,0,100,0,1
377420,-117.672229353872,4,1,0,100,0,1
377489,-114.297589359933,4,1,0,100,0,1
377558,-111.111111111111,4,1,0,100,0,1
377834,-111.111111111111,4,1,0,100,0,0
377972,-120,4,1,0,100,0,0
378041,-125,4,1,0,100,0,0
378110,-130.434782608696,4,1,0,100,0,0
378248,-111.111111111111,4,1,0,100,0,0
378386,-120,4,1,0,100,0,0
378455,-125,4,1,0,100,0,0
378524,-130.434782608696,4,1,0,100,0,0
378662,-129.310344827586,4,1,0,100,0,0
378731,-123.456790123457,4,1,0,100,0,0
378800,-118.110236220472,4,1,0,100,0,0
378869,-113.207547169811,4,1,0,100,0,0
378938,136.363636363636,4,1,0,100,1,0
378938,-111.111111111111,4,1,0,100,0,0
378997,-112.673144511061,4,1,0,100,0,0
379134,-115.932780259519,4,1,0,100,0,0
379202,-117.63436218433,4,1,0,100,0,0
379338,-121.218861209964,4,1,0,100,0,0
379406,-123.080397470641,4,1,0,100,0,0
379474,-125,4,1,0,100,0,0
379543,-126.980428704567,4,1,0,100,0,0
379611,-129.024621212121,4,1,0,100,0,0
379687,-131.167268351384,4,1,0,100,0,0
379747,-133.34964521654,4,1,0,100,0,0
379815,-135.605872107489,4,1,0,100,0,0
379884,-137.939762085548,4,1,0,100,0,0
379952,-140.355395312902,4,1,0,100,0,0
380020,-142.857142857143,4,1,0,100,0,0
380062,-141.302940033674,4,1,0,100,0,0
380088,-140.357648269651,4,1,0,100,0,0
380122,-139.140415763296,4,1,0,100,0,0
380156,-137.944114300164,4,1,0,100,0,0
380224,-135.61218147918,4,1,0,100,0,0
380293,-133.32518636197,4,1,0,100,0,0
380437,-128.792350371857,4,1,0,100,0,0
380463,-128.006570456412,4,1,0,100,0,0
380497,-126.993365149575,4,1,0,100,0,0
380531,-125.99607344959,4,1,0,100,0,0
380565,-125.014323364272,4,1,0,100,0,0
380634,-123.068245910885,4,1,0,100,0,0
380702,-121.208754582824,4,1,0,100,0,0
380838,-117.653402350911,4,1,0,100,0,0
380872,-116.796916818328,4,1,0,100,0,0
380906,-115.952811138272,4,1,0,100,0,0
380974,-114.300680984809,4,1,0,100,0,0
381009,-113.46853874155,4,1,0,100,0,0
381043,-112.671692657234,4,1,0,100,0,0
381111,-111.111111111111,4,1,0,100,0,0
381178,-112.673144511061,4,1,0,100,0,0
381315,-115.932780259519,4,1,0,100,0,0
381383,-117.63436218433,4,1,0,100,0,0
381519,-121.218861209964,4,1,0,100,0,0
381587,-123.080397470641,4,1,0,100,0,0
381655,-125,4,1,0,100,0,0
381724,-126.980428704567,4,1,0,100,0,0
381792,-129.024621212121,4,1,0,100,0,0
381868,-131.167268351384,4,1,0,100,0,0
381928,-133.34964521654,4,1,0,100,0,0
381996,-135.605872107489,4,1,0,100,0,0
382065,-137.939762085548,4,1,0,100,0,0
382133,-140.355395312902,4,1,0,100,0,0
382201,-142.857142857143,4,1,0,100,0,0
382243,-141.302940033674,4,1,0,100,0,0
382269,-140.357648269651,4,1,0,100,0,0
382303,-139.140415763296,4,1,0,100,0,0
382337,-137.944114300164,4,1,0,100,0,0
382405,-135.61218147918,4,1,0,100,0,0
382474,-133.32518636197,4,1,0,100,0,0
382618,-128.792350371857,4,1,0,100,0,0
382644,-128.006570456412,4,1,0,100,0,0
382678,-126.993365149575,4,1,0,100,0,0
382712,-125.99607344959,4,1,0,100,0,0
382746,-125.014323364272,4,1,0,100,0,0
382815,-123.068245910885,4,1,0,100,0,0
382883,-121.208754582824,4,1,0,100,0,0
383019,-117.653402350911,4,1,0,100,0,0
383053,-116.796916818328,4,1,0,100,0,0
383087,-115.952811138272,4,1,0,100,0,0
383155,-114.300680984809,4,1,0,100,0,0
383190,-113.46853874155,4,1,0,100,0,0
383224,-112.671692657234,4,1,0,100,0,0
383293,-111.111111111111,4,1,0,100,0,0
383360,-112.673144511061,4,1,0,100,0,0
383497,-115.932780259519,4,1,0,100,0,0
383565,-117.63436218433,4,1,0,100,0,0
383701,-121.218861209964,4,1,0,100,0,0
383769,-123.080397470641,4,1,0,100,0,0
383837,-125,4,1,0,100,0,0
383906,-126.980428704567,4,1,0,100,0,0
383974,-129.024621212121,4,1,0,100,0,0
384050,-131.167268351384,4,1,0,100,0,0
384110,-133.34964521654,4,1,0,100,0,0
384178,-135.605872107489,4,1,0,100,0,0
384247,-137.939762085548,4,1,0,100,0,0
384315,-140.355395312902,4,1,0,100,0,0
384383,-142.857142857143,4,1,0,100,0,0
384425,-141.302940033674,4,1,0,100,0,0
384451,-140.357648269651,4,1,0,100,0,0
384485,-139.140415763296,4,1,0,100,0,0
384519,-137.944114300164,4,1,0,100,0,0
384587,-135.61218147918,4,1,0,100,0,0
384656,-133.32518636197,4,1,0,100,0,0
384800,-128.792350371857,4,1,0,100,0,0
384826,-128.006570456412,4,1,0,100,0,0
384860,-126.993365149575,4,1,0,100,0,0
384894,-125.99607344959,4,1,0,100,0,0
384928,-125.014323364272,4,1,0,100,0,0
384997,-123.068245910885,4,1,0,100,0,0
385065,-121.208754582824,4,1,0,100,0,0
385201,-117.653402350911,4,1,0,100,0,0
385235,-116.796916818328,4,1,0,100,0,0
385269,-115.952811138272,4,1,0,100,0,0
385337,-114.300680984809,4,1,0,100,0,0
385372,-113.46853874155,4,1,0,100,0,0
385406,-112.671692657234,4,1,0,100,0,0
385474,-111.111111111111,4,1,0,100,0,0
385687,-114.293698477015,4,1,0,100,0,0
385884,-117.647058823529,4,1,0,100,0,0
386028,-120.481927710843,4,1,0,100,0,0
386088,-121.221102548903,4,1,0,100,0,0
386293,-125,4,1,0,100,0,0
386497,-129.042435715413,4,1,0,100,0,0
386574,-131.578947368421,4,1,0,100,0,0
386702,-133.333333333333,4,1,0,100,0,0
386906,-137.942664418213,4,1,0,100,0,0
387119,-111.111111111111,4,1,0,100,0,0
387392,-125,4,1,0,100,0,0
387665,-125,4,1,0,100,0,1
391474,-125,4,1,0,100,0,1
391543,-124.032771961766,4,1,0,100,0,1
391577,-123.554749489912,4,1,0,100,0,1
391611,-123.080397470641,4,1,0,100,0,1
391679,-122.142536978933,4,1,0,100,0,1
391747,-121.20538196375,4,1,0,100,0,1
391781,-120.748864517558,4,1,0,100,0,1
391815,-120.295773093478,4,1,0,100,0,1
391849,-119.846069268829,4,1,0,100,0,1
391884,-119.39971519334,4,1,0,100,0,1
392028,-117.647058823529,4,1,0,100,0,1
395293,-117.647058823529,4,1,0,100,0,1
395327,-117.863123210717,4,1,0,100,0,1
395361,-118.079982683046,4,1,0,100,0,1
395395,-118.2976416373,4,1,0,100,0,1
395429,-118.516104502743,4,1,0,100,0,1
395497,-118.96194526224,4,1,0,100,0,1
395565,-119.40461858378,4,1,0,100,0,1
395599,-119.627192982456,4,1,0,100,0,1
395634,-119.850598703724,4,1,0,100,0,1
395702,-120.299922813982,4,1,0,100,0,1
395770,-120.752628666298,4,1,0,100,0,1
395838,-121.215488028443,4,1,0,100,0,1
395872,-121.444871152669,4,1,0,100,0,1
395906,-121.675124072938,4,1,0,100,0,1
395940,-121.906251745908,4,1,0,100,0,1
395974,-122.138259165967,4,1,0,100,0,1
396043,-122.604933415744,4,1,0,100,0,1
396111,-123.075187545829,4,1,0,100,0,1
396145,-123.311669963266,4,1,0,100,0,1
396179,-123.54906290697,4,1,0,100,0,1
396247,-124.033651659845,4,1,0,100,0,1
396315,-124.514950924446,4,1,0,100,0,1
396392,-125,4,1,0,100,0,0
396588,-131.167268351384,4,1,0,100,0,0
396793,-137.939762085548,4,1,0,100,0,0
396937,-142.857142857143,4,1,0,100,0,0
397065,-125,4,1,0,100,0,0
397134,-126.97919900652,4,1,0,100,0,0
397270,-131.131773004168,4,1,0,100,0,0
397338,-133.344200831364,4,1,0,100,0,0
397474,-137.931034482759,4,1,0,100,0,0
397543,-140.344857167367,4,1,0,100,0,0
397611,-142.844669518903,4,1,0,100,0,0
397679,-145.435149791093,4,1,0,100,0,0
397747,-148.161564933889,4,1,0,100,0,0
397952,-125,4,1,0,100,0,0
398020,-126.976744186047,4,1,0,100,0,0
398088,-129.047506499645,4,1,0,100,0,0
398224,-133.333333333333,4,1,0,100,0,0
398293,-135.584802582568,4,1,0,100,0,0
398361,-137.913614549129,4,1,0,100,0,0
398429,-140.323824209715,4,1,0,100,0,0
398574,-147.058823529412,4,1,0,100,0,0
398634,-125,4,1,0,100,0,0
398702,-126.897886275677,4,1,0,100,0,0
398770,-128.854292623942,4,1,0,100,0,0
398906,-132.98494657203,4,1,0,100,0,0
398974,-135.135135135135,4,1,0,100,0,0
399043,-137.3559977443,4,1,0,100,0,0
399111,-139.651077074289,4,1,0,100,0,0
399179,-142.024156601416,4,1,0,100,0,0
399247,-144.51601966435,4,1,0,100,0,0
399315,-147.058823529412,4,1,0,100,0,0
399384,-149.692712906058,4,1,0,100,0,0
399452,-152.422671196138,4,1,0,100,0,0
399520,-155.25405208523,4,1,0,100,0,0
399588,-158.236658932715,4,1,0,100,0,0
399656,-161.290322580645,4,1,0,100,0,0
399747,-153.833126340747,4,1,0,100,0,0
399838,-147.035018615443,4,1,0,100,0,0
399929,-140.877836943597,4,1,0,100,0,0
400020,-135.155242535463,4,1,0,100,0,0
400111,-129.879414708546,4,1,0,100,0,0
400202,-125,4,1,0,100,0,0
400278,-10,4,1,0,100,0,0
400347,-125,4,1,0,100,0,0
400747,-136.375,4,1,0,100,0,0
401293,-150,4,1,0,100,0,0
401838,-166.683642289672,4,1,0,100,0,0
402384,-187.5,4,1,0,100,0,0
402929,-214.257659073056,4,1,0,100,0,0
403474,-250,4,1,0,100,0,0
404028,-125,4,1,0,100,0,0
404074,-127.006280530356,4,1,0,100,0,0
404119,-129.032258064516,4,1,0,100,0,0
404165,-131.171171171171,4,1,0,100,0,0
404210,-133.333333333333,4,1,0,100,0,0
404256,-135.618479880775,4,1,0,100,0,0
404301,-137.931034482759,4,1,0,100,0,0
404347,-140.377940609333,4,1,0,100,0,0
404392,-142.857142857143,4,1,0,100,0,0
404437,-145.425489412705,4,1,0,100,0,0
404483,-148.148148148148,4,1,0,100,0,0
404528,-150.912106135987,4,1,0,100,0,0
404574,136.363636363636,4,1,0,100,1,8
404574,-50,4,1,0,100,0,0
404710,139.53488372093,4,1,0,100,1,8
404710,-50,4,1,0,100,0,0
404814,-50,4,1,0,100,0,0
404850,142.857142857143,4,1,0,100,1,8
404921,-50,4,1,0,100,0,0
404993,146.341463414634,4,1,0,100,1,8
405029,-50,4,1,0,100,0,0
405139,150,4,1,0,100,1,8
405139,-50,4,1,0,100,0,0
405289,153.846153846154,4,1,0,100,1,8
405289,-50,4,1,0,100,0,0
405443,157.894736842105,4,1,0,100,1,8
405443,-50,4,1,0,100,0,0
405561,-50,4,1,0,100,0,0
405601,162.162162162162,4,1,0,100,1,8
405682,-50,4,1,0,100,0,0
405763,166.666666666667,4,1,0,100,1,8
405804,-50,4,1,0,100,0,0
405930,171.428571428571,4,1,0,100,1,8
405930,-50,4,1,0,100,0,0
406058,-50,4,1,0,100,0,0
406101,176.470588235294,4,1,0,100,1,8
406189,-50,4,1,0,100,0,0
406278,181.818181818182,4,1,0,100,1,8
406323,-50,4,1,0,100,0,0
406460,187.5,4,1,0,100,1,8
406460,-50,4,1,0,100,0,0
406600,-50,4,1,0,100,0,0
406647,193.548387096774,4,1,0,100,1,8
406743,-50,4,1,0,100,0,0
406841,200,4,1,0,100,1,8
406891,-50,4,1,0,100,0,0
407041,203.389830508475,4,1,0,100,1,8
407041,-50,4,1,0,100,0,0
407244,206.896551724138,4,1,0,100,1,8
407244,-50,4,1,0,100,0,0
407451,210.526315789474,4,1,0,100,1,8
407556,-50,4,1,0,100,0,0
407661,214.285714285714,4,1,0,100,1,8
407876,218.181818181818,4,1,0,100,1,8
407876,-50,4,1,0,100,0,0
408094,222.222222222222,4,1,0,100,1,8
408205,-50,4,1,0,100,0,0
408316,226.415094339623,4,1,0,100,1,8
408542,230.769230769231,4,1,0,100,1,8
408542,-50,4,1,0,100,0,0
408773,235.294117647059,4,1,0,100,1,8
408890,-50,4,1,0,100,0,0
409009,240,4,1,0,100,1,8
409249,244.897959183673,4,1,0,100,1,8
409249,-50,4,1,0,100,0,0
409493,250,4,1,0,100,1,8
409618,-50,4,1,0,100,0,0
409743,255.31914893617,4,1,0,100,1,8
409999,260.869565217391,4,1,0,100,1,8
409999,-50,4,1,0,100,0,0
410260,266.666666666667,4,1,0,100,1,8
410260,-50,4,1,0,100,0,0
410526,272.727272727273,4,1,0,100,1,8
410526,-50,4,1,0,100,0,0
410799,279.06976744186,4,1,0,100,1,8
410799,-50,4,1,0,100,0,0
411078,285.714285714286,4,1,0,100,1,8
411078,-90.909090909091,4,1,0,100,0,8
411220,-84.409430162303,4,1,0,100,0,0
411364,292.682926829268,4,1,0,100,1,0
411364,-76.923076923077,4,1,0,100,0,0
411510,-72.463768115942,4,1,0,100,0,0
411656,300,4,1,0,100,1,8
411656,-66.666666666667,4,1,0,100,0,8
411731,-64.935064935065,4,1,0,100,0,0
411806,-63.291139240506,4,1,0,100,0,0
411881,-61.728395061728,4,1,0,100,0,0
411956,307.692307692308,4,1,0,100,1,8
411956,-58.823529411765,4,1,0,100,0,8
412007,-57.973751298272,4,1,0,100,0,0
412058,-57.148175725987,4,1,0,100,0,0
412109,-56.345783243094,4,1,0,100,0,0
412161,-55.550529268072,4,1,0,100,0,0
412212,-54.792075673746,4,1,0,100,0,0
412264,315.789473684211,4,1,0,100,1,0
412264,-52.631578947368,4,1,0,100,0,0
412316,-100,4,1,0,100,0,0
415737,-93.457943925234,4,1,0,100,0,0
415842,-89.93666271758,4,1,0,100,0,0
415948,-86.641133413079,4,1,0,100,0,0
416053,-83.606461895256,4,1,0,100,0,0
416211,-79.420566858637,4,1,0,100,0,0
416369,-75.633834525241,4,1,0,100,0,0
416527,-72.19176766961,4,1,0,100,0,0
416685,-69.049357827853,4,1,0,100,0,0
416842,-66.186579926897,4,1,0,100,0,0
417000,-63.535622600816,4,1,0,100,0,0
417158,-61.0888438385,4,1,0,100,0,0
417316,-40,4,1,0,100,0,0
417395,-10,4,1,0,100,0,0
417474,-58.823529411765,4,1,0,100,0,0
417553,-59.196843787098,4,1,0,99,0,0
417632,-59.574926788955,4,1,0,99,0,0
417711,-59.957870374556,4,1,0,98,0,0
417790,-60.345768880801,4,1,0,97,0,0
417869,-60.738719101741,4,1,0,96,0,0
417948,-61.136820369107,4,1,0,96,0,0
418027,-61.54017463602,4,1,0,95,0,0
418106,-61.948886564041,4,1,0,94,0,0
418185,-62.36306361371,4,1,0,94,0,0
418264,-62.782816138743,4,1,0,93,0,0
418342,-63.202836122441,4,1,0,92,0,0
418421,-63.634008501166,4,1,0,91,0,0
418500,-64.071104241136,4,1,0,91,0,0
418579,-64.514246247532,4,1,0,90,0,0
418658,-64.963560849463,4,1,0,89,0,0
418737,-65.419177920041,4,1,0,89,0,0
418816,-65.88123100153,4,1,0,88,0,0
418895,-66.349857435846,4,1,0,87,0,0
418974,-66.825198500665,4,1,0,86,0,0
419053,-67.307399551419,4,1,0,86,0,0
419132,-67.796610169492,4,1,0,85,0,0
419211,-68.292984316916,4,1,0,84,0,0
419290,-68.796680497925,4,1,0,84,0,0
419369,-69.307861927703,4,1,0,83,0,0
419448,-69.826696708711,4,1,0,82,0,0
419527,-70.353358015,4,1,0,81,0,0
419606,-70.88802428492,4,1,0,81,0,0
419685,-71.430879422694,4,1,0,80,0,0
419764,-71.982113009313,4,1,0,79,0,0
419842,-72.534779945752,4,1,0,79,0,0
419921,-73.103250625544,4,1,0,78,0,0
420000,-73.680702144206,4,1,0,77,0,0
420079,-74.267349018466,4,1,0,76,0,0
420158,-74.863412651826,4,1,0,76,0,0
420237,-75.469121613164,4,1,0,75,0,0
420316,-76.084711928963,4,1,0,74,0,0
420395,-76.710427389972,4,1,0,74,0,0
420474,-77.346519873111,4,1,0,73,0,0
420553,-77.993249679536,4,1,0,72,0,0
420632,-78.650885889803,4,1,0,71,0,0
420711,-79.319706737152,4,1,0,71,0,0
420790,-80,4,1,0,70,0,0
420869,-80.692063414812,4,1,0,69,0,0
420948,-81.396205110582,4,1,0,69,0,0
421027,-82.112744066265,4,1,0,68,0,0
421106,-82.842010592585,4,1,0,67,0,0
421185,-83.58434683975,4,1,0,66,0,0
421264,-84.340107332706,4,1,0,66,0,0
421342,-85.099830621568,4,1,0,65,0,0
421421,-85.883373693684,4,1,0,64,0,0
421500,-86.681479545158,4,1,0,64,0,0
421579,-87.494557975699,4,1,0,63,0,0
421658,-88.323034306414,4,1,0,62,0,0
421737,-89.167350121677,4,1,0,61,0,0
421816,-90.027964053973,4,1,0,61,0,0
421895,-90.905352614625,4,1,0,60,0,0
421974,-91.800011073584,4,1,0,59,0,0
422053,-92.712454391679,4,1,0,59,0,0
422132,-93.643218209031,4,1,0,58,0,0
422211,-94.592859893597,4,1,0,57,0,0
422290,-95.561959654179,4,1,0,56,0,0
422369,-96.551121722547,4,1,0,56,0,0
422448,-97.560975609756,4,1,0,55,0,0
422527,-98.592177442134,4,1,0,54,0,0
422606,-99.645411382896,4,1,0,54,0,0
422685,-100.721391145873,4,1,0,53,0,0
422764,-101.820861608377,4,1,0,52,0,0
422842,-102.930221008195,4,1,0,51,0,0
422921,-104.078718161987,4,1,0,51,0,0
423000,-105.253134423107,4,1,0,50,0,0
423079,-106.454357212796,4,1,0,49,0,0
423158,-107.68331493148,4,1,0,49,0,0
423237,-108.940979351808,4,1,0,48,0,0
423316,-110.228368181365,4,1,0,47,0,0
423395,-111.546547809268,4,1,0,46,0,0
423474,-112.896636252213,4,1,0,46,0,0
423553,-114.279806317095,4,1,0,45,0,0
423632,-115.697288998988,4,1,0,44,0,0
423711,-117.150377135186,4,1,0,44,0,0
423790,-118.640429338104,4,1,0,43,0,0
423869,-120.168874232184,4,1,0,42,0,0
423948,-121.737215022578,4,1,0,41,0,0
424027,-123.347034426321,4,1,0,41,0,0
424106,-125,4,1,0,40,0,0

[HitObjects]
416,276,975,5,4,0:0:0:0:
256,192,4175,12,0,6175,0:0:0:0:
347,274,6375,5,0,0:0:0:0:
347,274,6441,1,0,0:0:0:0:
347,274,6508,1,0,0:0:0:0:
356,267,6575,1,8,0:0:0:0:
362,290,6675,1,8,0:0:0:0:
376,283,6775,1,0,0:0:0:0:
375,281,6875,1,0,0:0:0:0:
381,268,6975,1,8,0:0:0:0:
308,241,7075,1,0,0:0:0:0:
342,268,7175,1,0,0:0:0:0:
342,268,7275,1,0,0:0:0:0:
411,255,7375,1,12,0:0:0:0:
379,294,7975,1,8,0:0:0:0:
379,294,8075,1,8,0:0:0:0:
379,294,8175,1,8,0:0:0:0:
436,277,8475,1,8,0:0:0:0:
414,257,8775,1,4,0:0:0:0:
390,296,8975,1,0,0:0:0:0:
370,303,9025,1,0,0:0:0:0:
370,303,9075,1,8,0:0:0:0:
370,303,9125,1,8,0:0:0:0:
387,263,9175,1,8,0:0:0:0:
384,265,9275,1,4,0:0:0:0:
344,297,9375,1,8,0:0:0:0:
344,297,9475,1,8,0:0:0:0:
388,265,9575,1,4,0:0:0:0:
361,272,9675,1,8,0:0:0:0:
361,272,9775,1,8,0:0:0:0:
386,258,9875,1,4,0:0:0:0:
381,288,10075,1,8,0:0:0:0:
396,271,10175,1,0,0:0:0:0:
364,284,10275,1,8,0:0:0:0:
324,215,10375,1,0,0:0:0:0:
324,215,10475,1,0,0:0:0:0:
430,214,10575,1,12,0:0:0:0:
387,316,11175,1,8,0:0:0:0:
383,287,11275,1,8,0:0:0:0:
381,286,11375,1,8,0:0:0:0:
377,285,11675,1,8,0:0:0:0:
415,283,11975,1,4,0:0:0:0:
382,276,12175,1,0,0:0:0:0:
382,276,12225,1,0,0:0:0:0:
382,276,12275,1,0,0:0:0:0:
382,276,12325,1,0,0:0:0:0:
382,276,12375,1,8,0:0:0:0:
423,290,12475,1,4,0:0:0:0:
386,306,12575,1,8,0:0:0:0:
386,306,12675,1,8,0:0:0:0:
411,283,12775,1,4,0:0:0:0:
323,264,12875,1,8,0:0:0:0:
323,264,12975,1,8,0:0:0:0:
396,263,13075,1,4,0:0:0:0:
395,279,13175,1,8,0:0:0:0:
395,279,13225,1,8,0:0:0:0:
395,279,13275,1,0,0:0:0:0:
395,279,13325,1,8,0:0:0:0:
395,279,13375,1,0,0:0:0:0:
394,295,13425,1,0,0:0:0:0:
385,286,13475,1,8,0:0:0:0:
385,286,13525,1,8,0:0:0:0:
381,306,13575,1,0,0:0:0:0:
381,306,13625,1,0,0:0:0:0:
371,267,13675,1,8,0:0:0:0:
385,248,13775,1,4,0:0:0:0:
387,320,14375,1,0,0:0:0:0:
387,320,14475,1,8,0:0:0:0:
387,296,14575,1,8,0:0:0:0:
395,290,14975,1,0,0:0:0:0:
383,276,15375,1,8,0:0:0:0:
403,273,15675,1,8,0:0:0:0:
369,269,15975,1,0,0:0:0:0:
408,266,16175,1,0,0:0:0:0:
378,297,16775,1,0,0:0:0:0:
378,297,16875,1,0,0:0:0:0:
382,287,16975,1,8,0:0:0:0:
399,298,17375,1,8,0:0:0:0:
377,280,17775,1,0,0:0:0:0:
429,281,18175,1,8,0:0:0:0:
362,288,18575,1,8,0:0:0:0:
351,258,18875,1,0,0:0:0:0:
351,257,19175,1,8,0:0:0:0:
413,256,19375,1,0,0:0:0:0:
401,264,19775,1,8,0:0:0:0:
366,289,19841,1,8,0:0:0:0:
366,289,19908,1,8,0:0:0:0:
357,258,19975,1,0,0:0:0:0:
367,259,20041,1,0,0:0:0:0:
357,258,20108,1,0,0:0:0:0:
391,249,20175,1,12,0:0:0:0:
370,267,20775,1,0,0:0:0:0:
381,230,20875,1,0,0:0:0:0:
431,220,20975,1,12,0:0:0:0:
433,277,21375,1,0,0:0:0:0:
415,272,21675,1,0,0:0:0:0:
451,284,21775,1,12,0:0:0:0:
415,272,21875,1,0,0:0:0:0:
415,272,21975,1,0,0:0:0:0:
425,264,22075,1,12,0:0:0:0:
415,272,22175,1,0,0:0:0:0:
415,272,22275,1,0,0:0:0:0:
429,268,22375,1,12,0:0:0:0:
380,244,22475,1,8,0:0:0:0:
436,253,22575,1,4,0:0:0:0:
378,303,22775,1,8,0:0:0:0:
378,303,22875,1,8,0:0:0:0:
382,284,22975,1,0,0:0:0:0:
382,284,23075,1,0,0:0:0:0:
382,284,23125,1,0,0:0:0:0:
382,284,23175,1,8,0:0:0:0:
382,284,23275,1,8,0:0:0:0:
424,270,23375,1,4,0:0:0:0:
411,282,23775,1,8,0:0:0:0:
444,291,24175,1,4,0:0:0:0:
410,283,24575,1,8,0:0:0:0:
423,279,24975,1,8,0:0:0:0:
411,286,25175,1,4,0:0:0:0:
381,291,25275,1,8,0:0:0:0:
380,291,25375,1,8,0:0:0:0:
403,270,25475,1,4,0:0:0:0:
325,264,25675,1,8,0:0:0:0:
370,261,25775,1,4,0:0:0:0:
403,300,25875,1,8,0:0:0:0:
403,300,25975,1,8,0:0:0:0:
407,247,26075,1,4,0:0:0:0:
403,300,26175,1,8,0:0:0:0:
403,300,26275,1,8,0:0:0:0:
386,277,26375,1,4,0:0:0:0:
435,267,26475,1,0,0:0:0:0:
419,253,26575,1,12,0:0:0:0:
399,275,26975,1,0,0:0:0:0:
433,284,27375,1,12,0:0:0:0:
422,303,27775,1,8,0:0:0:0:
381,273,27841,1,8,0:0:0:0:
362,282,27908,1,8,0:0:0:0:
373,278,27975,1,0,0:0:0:0:
373,278,28041,1,0,0:0:0:0:
373,278,28108,1,0,0:0:0:0:
406,258,28175,1,12,0:0:0:0:
370,275,28475,1,8,0:0:0:0:
370,275,28575,1,8,0:0:0:0:
256,192,28675,12,0,29675,0:0:0:0:
256,192,29775,12,0,34475,0:0:0:0:
260,213,34575,6,4,L|400:156,1,140
282,270,34875,2,4,L|469:200,1,186.666666666667
275,315,35175,2,4,L|501:249,1,233.333333333333
181,280,35475,2,4,L|456:195,1,280
203,277,35775,2,4,L|494:109,1,326.666662512885
147,301,36075,2,4,L|508:166,1,373.333333333333
93,274,36375,2,4,L|508:186,1,420.000016021729
42,199,36675,2,4,L|515:162,1,466.666666666667
62,327,36975,2,4,L|494:40,1,513.333320278592
0,306,37275,2,4,L|521:82,1,560
0,270,37575,2,4,L|594:123,1,606.666658952501
123,326,37875,2,4,P|343:39|544:148,1,653.333325025771
38,149,38175,2,4,B|383:352|535:185|458:101|136:29|158:24,1,700
437,290,38575,1,4,0:0:0:0:
256,192,38975,12,0,39275,0:0:0:0:
443,306,39375,5,4,0:0:0:0:
330,271,39575,1,8,0:0:0:0:
330,271,39675,1,8,0:0:0:0:
322,268,39775,1,0,0:0:0:0:
391,232,39841,1,8,0:0:0:0:
388,283,39908,1,8,0:0:0:0:
340,263,39975,1,8,0:0:0:0:
388,283,40041,1,0,0:0:0:0:
388,283,40108,1,0,0:0:0:0:
395,271,40175,1,12,0:0:0:0:
376,273,40275,1,0,0:0:0:0:
325,260,40375,1,8,0:0:0:0:
366,245,40441,1,8,0:0:0:0:
366,245,40508,1,8,0:0:0:0:
350,255,40575,1,0,0:0:0:0:
351,200,40641,1,8,0:0:0:0:
388,200,40708,1,8,0:0:0:0:
422,268,40775,1,0,0:0:0:0:
397,270,40841,1,0,0:0:0:0:
397,270,40908,1,0,0:0:0:0:
397,268,40975,1,8,0:0:0:0:
385,285,41175,1,0,0:0:0:0:
407,259,41275,1,8,0:0:0:0:
313,238,41475,1,0,0:0:0:0:
311,275,41575,1,8,0:0:0:0:
311,275,41775,1,0,0:0:0:0:
413,321,41875,1,8,0:0:0:0:
361,272,41975,1,8,0:0:0:0:
361,272,42075,1,0,0:0:0:0:
448,268,42175,1,8,0:0:0:0:
361,272,42275,1,8,0:0:0:0:
405,227,42375,1,0,0:0:0:0:
421,284,42475,1,8,0:0:0:0:
413,232,42575,1,4,0:0:0:0:
387,280,42775,1,8,0:0:0:0:
379,270,42875,1,8,0:0:0:0:
361,272,42975,1,0,0:0:0:0:
362,247,43041,1,0,0:0:0:0:
339,244,43108,1,8,0:0:0:0:
339,243,43175,1,8,0:0:0:0:
360,266,43241,1,8,0:0:0:0:
339,244,43308,1,0,0:0:0:0:
363,226,43375,1,12,0:0:0:0:
379,279,43475,1,0,0:0:0:0:
368,278,43575,1,8,0:0:0:0:
367,278,43641,1,8,0:0:0:0:
367,277,43708,1,8,0:0:0:0:
367,304,43775,1,0,0:0:0:0:
320,267,43841,1,0,0:0:0:0:
320,267,43908,1,0,0:0:0:0:
320,267,43975,1,8,0:0:0:0:
362,298,44041,1,0,0:0:0:0:
362,298,44108,1,0,0:0:0:0:
401,277,44175,1,8,0:0:0:0:
378,267,44375,1,0,0:0:0:0:
378,267,44475,1,8,0:0:0:0:
339,279,44575,1,8,0:0:0:0:
378,267,44675,1,0,0:0:0:0:
378,267,44775,1,8,0:0:0:0:
405,292,44875,1,8,0:0:0:0:
352,263,44925,1,8,0:0:0:0:
351,260,44975,1,0,0:0:0:0:
405,292,45075,1,8,0:0:0:0:
407,281,45175,1,8,0:0:0:0:
432,284,45275,1,0,0:0:0:0:
388,287,45375,1,8,0:0:0:0:
410,262,45575,1,8,0:0:0:0:
371,280,45675,1,8,0:0:0:0:
383,258,45775,1,4,0:0:0:0:
396,267,45975,1,8,0:0:0:0:
343,254,46075,1,0,0:0:0:0:
367,252,46175,1,8,0:0:0:0:
364,260,46241,1,8,0:0:0:0:
364,260,46308,1,0,0:0:0:0:
364,260,46375,1,8,0:0:0:0:
364,260,46441,1,0,0:0:0:0:
364,260,46508,1,0,0:0:0:0:
422,251,46575,1,12,0:0:0:0:
370,305,46675,1,0,0:0:0:0:
367,264,46775,1,8,0:0:0:0:
373,255,46841,1,8,0:0:0:0:
373,255,46908,1,0,0:0:0:0:
373,255,46975,1,8,0:0:0:0:
373,255,47041,1,8,0:0:0:0:
373,255,47108,1,0,0:0:0:0:
396,286,47175,1,8,0:0:0:0:
396,286,47241,1,0,0:0:0:0:
396,286,47308,1,0,0:0:0:0:
396,277,47375,1,8,0:0:0:0:
350,284,47575,1,0,0:0:0:0:
350,284,47675,1,8,0:0:0:0:
356,278,47875,1,0,0:0:0:0:
356,278,47975,1,8,0:0:0:0:
356,278,48175,1,0,0:0:0:0:
364,268,48275,1,8,0:0:0:0:
353,285,48375,1,8,0:0:0:0:
353,285,48475,1,0,0:0:0:0:
353,276,48575,1,8,0:0:0:0:
353,256,48675,1,8,0:0:0:0:
381,281,48775,1,0,0:0:0:0:
403,291,48875,1,8,0:0:0:0:
422,302,48975,1,0,0:0:0:0:
393,285,49075,1,8,0:0:0:0:
422,302,49175,1,8,0:0:0:0:
408,292,49275,1,0,0:0:0:0:
408,292,49375,1,8,0:0:0:0:
415,282,49475,1,8,0:0:0:0:
338,268,49575,1,0,0:0:0:0:
338,268,49675,1,0,0:0:0:0:
338,268,49775,1,8,0:0:0:0:
358,236,49875,1,0,0:0:0:0:
386,312,49975,1,8,0:0:0:0:
388,302,50075,1,8,0:0:0:0:
400,272,50175,1,0,0:0:0:0:
354,291,50275,1,0,0:0:0:0:
354,291,50375,1,8,0:0:0:0:
354,291,50475,1,0,0:0:0:0:
362,280,50575,1,8,0:0:0:0:
360,278,50675,1,8,0:0:0:0:
369,271,50775,1,0,0:0:0:0:
360,278,50875,1,8,0:0:0:0:
355,279,50975,1,8,0:0:0:0:
353,275,51075,1,0,0:0:0:0:
360,272,51175,1,8,0:0:0:0:
390,298,51225,1,8,0:0:0:0:
367,268,51275,1,8,0:0:0:0:
390,298,51325,1,8,0:0:0:0:
410,259,51375,1,0,0:0:0:0:
349,268,51425,1,8,0:0:0:0:
349,268,51475,1,8,0:0:0:0:
349,268,51525,1,8,0:0:0:0:
349,268,51575,1,0,0:0:0:0:
349,268,51625,1,0,0:0:0:0:
386,296,51675,1,0,0:0:0:0:
386,296,51725,1,0,0:0:0:0:
351,292,51775,1,8,0:0:0:0:
351,292,51825,1,8,0:0:0:0:
351,292,51875,1,0,0:0:0:0:
351,292,51925,1,0,0:0:0:0:
401,315,51975,1,8,0:0:0:0:
383,270,52025,1,0,0:0:0:0:
366,261,52075,1,0,0:0:0:0:
399,265,52175,1,12,0:0:0:0:
395,249,52375,1,0,0:0:0:0:
370,271,52475,1,8,0:0:0:0:
366,297,52575,1,0,0:0:0:0:
354,289,52675,1,0,0:0:0:0:
346,283,52775,1,8,0:0:0:0:
354,289,52825,1,8,0:0:0:0:
354,289,52875,1,8,0:0:0:0:
355,287,52975,1,0,0:0:0:0:
329,277,53026,1,0,0:0:0:0:
329,277,53078,1,8,0:0:0:0:
398,301,53181,1,8,0:0:0:0:
354,271,53285,1,0,0:0:0:0:
391,306,53337,1,0,0:0:0:0:
391,306,53388,1,8,0:0:0:0:
401,300,53492,1,8,0:0:0:0:
426,282,53595,1,4,0:0:0:0:
326,258,53803,1,0,0:0:0:0:
326,258,53856,1,0,0:0:0:0:
326,258,53910,1,8,0:0:0:0:
326,258,53963,1,8,0:0:0:0:
326,258,54017,1,8,0:0:0:0:
427,297,54124,1,4,0:0:0:0:
401,281,54231,1,8,0:0:0:0:
364,278,54338,1,8,0:0:0:0:
393,275,54445,1,4,0:0:0:0:
345,252,54553,1,8,0:0:0:0:
360,242,54660,1,8,0:0:0:0:
416,280,54771,1,4,0:0:0:0:
378,286,54882,1,8,0:0:0:0:
399,250,54937,1,8,0:0:0:0:
384,290,54993,1,0,0:0:0:0:
384,289,55104,1,8,0:0:0:0:
364,295,55215,1,0,0:0:0:0:
372,285,55326,1,8,0:0:0:0:
396,292,55437,1,0,0:0:0:0:
435,260,55549,1,12,0:0:0:0:
346,273,55779,1,0,0:0:0:0:
371,223,55895,1,8,0:0:0:0:
364,284,56010,1,0,0:0:0:0:
364,284,56125,1,0,0:0:0:0:
395,286,56241,1,8,0:0:0:0:
390,281,56299,1,8,0:0:0:0:
390,281,56356,1,8,0:0:0:0:
421,315,56472,1,0,0:0:0:0:
409,306,56532,1,0,0:0:0:0:
401,299,56592,1,8,0:0:0:0:
396,294,56652,1,0,0:0:0:0:
396,294,56712,1,8,0:0:0:0:
428,289,56832,1,0,0:0:0:0:
413,286,56952,1,8,0:0:0:0:
413,286,57012,1,8,0:0:0:0:
413,286,57072,1,8,0:0:0:0:
429,276,57192,1,4,0:0:0:0:
392,286,57432,1,0,0:0:0:0:
392,286,57494,1,0,0:0:0:0:
392,286,57557,1,0,0:0:0:0:
392,286,57619,1,0,0:0:0:0:
392,286,57682,1,8,0:0:0:0:
392,286,57807,1,4,0:0:0:0:
392,286,57932,1,8,0:0:0:0:
392,286,58057,1,8,0:0:0:0:
411,265,58182,1,4,0:0:0:0:
349,263,58307,1,8,0:0:0:0:
349,263,58432,1,8,0:0:0:0:
416,264,58562,1,4,0:0:0:0:
345,268,58692,1,8,0:0:0:0:
345,268,58823,1,8,0:0:0:0:
256,192,58953,12,0,59345,0:0:0:0:
399,290,59475,5,8,0:0:0:0:
379,273,59611,1,0,0:0:0:0:
379,273,59747,1,0,0:0:0:0:
379,273,59884,1,8,0:0:0:0:
433,244,60020,1,0,0:0:0:0:
400,291,60156,1,0,0:0:0:0:
393,276,60293,1,8,0:0:0:0:
425,298,60429,1,0,0:0:0:0:
376,272,60565,1,0,0:0:0:0:
376,272,60702,1,8,0:0:0:0:
434,268,60838,1,8,0:0:0:0:
381,263,60975,1,0,0:0:0:0:
431,287,61111,1,8,0:0:0:0:
401,297,61179,1,8,0:0:0:0:
388,270,61247,1,0,0:0:0:0:
388,270,61315,1,0,0:0:0:0:
388,269,61384,1,8,0:0:0:0:
398,262,61452,1,0,0:0:0:0:
398,262,61520,1,0,0:0:0:0:
398,262,61588,1,0,0:0:0:0:
398,262,61656,1,8,0:0:0:0:
398,294,61793,1,0,0:0:0:0:
398,294,61929,1,0,0:0:0:0:
398,294,62065,1,8,0:0:0:0:
398,294,62202,1,0,0:0:0:0:
434,295,62338,1,0,0:0:0:0:
390,257,62475,1,8,0:0:0:0:
390,257,62611,1,0,0:0:0:0:
390,257,62747,1,0,0:0:0:0:
379,261,62884,1,8,0:0:0:0:
356,237,63020,1,8,0:0:0:0:
390,231,63156,1,0,0:0:0:0:
306,302,63293,1,8,0:0:0:0:
360,278,63361,1,8,0:0:0:0:
360,278,63429,1,8,0:0:0:0:
360,278,63497,1,8,0:0:0:0:
360,278,63565,1,0,0:0:0:0:
360,272,63634,1,0,0:0:0:0:
360,272,63702,1,0,0:0:0:0:
360,272,63770,1,0,0:0:0:0:
291,271,63838,1,8,0:0:0:0:
355,265,63906,1,0,0:0:0:0:
331,270,63975,1,0,0:0:0:0:
331,269,64043,1,0,0:0:0:0:
331,269,64111,1,8,0:0:0:0:
355,265,64179,1,0,0:0:0:0:
331,269,64247,1,0,0:0:0:0:
331,269,64315,1,0,0:0:0:0:
361,290,64384,1,8,0:0:0:0:
377,260,64452,1,8,0:0:0:0:
367,283,64520,1,0,0:0:0:0:
367,283,64588,1,0,0:0:0:0:
377,260,64656,1,8,0:0:0:0:
382,233,64725,1,8,0:0:0:0:
367,283,64793,1,0,0:0:0:0:
369,285,64861,1,0,0:0:0:0:
333,236,64929,1,8,0:0:0:0:
353,233,64975,1,8,0:0:0:0:
353,233,65020,1,8,0:0:0:0:
321,244,65065,1,0,0:0:0:0:
343,264,65134,1,0,0:0:0:0:
354,252,65202,1,8,0:0:0:0:
354,222,65247,1,8,0:0:0:0:
356,220,65293,1,8,0:0:0:0:
364,216,65338,1,0,0:0:0:0:
405,235,65406,1,0,0:0:0:0:
363,284,65475,1,8,0:0:0:0:
371,273,65520,1,8,0:0:0:0:
371,273,65565,1,8,0:0:0:0:
371,273,65611,1,8,0:0:0:0:
371,273,65656,1,8,0:0:0:0:
371,273,65702,1,8,0:0:0:0:
364,264,65747,1,0,0:0:0:0:
352,256,65815,1,0,0:0:0:0:
371,238,65884,1,8,0:0:0:0:
371,237,65952,1,8,0:0:0:0:
441,229,66020,1,4,0:0:0:0:
256,192,66565,12,0,67520,0:0:0:0:
116,182,67656,5,0,0:0:0:0:
337,232,67747,1,0,0:0:0:0:
337,232,67838,1,0,0:0:0:0:
311,253,67929,1,8,0:0:0:0:
311,253,68020,1,8,0:0:0:0:
311,253,68111,1,8,0:0:0:0:
413,263,68202,1,4,0:0:0:0:
367,271,68475,1,8,0:0:0:0:
367,271,68543,1,8,0:0:0:0:
367,271,68611,1,8,0:0:0:0:
367,271,68679,1,8,0:0:0:0:
376,261,68748,1,0,0:0:0:0:
337,193,68883,1,8,0:0:0:0:
337,193,68916,1,8,0:0:0:0:
377,263,69018,1,8,0:0:0:0:
377,263,69052,1,8,0:0:0:0:
377,263,69153,1,8,0:0:0:0:
377,263,69187,1,8,0:0:0:0:
377,263,69288,1,0,0:0:0:0:
369,294,69421,1,8,0:0:0:0:
369,294,69455,1,8,0:0:0:0:
322,253,69555,1,8,0:0:0:0:
322,253,69589,1,8,0:0:0:0:
322,253,69689,1,0,0:0:0:0:
322,253,69723,1,0,0:0:0:0:
322,253,69824,1,8,0:0:0:0:
337,252,69956,1,0,0:0:0:0:
366,256,69989,1,0,0:0:0:0:
322,253,70089,1,8,0:0:0:0:
359,262,70133,1,0,0:0:0:0:
359,262,70177,1,0,0:0:0:0:
322,253,70222,1,8,0:0:0:0:
322,253,70266,1,8,0:0:0:0:
322,253,70310,1,8,0:0:0:0:
328,245,70355,1,0,0:0:0:0:
376,288,70486,1,0,0:0:0:0:
376,288,70530,1,0,0:0:0:0:
376,288,70574,1,0,0:0:0:0:
376,288,70618,1,8,0:0:0:0:
387,278,70683,1,8,0:0:0:0:
387,278,70749,1,8,0:0:0:0:
387,277,70815,1,8,0:0:0:0:
387,278,70881,1,0,0:0:0:0:
397,256,71011,1,8,0:0:0:0:
397,256,71044,1,8,0:0:0:0:
397,256,71141,1,8,0:0:0:0:
397,256,71174,1,8,0:0:0:0:
389,274,71272,1,8,0:0:0:0:
389,274,71304,1,8,0:0:0:0:
417,270,71403,1,0,0:0:0:0:
370,297,71532,1,8,0:0:0:0:
385,295,71564,1,8,0:0:0:0:
419,297,71661,1,0,0:0:0:0:
419,297,71693,1,0,0:0:0:0:
409,281,71790,1,0,0:0:0:0:
409,278,71823,1,0,0:0:0:0:
384,295,71920,1,8,0:0:0:0:
371,277,72090,1,0,0:0:0:0:
371,277,72176,1,8,0:0:0:0:
361,292,72219,1,8,0:0:0:0:
361,292,72261,1,8,0:0:0:0:
361,292,72347,1,8,0:0:0:0:
393,279,72433,1,4,0:0:0:0:
386,292,72687,1,8,0:0:0:0:
386,292,72750,1,8,0:0:0:0:
386,292,72814,1,8,0:0:0:0:
386,292,72877,1,8,0:0:0:0:
386,292,72942,1,0,0:0:0:0:
380,208,73068,1,8,0:0:0:0:
380,208,73099,1,8,0:0:0:0:
380,208,73194,1,8,0:0:0:0:
380,208,73225,1,8,0:0:0:0:
379,251,73320,1,8,0:0:0:0:
379,251,73351,1,8,0:0:0:0:
363,289,73446,1,0,0:0:0:0:
360,264,73571,1,8,0:0:0:0:
360,263,73602,1,8,0:0:0:0:
360,264,73696,1,8,0:0:0:0:
360,264,73727,1,8,0:0:0:0:
360,263,73821,1,0,0:0:0:0:
360,264,73852,1,0,0:0:0:0:
431,293,73946,1,8,0:0:0:0:
392,306,74069,1,0,0:0:0:0:
392,306,74100,1,0,0:0:0:0:
337,292,74193,1,8,0:0:0:0:
393,272,74235,1,8,0:0:0:0:
393,272,74276,1,8,0:0:0:0:
355,256,74317,1,0,0:0:0:0:
380,264,74442,1,0,0:0:0:0:
386,278,74564,1,8,0:0:0:0:
353,255,74605,1,0,0:0:0:0:
353,255,74646,1,0,0:0:0:0:
376,264,74687,1,8,0:0:0:0:
382,276,74810,1,0,0:0:0:0:
382,276,74934,1,8,0:0:0:0:
389,295,74994,1,8,0:0:0:0:
389,295,75055,1,0,0:0:0:0:
389,295,75177,1,8,0:0:0:0:
389,295,75238,1,8,0:0:0:0:
389,295,75299,1,8,0:0:0:0:
371,275,75421,1,0,0:0:0:0:
371,275,75481,1,0,0:0:0:0:
371,275,75541,1,8,0:0:0:0:
371,275,75662,1,8,0:0:0:0:
371,275,75723,1,8,0:0:0:0:
371,275,75783,1,0,0:0:0:0:
381,272,75905,1,8,0:0:0:0:
381,272,75965,1,8,0:0:0:0:
381,272,76025,1,8,0:0:0:0:
393,311,76145,1,0,0:0:0:0:
371,287,76265,1,8,0:0:0:0:
386,233,76385,1,4,0:0:0:0:
399,285,76623,1,0,0:0:0:0:
399,285,76682,1,8,0:0:0:0:
367,283,76742,1,8,0:0:0:0:
367,283,76801,1,8,0:0:0:0:
367,283,76861,1,0,0:0:0:0:
377,274,76979,1,8,0:0:0:0:
377,274,77008,1,8,0:0:0:0:
377,274,77097,1,8,0:0:0:0:
377,274,77126,1,8,0:0:0:0:
377,274,77215,1,8,0:0:0:0:
377,274,77244,1,8,0:0:0:0:
377,274,77334,1,0,0:0:0:0:
361,281,77451,1,8,0:0:0:0:
361,281,77480,1,8,0:0:0:0:
361,281,77568,1,8,0:0:0:0:
361,281,77597,1,8,0:0:0:0:
361,281,77685,1,0,0:0:0:0:
361,281,77714,1,0,0:0:0:0:
361,281,77803,1,8,0:0:0:0:
356,264,77919,1,0,0:0:0:0:
356,264,77948,1,0,0:0:0:0:
320,264,78035,1,8,0:0:0:0:
395,291,78074,1,0,0:0:0:0:
395,291,78113,1,0,0:0:0:0:
401,273,78151,1,8,0:0:0:0:
395,291,78190,1,8,0:0:0:0:
395,291,78229,1,8,0:0:0:0:
395,291,78268,1,0,0:0:0:0:
402,286,78383,1,0,0:0:0:0:
402,286,78421,1,0,0:0:0:0:
402,286,78460,1,0,0:0:0:0:
402,285,78498,1,8,0:0:0:0:
396,254,78556,1,8,0:0:0:0:
396,254,78614,1,8,0:0:0:0:
396,254,78671,1,8,0:0:0:0:
403,242,78729,1,0,0:0:0:0:
395,292,78843,1,8,0:0:0:0:
399,262,78872,1,8,0:0:0:0:
401,286,78958,1,8,0:0:0:0:
401,286,78986,1,8,0:0:0:0:
404,281,79072,1,8,0:0:0:0:
404,281,79101,1,8,0:0:0:0:
413,291,79187,1,0,0:0:0:0:
397,275,79300,1,8,0:0:0:0:
397,275,79329,1,8,0:0:0:0:
397,275,79414,1,0,0:0:0:0:
397,275,79442,1,0,0:0:0:0:
397,275,79527,1,0,0:0:0:0:
397,275,79556,1,0,0:0:0:0:
440,292,79642,1,8,0:0:0:0:
366,259,79698,1,8,0:0:0:0:
401,239,79754,1,0,0:0:0:0:
395,236,79811,1,0,0:0:0:0:
397,281,79867,1,8,0:0:0:0:
397,281,79923,1,8,0:0:0:0:
397,281,79980,1,8,0:0:0:0:
420,251,80093,1,4,0:0:0:0:
289,262,80988,2,4,L|331:225,1,52.5
326,285,81156,2,4,L|403:263,1,70.4359398859191
221,275,81324,2,4,L|297:207,1,88.3718839615602
239,218,81492,2,4,L|339:167,1,106.307833236817
301,287,81660,2,4,L|440:239,1,124.243775109321
220,222,81828,2,4,L|401:197,1,142.179715823632
193,277,81991,2,4,L|324:157,1,159.581843474462
176,186,82151,2,4,L|367:180,1,176.663702708729
191,122,82312,2,4,L|353:266,1,193.852306385175
168,293,82473,2,4,L|337:142,1,211.040922899209
115,239,82634,2,4,L|348:182,1,228.22954593339
126,145,82794,2,4,L|362:217,1,245.311386801387
146,288,82955,2,4,L|358:123,1,262.5
256,192,83169,12,0,83491,0:0:0:0:
394,268,83598,5,4,0:0:0:0:
393,279,83919,1,0,0:0:0:0:
369,262,84027,1,8,0:0:0:0:
393,279,84080,1,8,0:0:0:0:
393,279,84133,1,0,0:0:0:0:
391,276,84186,1,0,0:0:0:0:
391,276,84239,1,8,0:0:0:0:
408,278,84346,1,8,0:0:0:0:
391,248,84452,1,0,0:0:0:0:
394,279,84555,1,8,0:0:0:0:
405,260,84658,1,8,0:0:0:0:
377,252,84710,1,8,0:0:0:0:
360,268,84762,1,8,0:0:0:0:
399,268,84866,1,0,0:0:0:0:
356,261,84917,1,0,0:0:0:0:
400,313,84968,1,8,0:0:0:0:
412,290,85071,1,0,0:0:0:0:
417,264,85122,1,8,0:0:0:0:
407,268,85174,1,8,0:0:0:0:
370,224,85277,1,0,0:0:0:0:
377,274,85328,1,0,0:0:0:0:
382,296,85379,1,0,0:0:0:0:
411,271,85430,1,0,0:0:0:0:
340,247,85481,1,8,0:0:0:0:
362,272,85583,1,0,0:0:0:0:
379,227,85685,1,8,0:0:0:0:
387,293,85786,1,0,0:0:0:0:
387,293,85837,1,0,0:0:0:0:
387,293,85887,1,8,0:0:0:0:
411,289,85989,1,8,0:0:0:0:
386,220,86091,1,0,0:0:0:0:
411,289,86191,1,0,0:0:0:0:
401,281,86242,1,0,0:0:0:0:
403,313,86292,1,8,0:0:0:0:
407,278,86393,1,0,0:0:0:0:
420,270,86493,1,8,0:0:0:0:
411,316,86543,1,8,0:0:0:0:
411,316,86593,1,8,0:0:0:0:
416,311,86643,1,8,0:0:0:0:
419,307,86693,1,0,0:0:0:0:
415,242,86893,1,12,0:0:0:0:
401,296,87191,1,0,0:0:0:0:
369,269,87291,1,8,0:0:0:0:
407,310,87340,1,0,0:0:0:0:
390,283,87389,1,0,0:0:0:0:
390,283,87439,1,0,0:0:0:0:
390,283,87488,1,8,0:0:0:0:
406,308,87587,1,8,0:0:0:0:
398,262,87686,1,0,0:0:0:0:
376,299,87784,1,8,0:0:0:0:
376,299,87882,1,8,0:0:0:0:
376,299,87931,1,8,0:0:0:0:
392,291,87980,1,8,0:0:0:0:
409,266,88078,1,0,0:0:0:0:
419,309,88126,1,0,0:0:0:0:
403,301,88175,1,0,0:0:0:0:
409,289,88272,1,8,0:0:0:0:
419,309,88321,1,8,0:0:0:0:
395,287,88370,1,8,0:0:0:0:
395,287,88418,1,8,0:0:0:0:
434,248,88467,1,0,0:0:0:0:
413,302,88563,1,8,0:0:0:0:
426,268,88660,1,8,0:0:0:0:
381,286,88757,1,8,0:0:0:0:
411,241,88854,1,0,0:0:0:0:
381,286,88950,1,0,0:0:0:0:
381,286,89046,1,8,0:0:0:0:
403,274,89094,1,0,0:0:0:0:
381,286,89142,1,8,0:0:0:0:
403,274,89190,1,0,0:0:0:0:
394,293,89239,1,8,0:0:0:0:
321,233,89334,1,8,0:0:0:0:
396,288,89430,1,0,0:0:0:0:
327,256,89525,1,0,0:0:0:0:
358,195,89621,1,8,0:0:0:0:
389,308,89668,1,8,0:0:0:0:
414,292,89715,1,8,0:0:0:0:
413,325,89810,1,0,0:0:0:0:
413,325,89858,1,0,0:0:0:0:
389,308,89905,1,8,0:0:0:0:
470,284,90001,1,4,0:0:0:0:
419,312,90284,1,0,0:0:0:0:
419,312,90378,1,8,0:0:0:0:
391,303,90424,1,8,0:0:0:0:
406,318,90471,1,0,0:0:0:0:
406,318,90518,1,0,0:0:0:0:
406,318,90565,1,8,0:0:0:0:
412,307,90659,1,8,0:0:0:0:
413,311,90753,1,0,0:0:0:0:
412,307,90846,1,8,0:0:0:0:
415,322,90939,1,8,0:0:0:0:
415,322,90985,1,8,0:0:0:0:
415,322,91032,1,0,0:0:0:0:
347,228,91126,1,8,0:0:0:0:
422,314,91172,1,8,0:0:0:0:
405,291,91218,1,8,0:0:0:0:
405,292,91311,1,0,0:0:0:0:
425,303,91357,1,0,0:0:0:0:
418,315,91403,1,8,0:0:0:0:
385,248,91496,1,0,0:0:0:0:
399,300,91542,1,0,0:0:0:0:
425,322,91588,1,0,0:0:0:0:
425,320,91634,1,0,0:0:0:0:
434,312,91680,1,8,0:0:0:0:
434,309,91772,1,0,0:0:0:0:
440,303,91864,1,8,0:0:0:0:
407,276,91955,1,0,0:0:0:0:
422,328,92046,1,8,0:0:0:0:
422,328,92092,1,8,0:0:0:0:
422,328,92138,1,8,0:0:0:0:
438,304,92230,1,0,0:0:0:0:
415,318,92275,1,0,0:0:0:0:
415,318,92320,1,8,0:0:0:0:
395,304,92366,1,0,0:0:0:0:
395,304,92411,1,8,0:0:0:0:
407,303,92502,1,0,0:0:0:0:
407,303,92594,1,8,0:0:0:0:
408,321,92639,1,8,0:0:0:0:
408,321,92684,1,8,0:0:0:0:
408,321,92729,1,8,0:0:0:0:
415,311,92774,1,0,0:0:0:0:
427,271,92955,1,12,0:0:0:0:
423,321,93224,1,0,0:0:0:0:
437,258,93315,1,8,0:0:0:0:
424,308,93359,1,8,0:0:0:0:
402,308,93404,1,8,0:0:0:0:
402,308,93448,1,0,0:0:0:0:
402,308,93493,1,8,0:0:0:0:
392,292,93582,1,8,0:0:0:0:
392,292,93672,1,0,0:0:0:0:
406,310,93760,1,8,0:0:0:0:
418,331,93849,1,8,0:0:0:0:
309,246,93893,1,8,0:0:0:0:
309,246,93938,1,0,0:0:0:0:
369,270,94027,1,8,0:0:0:0:
369,270,94071,1,8,0:0:0:0:
369,270,94115,1,8,0:0:0:0:
388,313,94203,1,0,0:0:0:0:
388,313,94247,1,0,0:0:0:0:
415,293,94291,1,8,0:0:0:0:
369,270,94335,1,0,0:0:0:0:
366,247,94380,1,8,0:0:0:0:
402,299,94555,1,0,0:0:0:0:
399,221,94643,1,0,0:0:0:0:
419,263,94731,1,8,0:0:0:0:
397,291,94789,1,8,0:0:0:0:
397,291,94847,1,8,0:0:0:0:
397,291,94963,1,8,0:0:0:0:
431,260,95079,1,0,0:0:0:0:
405,286,95252,1,0,0:0:0:0:
405,286,95339,1,0,0:0:0:0:
386,292,95426,1,8,0:0:0:0:
386,292,95598,1,8,0:0:0:0:
422,267,95771,1,4,0:0:0:0:
375,241,96113,1,8,0:0:0:0:
388,235,96285,1,0,0:0:0:0:
375,294,96542,1,0,0:0:0:0:
375,294,96628,1,0,0:0:0:0:
405,262,96799,1,8,0:0:0:0:
361,289,97142,1,0,0:0:0:0:
361,289,97313,1,0,0:0:0:0:
402,252,97485,1,8,0:0:0:0:
378,290,97571,1,0,0:0:0:0:
378,290,97656,1,0,0:0:0:0:
404,285,97828,1,0,0:0:0:0:
404,285,97913,1,0,0:0:0:0:
438,241,98171,1,8,0:0:0:0:
429,314,98513,1,0,0:0:0:0:
367,305,98599,1,8,0:0:0:0:
400,287,98685,1,0,0:0:0:0:
400,287,98771,1,0,0:0:0:0:
400,287,98856,1,8,0:0:0:0:
334,271,99028,1,0,0:0:0:0:
348,261,99113,1,8,0:0:0:0:
349,260,99199,1,8,0:0:0:0:
348,261,99285,1,0,0:0:0:0:
400,276,99371,1,8,0:0:0:0:
351,233,99542,1,8,0:0:0:0:
412,283,99628,1,8,0:0:0:0:
384,280,99713,1,0,0:0:0:0:
391,292,99799,1,0,0:0:0:0:
391,292,99885,1,8,0:0:0:0:
398,299,100056,1,0,0:0:0:0:
414,305,100142,1,8,0:0:0:0:
414,305,100228,1,0,0:0:0:0:
424,279,100313,1,0,0:0:0:0:
391,292,100399,1,8,0:0:0:0:
381,285,100571,1,0,0:0:0:0:
381,285,100656,1,0,0:0:0:0:
434,299,100742,1,0,0:0:0:0:
381,285,100828,1,0,0:0:0:0:
449,274,100913,1,12,0:0:0:0:
454,298,101256,1,4,0:0:0:0:
401,304,101599,1,8,0:0:0:0:
382,285,101771,1,0,0:0:0:0:
382,285,102028,1,0,0:0:0:0:
382,285,102113,1,0,0:0:0:0:
391,270,102285,1,8,0:0:0:0:
456,288,102628,1,0,0:0:0:0:
427,301,102799,1,0,0:0:0:0:
427,301,102971,1,8,0:0:0:0:
427,301,103056,1,0,0:0:0:0:
427,301,103142,1,0,0:0:0:0:
396,283,103313,1,0,0:0:0:0:
396,283,103399,1,0,0:0:0:0:
458,254,103656,1,8,0:0:0:0:
376,302,103999,1,8,0:0:0:0:
391,314,104085,1,0,0:0:0:0:
391,314,104171,1,0,0:0:0:0:
393,297,104256,1,8,0:0:0:0:
393,296,104342,1,0,0:0:0:0:
393,297,104428,1,0,0:0:0:0:
392,314,104513,1,8,0:0:0:0:
358,298,104599,1,8,0:0:0:0:
366,298,104685,1,0,0:0:0:0:
369,296,104771,1,8,0:0:0:0:
380,291,104856,1,0,0:0:0:0:
379,291,104942,1,0,0:0:0:0:
380,313,105028,1,8,0:0:0:0:
380,312,105113,1,8,0:0:0:0:
381,302,105199,1,0,0:0:0:0:
387,294,105285,1,8,0:0:0:0:
368,312,105371,1,8,0:0:0:0:
370,306,105456,1,0,0:0:0:0:
381,300,105542,1,8,0:0:0:0:
399,313,105628,1,8,0:0:0:0:
399,313,105713,1,0,0:0:0:0:
399,313,105799,1,8,0:0:0:0:
323,271,105885,1,0,0:0:0:0:
323,271,105928,1,0,0:0:0:0:
323,271,105971,1,0,0:0:0:0:
235,227,106013,1,0,0:0:0:0:
379,299,106056,1,8,0:0:0:0:
366,260,106142,1,8,0:0:0:0:
350,292,106228,1,0,0:0:0:0:
363,243,106285,1,8,0:0:0:0:
363,243,106342,1,8,0:0:0:0:
363,243,106399,1,0,0:0:0:0:
389,270,106485,1,0,0:0:0:0:
378,221,106571,1,8,0:0:0:0:
378,221,106628,1,8,0:0:0:0:
378,221,106685,1,8,0:0:0:0:
452,249,106742,1,4,0:0:0:0:
340,262,106913,1,8,0:0:0:0:
340,262,106999,1,8,0:0:0:0:
340,262,107085,1,0,0:0:0:0:
348,256,107171,1,8,0:0:0:0:
352,253,107256,1,0,0:0:0:0:
395,282,107342,1,0,0:0:0:0:
395,282,107428,1,8,0:0:0:0:
364,264,107485,1,8,0:0:0:0:
365,263,107542,1,8,0:0:0:0:
365,263,107599,1,0,0:0:0:0:
365,263,107656,1,0,0:0:0:0:
364,264,107713,1,0,0:0:0:0:
401,311,107771,1,8,0:0:0:0:
401,311,107828,1,8,0:0:0:0:
401,311,107885,1,0,0:0:0:0:
392,306,107942,1,8,0:0:0:0:
392,306,107999,1,0,0:0:0:0:
394,306,108056,1,0,0:0:0:0:
394,306,108113,1,8,0:0:0:0:
366,277,108199,1,8,0:0:0:0:
366,277,108285,1,8,0:0:0:0:
366,277,108371,1,0,0:0:0:0:
366,277,108456,1,8,0:0:0:0:
366,277,108542,1,8,0:0:0:0:
366,277,108628,1,0,0:0:0:0:
401,301,108713,1,8,0:0:0:0:
387,289,108799,1,8,0:0:0:0:
380,287,108856,1,8,0:0:0:0:
417,304,108913,1,0,0:0:0:0:
417,304,108971,1,0,0:0:0:0:
403,276,109028,1,8,0:0:0:0:
417,304,109085,1,0,0:0:0:0:
417,304,109142,1,8,0:0:0:0:
406,280,109199,1,8,0:0:0:0:
385,261,109256,1,8,0:0:0:0:
384,261,109313,1,0,0:0:0:0:
384,261,109371,1,0,0:0:0:0:
384,260,109428,1,0,0:0:0:0:
385,261,109485,1,8,0:0:0:0:
387,304,109571,1,0,0:0:0:0:
387,304,109656,1,8,0:0:0:0:
387,304,109742,1,8,0:0:0:0:
387,304,109828,1,0,0:0:0:0:
405,321,109913,1,8,0:0:0:0:
401,310,109999,1,0,0:0:0:0:
402,305,110085,1,8,0:0:0:0:
411,314,110171,1,0,0:0:0:0:
344,274,110256,1,8,0:0:0:0:
352,270,110342,1,8,0:0:0:0:
383,283,110428,1,0,0:0:0:0:
383,283,110513,1,8,0:0:0:0:
405,314,110599,1,8,0:0:0:0:
445,328,110685,1,0,0:0:0:0:
375,298,110771,1,0,0:0:0:0:
375,298,110856,1,8,0:0:0:0:
406,300,110913,1,0,0:0:0:0:
396,305,110971,1,0,0:0:0:0:
396,305,111028,1,8,0:0:0:0:
396,305,111085,1,8,0:0:0:0:
399,301,111142,1,0,0:0:0:0:
396,305,111199,1,8,0:0:0:0:
376,266,111256,1,8,0:0:0:0:
340,255,111313,1,8,0:0:0:0:
344,250,111371,1,0,0:0:0:0:
403,283,111428,1,0,0:0:0:0:
403,283,111485,1,0,0:0:0:0:
422,292,111542,1,8,0:0:0:0:
366,267,111628,1,8,0:0:0:0:
366,267,111713,1,0,0:0:0:0:
341,259,111799,1,8,0:0:0:0:
352,275,111885,1,0,0:0:0:0:
352,275,111971,1,8,0:0:0:0:
341,280,112056,1,0,0:0:0:0:
352,275,112142,1,8,0:0:0:0:
403,285,112228,1,4,0:0:0:0:
381,312,112399,1,8,0:0:0:0:
381,312,112485,1,0,0:0:0:0:
381,312,112571,1,8,0:0:0:0:
376,298,112656,1,8,0:0:0:0:
376,298,112742,1,0,0:0:0:0:
381,288,112828,1,0,0:0:0:0:
381,246,112913,1,8,0:0:0:0:
333,247,112971,1,8,0:0:0:0:
333,247,113028,1,8,0:0:0:0:
333,283,113085,1,0,0:0:0:0:
333,283,113142,1,0,0:0:0:0:
341,279,113199,1,0,0:0:0:0:
307,287,113256,1,8,0:0:0:0:
321,274,113313,1,8,0:0:0:0:
347,263,113371,1,0,0:0:0:0:
347,263,113428,1,8,0:0:0:0:
350,262,113485,1,0,0:0:0:0:
350,262,113542,1,0,0:0:0:0:
383,288,113599,1,8,0:0:0:0:
383,288,113685,1,8,0:0:0:0:
383,288,113771,1,8,0:0:0:0:
408,255,113856,1,0,0:0:0:0:
383,288,113942,1,0,0:0:0:0:
381,275,114028,1,8,0:0:0:0:
383,288,114113,1,0,0:0:0:0:
399,276,114199,1,8,0:0:0:0:
392,298,114285,1,0,0:0:0:0:
370,274,114456,1,8,0:0:0:0:
370,274,114499,1,8,0:0:0:0:
370,274,114542,1,8,0:0:0:0:
370,274,114585,1,8,0:0:0:0:
370,274,114628,1,0,0:0:0:0:
342,295,114713,1,0,0:0:0:0:
355,279,114799,1,8,0:0:0:0:
354,279,114885,1,8,0:0:0:0:
443,280,114971,1,4,0:0:0:0:
344,233,115142,1,4,0:0:0:0:
439,273,115313,1,0,0:0:0:0:
391,294,115399,1,8,0:0:0:0:
392,294,115442,1,8,0:0:0:0:
369,284,115485,1,8,0:0:0:0:
412,285,115571,1,8,0:0:0:0:
421,264,115656,1,4,0:0:0:0:
414,262,115828,1,4,0:0:0:0:
392,288,115999,1,8,0:0:0:0:
392,288,116042,1,8,0:0:0:0:
392,288,116085,1,0,0:0:0:0:
392,288,116171,1,8,0:0:0:0:
392,288,116213,1,8,0:0:0:0:
392,288,116256,1,0,0:0:0:0:
392,288,116342,1,12,0:0:0:0:
388,254,116513,1,12,0:0:0:0:
404,299,116685,1,0,0:0:0:0:
389,301,116771,1,8,0:0:0:0:
374,291,116856,1,0,0:0:0:0:
374,291,116942,1,0,0:0:0:0:
385,280,117028,1,8,0:0:0:0:
367,262,117085,1,8,0:0:0:0:
388,260,117142,1,8,0:0:0:0:
387,261,117199,1,0,0:0:0:0:
353,265,117285,1,8,0:0:0:0:
388,260,117371,1,0,0:0:0:0:
372,274,117428,1,0,0:0:0:0:
374,273,117485,1,0,0:0:0:0:
377,269,117542,1,8,0:0:0:0:
379,296,117628,1,8,0:0:0:0:
429,255,117713,1,4,0:0:0:0:
256,192,117885,12,0,120285,0:0:0:0:
364,246,120456,5,4,0:0:0:0:
256,192,120628,12,0,121656,0:0:0:0:
388,297,121828,5,0,0:0:0:0:
378,300,121913,1,0,0:0:0:0:
373,294,121999,1,0,0:0:0:0:
373,294,122085,1,0,0:0:0:0:
390,296,122171,1,8,0:0:0:0:
390,296,122256,1,8,0:0:0:0:
390,296,122342,1,0,0:0:0:0:
390,296,122428,1,0,0:0:0:0:
383,212,122513,1,8,0:0:0:0:
390,227,122571,1,8,0:0:0:0:
391,238,122628,1,8,0:0:0:0:
391,237,122685,1,0,0:0:0:0:
416,260,122771,1,0,0:0:0:0:
356,282,122856,1,8,0:0:0:0:
356,282,122913,1,0,0:0:0:0:
356,282,122971,1,0,0:0:0:0:
366,263,123028,1,8,0:0:0:0:
416,262,123113,1,8,0:0:0:0:
455,288,123199,1,4,0:0:0:0:
311,188,123885,2,4,L|351:155,55,43.75
245,278,125128,2,4,L|347:128,1,164.0625
197,247,125256,2,4,L|398:202,1,196.875004693866
150,118,125385,2,4,L|338:260,1,229.687494523823
307,78,125513,2,4,L|207:229,1,175
256,192,125599,12,0,125856,0:0:0:0:
435,265,125942,5,4,0:0:0:0:
384,239,126456,1,8,0:0:0:0:
384,239,126542,1,8,0:0:0:0:
394,274,126628,1,8,0:0:0:0:
371,268,126892,1,8,0:0:0:0:
448,298,127157,1,4,0:0:0:0:
340,182,127334,1,0,0:0:0:0:
349,271,127379,1,0,0:0:0:0:
397,286,127424,1,8,0:0:0:0:
397,286,127470,1,8,0:0:0:0:
408,256,127515,1,8,0:0:0:0:
438,298,127606,1,4,0:0:0:0:
438,292,127879,1,4,0:0:0:0:
442,259,128154,1,4,0:0:0:0:
399,293,128436,1,8,0:0:0:0:
334,253,128529,1,8,0:0:0:0:
334,253,128623,1,8,0:0:0:0:
334,253,128717,1,8,0:0:0:0:
338,229,128811,1,4,0:0:0:0:
388,297,129391,1,8,0:0:0:0:
388,297,129488,1,8,0:0:0:0:
371,267,129586,1,8,0:0:0:0:
394,285,129886,1,8,0:0:0:0:
443,278,130186,1,4,0:0:0:0:
402,303,130386,1,0,0:0:0:0:
402,303,130437,1,0,0:0:0:0:
400,293,130489,1,0,0:0:0:0:
398,286,130541,1,0,0:0:0:0:
401,275,130592,1,8,0:0:0:0:
435,261,130696,1,4,0:0:0:0:
379,279,130903,1,8,0:0:0:0:
435,292,131006,1,4,0:0:0:0:
427,274,131320,1,4,0:0:0:0:
384,276,131427,1,8,0:0:0:0:
384,276,131534,1,8,0:0:0:0:
256,192,131641,12,0,131963,0:0:0:0:
390,288,132070,5,8,0:0:0:0:
315,268,132181,1,0,0:0:0:0:
315,268,132292,1,0,0:0:0:0:
315,268,132403,1,8,0:0:0:0:
341,297,132514,1,0,0:0:0:0:
331,288,132625,1,0,0:0:0:0:
329,287,132736,1,8,0:0:0:0:
394,287,132847,1,8,0:0:0:0:
317,285,132958,1,0,0:0:0:0:
323,282,133070,1,8,0:0:0:0:
323,279,133181,1,8,0:0:0:0:
323,282,133292,1,0,0:0:0:0:
381,307,133403,1,8,0:0:0:0:
341,271,133458,1,8,0:0:0:0:
371,276,133514,1,0,0:0:0:0:
371,276,133570,1,0,0:0:0:0:
326,293,133625,1,8,0:0:0:0:
349,288,133681,1,0,0:0:0:0:
351,285,133736,1,0,0:0:0:0:
360,276,133792,1,0,0:0:0:0:
360,275,133847,1,8,0:0:0:0:
426,303,133958,1,0,0:0:0:0:
416,288,134070,1,0,0:0:0:0:
416,288,134181,1,8,0:0:0:0:
416,288,134292,1,0,0:0:0:0:
416,288,134403,1,0,0:0:0:0:
416,288,134514,1,8,0:0:0:0:
416,288,134625,1,8,0:0:0:0:
413,277,134736,1,0,0:0:0:0:
411,274,134847,1,8,0:0:0:0:
413,277,134958,1,8,0:0:0:0:
418,285,135070,1,0,0:0:0:0:
392,259,135181,1,8,0:0:0:0:
392,259,135236,1,8,0:0:0:0:
375,250,135292,1,8,0:0:0:0:
375,250,135347,1,8,0:0:0:0:
375,250,135403,1,0,0:0:0:0:
375,250,135458,1,0,0:0:0:0:
375,250,135514,1,0,0:0:0:0:
375,250,135570,1,0,0:0:0:0:
440,279,135625,1,8,0:0:0:0:
353,255,135681,1,0,0:0:0:0:
353,255,135736,1,0,0:0:0:0:
349,255,135792,1,0,0:0:0:0:
353,255,135847,1,8,0:0:0:0:
359,250,135903,1,8,0:0:0:0:
369,241,135958,1,0,0:0:0:0:
369,241,136014,1,0,0:0:0:0:
395,291,136070,1,8,0:0:0:0:
395,291,136125,1,8,0:0:0:0:
395,291,136181,1,8,0:0:0:0:
395,291,136236,1,0,0:0:0:0:
405,279,136292,1,8,0:0:0:0:
406,279,136347,1,8,0:0:0:0:
406,279,136403,1,0,0:0:0:0:
406,279,136458,1,0,0:0:0:0:
376,289,136514,1,8,0:0:0:0:
406,279,136551,1,8,0:0:0:0:
402,304,136588,1,8,0:0:0:0:
320,264,136625,1,0,0:0:0:0:
371,223,136681,1,0,0:0:0:0:
402,304,136736,1,8,0:0:0:0:
368,272,136773,1,8,0:0:0:0:
402,304,136810,1,8,0:0:0:0:
300,229,136847,1,0,0:0:0:0:
399,294,136903,1,0,0:0:0:0:
415,296,136958,1,8,0:0:0:0:
316,289,136995,1,8,0:0:0:0:
316,289,137032,1,8,0:0:0:0:
316,289,137070,1,0,0:0:0:0:
410,298,137107,1,0,0:0:0:0:
365,273,137144,1,0,0:0:0:0:
410,298,137181,1,8,0:0:0:0:
410,298,137236,1,8,0:0:0:0:
410,298,137292,1,8,0:0:0:0:
410,298,137347,1,8,0:0:0:0:
449,263,137403,1,4,0:0:0:0:
256,192,137847,12,0,138625,0:0:0:0:
402,308,138736,5,0,0:0:0:0:
402,308,138810,1,0,0:0:0:0:
402,308,138884,1,0,0:0:0:0:
402,308,138958,1,8,0:0:0:0:
402,308,139032,1,8,0:0:0:0:
402,308,139107,1,8,0:0:0:0:
448,248,139181,1,4,0:0:0:0:
353,277,139514,1,0,0:0:0:0:
424,297,139736,1,0,0:0:0:0:
404,251,139847,1,0,0:0:0:0:
424,297,139958,1,8,0:0:0:0:
378,286,140181,1,0,0:0:0:0:
378,286,140292,1,8,0:0:0:0:
378,286,140403,1,8,0:0:0:0:
378,286,140625,1,0,0:0:0:0:
378,286,140736,1,8,0:0:0:0:
378,286,140847,1,8,0:0:0:0:
438,308,140958,1,0,0:0:0:0:
416,287,141070,1,8,0:0:0:0:
416,287,141181,1,0,0:0:0:0:
416,287,141292,1,0,0:0:0:0:
404,299,141403,1,8,0:0:0:0:
405,288,141514,1,0,0:0:0:0:
396,285,141625,1,8,0:0:0:0:
396,285,141736,1,8,0:0:0:0:
396,285,141847,1,8,0:0:0:0:
414,307,141958,1,0,0:0:0:0:
414,307,142070,1,8,0:0:0:0:
390,300,142292,1,8,0:0:0:0:
390,300,142347,1,8,0:0:0:0:
390,300,142403,1,0,0:0:0:0:
390,300,142458,1,0,0:0:0:0:
390,300,142514,1,8,0:0:0:0:
436,271,142736,1,4,0:0:0:0:
422,300,142958,1,8,0:0:0:0:
387,291,143070,1,0,0:0:0:0:
387,291,143181,1,0,0:0:0:0:
387,291,143401,1,8,0:0:0:0:
387,291,143511,1,8,0:0:0:0:
361,258,143623,1,0,0:0:0:0:
396,261,143732,1,0,0:0:0:0:
387,291,143841,1,8,0:0:0:0:
387,291,143951,1,8,0:0:0:0:
387,291,144061,1,0,0:0:0:0:
407,321,144169,1,8,0:0:0:0:
375,297,144278,1,8,0:0:0:0:
392,304,144387,1,8,0:0:0:0:
409,283,144495,1,0,0:0:0:0:
399,308,144602,1,8,0:0:0:0:
399,308,144656,1,8,0:0:0:0:
399,308,144710,1,8,0:0:0:0:
411,291,144818,1,8,0:0:0:0:
417,318,144927,1,0,0:0:0:0:
417,318,145034,1,0,0:0:0:0:
426,228,145141,1,8,0:0:0:0:
391,304,145248,1,0,0:0:0:0:
391,304,145356,1,8,0:0:0:0:
403,276,145462,1,8,0:0:0:0:
402,275,145568,1,0,0:0:0:0:
379,299,145675,1,0,0:0:0:0:
394,284,145781,1,8,0:0:0:0:
398,304,145992,1,0,0:0:0:0:
424,296,146097,1,0,0:0:0:0:
438,289,146204,1,12,0:0:0:0:
384,310,146413,1,0,0:0:0:0:
384,310,146518,1,8,0:0:0:0:
398,253,146623,1,0,0:0:0:0:
405,297,146831,1,8,0:0:0:0:
399,304,146935,1,8,0:0:0:0:
399,304,147040,1,0,0:0:0:0:
378,322,147143,1,0,0:0:0:0:
399,304,147246,1,8,0:0:0:0:
396,303,147350,1,8,0:0:0:0:
407,316,147454,1,0,0:0:0:0:
381,301,147556,1,8,0:0:0:0:
381,301,147659,1,8,0:0:0:0:
418,311,147762,1,0,0:0:0:0:
398,322,147865,1,8,0:0:0:0:
390,304,147967,1,0,0:0:0:0:
390,304,148069,1,0,0:0:0:0:
390,304,148171,1,8,0:0:0:0:
361,305,148273,1,0,0:0:0:0:
361,305,148374,1,0,0:0:0:0:
361,305,148475,1,8,0:0:0:0:
361,305,148577,1,8,0:0:0:0:
376,275,148678,1,0,0:0:0:0:
361,312,148778,1,8,0:0:0:0:
361,312,148879,1,8,0:0:0:0:
368,289,148980,1,8,0:0:0:0:
369,315,149081,1,0,0:0:0:0:
369,315,149181,1,8,0:0:0:0:
416,306,149281,1,0,0:0:0:0:
406,280,149381,1,8,0:0:0:0:
437,266,149481,1,4,0:0:0:0:
388,319,149679,1,8,0:0:0:0:
388,319,149779,1,0,0:0:0:0:
388,319,149878,1,0,0:0:0:0:
388,319,150075,1,8,0:0:0:0:
388,319,150174,1,8,0:0:0:0:
388,319,150273,1,0,0:0:0:0:
386,284,150371,1,0,0:0:0:0:
386,284,150469,1,8,0:0:0:0:
386,284,150567,1,8,0:0:0:0:
373,304,150665,1,0,0:0:0:0:
380,304,150762,1,8,0:0:0:0:
380,303,150859,1,8,0:0:0:0:
380,304,150957,1,8,0:0:0:0:
400,274,151055,1,0,0:0:0:0:
400,316,151151,1,0,0:0:0:0:
355,243,151248,1,8,0:0:0:0:
355,243,151296,1,8,0:0:0:0:
355,243,151345,1,8,0:0:0:0:
355,243,151393,1,8,0:0:0:0:
401,320,151442,1,0,0:0:0:0:
391,312,151538,1,0,0:0:0:0:
391,312,151586,1,0,0:0:0:0:
391,312,151634,1,8,0:0:0:0:
406,311,151730,1,8,0:0:0:0:
406,311,151778,1,8,0:0:0:0:
406,311,151826,1,0,0:0:0:0:
380,307,151921,1,8,0:0:0:0:
380,307,152017,1,8,0:0:0:0:
406,308,152112,1,8,0:0:0:0:
406,308,152209,1,0,0:0:0:0:
406,308,152256,1,0,0:0:0:0:
407,293,152303,1,8,0:0:0:0:
407,293,152398,1,8,0:0:0:0:
407,293,152493,1,8,0:0:0:0:
416,285,152541,1,8,0:0:0:0:
416,285,152588,1,0,0:0:0:0:
286,277,153342,2,4,L|282:216,1,52.5
229,292,153484,2,4,L|221:212,1,76.242037623765
294,305,153625,2,4,L|292:188,1,99.8168816972212
367,312,153767,2,4,L|360:168,1,123.558912093772
324,316,153908,2,4,L|310:160,1,147.133750811838
206,313,154050,2,4,L|213:129,1,170.875800932205
256,308,154188,2,4,L|265:106,1,193.949041758509
306,322,154325,2,4,L|302:99,1,216.855094079248
222,322,154461,2,4,L|228:77,1,239.593942917438
162,336,154598,2,4,L|381:185,1,262.5
340,262,154825,1,12,0:0:0:0:
436,243,155007,1,12,0:0:0:0:
450,292,155188,1,4,0:0:0:0:
442,268,155552,1,12,0:0:0:0:
427,281,155916,1,0,0:0:0:0:
366,227,155976,1,8,0:0:0:0:
369,234,156036,1,8,0:0:0:0:
422,300,156096,1,0,0:0:0:0:
422,300,156187,1,0,0:0:0:0:
366,250,156277,1,8,0:0:0:0:
417,322,156366,1,8,0:0:0:0:
417,322,156456,1,0,0:0:0:0:
417,322,156546,1,8,0:0:0:0:
420,314,156637,1,8,0:0:0:0:
382,281,156696,1,0,0:0:0:0:
337,256,156756,1,0,0:0:0:0:
382,281,156815,1,8,0:0:0:0:
410,273,156904,1,8,0:0:0:0:
391,259,156994,1,0,0:0:0:0:
437,329,157082,1,8,0:0:0:0:
437,329,157171,1,8,0:0:0:0:
437,329,157260,1,0,0:0:0:0:
402,292,157349,1,8,0:0:0:0:
409,273,157407,1,8,0:0:0:0:
291,265,157466,1,8,0:0:0:0:
389,301,157525,1,0,0:0:0:0:
420,301,157584,1,0,0:0:0:0:
420,301,157643,1,0,0:0:0:0:
385,300,157702,1,8,0:0:0:0:
387,283,157789,1,8,0:0:0:0:
388,282,157877,1,0,0:0:0:0:
415,274,157965,1,0,0:0:0:0:
348,232,158053,1,8,0:0:0:0:
352,266,158111,1,0,0:0:0:0:
352,266,158169,1,0,0:0:0:0:
352,266,158227,1,8,0:0:0:0:
395,283,158314,1,8,0:0:0:0:
439,285,158402,1,4,0:0:0:0:
383,237,158748,1,8,0:0:0:0:
403,276,158805,1,8,0:0:0:0:
412,313,158862,1,0,0:0:0:0:
411,304,158920,1,0,0:0:0:0:
277,237,159093,1,8,0:0:0:0:
391,295,159178,1,8,0:0:0:0:
391,295,159264,1,0,0:0:0:0:
391,295,159350,1,0,0:0:0:0:
365,293,159436,1,8,0:0:0:0:
408,301,159492,1,0,0:0:0:0:
408,301,159549,1,0,0:0:0:0:
408,301,159606,1,8,0:0:0:0:
324,264,159663,1,8,0:0:0:0:
370,269,159720,1,8,0:0:0:0:
404,306,159777,1,0,0:0:0:0:
391,266,160031,1,8,0:0:0:0:
391,266,160116,1,0,0:0:0:0:
372,293,160172,1,0,0:0:0:0:
372,293,160228,1,0,0:0:0:0:
372,293,160284,1,8,0:0:0:0:
388,278,160340,1,8,0:0:0:0:
384,252,160396,1,8,0:0:0:0:
429,300,160453,1,0,0:0:0:0:
412,315,160536,1,8,0:0:0:0:
412,315,160620,1,0,0:0:0:0:
422,297,160704,1,0,0:0:0:0:
430,278,160788,1,8,0:0:0:0:
391,271,160843,1,8,0:0:0:0:
391,271,160899,1,8,0:0:0:0:
425,327,160954,1,0,0:0:0:0:
451,281,161122,1,12,0:0:0:0:
391,301,161453,1,0,0:0:0:0:
412,279,161507,1,8,0:0:0:0:
412,279,161562,1,8,0:0:0:0:
412,279,161617,1,0,0:0:0:0:
395,301,161783,1,8,0:0:0:0:
352,283,161864,1,8,0:0:0:0:
362,279,161946,1,0,0:0:0:0:
362,279,162028,1,8,0:0:0:0:
410,271,162111,1,8,0:0:0:0:
341,273,162165,1,0,0:0:0:0:
341,273,162219,1,0,0:0:0:0:
341,273,162274,1,8,0:0:0:0:
341,273,162328,1,8,0:0:0:0:
341,273,162382,1,8,0:0:0:0:
341,273,162437,1,0,0:0:0:0:
348,289,162518,1,8,0:0:0:0:
350,288,162599,1,8,0:0:0:0:
355,285,162680,1,8,0:0:0:0:
350,288,162761,1,0,0:0:0:0:
366,283,162814,1,8,0:0:0:0:
338,257,162868,1,8,0:0:0:0:
416,324,162922,1,0,0:0:0:0:
383,256,163002,1,0,0:0:0:0:
383,256,163084,1,8,0:0:0:0:
372,305,163164,1,8,0:0:0:0:
372,305,163244,1,0,0:0:0:0:
372,305,163324,1,8,0:0:0:0:
382,297,163404,1,0,0:0:0:0:
382,297,163483,1,0,0:0:0:0:
382,297,163563,1,0,0:0:0:0:
382,297,163643,1,0,0:0:0:0:
397,292,163724,1,12,0:0:0:0:
313,266,164041,1,0,0:0:0:0:
405,287,164198,1,12,0:0:0:0:
348,254,164514,1,0,0:0:0:0:
405,287,164671,1,12,0:0:0:0:
399,294,164983,1,0,0:0:0:0:
446,247,165138,1,12,0:0:0:0:
417,297,165448,1,0,0:0:0:0:
417,297,165604,1,12,0:0:0:0:
362,308,165757,1,0,0:0:0:0:
367,272,165834,1,0,0:0:0:0:
374,267,165911,1,8,0:0:0:0:
397,285,165962,1,8,0:0:0:0:
397,286,166013,1,8,0:0:0:0:
408,273,166064,1,0,0:0:0:0:
444,280,166217,1,12,0:0:0:0:
408,311,166521,1,0,0:0:0:0:
408,311,166572,1,0,0:0:0:0:
403,293,166623,1,0,0:0:0:0:
408,276,166673,1,8,0:0:0:0:
414,282,166826,1,8,0:0:0:0:
374,273,166902,1,0,0:0:0:0:
388,256,166978,1,8,0:0:0:0:
372,308,167054,1,0,0:0:0:0:
382,288,167130,1,8,0:0:0:0:
382,287,167206,1,8,0:0:0:0:
386,273,167282,1,0,0:0:0:0:
378,306,167435,1,8,0:0:0:0:
377,275,167511,1,0,0:0:0:0:
377,275,167587,1,8,0:0:0:0:
377,275,167663,1,0,0:0:0:0:
377,275,167739,1,8,0:0:0:0:
377,275,167815,1,8,0:0:0:0:
377,275,167892,1,0,0:0:0:0:
256,192,168044,12,0,168501,0:0:0:0:
361,274,168654,5,8,0:0:0:0:
337,266,168729,1,8,0:0:0:0:
376,265,168804,1,0,0:0:0:0:
376,265,168879,1,0,0:0:0:0:
316,284,168954,1,8,0:0:0:0:
352,270,169029,1,8,0:0:0:0:
352,270,169104,1,0,0:0:0:0:
362,258,169179,1,0,0:0:0:0:
338,296,169254,1,8,0:0:0:0:
338,296,169329,1,8,0:0:0:0:
347,288,169404,1,8,0:0:0:0:
347,287,169479,1,0,0:0:0:0:
347,284,169554,1,8,0:0:0:0:
347,288,169629,1,8,0:0:0:0:
347,287,169704,1,8,0:0:0:0:
347,284,169779,1,0,0:0:0:0:
381,319,169854,1,8,0:0:0:0:
381,303,169904,1,0,0:0:0:0:
381,304,169954,1,0,0:0:0:0:
391,292,170004,1,8,0:0:0:0:
363,290,170079,1,8,0:0:0:0:
416,237,170154,1,0,0:0:0:0:
379,253,170204,1,8,0:0:0:0:
379,253,170254,1,8,0:0:0:0:
398,227,170304,1,0,0:0:0:0:
416,272,170379,1,0,0:0:0:0:
423,303,170454,1,8,0:0:0:0:
381,288,170604,1,0,0:0:0:0:
401,285,170754,1,8,0:0:0:0:
401,285,170829,1,8,0:0:0:0:
343,252,170904,1,0,0:0:0:0:
432,290,171054,1,12,0:0:0:0:
388,304,171354,1,12,0:0:0:0:
380,284,171654,1,12,0:0:0:0:
380,284,171954,1,12,0:0:0:0:
379,284,172254,1,12,0:0:0:0:
379,284,172554,1,12,0:0:0:0:
379,284,172854,1,12,0:0:0:0:
367,278,173304,1,0,0:0:0:0:
367,278,173379,1,0,0:0:0:0:
424,300,173454,1,0,0:0:0:0:
432,311,173754,1,0,0:0:0:0:
417,270,173903,1,8,0:0:0:0:
417,270,174052,1,0,0:0:0:0:
417,270,174201,1,8,0:0:0:0:
417,270,174351,1,0,0:0:0:0:
433,293,174573,1,0,0:0:0:0:
433,293,174648,1,0,0:0:0:0:
433,293,174795,1,8,0:0:0:0:
433,293,174944,1,0,0:0:0:0:
406,305,175238,1,0,0:0:0:0:
406,306,175530,1,0,0:0:0:0:
406,306,175675,1,0,0:0:0:0:
406,306,175822,1,0,0:0:0:0:
428,305,176112,1,0,0:0:0:0:
428,305,176400,1,0,0:0:0:0:
428,305,176543,1,8,0:0:0:0:
418,283,176687,1,0,0:0:0:0:
418,283,176829,1,8,0:0:0:0:
452,293,176973,1,8,0:0:0:0:
405,293,177115,1,8,0:0:0:0:
405,293,177186,1,8,0:0:0:0:
409,300,177257,1,0,0:0:0:0:
400,305,177327,1,8,0:0:0:0:
366,288,177374,1,8,0:0:0:0:
357,279,177422,1,0,0:0:0:0:
357,279,177469,1,0,0:0:0:0:
366,288,177540,1,8,0:0:0:0:
389,313,177751,1,0,0:0:0:0:
389,313,177822,1,8,0:0:0:0:
398,306,177962,1,8,0:0:0:0:
438,312,178102,1,0,0:0:0:0:
438,312,178171,1,0,0:0:0:0:
451,321,178381,1,0,0:0:0:0:
421,319,178519,1,8,0:0:0:0:
421,319,178659,1,0,0:0:0:0:
421,319,178797,1,8,0:0:0:0:
421,319,178936,1,0,0:0:0:0:
423,292,179073,1,8,0:0:0:0:
424,300,179211,1,8,0:0:0:0:
424,300,179279,1,8,0:0:0:0:
424,300,179347,1,0,0:0:0:0:
424,300,179416,1,0,0:0:0:0:
424,300,179485,1,8,0:0:0:0:
413,315,179689,1,8,0:0:0:0:
413,315,179757,1,0,0:0:0:0:
413,315,179892,1,0,0:0:0:0:
413,315,180029,1,0,0:0:0:0:
324,231,180299,1,4,0:0:0:0:
216,236,180837,2,4,L|115:256,1,78.7500030040742
245,245,180938,2,4,L|342:324,1,124.687501189113
247,263,181038,2,4,L|402:190,1,170.625004881621
276,261,181139,2,4,L|253:36,1,216.562502065301
299,260,181240,2,4,L|93:86,1,262.5
357,272,181375,1,8,0:0:0:0:
366,263,181461,1,8,0:0:0:0:
357,272,181548,1,8,0:0:0:0:
353,268,181635,1,8,0:0:0:0:
357,272,181722,1,8,0:0:0:0:
353,268,181809,1,8,0:0:0:0:
424,271,181896,1,4,0:0:0:0:
377,253,182418,1,12,0:0:0:0:
373,284,182680,1,0,0:0:0:0:
336,277,182853,1,0,0:0:0:0:
373,266,182940,1,8,0:0:0:0:
324,298,182983,1,8,0:0:0:0:
324,298,183026,1,8,0:0:0:0:
375,293,183112,1,8,0:0:0:0:
388,315,183198,1,0,0:0:0:0:
379,306,183369,1,8,0:0:0:0:
395,293,183456,1,0,0:0:0:0:
396,293,183498,1,0,0:0:0:0:
396,293,183541,1,8,0:0:0:0:
420,273,183626,1,8,0:0:0:0:
457,297,183712,1,0,0:0:0:0:
402,288,183882,1,0,0:0:0:0:
425,293,183967,1,8,0:0:0:0:
386,298,184009,1,8,0:0:0:0:
386,298,184051,1,8,0:0:0:0:
400,294,184136,1,0,0:0:0:0:
358,259,184222,1,8,0:0:0:0:
358,259,184264,1,8,0:0:0:0:
358,259,184306,1,0,0:0:0:0:
358,259,184348,1,0,0:0:0:0:
358,259,184390,1,8,0:0:0:0:
437,268,184475,1,4,0:0:0:0:
401,277,184727,1,8,0:0:0:0:
348,296,184894,1,0,0:0:0:0:
415,280,184978,1,8,0:0:0:0:
384,280,185019,1,8,0:0:0:0:
384,280,185061,1,8,0:0:0:0:
450,303,185144,1,0,0:0:0:0:
450,303,185228,1,8,0:0:0:0:
416,331,185393,1,8,0:0:0:0:
345,266,185477,1,0,0:0:0:0:
345,266,185518,1,0,0:0:0:0:
378,287,185559,1,8,0:0:0:0:
403,296,185642,1,8,0:0:0:0:
427,329,185725,1,0,0:0:0:0:
427,329,185807,1,8,0:0:0:0:
390,302,185889,1,0,0:0:0:0:
390,302,185972,1,8,0:0:0:0:
425,312,186012,1,8,0:0:0:0:
390,302,186053,1,8,0:0:0:0:
364,323,186135,1,8,0:0:0:0:
305,265,186218,1,0,0:0:0:0:
437,328,186258,1,0,0:0:0:0:
404,255,186299,1,8,0:0:0:0:
371,280,186381,1,0,0:0:0:0:
449,302,186463,1,12,0:0:0:0:
423,299,186706,1,8,0:0:0:0:
383,309,186867,1,0,0:0:0:0:
405,295,186949,1,8,0:0:0:0:
390,277,186989,1,8,0:0:0:0:
383,309,187029,1,0,0:0:0:0:
378,308,187110,1,0,0:0:0:0:
378,308,187191,1,8,0:0:0:0:
410,329,187351,1,8,0:0:0:0:
419,315,187432,1,0,0:0:0:0:
382,320,187472,1,0,0:0:0:0:
382,320,187512,1,8,0:0:0:0:
382,320,187592,1,0,0:0:0:0:
419,323,187672,1,0,0:0:0:0:
416,329,187831,1,0,0:0:0:0:
401,327,187911,1,8,0:0:0:0:
395,308,187950,1,8,0:0:0:0:
406,317,188030,1,0,0:0:0:0:
418,290,188069,1,0,0:0:0:0:
395,305,188149,1,8,0:0:0:0:
352,286,188188,1,8,0:0:0:0:
421,327,188228,1,0,0:0:0:0:
422,304,188267,1,0,0:0:0:0:
427,322,188307,1,8,0:0:0:0:
376,244,188387,1,4,0:0:0:0:
256,192,188505,12,0,189208,0:0:0:0:
287,281,189326,5,0,0:0:0:0:
329,267,189442,1,0,0:0:0:0:
374,315,189559,1,0,0:0:0:0:
374,315,189616,1,0,0:0:0:0:
374,315,189674,1,0,0:0:0:0:
374,315,189732,1,0,0:0:0:0:
427,307,189790,1,8,0:0:0:0:
427,307,189905,1,8,0:0:0:0:
427,307,189963,1,8,0:0:0:0:
427,307,190021,1,0,0:0:0:0:
431,329,190135,1,8,0:0:0:0:
451,304,190251,1,4,0:0:0:0:
377,300,190709,1,8,0:0:0:0:
309,245,190785,1,0,0:0:0:0:
314,292,190861,1,0,0:0:0:0:
415,323,190938,1,8,0:0:0:0:
421,285,191014,1,8,0:0:0:0:
362,285,191090,1,0,0:0:0:0:
410,285,191167,1,8,0:0:0:0:
390,290,191224,1,8,0:0:0:0:
393,283,191281,1,0,0:0:0:0:
390,290,191338,1,8,0:0:0:0:
390,290,191396,1,0,0:0:0:0:
362,244,191453,1,0,0:0:0:0:
421,310,191510,1,8,0:0:0:0:
370,242,191567,1,0,0:0:0:0:
376,238,191625,1,8,0:0:0:0:
377,240,191682,1,8,0:0:0:0:
378,238,191739,1,0,0:0:0:0:
371,318,191796,1,0,0:0:0:0:
371,318,191854,1,8,0:0:0:0:
382,314,191911,1,0,0:0:0:0:
394,306,191968,1,8,0:0:0:0:
397,303,192025,1,8,0:0:0:0:
400,294,192083,1,8,0:0:0:0:
335,253,192312,1,0,0:0:0:0:
469,264,192541,1,0,0:0:0:0:
428,318,192617,1,0,0:0:0:0:
413,295,192693,1,8,0:0:0:0:
435,282,192770,1,8,0:0:0:0:
390,267,192846,1,8,0:0:0:0:
446,277,192922,1,0,0:0:0:0:
411,298,192999,1,8,0:0:0:0:
410,296,193056,1,8,0:0:0:0:
394,287,193113,1,8,0:0:0:0:
393,285,193170,1,8,0:0:0:0:
396,279,193228,1,0,0:0:0:0:
397,275,193285,1,0,0:0:0:0:
401,296,193342,1,8,0:0:0:0:
386,277,193399,1,0,0:0:0:0:
386,277,193457,1,8,0:0:0:0:
395,284,193514,1,8,0:0:0:0:
413,288,193571,1,0,0:0:0:0:
394,283,193628,1,0,0:0:0:0:
407,310,193686,1,8,0:0:0:0:
405,273,193743,1,8,0:0:0:0:
421,312,193800,1,8,0:0:0:0:
431,309,193857,1,0,0:0:0:0:
403,299,193915,1,8,0:0:0:0:
435,312,194373,1,8,0:0:0:0:
419,307,195060,1,0,0:0:0:0:
421,300,195289,1,8,0:0:0:0:
408,295,195365,1,0,0:0:0:0:
408,295,195441,1,0,0:0:0:0:
416,281,195518,1,8,0:0:0:0:
408,295,195594,1,8,0:0:0:0:
408,295,195670,1,8,0:0:0:0:
409,321,195747,1,0,0:0:0:0:
389,273,195804,1,8,0:0:0:0:
391,269,195861,1,0,0:0:0:0:
395,266,195918,1,0,0:0:0:0:
395,265,195976,1,8,0:0:0:0:
396,263,196033,1,8,0:0:0:0:
417,266,196090,1,8,0:0:0:0:
417,266,196147,1,0,0:0:0:0:
417,266,196205,1,8,0:0:0:0:
403,319,196262,1,0,0:0:0:0:
423,293,196319,1,0,0:0:0:0:
403,319,196376,1,0,0:0:0:0:
422,293,196434,1,8,0:0:0:0:
271,277,196510,1,0,0:0:0:0:
284,270,196586,1,0,0:0:0:0:
301,276,196663,1,8,0:0:0:0:
416,319,196739,1,8,0:0:0:0:
416,319,196815,1,8,0:0:0:0:
386,282,196892,1,0,0:0:0:0:
416,319,196968,1,0,0:0:0:0:
412,312,197044,1,0,0:0:0:0:
411,297,197121,1,8,0:0:0:0:
411,297,197197,1,0,0:0:0:0:
411,297,197273,1,0,0:0:0:0:
411,297,197350,1,8,0:0:0:0:
400,287,197426,1,8,0:0:0:0:
400,287,197502,1,8,0:0:0:0:
461,268,197579,1,4,0:0:0:0:
416,291,197808,1,8,0:0:0:0:
357,297,198037,1,0,0:0:0:0:
381,254,198151,1,8,0:0:0:0:
381,254,198189,1,8,0:0:0:0:
330,254,198228,1,0,0:0:0:0:
381,254,198266,1,0,0:0:0:0:
420,250,198380,1,8,0:0:0:0:
444,297,198495,1,8,0:0:0:0:
415,297,198552,1,8,0:0:0:0:
399,289,198609,1,0,0:0:0:0:
399,289,198667,1,8,0:0:0:0:
399,287,198724,1,0,0:0:0:0:
388,275,198781,1,0,0:0:0:0:
375,278,198838,1,8,0:0:0:0:
375,274,198896,1,0,0:0:0:0:
382,267,198953,1,8,0:0:0:0:
383,266,199010,1,8,0:0:0:0:
397,268,199067,1,8,0:0:0:0:
377,267,199125,1,8,0:0:0:0:
388,262,199182,1,0,0:0:0:0:
383,266,199239,1,0,0:0:0:0:
396,258,199296,1,8,0:0:0:0:
397,258,199354,1,0,0:0:0:0:
398,252,199411,1,8,0:0:0:0:
450,267,199640,1,8,0:0:0:0:
448,334,199869,1,0,0:0:0:0:
396,272,199983,1,8,0:0:0:0:
416,292,200021,1,0,0:0:0:0:
416,292,200060,1,0,0:0:0:0:
416,292,200098,1,8,0:0:0:0:
422,274,200212,1,8,0:0:0:0:
313,285,200327,1,0,0:0:0:0:
324,283,200384,1,0,0:0:0:0:
330,280,200441,1,8,0:0:0:0:
330,280,200499,1,8,0:0:0:0:
345,270,200556,1,0,0:0:0:0:
345,270,200613,1,8,0:0:0:0:
345,270,200670,1,8,0:0:0:0:
345,270,200728,1,8,0:0:0:0:
415,283,200785,1,0,0:0:0:0:
415,283,200842,1,8,0:0:0:0:
415,283,200899,1,0,0:0:0:0:
415,283,200957,1,8,0:0:0:0:
395,280,201014,1,0,0:0:0:0:
395,280,201071,1,0,0:0:0:0:
425,234,201128,1,0,0:0:0:0:
395,280,201186,1,0,0:0:0:0:
446,190,201243,1,8,0:0:0:0:
404,288,201357,1,8,0:0:0:0:
404,288,201472,1,0,0:0:0:0:
404,288,201529,1,0,0:0:0:0:
395,283,201586,1,8,0:0:0:0:
395,283,201644,1,8,0:0:0:0:
395,283,201701,1,0,0:0:0:0:
438,254,201730,1,8,0:0:0:0:
395,283,201815,1,0,0:0:0:0:
400,244,201844,1,8,0:0:0:0:
414,306,201930,1,8,0:0:0:0:
365,289,201959,1,8,0:0:0:0:
414,306,202044,1,8,0:0:0:0:
379,276,202073,1,8,0:0:0:0:
437,285,202159,1,0,0:0:0:0:
397,286,202273,1,0,0:0:0:0:
397,286,202388,1,8,0:0:0:0:
346,258,202445,1,8,0:0:0:0:
402,302,202502,1,0,0:0:0:0:
402,302,202560,1,0,0:0:0:0:
404,293,202617,1,8,0:0:0:0:
415,293,202646,1,0,0:0:0:0:
401,277,202731,1,8,0:0:0:0:
415,293,202760,1,0,0:0:0:0:
440,272,202846,1,8,0:0:0:0:
440,272,202875,1,8,0:0:0:0:
440,272,202960,1,8,0:0:0:0:
440,272,202989,1,8,0:0:0:0:
436,289,203075,1,0,0:0:0:0:
388,259,203189,1,8,0:0:0:0:
420,299,203304,1,0,0:0:0:0:
420,299,203361,1,0,0:0:0:0:
420,299,203418,1,0,0:0:0:0:
420,299,203476,1,0,0:0:0:0:
420,299,203533,1,8,0:0:0:0:
422,307,203562,1,8,0:0:0:0:
421,307,203647,1,8,0:0:0:0:
421,307,203676,1,8,0:0:0:0:
348,241,203762,1,0,0:0:0:0:
410,234,203819,1,8,0:0:0:0:
410,234,203876,1,0,0:0:0:0:
410,234,203934,1,0,0:0:0:0:
454,321,203991,1,8,0:0:0:0:
399,306,204048,1,0,0:0:0:0:
399,306,204105,1,0,0:0:0:0:
399,306,204163,1,0,0:0:0:0:
399,306,204220,1,8,0:0:0:0:
400,297,204277,1,8,0:0:0:0:
400,297,204334,1,8,0:0:0:0:
400,297,204392,1,8,0:0:0:0:
385,300,204449,1,0,0:0:0:0:
376,287,204487,1,0,0:0:0:0:
376,283,204525,1,0,0:0:0:0:
377,283,204563,1,8,0:0:0:0:
425,251,204621,1,8,0:0:0:0:
377,283,204678,1,0,0:0:0:0:
425,271,204716,1,0,0:0:0:0:
425,271,204754,1,0,0:0:0:0:
425,271,204792,1,8,0:0:0:0:
440,296,204907,1,12,0:0:0:0:
446,267,205250,1,12,0:0:0:0:
454,308,205365,1,0,0:0:0:0:
416,302,205594,1,0,0:0:0:0:
416,302,205651,1,0,0:0:0:0:
416,302,205709,1,0,0:0:0:0:
416,302,205766,1,0,0:0:0:0:
431,268,205823,1,12,0:0:0:0:
423,290,205938,1,0,0:0:0:0:
403,270,206167,1,12,0:0:0:0:
455,296,206281,1,0,0:0:0:0:
424,253,206396,1,8,0:0:0:0:
399,300,206510,1,0,0:0:0:0:
399,300,206567,1,0,0:0:0:0:
399,300,206625,1,0,0:0:0:0:
399,300,206682,1,0,0:0:0:0:
404,294,206739,1,8,0:0:0:0:
433,310,206854,1,0,0:0:0:0:
431,313,206968,1,8,0:0:0:0:
433,310,207083,1,0,0:0:0:0:
431,313,207140,1,8,0:0:0:0:
431,313,207197,1,0,0:0:0:0:
436,296,207254,1,0,0:0:0:0:
436,296,207312,1,8,0:0:0:0:
433,346,207426,1,0,0:0:0:0:
433,346,207483,1,8,0:0:0:0:
429,327,207541,1,0,0:0:0:0:
429,327,207598,1,8,0:0:0:0:
429,325,207655,1,0,0:0:0:0:
439,321,207770,1,8,0:0:0:0:
442,311,207884,1,8,0:0:0:0:
404,318,207999,1,0,0:0:0:0:
404,318,208056,1,8,0:0:0:0:
428,284,208113,1,8,0:0:0:0:
407,310,208170,1,0,0:0:0:0:
407,310,208228,1,8,0:0:0:0:
419,320,208342,1,0,0:0:0:0:
420,312,208399,1,8,0:0:0:0:
420,311,208457,1,0,0:0:0:0:
395,292,208514,1,0,0:0:0:0:
412,268,208571,1,12,0:0:0:0:
443,310,208915,1,12,0:0:0:0:
446,303,209029,1,0,0:0:0:0:
430,286,209258,1,0,0:0:0:0:
430,286,209315,1,0,0:0:0:0:
430,286,209373,1,0,0:0:0:0:
430,286,209430,1,0,0:0:0:0:
427,231,209487,1,12,0:0:0:0:
329,292,209602,1,0,0:0:0:0:
448,286,209831,1,12,0:0:0:0:
355,266,209945,1,0,0:0:0:0:
438,297,210060,1,8,0:0:0:0:
396,280,210174,1,0,0:0:0:0:
396,280,210231,1,0,0:0:0:0:
396,280,210289,1,0,0:0:0:0:
396,280,210346,1,0,0:0:0:0:
424,289,210403,1,8,0:0:0:0:
421,289,210518,1,0,0:0:0:0:
424,289,210632,1,8,0:0:0:0:
392,271,210747,1,0,0:0:0:0:
392,271,210804,1,8,0:0:0:0:
392,271,210861,1,0,0:0:0:0:
392,271,210918,1,0,0:0:0:0:
392,271,210976,1,8,0:0:0:0:
439,298,211090,1,0,0:0:0:0:
439,298,211147,1,8,0:0:0:0:
410,301,211205,1,0,0:0:0:0:
410,301,211262,1,8,0:0:0:0:
410,301,211319,1,0,0:0:0:0:
431,301,211434,1,8,0:0:0:0:
431,301,211548,1,8,0:0:0:0:
407,296,211663,1,0,0:0:0:0:
407,296,211777,1,8,0:0:0:0:
407,296,211892,1,8,0:0:0:0:
419,293,212006,1,8,0:0:0:0:
419,293,212063,1,0,0:0:0:0:
454,292,212235,1,12,0:0:0:0:
455,302,212579,1,12,0:0:0:0:
443,296,212693,1,0,0:0:0:0:
397,286,212922,1,0,0:0:0:0:
397,286,212980,1,0,0:0:0:0:
397,286,213037,1,0,0:0:0:0:
397,286,213094,1,0,0:0:0:0:
428,302,213151,1,12,0:0:0:0:
376,263,213266,1,0,0:0:0:0:
438,286,213495,1,12,0:0:0:0:
425,318,213609,1,0,0:0:0:0:
445,247,213724,1,8,0:0:0:0:
428,296,213838,1,0,0:0:0:0:
428,296,213896,1,0,0:0:0:0:
428,296,213953,1,0,0:0:0:0:
428,296,214010,1,0,0:0:0:0:
430,286,214067,1,8,0:0:0:0:
423,322,214182,1,0,0:0:0:0:
411,304,214296,1,8,0:0:0:0:
411,304,214411,1,0,0:0:0:0:
411,304,214468,1,8,0:0:0:0:
423,296,214525,1,0,0:0:0:0:
423,296,214583,1,0,0:0:0:0:
423,296,214640,1,8,0:0:0:0:
450,301,214754,1,0,0:0:0:0:
450,301,214812,1,8,0:0:0:0:
450,301,214869,1,0,0:0:0:0:
450,301,214926,1,8,0:0:0:0:
450,301,214983,1,0,0:0:0:0:
370,308,215098,1,8,0:0:0:0:
370,299,215212,1,0,0:0:0:0:
409,260,215327,1,0,0:0:0:0:
414,309,215441,1,8,0:0:0:0:
418,321,215556,1,0,0:0:0:0:
422,314,215670,1,8,0:0:0:0:
424,327,215785,1,0,0:0:0:0:
424,327,215842,1,0,0:0:0:0:
328,267,215900,1,8,0:0:0:0:
328,254,215957,1,8,0:0:0:0:
359,272,216015,1,0,0:0:0:0:
359,272,216073,1,8,0:0:0:0:
356,297,216130,1,8,0:0:0:0:
356,297,216190,1,0,0:0:0:0:
356,297,216250,1,8,0:0:0:0:
356,297,216310,1,8,0:0:0:0:
356,297,216370,1,0,0:0:0:0:
356,297,216432,1,8,0:0:0:0:
356,297,216495,1,0,0:0:0:0:
356,297,216557,1,0,0:0:0:0:
405,314,216620,1,8,0:0:0:0:
405,314,216685,1,8,0:0:0:0:
405,314,216750,1,0,0:0:0:0:
405,314,216815,1,8,0:0:0:0:
405,314,216881,1,0,0:0:0:0:
405,314,216949,1,0,0:0:0:0:
391,313,217017,1,8,0:0:0:0:
391,313,217085,1,8,0:0:0:0:
391,313,217154,1,0,0:0:0:0:
391,313,217225,1,8,0:0:0:0:
391,313,217296,1,8,0:0:0:0:
391,313,217368,1,8,0:0:0:0:
420,309,217440,1,0,0:0:0:0:
420,309,217515,1,0,0:0:0:0:
420,309,217590,1,8,0:0:0:0:
401,297,217665,1,8,0:0:0:0:
417,301,217740,1,0,0:0:0:0:
417,301,217818,1,0,0:0:0:0:
417,301,217897,1,0,0:0:0:0:
364,219,217976,1,0,0:0:0:0:
376,232,218056,1,8,0:0:0:0:
376,232,218139,1,8,0:0:0:0:
376,232,218222,1,8,0:0:0:0:
376,232,218306,1,0,0:0:0:0:
416,314,218389,1,8,0:0:0:0:
416,293,218477,1,0,0:0:0:0:
379,288,218521,1,0,0:0:0:0:
416,314,218565,1,0,0:0:0:0:
416,314,218653,1,0,0:0:0:0:
376,249,218742,1,8,0:0:0:0:
416,314,218835,1,0,0:0:0:0:
416,314,218882,1,0,0:0:0:0:
416,314,218929,1,8,0:0:0:0:
424,237,219023,1,8,0:0:0:0:
428,313,219070,1,8,0:0:0:0:
445,301,219117,1,0,0:0:0:0:
340,255,219217,1,8,0:0:0:0:
340,255,219267,1,8,0:0:0:0:
340,255,219317,1,0,0:0:0:0:
426,297,219417,1,8,0:0:0:0:
397,313,219467,1,0,0:0:0:0:
397,313,219517,1,8,0:0:0:0:
427,305,219624,1,0,0:0:0:0:
427,305,219677,1,0,0:0:0:0:
432,298,219731,1,8,0:0:0:0:
432,298,219784,1,8,0:0:0:0:
432,298,219838,1,8,0:0:0:0:
439,319,219892,1,0,0:0:0:0:
449,323,219945,1,8,0:0:0:0:
416,314,220002,1,8,0:0:0:0:
416,314,220060,1,0,0:0:0:0:
416,314,220118,1,0,0:0:0:0:
416,314,220175,1,8,0:0:0:0:
416,314,220233,1,0,0:0:0:0:
416,314,220291,1,8,0:0:0:0:
416,314,220348,1,8,0:0:0:0:
427,300,220407,1,0,0:0:0:0:
427,300,220657,1,0,0:0:0:0:
427,300,220907,1,0,0:0:0:0:
427,300,221179,1,0,0:0:0:0:
446,320,221452,1,12,0:0:0:0:
256,192,221602,12,0,226252,0:0:0:0:
407,258,231052,5,4,0:0:0:0:
358,278,231194,1,0,0:0:0:0:
358,278,231337,1,8,0:0:0:0:
376,270,231480,1,0,0:0:0:0:
378,312,231623,1,0,0:0:0:0:
378,312,231766,1,8,0:0:0:0:
354,295,231909,1,0,0:0:0:0:
354,295,232052,1,0,0:0:0:0:
410,267,232194,1,8,0:0:0:0:
380,276,232337,1,8,0:0:0:0:
357,283,232480,1,0,0:0:0:0:
357,283,232623,1,0,0:0:0:0:
422,321,232766,1,8,0:0:0:0:
401,303,232909,1,0,0:0:0:0:
401,303,233052,1,0,0:0:0:0:
401,303,233194,1,0,0:0:0:0:
393,315,233338,1,8,0:0:0:0:
376,302,233474,1,8,0:0:0:0:
376,302,233610,1,0,0:0:0:0:
376,302,233747,1,8,0:0:0:0:
388,314,233883,1,0,0:0:0:0:
385,300,234019,1,8,0:0:0:0:
388,314,234156,1,8,0:0:0:0:
385,300,234292,1,0,0:0:0:0:
413,312,234428,1,0,0:0:0:0:
373,278,234565,1,0,0:0:0:0:
373,278,234701,1,8,0:0:0:0:
373,278,234838,1,8,0:0:0:0:
380,274,234974,1,0,0:0:0:0:
403,323,235110,1,8,0:0:0:0:
396,304,235247,1,8,0:0:0:0:
396,304,235383,1,8,0:0:0:0:
396,304,235520,1,0,0:0:0:0:
413,314,235650,1,0,0:0:0:0:
413,314,235780,1,8,0:0:0:0:
413,314,235911,1,0,0:0:0:0:
413,314,236041,1,8,0:0:0:0:
413,314,236172,1,8,0:0:0:0:
413,314,236302,1,0,0:0:0:0:
413,314,236433,1,0,0:0:0:0:
407,308,236563,1,8,0:0:0:0:
407,308,236693,1,0,0:0:0:0:
407,308,236824,1,0,0:0:0:0:
407,308,236954,1,0,0:0:0:0:
407,308,237085,1,8,0:0:0:0:
407,308,237215,1,8,0:0:0:0:
407,308,237346,1,8,0:0:0:0:
407,308,237476,1,0,0:0:0:0:
407,308,237607,1,8,0:0:0:0:
407,308,237732,1,8,0:0:0:0:
407,308,237857,1,0,0:0:0:0:
350,301,237982,1,8,0:0:0:0:
350,301,238107,1,0,0:0:0:0:
350,301,238232,1,0,0:0:0:0:
365,278,238357,1,8,0:0:0:0:
388,318,238482,1,8,0:0:0:0:
401,293,238607,1,0,0:0:0:0:
390,314,238732,1,8,0:0:0:0:
390,314,238857,1,8,0:0:0:0:
390,314,238982,1,0,0:0:0:0:
390,314,239107,1,0,0:0:0:0:
382,283,239232,1,8,0:0:0:0:
382,283,239357,1,8,0:0:0:0:
351,254,239482,1,8,0:0:0:0:
438,258,239607,1,4,0:0:0:0:
396,278,240567,1,4,0:0:0:0:
379,286,241407,1,0,0:0:0:0:
384,265,241527,1,12,0:0:0:0:
417,250,241642,1,0,0:0:0:0:
441,295,241757,1,0,0:0:0:0:
379,277,241873,1,12,0:0:0:0:
372,292,241988,1,0,0:0:0:0:
374,288,242103,1,0,0:0:0:0:
379,269,242219,1,12,0:0:0:0:
445,267,242334,1,8,0:0:0:0:
410,248,242450,1,4,0:0:0:0:
399,303,242680,1,8,0:0:0:0:
399,303,242796,1,0,0:0:0:0:
407,283,242911,1,8,0:0:0:0:
396,311,243027,1,0,0:0:0:0:
396,311,243084,1,0,0:0:0:0:
396,311,243142,1,8,0:0:0:0:
396,311,243257,1,8,0:0:0:0:
427,269,243373,1,4,0:0:0:0:
451,312,244261,1,4,0:0:0:0:
256,192,245151,12,0,246865,0:0:0:0:
402,285,247065,5,4,0:0:0:0:
433,283,247365,1,4,0:0:0:0:
423,283,247665,1,4,0:0:0:0:
450,278,247965,1,4,0:0:0:0:
388,276,248265,1,4,0:0:0:0:
416,253,248465,1,12,0:0:0:0:
404,312,248765,1,8,0:0:0:0:
404,312,248865,1,0,0:0:0:0:
392,318,249065,1,0,0:0:0:0:
392,318,249165,1,0,0:0:0:0:
441,318,249265,1,8,0:0:0:0:
423,323,249465,1,8,0:0:0:0:
423,323,249565,1,8,0:0:0:0:
423,323,249665,1,0,0:0:0:0:
415,313,249765,1,8,0:0:0:0:
415,313,249865,1,0,0:0:0:0:
410,323,250065,1,0,0:0:0:0:
410,323,250365,1,8,0:0:0:0:
410,323,250465,1,0,0:0:0:0:
378,290,250665,1,8,0:0:0:0:
378,290,250765,1,8,0:0:0:0:
378,290,250865,1,0,0:0:0:0:
378,290,250965,1,0,0:0:0:0:
378,290,251065,1,8,0:0:0:0:
378,290,251165,1,8,0:0:0:0:
378,290,251265,1,0,0:0:0:0:
383,281,251365,1,8,0:0:0:0:
389,274,251465,1,8,0:0:0:0:
472,293,251665,1,0,0:0:0:0:
427,306,251965,1,0,0:0:0:0:
427,306,252065,1,8,0:0:0:0:
409,287,252265,1,8,0:0:0:0:
409,287,252365,1,0,0:0:0:0:
409,287,252465,1,0,0:0:0:0:
409,287,252565,1,8,0:0:0:0:
395,276,252665,1,8,0:0:0:0:
411,316,252765,1,0,0:0:0:0:
411,316,252865,1,8,0:0:0:0:
421,313,253065,1,8,0:0:0:0:
413,307,253265,1,0,0:0:0:0:
413,307,253565,1,8,0:0:0:0:
413,307,253665,1,0,0:0:0:0:
396,311,253765,1,8,0:0:0:0:
421,270,253865,1,8,0:0:0:0:
403,321,253965,1,8,0:0:0:0:
403,321,254065,1,0,0:0:0:0:
403,321,254165,1,0,0:0:0:0:
414,306,254265,1,8,0:0:0:0:
433,305,254365,1,0,0:0:0:0:
433,305,254465,1,8,0:0:0:0:
413,322,254565,1,8,0:0:0:0:
413,322,254665,1,0,0:0:0:0:
452,317,254865,1,4,0:0:0:0:
404,318,255165,1,8,0:0:0:0:
404,318,255265,1,0,0:0:0:0:
427,313,255465,1,0,0:0:0:0:
396,334,255565,1,8,0:0:0:0:
396,334,255665,1,8,0:0:0:0:
426,330,255865,1,0,0:0:0:0:
426,330,255965,1,8,0:0:0:0:
426,330,256065,1,0,0:0:0:0:
427,317,256165,1,0,0:0:0:0:
427,317,256265,1,8,0:0:0:0:
439,307,256465,1,0,0:0:0:0:
418,322,256765,1,8,0:0:0:0:
418,322,256865,1,0,0:0:0:0:
426,315,257065,1,8,0:0:0:0:
426,315,257165,1,8,0:0:0:0:
426,315,257265,1,0,0:0:0:0:
401,320,257365,1,8,0:0:0:0:
401,320,257465,1,8,0:0:0:0:
401,320,257565,1,0,0:0:0:0:
401,320,257665,1,8,0:0:0:0:
406,313,257765,1,0,0:0:0:0:
411,303,257865,1,8,0:0:0:0:
446,315,258065,1,0,0:0:0:0:
439,323,258365,1,0,0:0:0:0:
439,323,258465,1,8,0:0:0:0:
427,322,258665,1,8,0:0:0:0:
444,270,258765,1,0,0:0:0:0:
427,322,258865,1,0,0:0:0:0:
427,322,258965,1,8,0:0:0:0:
411,300,259065,1,0,0:0:0:0:
411,300,259165,1,0,0:0:0:0:
411,300,259265,1,8,0:0:0:0:
448,314,259465,1,8,0:0:0:0:
449,283,259665,1,0,0:0:0:0:
433,340,259865,1,0,0:0:0:0:
433,340,260065,1,0,0:0:0:0:
415,290,260165,1,8,0:0:0:0:
450,241,260265,1,8,0:0:0:0:
433,340,260365,1,0,0:0:0:0:
419,317,260465,1,8,0:0:0:0:
423,322,260565,1,0,0:0:0:0:
423,322,260665,1,0,0:0:0:0:
407,320,260765,1,8,0:0:0:0:
406,320,260865,1,0,0:0:0:0:
407,320,260965,1,0,0:0:0:0:
406,320,261065,1,8,0:0:0:0:
407,320,261165,1,8,0:0:0:0:
444,291,261265,1,4,0:0:0:0:
432,307,262065,1,4,0:0:0:0:
426,314,262365,1,0,0:0:0:0:
406,272,262465,1,8,0:0:0:0:
406,272,262531,1,8,0:0:0:0:
406,272,262598,1,8,0:0:0:0:
406,272,262665,1,0,0:0:0:0:
406,272,262731,1,0,0:0:0:0:
406,272,262798,1,0,0:0:0:0:
474,277,262865,1,12,0:0:0:0:
411,284,263063,1,0,0:0:0:0:
446,273,263163,1,0,0:0:0:0:
442,273,263262,1,8,0:0:0:0:
397,311,263328,1,0,0:0:0:0:
397,311,263394,1,0,0:0:0:0:
397,311,263461,1,8,0:0:0:0:
397,311,263527,1,8,0:0:0:0:
395,320,263593,1,0,0:0:0:0:
350,260,263659,1,8,0:0:0:0:
395,320,263725,1,8,0:0:0:0:
406,297,263792,1,8,0:0:0:0:
406,297,263858,1,0,0:0:0:0:
406,297,263924,1,0,0:0:0:0:
406,297,263990,1,0,0:0:0:0:
461,329,264057,1,8,0:0:0:0:
396,282,264123,1,8,0:0:0:0:
396,282,264189,1,0,0:0:0:0:
421,286,264255,1,8,0:0:0:0:
421,287,264321,1,8,0:0:0:0:
371,272,264388,1,8,0:0:0:0:
452,277,264455,1,0,0:0:0:0:
430,280,264553,1,8,0:0:0:0:
428,318,264652,1,8,0:0:0:0:
429,316,264751,1,0,0:0:0:0:
409,286,264849,1,8,0:0:0:0:
409,286,264915,1,8,0:0:0:0:
418,290,264981,1,0,0:0:0:0:
418,290,265047,1,8,0:0:0:0:
435,286,265112,1,0,0:0:0:0:
418,290,265178,1,0,0:0:0:0:
436,311,265244,1,8,0:0:0:0:
396,300,265310,1,8,0:0:0:0:
393,289,265376,1,8,0:0:0:0:
412,279,265441,1,0,0:0:0:0:
412,279,265507,1,0,0:0:0:0:
412,279,265573,1,0,0:0:0:0:
438,313,265639,1,8,0:0:0:0:
405,300,265705,1,0,0:0:0:0:
405,300,265770,1,0,0:0:0:0:
407,298,265836,1,8,0:0:0:0:
397,280,265935,1,8,0:0:0:0:
431,322,266033,1,0,0:0:0:0:
440,259,266229,1,8,0:0:0:0:
434,317,266327,1,0,0:0:0:0:
361,280,266425,1,8,0:0:0:0:
376,303,266490,1,0,0:0:0:0:
377,302,266555,1,0,0:0:0:0:
386,287,266621,1,8,0:0:0:0:
432,315,266686,1,0,0:0:0:0:
432,315,266751,1,0,0:0:0:0:
432,315,266817,1,8,0:0:0:0:
411,281,266882,1,8,0:0:0:0:
411,281,266948,1,8,0:0:0:0:
438,268,267013,1,0,0:0:0:0:
439,268,267078,1,0,0:0:0:0:
439,268,267144,1,0,0:0:0:0:
438,268,267209,1,8,0:0:0:0:
405,305,267274,1,8,0:0:0:0:
413,266,267340,1,8,0:0:0:0:
413,266,267405,1,0,0:0:0:0:
413,266,267470,1,8,0:0:0:0:
413,266,267536,1,8,0:0:0:0:
413,267,267602,1,0,0:0:0:0:
392,281,267699,1,8,0:0:0:0:
392,281,267796,1,8,0:0:0:0:
406,273,267894,1,0,0:0:0:0:
421,318,267991,1,8,0:0:0:0:
405,295,268056,1,8,0:0:0:0:
405,295,268121,1,8,0:0:0:0:
405,294,268186,1,0,0:0:0:0:
469,279,268283,1,0,0:0:0:0:
452,341,268381,1,8,0:0:0:0:
431,303,268446,1,8,0:0:0:0:
431,303,268511,1,8,0:0:0:0:
455,300,268576,1,0,0:0:0:0:
420,312,268640,1,0,0:0:0:0:
420,312,268705,1,0,0:0:0:0:
425,314,268770,1,8,0:0:0:0:
420,323,268835,1,0,0:0:0:0:
420,323,268900,1,8,0:0:0:0:
410,316,268965,1,0,0:0:0:0:
410,316,269030,1,8,0:0:0:0:
396,224,269161,1,4,0:0:0:0:
404,300,269354,1,0,0:0:0:0:
424,303,269451,1,0,0:0:0:0:
416,286,269548,1,8,0:0:0:0:
397,280,269612,1,8,0:0:0:0:
402,267,269677,1,0,0:0:0:0:
402,266,269741,1,8,0:0:0:0:
397,280,269806,1,0,0:0:0:0:
407,283,269870,1,0,0:0:0:0:
407,283,269935,1,8,0:0:0:0:
407,283,269999,1,8,0:0:0:0:
396,303,270064,1,8,0:0:0:0:
396,303,270128,1,0,0:0:0:0:
407,283,270193,1,0,0:0:0:0:
407,283,270257,1,0,0:0:0:0:
432,324,270322,1,8,0:0:0:0:
422,303,270386,1,8,0:0:0:0:
407,295,270451,1,0,0:0:0:0:
407,295,270515,1,8,0:0:0:0:
365,255,270580,1,8,0:0:0:0:
365,255,270644,1,8,0:0:0:0:
413,274,270709,1,0,0:0:0:0:
397,286,270805,1,8,0:0:0:0:
413,274,270901,1,8,0:0:0:0:
421,258,270997,1,0,0:0:0:0:
426,290,271093,1,8,0:0:0:0:
398,262,271157,1,8,0:0:0:0:
421,258,271221,1,0,0:0:0:0:
418,253,271285,1,8,0:0:0:0:
418,301,271350,1,8,0:0:0:0:
421,258,271414,1,0,0:0:0:0:
418,253,271478,1,8,0:0:0:0:
389,305,271542,1,8,0:0:0:0:
389,305,271606,1,8,0:0:0:0:
389,305,271670,1,0,0:0:0:0:
389,305,271734,1,0,0:0:0:0:
416,295,271798,1,8,0:0:0:0:
416,295,271862,1,0,0:0:0:0:
416,295,271926,1,0,0:0:0:0:
416,295,271991,1,0,0:0:0:0:
416,295,272055,1,8,0:0:0:0:
425,284,272151,1,8,0:0:0:0:
449,235,272247,1,0,0:0:0:0:
449,235,272438,1,8,0:0:0:0:
407,299,272533,1,0,0:0:0:0:
375,278,272629,1,8,0:0:0:0:
420,292,272692,1,0,0:0:0:0:
440,300,272756,1,0,0:0:0:0:
420,292,272820,1,8,0:0:0:0:
420,292,272883,1,0,0:0:0:0:
422,321,272947,1,0,0:0:0:0:
422,321,273011,1,8,0:0:0:0:
422,321,273075,1,8,0:0:0:0:
422,321,273138,1,8,0:0:0:0:
439,243,273202,1,8,0:0:0:0:
427,312,273266,1,0,0:0:0:0:
427,312,273329,1,0,0:0:0:0:
414,313,273393,1,8,0:0:0:0:
392,271,273457,1,8,0:0:0:0:
392,271,273520,1,8,0:0:0:0:
401,265,273584,1,0,0:0:0:0:
402,263,273648,1,0,0:0:0:0:
402,263,273711,1,0,0:0:0:0:
451,257,273776,1,8,0:0:0:0:
420,330,273839,1,0,0:0:0:0:
420,330,273902,1,0,0:0:0:0:
420,330,273965,1,0,0:0:0:0:
420,330,274029,1,0,0:0:0:0:
420,330,274092,1,0,0:0:0:0:
420,330,274155,1,8,0:0:0:0:
441,315,274219,1,0,0:0:0:0:
441,315,274282,1,0,0:0:0:0:
441,315,274345,1,0,0:0:0:0:
441,315,274408,1,0,0:0:0:0:
441,315,274472,1,0,0:0:0:0:
456,293,274536,1,8,0:0:0:0:
399,282,274630,1,8,0:0:0:0:
399,282,274724,1,0,0:0:0:0:
408,269,274819,1,8,0:0:0:0:
408,269,274913,1,0,0:0:0:0:
408,269,275007,1,0,0:0:0:0:
418,264,275102,1,8,0:0:0:0:
418,264,275196,1,8,0:0:0:0:
449,206,275290,1,4,0:0:0:0:
402,298,275477,1,0,0:0:0:0:
421,267,275571,1,0,0:0:0:0:
411,282,275665,1,8,0:0:0:0:
404,316,275758,1,8,0:0:0:0:
411,282,275852,1,8,0:0:0:0:
404,316,275946,1,0,0:0:0:0:
420,297,276040,1,12,0:0:0:0:
405,287,276221,1,0,0:0:0:0:
374,308,276312,1,0,0:0:0:0:
406,300,276403,1,8,0:0:0:0:
384,283,276494,1,8,0:0:0:0:
384,283,276585,1,0,0:0:0:0:
419,296,276676,1,8,0:0:0:0:
437,276,276768,1,4,0:0:0:0:
410,294,276944,1,8,0:0:0:0:
410,294,277032,1,0,0:0:0:0:
418,276,277120,1,8,0:0:0:0:
418,276,277209,1,8,0:0:0:0:
418,276,277297,1,0,0:0:0:0:
418,276,277385,1,0,0:0:0:0:
389,285,277473,1,12,0:0:0:0:
392,286,277730,1,12,0:0:0:0:
392,286,277987,1,12,0:0:0:0:
425,283,278159,1,4,0:0:0:0:
388,268,278325,1,8,0:0:0:0:
388,268,278409,1,8,0:0:0:0:
374,260,278492,1,0,0:0:0:0:
407,322,278575,1,8,0:0:0:0:
385,303,278659,1,8,0:0:0:0:
386,299,278742,1,0,0:0:0:0:
420,276,278826,1,12,0:0:0:0:
425,309,278983,1,0,0:0:0:0:
363,302,279062,1,0,0:0:0:0:
363,302,279141,1,8,0:0:0:0:
371,282,279220,1,0,0:0:0:0:
372,280,279299,1,8,0:0:0:0:
372,280,279378,1,8,0:0:0:0:
444,276,279457,1,4,0:0:0:0:
391,300,279607,1,8,0:0:0:0:
391,300,279682,1,0,0:0:0:0:
391,300,279757,1,0,0:0:0:0:
391,300,279832,1,8,0:0:0:0:
391,300,279907,1,8,0:0:0:0:
434,299,279982,1,0,0:0:0:0:
411,257,280057,1,12,0:0:0:0:
413,287,280271,1,12,0:0:0:0:
425,279,280485,1,12,0:0:0:0:
429,303,280629,1,4,0:0:0:0:
404,289,280765,1,8,0:0:0:0:
371,300,280833,1,8,0:0:0:0:
371,300,280901,1,0,0:0:0:0:
371,300,281038,1,8,0:0:0:0:
410,307,281106,1,0,0:0:0:0:
436,322,281174,1,8,0:0:0:0:
411,309,281240,1,8,0:0:0:0:
410,309,281307,1,0,0:0:0:0:
410,309,281374,1,0,0:0:0:0:
411,309,281440,1,8,0:0:0:0:
426,313,281574,1,8,0:0:0:0:
426,313,281640,1,8,0:0:0:0:
426,313,281708,1,0,0:0:0:0:
380,312,281838,1,0,0:0:0:0:
409,314,281903,1,0,0:0:0:0:
409,314,281968,1,8,0:0:0:0:
411,313,282034,1,0,0:0:0:0:
409,314,282099,1,8,0:0:0:0:
411,300,282164,1,8,0:0:0:0:
411,313,282229,1,0,0:0:0:0:
417,314,282292,1,8,0:0:0:0:
417,314,282356,1,8,0:0:0:0:
411,313,282420,1,8,0:0:0:0:
417,314,282484,1,0,0:0:0:0:
417,322,282611,1,8,0:0:0:0:
421,288,282675,1,8,0:0:0:0:
421,288,282740,1,0,0:0:0:0:
421,316,282865,1,8,0:0:0:0:
421,316,282927,1,0,0:0:0:0:
421,316,282990,1,8,0:0:0:0:
410,303,283115,1,0,0:0:0:0:
410,303,283177,1,0,0:0:0:0:
416,323,283240,1,8,0:0:0:0:
416,323,283301,1,0,0:0:0:0:
416,323,283362,1,8,0:0:0:0:
416,323,283423,1,8,0:0:0:0:
413,331,283484,1,8,0:0:0:0:
413,331,283546,1,0,0:0:0:0:
413,331,283607,1,8,0:0:0:0:
413,331,283668,1,8,0:0:0:0:
413,331,283730,1,0,0:0:0:0:
391,317,283790,1,0,0:0:0:0:
390,308,283850,1,8,0:0:0:0:
390,308,283910,1,8,0:0:0:0:
406,318,283970,1,0,0:0:0:0:
406,318,284030,1,8,0:0:0:0:
406,318,284090,1,8,0:0:0:0:
373,274,284150,1,8,0:0:0:0:
373,274,284210,1,0,0:0:0:0:
406,318,284270,1,8,0:0:0:0:
406,318,284330,1,0,0:0:0:0:
422,333,284390,1,0,0:0:0:0:
446,295,284450,1,8,0:0:0:0:
464,330,284510,1,0,0:0:0:0:
464,330,284570,1,0,0:0:0:0:
464,330,284630,1,0,0:0:0:0:
427,316,284690,1,8,0:0:0:0:
437,321,284810,1,0,0:0:0:0:
434,275,284870,1,8,0:0:0:0:
383,297,284930,1,0,0:0:0:0:
437,321,284990,1,0,0:0:0:0:
434,275,285050,1,8,0:0:0:0:
383,297,285110,1,0,0:0:0:0:
421,287,285170,1,0,0:0:0:0:
383,297,285230,1,8,0:0:0:0:
398,307,285290,1,8,0:0:0:0:
433,308,285350,1,0,0:0:0:0:
433,308,285410,1,8,0:0:0:0:
399,306,285530,1,8,0:0:0:0:
399,306,285590,1,8,0:0:0:0:
399,306,285650,1,0,0:0:0:0:
401,323,285710,1,0,0:0:0:0:
401,323,285770,1,0,0:0:0:0:
401,323,285830,1,0,0:0:0:0:
399,306,285890,1,8,0:0:0:0:
422,314,285950,1,0,0:0:0:0:
422,314,286010,1,8,0:0:0:0:
422,314,286070,1,8,0:0:0:0:
384,314,286130,1,0,0:0:0:0:
384,314,286190,1,8,0:0:0:0:
384,314,286250,1,8,0:0:0:0:
384,314,286310,1,8,0:0:0:0:
384,314,286370,1,0,0:0:0:0:
440,333,286430,1,0,0:0:0:0:
440,333,286490,1,8,0:0:0:0:
423,320,286550,1,8,0:0:0:0:
427,296,286610,1,4,0:0:0:0:
427,296,286790,1,4,0:0:0:0:
427,296,286970,1,12,0:0:0:0:
427,296,287150,1,12,0:0:0:0:
427,296,287330,1,4,0:0:0:0:
411,286,287450,1,8,0:0:0:0:
411,286,287510,1,0,0:0:0:0:
411,286,287570,1,8,0:0:0:0:
413,322,287630,1,8,0:0:0:0:
397,312,287690,1,0,0:0:0:0:
397,312,287750,1,0,0:0:0:0:
386,288,287810,1,8,0:0:0:0:
384,288,287870,1,0,0:0:0:0:
355,278,287930,1,8,0:0:0:0:
355,278,287990,1,8,0:0:0:0:
355,278,288050,1,8,0:0:0:0:
355,278,288110,1,8,0:0:0:0:
396,323,288170,1,0,0:0:0:0:
396,323,288230,1,0,0:0:0:0:
407,330,288290,1,8,0:0:0:0:
426,275,288350,1,0,0:0:0:0:
427,274,288410,1,8,0:0:0:0:
406,329,288470,1,8,0:0:0:0:
411,317,288530,1,0,0:0:0:0:
442,343,288590,1,8,0:0:0:0:
442,343,288650,1,8,0:0:0:0:
402,290,288710,1,0,0:0:0:0:
442,343,288770,1,8,0:0:0:0:
442,343,288830,1,8,0:0:0:0:
442,343,288890,1,0,0:0:0:0:
442,343,288950,1,8,0:0:0:0:
442,343,289010,1,8,0:0:0:0:
442,343,289070,1,0,0:0:0:0:
411,322,289130,1,8,0:0:0:0:
411,322,289190,1,8,0:0:0:0:
406,310,289250,1,0,0:0:0:0:
406,310,289310,1,0,0:0:0:0:
406,310,289370,1,8,0:0:0:0:
386,242,289490,1,0,0:0:0:0:
351,244,289530,1,0,0:0:0:0:
362,257,289570,1,0,0:0:0:0:
363,258,289610,1,8,0:0:0:0:
420,328,289670,1,8,0:0:0:0:
424,305,289730,1,0,0:0:0:0:
410,308,289790,1,0,0:0:0:0:
410,308,289850,1,8,0:0:0:0:
409,307,289910,1,0,0:0:0:0:
398,255,289970,1,8,0:0:0:0:
398,255,290010,1,8,0:0:0:0:
398,255,290050,1,8,0:0:0:0:
398,255,290090,1,0,0:0:0:0:
447,239,290150,1,0,0:0:0:0:
447,239,290210,1,8,0:0:0:0:
440,325,290270,1,0,0:0:0:0:
403,298,290330,1,8,0:0:0:0:
403,298,290390,1,8,0:0:0:0:
418,273,290450,1,0,0:0:0:0:
357,287,290490,1,8,0:0:0:0:
357,287,290530,1,8,0:0:0:0:
364,281,290570,1,0,0:0:0:0:
393,264,290630,1,0,0:0:0:0:
396,253,290690,1,8,0:0:0:0:
402,242,290730,1,8,0:0:0:0:
402,242,290770,1,8,0:0:0:0:
402,242,290810,1,0,0:0:0:0:
414,286,290870,1,0,0:0:0:0:
419,261,290930,1,8,0:0:0:0:
432,252,290970,1,8,0:0:0:0:
432,252,291010,1,8,0:0:0:0:
430,256,291050,1,0,0:0:0:0:
419,278,291090,1,0,0:0:0:0:
419,278,291130,1,0,0:0:0:0:
451,273,291170,1,8,0:0:0:0:
386,309,291230,1,8,0:0:0:0:
442,317,291290,1,8,0:0:0:0:
442,317,291350,1,8,0:0:0:0:
442,317,291410,1,4,0:0:0:0:
429,312,292130,1,8,0:0:0:0:
429,312,292190,1,0,0:0:0:0:
430,303,292250,1,0,0:0:0:0:
430,303,292310,1,0,0:0:0:0:
430,303,292370,1,8,0:0:0:0:
426,316,292490,1,0,0:0:0:0:
430,303,292610,1,0,0:0:0:0:
403,301,292670,1,0,0:0:0:0:
403,301,292730,1,8,0:0:0:0:
453,319,292850,1,8,0:0:0:0:
453,319,292910,1,8,0:0:0:0:
453,319,292970,1,8,0:0:0:0:
453,319,293030,1,8,0:0:0:0:
465,287,293090,1,0,0:0:0:0:
417,303,293150,1,0,0:0:0:0:
417,303,293210,1,8,0:0:0:0:
417,303,293270,1,8,0:0:0:0:
455,287,293330,1,4,0:0:0:0:
434,320,293450,1,8,0:0:0:0:
384,299,293570,1,0,0:0:0:0:
384,299,293630,1,0,0:0:0:0:
359,289,293690,1,8,0:0:0:0:
359,289,293750,1,0,0:0:0:0:
364,284,293810,1,8,0:0:0:0:
364,284,293870,1,8,0:0:0:0:
364,284,293930,1,0,0:0:0:0:
413,330,294050,1,8,0:0:0:0:
413,330,294110,1,8,0:0:0:0:
413,330,294170,1,8,0:0:0:0:
375,306,294290,1,0,0:0:0:0:
396,311,294350,1,8,0:0:0:0:
368,288,294410,1,0,0:0:0:0:
395,311,294470,1,0,0:0:0:0:
397,295,294530,1,8,0:0:0:0:
393,300,294590,1,8,0:0:0:0:
393,300,294650,1,8,0:0:0:0:
410,321,294710,1,0,0:0:0:0:
413,311,294770,1,8,0:0:0:0:
393,300,294830,1,8,0:0:0:0:
308,267,294890,1,0,0:0:0:0:
413,298,295010,1,0,0:0:0:0:
413,298,295070,1,0,0:0:0:0:
324,282,295130,1,8,0:0:0:0:
440,301,295250,1,0,0:0:0:0:
402,319,295310,1,8,0:0:0:0:
407,302,295370,1,0,0:0:0:0:
379,303,295490,1,8,0:0:0:0:
379,303,295550,1,0,0:0:0:0:
379,303,295610,1,8,0:0:0:0:
379,303,295670,1,8,0:0:0:0:
388,286,295730,1,0,0:0:0:0:
369,309,295790,1,0,0:0:0:0:
368,287,295850,1,8,0:0:0:0:
367,285,295910,1,8,0:0:0:0:
367,285,295970,1,0,0:0:0:0:
321,243,296030,1,8,0:0:0:0:
321,243,296090,1,8,0:0:0:0:
321,243,296150,1,8,0:0:0:0:
428,320,296210,1,0,0:0:0:0:
428,320,296270,1,0,0:0:0:0:
428,320,296330,1,0,0:0:0:0:
428,320,296390,1,0,0:0:0:0:
399,280,296450,1,8,0:0:0:0:
356,296,296510,1,0,0:0:0:0:
383,282,296570,1,8,0:0:0:0:
384,281,296630,1,8,0:0:0:0:
393,309,296690,1,0,0:0:0:0:
381,296,296750,1,0,0:0:0:0:
394,305,296810,1,0,0:0:0:0:
381,296,296870,1,8,0:0:0:0:
381,296,296930,1,0,0:0:0:0:
381,296,296990,1,0,0:0:0:0:
404,284,297050,1,8,0:0:0:0:
404,284,297110,1,8,0:0:0:0:
404,284,297170,1,0,0:0:0:0:
440,299,297290,1,8,0:0:0:0:
382,317,297410,1,0,0:0:0:0:
416,303,297470,1,8,0:0:0:0:
416,303,297530,1,0,0:0:0:0:
416,303,297590,1,0,0:0:0:0:
415,320,297650,1,8,0:0:0:0:
416,303,297710,1,8,0:0:0:0:
422,310,297770,1,0,0:0:0:0:
424,309,297890,1,8,0:0:0:0:
424,309,297950,1,8,0:0:0:0:
422,310,298010,1,8,0:0:0:0:
405,323,298130,1,0,0:0:0:0:
377,302,298190,1,0,0:0:0:0:
391,305,298250,1,8,0:0:0:0:
381,292,298310,1,0,0:0:0:0:
392,272,298370,1,8,0:0:0:0:
392,271,298430,1,8,0:0:0:0:
392,271,298490,1,8,0:0:0:0:
399,273,298550,1,0,0:0:0:0:
408,259,298610,1,8,0:0:0:0:
391,305,298670,1,8,0:0:0:0:
391,305,298730,1,0,0:0:0:0:
428,314,298850,1,0,0:0:0:0:
428,314,298910,1,0,0:0:0:0:
428,314,298970,1,8,0:0:0:0:
394,294,299090,1,0,0:0:0:0:
394,294,299150,1,0,0:0:0:0:
408,314,299210,1,8,0:0:0:0:
408,314,299270,1,8,0:0:0:0:
379,315,299330,1,0,0:0:0:0:
379,315,299390,1,8,0:0:0:0:
379,315,299450,1,8,0:0:0:0:
379,315,299510,1,8,0:0:0:0:
386,305,299570,1,0,0:0:0:0:
406,322,299630,1,0,0:0:0:0:
386,305,299690,1,8,0:0:0:0:
386,305,299750,1,0,0:0:0:0:
406,322,299810,1,8,0:0:0:0:
412,322,299870,1,8,0:0:0:0:
406,322,299930,1,8,0:0:0:0:
412,322,299990,1,8,0:0:0:0:
386,316,300050,1,0,0:0:0:0:
401,297,300170,1,0,0:0:0:0:
443,298,300290,1,8,0:0:0:0:
400,310,300410,1,0,0:0:0:0:
430,262,300530,1,0,0:0:0:0:
400,310,300650,1,8,0:0:0:0:
388,320,300770,1,0,0:0:0:0:
380,303,300830,1,8,0:0:0:0:
380,303,300890,1,8,0:0:0:0:
380,303,300950,1,8,0:0:0:0:
449,276,301010,1,4,0:0:0:0:
421,315,301130,1,8,0:0:0:0:
376,289,301190,1,8,0:0:0:0:
376,289,301250,1,0,0:0:0:0:
410,310,301310,1,0,0:0:0:0:
410,310,301370,1,8,0:0:0:0:
376,289,301430,1,0,0:0:0:0:
376,289,301490,1,8,0:0:0:0:
410,310,301550,1,8,0:0:0:0:
410,310,301610,1,0,0:0:0:0:
418,314,301730,1,8,0:0:0:0:
418,314,301790,1,8,0:0:0:0:
418,314,301850,1,8,0:0:0:0:
375,302,301970,1,0,0:0:0:0:
385,292,302030,1,8,0:0:0:0:
385,291,302090,1,0,0:0:0:0:
385,291,302150,1,0,0:0:0:0:
397,271,302210,1,8,0:0:0:0:
382,300,302270,1,8,0:0:0:0:
381,298,302330,1,8,0:0:0:0:
381,298,302390,1,8,0:0:0:0:
385,294,302450,1,0,0:0:0:0:
368,255,302570,1,8,0:0:0:0:
438,270,302610,1,8,0:0:0:0:
438,270,302650,1,8,0:0:0:0:
411,301,302690,1,0,0:0:0:0:
411,301,302750,1,0,0:0:0:0:
411,301,302810,1,0,0:0:0:0:
411,301,302870,1,0,0:0:0:0:
428,293,302930,1,8,0:0:0:0:
399,268,303010,1,8,0:0:0:0:
400,268,303090,1,8,0:0:0:0:
399,268,303170,1,0,0:0:0:0:
399,268,303250,1,0,0:0:0:0:
400,268,303330,1,0,0:0:0:0:
389,293,303410,1,8,0:0:0:0:
389,293,303490,1,8,0:0:0:0:
389,293,303570,1,0,0:0:0:0:
389,293,303650,1,8,0:0:0:0:
389,293,303730,1,8,0:0:0:0:
389,293,303810,1,8,0:0:0:0:
398,297,303890,1,0,0:0:0:0:
398,297,303970,1,0,0:0:0:0:
398,297,304050,1,8,0:0:0:0:
398,297,304130,1,0,0:0:0:0:
389,301,304210,1,0,0:0:0:0:
389,301,304290,1,0,0:0:0:0:
414,263,304370,1,12,0:0:0:0:
391,294,304550,1,12,0:0:0:0:
425,275,304730,1,12,0:0:0:0:
437,290,304850,1,4,0:0:0:0:
457,283,305330,1,4,0:0:0:0:
422,313,305810,1,12,0:0:0:0:
419,298,305990,1,12,0:0:0:0:
419,298,306170,1,12,0:0:0:0:
431,283,306290,1,12,0:0:0:0:
452,309,306890,1,4,0:0:0:0:
409,296,307130,1,0,0:0:0:0:
409,296,307190,1,0,0:0:0:0:
409,296,307250,1,0,0:0:0:0:
409,296,307310,1,8,0:0:0:0:
419,290,307490,1,0,0:0:0:0:
419,290,307550,1,0,0:0:0:0:
426,280,307610,1,8,0:0:0:0:
426,280,307670,1,8,0:0:0:0:
426,280,307730,1,0,0:0:0:0:
418,234,307850,1,12,0:0:0:0:
418,234,307970,1,12,0:0:0:0:
373,256,308210,1,12,0:0:0:0:
406,231,308330,1,12,0:0:0:0:
407,280,308570,1,4,0:0:0:0:
360,222,308810,1,4,0:0:0:0:
409,305,309050,1,0,0:0:0:0:
406,282,309110,1,0,0:0:0:0:
406,279,309170,1,8,0:0:0:0:
406,279,309230,1,8,0:0:0:0:
373,290,309290,1,8,0:0:0:0:
392,272,309410,1,4,0:0:0:0:
392,272,309530,1,4,0:0:0:0:
409,293,309770,1,12,0:0:0:0:
416,278,309890,1,12,0:0:0:0:
414,293,310130,1,12,0:0:0:0:
428,257,310250,1,12,0:0:0:0:
427,283,310490,1,4,0:0:0:0:
441,216,310730,1,4,0:0:0:0:
330,280,310970,1,0,0:0:0:0:
330,280,311030,1,0,0:0:0:0:
421,317,311090,1,0,0:0:0:0:
420,306,311150,1,0,0:0:0:0:
399,255,311210,1,8,0:0:0:0:
375,242,311330,1,8,0:0:0:0:
414,268,311370,1,0,0:0:0:0:
414,268,311410,1,0,0:0:0:0:
392,276,311450,1,8,0:0:0:0:
440,278,311570,1,4,0:0:0:0:
421,307,311690,1,8,0:0:0:0:
421,307,311810,1,0,0:0:0:0:
421,307,311870,1,0,0:0:0:0:
421,307,311930,1,8,0:0:0:0:
421,307,311990,1,0,0:0:0:0:
424,298,312050,1,8,0:0:0:0:
430,311,312110,1,8,0:0:0:0:
430,308,312170,1,0,0:0:0:0:
435,294,312290,1,8,0:0:0:0:
434,323,312410,1,0,0:0:0:0:
421,293,312470,1,8,0:0:0:0:
421,289,312530,1,0,0:0:0:0:
414,309,312650,1,0,0:0:0:0:
413,319,312770,1,8,0:0:0:0:
413,319,312830,1,8,0:0:0:0:
398,317,312890,1,0,0:0:0:0:
432,316,312950,1,0,0:0:0:0:
456,291,313010,1,8,0:0:0:0:
456,291,313070,1,8,0:0:0:0:
435,322,313130,1,0,0:0:0:0:
432,314,313250,1,8,0:0:0:0:
417,311,313310,1,0,0:0:0:0:
443,311,313370,1,8,0:0:0:0:
443,311,313430,1,8,0:0:0:0:
443,311,313490,1,0,0:0:0:0:
427,293,313610,1,8,0:0:0:0:
420,308,313730,1,0,0:0:0:0:
449,324,313790,1,8,0:0:0:0:
413,304,313850,1,8,0:0:0:0:
408,293,313910,1,0,0:0:0:0:
421,320,313970,1,8,0:0:0:0:
421,320,314030,1,8,0:0:0:0:
421,320,314090,1,0,0:0:0:0:
413,308,314150,1,0,0:0:0:0:
413,308,314210,1,8,0:0:0:0:
423,311,314270,1,8,0:0:0:0:
423,311,314330,1,0,0:0:0:0:
423,311,314390,1,8,0:0:0:0:
397,314,314450,1,0,0:0:0:0:
436,308,314510,1,0,0:0:0:0:
436,308,314570,1,8,0:0:0:0:
395,266,314630,1,8,0:0:0:0:
397,314,314690,1,8,0:0:0:0:
395,266,314750,1,0,0:0:0:0:
395,266,314810,1,8,0:0:0:0:
391,303,314870,1,8,0:0:0:0:
395,266,314930,1,0,0:0:0:0:
419,306,314990,1,8,0:0:0:0:
449,321,315050,1,0,0:0:0:0:
449,321,315110,1,0,0:0:0:0:
441,319,315170,1,8,0:0:0:0:
439,290,315230,1,0,0:0:0:0:
441,319,315290,1,8,0:0:0:0:
460,296,315410,1,0,0:0:0:0:
456,304,315530,1,8,0:0:0:0:
430,332,315650,1,0,0:0:0:0:
424,325,315710,1,8,0:0:0:0:
408,310,315770,1,0,0:0:0:0:
408,310,315830,1,0,0:0:0:0:
408,309,315890,1,8,0:0:0:0:
408,309,315950,1,8,0:0:0:0:
413,301,316010,1,0,0:0:0:0:
429,286,316130,1,8,0:0:0:0:
424,312,316250,1,0,0:0:0:0:
424,312,316310,1,8,0:0:0:0:
424,311,316370,1,0,0:0:0:0:
362,224,316490,1,0,0:0:0:0:
408,294,316610,1,8,0:0:0:0:
408,294,316670,1,8,0:0:0:0:
408,294,316730,1,8,0:0:0:0:
408,294,316790,1,0,0:0:0:0:
409,277,316850,1,8,0:0:0:0:
409,276,316910,1,8,0:0:0:0:
413,272,316970,1,0,0:0:0:0:
410,303,317090,1,8,0:0:0:0:
428,316,317150,1,0,0:0:0:0:
428,316,317210,1,8,0:0:0:0:
395,290,317270,1,8,0:0:0:0:
416,272,317330,1,0,0:0:0:0:
431,308,317450,1,8,0:0:0:0:
445,297,317570,1,0,0:0:0:0:
412,297,317630,1,0,0:0:0:0:
412,297,317690,1,8,0:0:0:0:
415,309,317750,1,0,0:0:0:0:
397,305,317810,1,8,0:0:0:0:
407,313,317870,1,8,0:0:0:0:
438,301,317930,1,0,0:0:0:0:
438,301,317990,1,8,0:0:0:0:
408,309,318050,1,8,0:0:0:0:
412,301,318110,1,8,0:0:0:0:
425,313,318170,1,0,0:0:0:0:
425,313,318230,1,8,0:0:0:0:
428,308,318290,1,0,0:0:0:0:
431,322,318350,1,0,0:0:0:0:
425,313,318410,1,0,0:0:0:0:
425,313,318470,1,8,0:0:0:0:
428,308,318530,1,0,0:0:0:0:
426,311,318590,1,0,0:0:0:0:
425,313,318650,1,8,0:0:0:0:
425,313,318710,1,8,0:0:0:0:
386,224,318770,1,0,0:0:0:0:
386,224,318850,1,0,0:0:0:0:
386,224,318930,1,0,0:0:0:0:
386,224,319010,1,8,0:0:0:0:
386,224,319090,1,8,0:0:0:0:
386,224,319170,1,8,0:0:0:0:
463,245,319250,1,4,0:0:0:0:
426,315,319490,1,0,0:0:0:0:
426,315,319550,1,8,0:0:0:0:
426,315,319610,1,8,0:0:0:0:
426,315,319670,1,0,0:0:0:0:
427,307,319730,1,8,0:0:0:0:
456,307,319970,1,0,0:0:0:0:
427,288,320210,1,0,0:0:0:0:
435,299,320450,1,8,0:0:0:0:
411,297,320510,1,8,0:0:0:0:
411,296,320570,1,0,0:0:0:0:
411,296,320630,1,0,0:0:0:0:
415,293,320690,1,8,0:0:0:0:
412,304,320930,1,0,0:0:0:0:
424,301,321170,1,0,0:0:0:0:
428,323,321410,1,0,0:0:0:0:
428,322,321470,1,0,0:0:0:0:
453,289,321530,1,8,0:0:0:0:
417,311,321590,1,0,0:0:0:0:
417,304,321650,1,8,0:0:0:0:
417,303,321710,1,8,0:0:0:0:
417,303,321770,1,0,0:0:0:0:
417,303,321830,1,8,0:0:0:0:
417,304,321890,1,8,0:0:0:0:
417,303,321950,1,0,0:0:0:0:
396,300,322010,1,8,0:0:0:0:
396,300,322070,1,8,0:0:0:0:
396,300,322130,1,0,0:0:0:0:
422,270,322190,1,8,0:0:0:0:
421,315,322250,1,0,0:0:0:0:
423,300,322310,1,0,0:0:0:0:
444,313,322370,1,8,0:0:0:0:
444,311,322430,1,8,0:0:0:0:
438,330,322490,1,0,0:0:0:0:
440,311,322550,1,8,0:0:0:0:
414,313,322610,1,0,0:0:0:0:
413,310,322730,1,8,0:0:0:0:
414,313,322850,1,8,0:0:0:0:
413,310,322970,1,8,0:0:0:0:
437,289,323090,1,0,0:0:0:0:
434,305,323330,1,0,0:0:0:0:
434,305,323390,1,0,0:0:0:0:
418,315,323450,1,8,0:0:0:0:
434,305,323510,1,0,0:0:0:0:
434,305,323570,1,8,0:0:0:0:
470,333,323810,1,0,0:0:0:0:
454,311,324050,1,0,0:0:0:0:
466,301,324290,1,8,0:0:0:0:
441,277,324350,1,8,0:0:0:0:
455,305,324410,1,8,0:0:0:0:
466,301,324470,1,0,0:0:0:0:
466,301,324530,1,8,0:0:0:0:
440,303,324770,1,0,0:0:0:0:
401,300,325010,1,0,0:0:0:0:
419,299,325250,1,8,0:0:0:0:
397,282,325310,1,0,0:0:0:0:
419,299,325370,1,0,0:0:0:0:
419,299,325430,1,0,0:0:0:0:
436,309,325490,1,8,0:0:0:0:
436,309,325550,1,0,0:0:0:0:
419,299,325610,1,0,0:0:0:0:
419,299,325670,1,0,0:0:0:0:
364,288,325730,1,8,0:0:0:0:
364,288,325790,1,8,0:0:0:0:
364,288,325850,1,0,0:0:0:0:
364,288,325910,1,0,0:0:0:0:
364,288,325970,1,8,0:0:0:0:
364,288,326030,1,8,0:0:0:0:
364,288,326090,1,0,0:0:0:0:
364,288,326150,1,0,0:0:0:0:
417,311,326210,1,8,0:0:0:0:
417,311,326270,1,8,0:0:0:0:
417,311,326330,1,8,0:0:0:0:
417,311,326390,1,0,0:0:0:0:
417,311,326450,1,8,0:0:0:0:
417,311,326510,1,8,0:0:0:0:
417,311,326570,1,8,0:0:0:0:
417,311,326630,1,0,0:0:0:0:
410,316,326690,1,8,0:0:0:0:
410,316,326750,1,8,0:0:0:0:
410,316,326810,1,8,0:0:0:0:
452,323,326870,1,8,0:0:0:0:
416,247,326930,1,4,0:0:0:0:
404,296,327170,1,0,0:0:0:0:
438,317,327410,1,0,0:0:0:0:
422,304,327650,1,0,0:0:0:0:
408,271,327890,1,0,0:0:0:0:
368,311,328130,1,0,0:0:0:0:
368,311,328370,1,0,0:0:0:0:
348,270,328610,1,0,0:0:0:0:
393,285,328850,1,0,0:0:0:0:
416,273,329090,1,0,0:0:0:0:
429,313,329330,1,0,0:0:0:0:
429,313,329570,1,0,0:0:0:0:
429,313,329810,1,0,0:0:0:0:
376,297,330050,1,0,0:0:0:0:
376,297,330290,1,0,0:0:0:0:
427,300,330530,1,0,0:0:0:0:
381,304,330770,1,0,0:0:0:0:
381,304,331010,1,0,0:0:0:0:
381,304,331250,1,0,0:0:0:0:
381,304,331490,1,0,0:0:0:0:
364,294,331570,1,0,0:0:0:0:
364,294,331650,1,0,0:0:0:0:
364,294,331730,1,8,0:0:0:0:
416,298,331810,1,0,0:0:0:0:
416,298,331890,1,0,0:0:0:0:
416,298,331970,1,8,0:0:0:0:
403,293,332050,1,0,0:0:0:0:
403,292,332130,1,0,0:0:0:0:
403,292,332210,1,8,0:0:0:0:
375,299,332290,1,8,0:0:0:0:
375,299,332370,1,0,0:0:0:0:
375,299,332450,1,8,0:0:0:0:
381,265,332530,1,8,0:0:0:0:
381,265,332610,1,0,0:0:0:0:
312,278,332690,1,8,0:0:0:0:
387,308,332748,1,8,0:0:0:0:
312,278,332807,1,0,0:0:0:0:
312,278,332866,1,0,0:0:0:0:
312,278,332925,1,0,0:0:0:0:
396,283,333042,1,8,0:0:0:0:
396,283,333101,1,0,0:0:0:0:
396,283,333160,1,0,0:0:0:0:
396,283,333219,1,0,0:0:0:0:
396,283,333278,1,0,0:0:0:0:
396,283,333395,1,8,0:0:0:0:
399,265,333454,1,8,0:0:0:0:
399,265,333513,1,0,0:0:0:0:
399,265,333572,1,0,0:0:0:0:
413,253,333631,1,0,0:0:0:0:
352,276,333746,1,8,0:0:0:0:
363,272,333804,1,0,0:0:0:0:
363,272,333861,1,0,0:0:0:0:
363,272,333919,1,0,0:0:0:0:
363,272,333977,1,0,0:0:0:0:
383,305,334092,1,8,0:0:0:0:
383,305,334150,1,8,0:0:0:0:
383,305,334207,1,0,0:0:0:0:
399,298,334265,1,0,0:0:0:0:
383,305,334323,1,8,0:0:0:0:
383,287,334381,1,0,0:0:0:0:
383,287,334438,1,0,0:0:0:0:
383,290,334554,1,8,0:0:0:0:
383,287,334610,1,8,0:0:0:0:
383,287,334667,1,8,0:0:0:0:
339,261,334723,1,0,0:0:0:0:
339,261,334780,1,0,0:0:0:0:
425,262,334893,1,8,0:0:0:0:
425,262,334950,1,8,0:0:0:0:
425,262,335006,1,0,0:0:0:0:
425,262,335063,1,0,0:0:0:0:
425,262,335120,1,0,0:0:0:0:
425,262,335233,1,8,0:0:0:0:
425,262,335289,1,8,0:0:0:0:
425,262,335346,1,8,0:0:0:0:
425,262,335403,1,0,0:0:0:0:
423,303,335460,1,0,0:0:0:0:
366,310,335571,1,8,0:0:0:0:
366,310,335626,1,8,0:0:0:0:
366,310,335682,1,0,0:0:0:0:
366,310,335737,1,0,0:0:0:0:
366,310,335793,1,0,0:0:0:0:
352,256,335904,1,8,0:0:0:0:
352,256,335960,1,8,0:0:0:0:
352,256,336015,1,0,0:0:0:0:
422,302,336071,1,0,0:0:0:0:
326,250,336126,1,8,0:0:0:0:
326,250,336182,1,8,0:0:0:0:
326,250,336237,1,0,0:0:0:0:
397,291,336349,1,8,0:0:0:0:
371,294,336403,1,8,0:0:0:0:
371,293,336458,1,8,0:0:0:0:
414,282,336512,1,8,0:0:0:0:
371,293,336567,1,0,0:0:0:0:
370,217,336676,1,8,0:0:0:0:
370,217,336730,1,8,0:0:0:0:
370,217,336785,1,8,0:0:0:0:
394,290,336839,1,0,0:0:0:0:
370,217,336894,1,0,0:0:0:0:
370,217,337003,1,8,0:0:0:0:
370,217,337058,1,8,0:0:0:0:
370,217,337112,1,8,0:0:0:0:
407,250,337167,1,8,0:0:0:0:
360,251,337221,1,0,0:0:0:0:
430,310,337328,1,8,0:0:0:0:
430,310,337381,1,8,0:0:0:0:
430,310,337435,1,8,0:0:0:0:
342,220,337488,1,0,0:0:0:0:
342,220,337542,1,0,0:0:0:0:
367,271,337649,1,8,0:0:0:0:
367,271,337703,1,8,0:0:0:0:
385,282,337756,1,0,0:0:0:0:
359,292,337810,1,8,0:0:0:0:
359,292,337863,1,0,0:0:0:0:
359,292,337917,1,0,0:0:0:0:
412,305,337971,1,8,0:0:0:0:
256,192,338078,12,0,338393,0:0:0:0:
161,254,338499,6,4,L|228:298,1,78.7500030040742
320,307,338656,2,4,L|412:246,1,109.040207911139
452,206,338814,2,4,L|363:87,1,139.523340670463
322,63,338972,2,4,L|143:70,1,170.006489556397
83,73,339127,2,4,L|123:274,1,199.910826723716
108,306,339283,2,4,L|342:319,1,230.008100595119
377,338,339438,2,4,L|472:89,1,259.912441286248
462,79,339593,2,4,L|165:16,1,289.816782892956
122,2,339748,2,4,L|31:315,1,319.721150940017
1,308,339900,2,4,L|368:305,1,349.046685060068
424,340,340053,2,4,L|192:10,1,378.565176157883
106,15,340205,2,4,L|431:273,1,407.890713328469
390,340,340358,2,4,L|45:49,1,437.409201237867
1,123,340510,2,4,L|446:269,1,466.734759056968
66,341,340662,2,4,L|532:159,1,496.060324997844
54,321,340812,2,4,L|513:62,1,525
256,192,340962,12,0,341262,0:0:0:0:
447,254,341362,5,4,0:0:0:0:
427,275,341562,1,8,0:0:0:0:
443,286,341862,1,8,0:0:0:0:
439,263,342062,1,0,0:0:0:0:
348,257,342162,1,8,0:0:0:0:
367,240,342195,1,8,0:0:0:0:
367,240,342228,1,8,0:0:0:0:
361,262,342262,1,0,0:0:0:0:
356,261,342312,1,0,0:0:0:0:
389,231,342362,1,8,0:0:0:0:
408,296,342662,1,0,0:0:0:0:
439,268,342962,1,4,0:0:0:0:
387,298,343162,1,8,0:0:0:0:
386,278,343462,1,8,0:0:0:0:
422,281,343662,1,0,0:0:0:0:
380,241,343762,1,8,0:0:0:0:
380,241,343795,1,8,0:0:0:0:
380,241,343828,1,8,0:0:0:0:
395,287,343862,1,0,0:0:0:0:
401,271,343912,1,8,0:0:0:0:
404,268,343962,1,0,0:0:0:0:
445,291,344262,1,0,0:0:0:0:
380,298,344562,1,8,0:0:0:0:
380,298,344612,1,8,0:0:0:0:
454,325,344662,1,0,0:0:0:0:
454,325,344712,1,8,0:0:0:0:
454,325,344762,1,0,0:0:0:0:
454,325,344812,1,0,0:0:0:0:
454,325,344862,1,8,0:0:0:0:
454,325,344912,1,8,0:0:0:0:
454,325,344962,1,0,0:0:0:0:
373,297,345012,1,0,0:0:0:0:
373,297,345062,1,0,0:0:0:0:
384,281,345112,1,0,0:0:0:0:
384,281,345162,1,8,0:0:0:0:
409,308,345212,1,0,0:0:0:0:
409,308,345262,1,8,0:0:0:0:
404,277,345312,1,8,0:0:0:0:
409,308,345362,1,0,0:0:0:0:
396,303,345412,1,8,0:0:0:0:
409,308,345462,1,8,0:0:0:0:
397,298,345512,1,8,0:0:0:0:
403,292,345562,1,0,0:0:0:0:
407,318,345612,1,0,0:0:0:0:
397,298,345662,1,8,0:0:0:0:
335,268,345712,1,0,0:0:0:0:
335,268,345762,1,8,0:0:0:0:
366,293,345812,1,8,0:0:0:0:
399,323,345862,1,8,0:0:0:0:
380,309,345912,1,8,0:0:0:0:
380,309,345962,1,0,0:0:0:0:
380,309,346012,1,0,0:0:0:0:
399,323,346062,1,0,0:0:0:0:
399,323,346112,1,0,0:0:0:0:
395,295,346162,1,8,0:0:0:0:
400,288,346212,1,8,0:0:0:0:
378,278,346262,1,0,0:0:0:0:
378,278,346312,1,0,0:0:0:0:
378,276,346362,1,8,0:0:0:0:
395,295,346412,1,8,0:0:0:0:
378,278,346462,1,0,0:0:0:0:
378,278,346512,1,0,0:0:0:0:
395,314,346562,1,8,0:0:0:0:
390,303,346612,1,0,0:0:0:0:
390,303,346662,1,0,0:0:0:0:
390,303,346712,1,0,0:0:0:0:
367,298,346762,1,8,0:0:0:0:
367,298,346812,1,0,0:0:0:0:
367,298,346862,1,0,0:0:0:0:
367,298,346912,1,0,0:0:0:0:
411,274,346962,1,8,0:0:0:0:
411,274,346995,1,8,0:0:0:0:
411,274,347028,1,8,0:0:0:0:
411,274,347062,1,0,0:0:0:0:
403,299,347112,1,0,0:0:0:0:
403,299,347162,1,8,0:0:0:0:
377,247,347212,1,8,0:0:0:0:
403,298,347262,1,0,0:0:0:0:
353,293,347312,1,0,0:0:0:0:
396,301,347362,1,8,0:0:0:0:
396,301,347395,1,8,0:0:0:0:
403,299,347428,1,8,0:0:0:0:
403,298,347462,1,0,0:0:0:0:
426,282,347512,1,0,0:0:0:0:
424,325,347562,1,8,0:0:0:0:
424,324,347612,1,8,0:0:0:0:
366,263,347662,1,8,0:0:0:0:
424,325,347712,1,8,0:0:0:0:
427,254,347762,1,4,0:0:0:0:
431,283,348562,1,0,0:0:0:0:
417,300,348662,1,0,0:0:0:0:
417,300,348762,1,0,0:0:0:0:
417,300,348862,1,0,0:0:0:0:
417,300,348962,1,0,0:0:0:0:
417,300,349062,1,0,0:0:0:0:
417,300,349162,1,0,0:0:0:0:
417,300,349262,1,0,0:0:0:0:
364,262,349362,1,8,0:0:0:0:
364,262,349412,1,8,0:0:0:0:
262,229,349462,1,0,0:0:0:0:
262,229,349512,1,0,0:0:0:0:
262,229,349562,1,0,0:0:0:0:
262,229,349612,1,0,0:0:0:0:
262,229,349662,1,8,0:0:0:0:
262,229,349712,1,8,0:0:0:0:
262,229,349762,1,0,0:0:0:0:
262,229,349812,1,0,0:0:0:0:
262,229,349862,1,0,0:0:0:0:
262,229,349912,1,0,0:0:0:0:
395,278,349962,1,8,0:0:0:0:
363,294,350012,1,8,0:0:0:0:
421,313,350062,1,0,0:0:0:0:
421,313,350112,1,0,0:0:0:0:
421,313,350162,1,8,0:0:0:0:
384,290,350212,1,8,0:0:0:0:
384,290,350262,1,8,0:0:0:0:
384,290,350312,1,8,0:0:0:0:
399,260,350362,1,0,0:0:0:0:
399,260,350412,1,0,0:0:0:0:
399,260,350462,1,0,0:0:0:0:
399,260,350512,1,0,0:0:0:0:
426,254,350562,1,12,0:0:0:0:
425,283,350962,1,4,0:0:0:0:
319,248,351061,1,8,0:0:0:0:
319,248,351111,1,8,0:0:0:0:
352,245,351161,1,0,0:0:0:0:
402,293,351260,1,8,0:0:0:0:
414,320,351360,1,0,0:0:0:0:
412,320,351409,1,0,0:0:0:0:
412,320,351459,1,8,0:0:0:0:
414,320,351508,1,0,0:0:0:0:
414,320,351558,1,8,0:0:0:0:
412,320,351607,1,8,0:0:0:0:
412,320,351656,1,0,0:0:0:0:
398,306,351755,1,0,0:0:0:0:
398,306,351804,1,0,0:0:0:0:
398,306,351853,1,8,0:0:0:0:
398,306,351952,1,0,0:0:0:0:
398,306,352001,1,8,0:0:0:0:
398,306,352050,1,0,0:0:0:0:
423,337,352099,1,0,0:0:0:0:
423,337,352148,1,8,0:0:0:0:
423,337,352196,1,8,0:0:0:0:
393,285,352245,1,8,0:0:0:0:
393,285,352294,1,0,0:0:0:0:
447,329,352343,1,8,0:0:0:0:
447,329,352391,1,8,0:0:0:0:
448,305,352440,1,0,0:0:0:0:
431,298,352538,1,0,0:0:0:0:
424,299,352586,1,0,0:0:0:0:
367,274,352635,1,0,0:0:0:0:
367,274,352683,1,0,0:0:0:0:
367,274,352732,1,8,0:0:0:0:
426,323,352828,1,8,0:0:0:0:
421,294,352926,1,0,0:0:0:0:
409,299,352974,1,0,0:0:0:0:
409,299,353022,1,8,0:0:0:0:
407,328,353070,1,0,0:0:0:0:
407,328,353119,1,8,0:0:0:0:
416,292,353167,1,8,0:0:0:0:
416,312,353215,1,8,0:0:0:0:
376,285,353311,1,0,0:0:0:0:
376,285,353358,1,8,0:0:0:0:
376,285,353406,1,0,0:0:0:0:
376,285,353454,1,8,0:0:0:0:
376,285,353503,1,0,0:0:0:0:
438,321,353550,1,0,0:0:0:0:
438,321,353598,1,8,0:0:0:0:
428,322,353694,1,8,0:0:0:0:
425,324,353741,1,8,0:0:0:0:
423,322,353789,1,0,0:0:0:0:
423,322,353836,1,0,0:0:0:0:
409,308,353884,1,8,0:0:0:0:
459,293,354074,1,4,0:0:0:0:
406,300,354263,1,8,0:0:0:0:
406,300,354357,1,0,0:0:0:0:
406,300,354452,1,8,0:0:0:0:
406,300,354546,1,8,0:0:0:0:
406,300,354640,1,0,0:0:0:0:
406,300,354733,1,8,0:0:0:0:
406,300,354828,1,0,0:0:0:0:
405,311,354921,1,0,0:0:0:0:
405,311,355015,1,8,0:0:0:0:
405,311,355108,1,0,0:0:0:0:
431,334,355201,1,8,0:0:0:0:
431,334,355293,1,0,0:0:0:0:
431,334,355387,1,8,0:0:0:0:
431,334,355479,1,8,0:0:0:0:
448,290,355572,1,0,0:0:0:0:
408,304,355664,1,8,0:0:0:0:
408,304,355757,1,8,0:0:0:0:
408,304,355849,1,0,0:0:0:0:
421,323,355941,1,8,0:0:0:0:
421,323,356032,1,8,0:0:0:0:
369,283,356124,1,0,0:0:0:0:
369,283,356215,1,8,0:0:0:0:
389,281,356307,1,0,0:0:0:0:
389,281,356398,1,0,0:0:0:0:
389,281,356489,1,8,0:0:0:0:
389,281,356579,1,0,0:0:0:0:
389,281,356671,1,8,0:0:0:0:
392,312,356716,1,8,0:0:0:0:
392,312,356761,1,8,0:0:0:0:
392,312,356806,1,8,0:0:0:0:
392,312,356852,1,0,0:0:0:0:
426,282,357033,1,12,0:0:0:0:
420,297,357123,1,0,0:0:0:0:
418,297,357213,1,8,0:0:0:0:
396,317,357302,1,0,0:0:0:0:
396,317,357393,1,8,0:0:0:0:
331,283,357482,1,0,0:0:0:0:
331,283,357572,1,8,0:0:0:0:
331,283,357661,1,0,0:0:0:0:
401,325,357751,1,8,0:0:0:0:
401,325,357840,1,8,0:0:0:0:
401,325,357929,1,0,0:0:0:0:
401,325,357973,1,0,0:0:0:0:
401,325,358017,1,0,0:0:0:0:
401,325,358062,1,0,0:0:0:0:
401,325,358106,1,8,0:0:0:0:
389,297,358150,1,0,0:0:0:0:
401,325,358194,1,0,0:0:0:0:
401,325,358238,1,0,0:0:0:0:
401,325,358283,1,8,0:0:0:0:
389,297,358327,1,8,0:0:0:0:
416,323,358371,1,0,0:0:0:0:
416,323,358415,1,0,0:0:0:0:
436,325,358460,1,8,0:0:0:0:
436,325,358547,1,0,0:0:0:0:
436,325,358636,1,8,0:0:0:0:
455,285,358723,1,0,0:0:0:0:
436,325,358811,1,8,0:0:0:0:
391,249,358898,1,0,0:0:0:0:
391,249,358986,1,8,0:0:0:0:
415,281,359073,1,0,0:0:0:0:
391,249,359160,1,8,0:0:0:0:
405,308,359246,1,8,0:0:0:0:
405,308,359334,1,0,0:0:0:0:
418,318,359377,1,0,0:0:0:0:
418,318,359420,1,8,0:0:0:0:
418,318,359464,1,0,0:0:0:0:
456,342,359508,1,8,0:0:0:0:
456,342,359551,1,8,0:0:0:0:
456,342,359594,1,0,0:0:0:0:
429,323,359637,1,0,0:0:0:0:
428,323,359681,1,8,0:0:0:0:
428,323,359724,1,0,0:0:0:0:
428,323,359767,1,0,0:0:0:0:
454,297,359853,1,12,0:0:0:0:
412,233,360025,1,8,0:0:0:0:
440,306,360067,1,0,0:0:0:0:
319,258,360110,1,0,0:0:0:0:
393,268,360196,1,8,0:0:0:0:
448,280,360281,1,8,0:0:0:0:
331,278,360367,1,0,0:0:0:0:
331,278,360452,1,8,0:0:0:0:
331,278,360494,1,8,0:0:0:0:
373,304,360538,1,8,0:0:0:0:
373,263,360622,1,8,0:0:0:0:
425,328,360708,1,0,0:0:0:0:
425,328,360792,1,8,0:0:0:0:
425,328,360835,1,0,0:0:0:0:
425,328,360877,1,8,0:0:0:0:
451,333,360961,1,0,0:0:0:0:
435,297,361046,1,8,0:0:0:0:
435,297,361088,1,8,0:0:0:0:
435,297,361130,1,8,0:0:0:0:
435,297,361172,1,8,0:0:0:0:
435,297,361215,1,0,0:0:0:0:
152,91,361887,2,4,L|237:89,1,78.7500030040742
140,162,362012,2,4,L|278:157,1,128.599196666163
139,256,362137,2,4,L|324:258,1,178.448390713722
130,330,362262,2,4,L|363:330,1,228.297579309736
115,61,362387,2,4,L|397:63,1,278.146791544011
99,168,362512,2,4,L|434:168,1,327.995969450571
75,261,362636,2,4,L|460:258,1,377.446371480894
82,335,362759,2,4,L|514:329,1,426.497983382223
98,93,362882,2,4,L|581:103,1,475.549600773315
54,194,363006,2,4,L|566:329,1,525
256,192,363211,12,0,363433,0:0:0:0:
392,290,363535,5,8,0:0:0:0:
392,290,363589,1,8,0:0:0:0:
392,290,363643,1,8,0:0:0:0:
392,290,363697,1,0,0:0:0:0:
392,290,363751,1,0,0:0:0:0:
392,290,363805,1,0,0:0:0:0:
426,298,363860,1,12,0:0:0:0:
346,273,363940,1,0,0:0:0:0:
409,298,364022,1,0,0:0:0:0:
409,298,364102,1,8,0:0:0:0:
409,298,364183,1,0,0:0:0:0:
409,298,364263,1,0,0:0:0:0:
409,298,364344,1,8,0:0:0:0:
409,298,364424,1,8,0:0:0:0:
441,327,364504,1,0,0:0:0:0:
422,307,364584,1,8,0:0:0:0:
422,307,364664,1,0,0:0:0:0:
422,307,364743,1,0,0:0:0:0:
405,307,364824,1,8,0:0:0:0:
405,307,364903,1,0,0:0:0:0:
405,307,364983,1,8,0:0:0:0:
405,307,365022,1,8,0:0:0:0:
424,307,365062,1,0,0:0:0:0:
424,307,365102,1,0,0:0:0:0:
387,269,365142,1,8,0:0:0:0:
397,299,365221,1,0,0:0:0:0:
379,279,365300,1,0,0:0:0:0:
397,299,365378,1,8,0:0:0:0:
397,299,365458,1,0,0:0:0:0:
397,299,365536,1,0,0:0:0:0:
397,299,365615,1,8,0:0:0:0:
415,283,365693,1,8,0:0:0:0:
397,299,365772,1,0,0:0:0:0:
386,295,365811,1,0,0:0:0:0:
397,299,365850,1,8,0:0:0:0:
420,320,365889,1,8,0:0:0:0:
406,314,365929,1,8,0:0:0:0:
397,299,366007,1,0,0:0:0:0:
429,318,366085,1,8,0:0:0:0:
429,318,366162,1,0,0:0:0:0:
417,323,366241,1,8,0:0:0:0:
417,323,366279,1,8,0:0:0:0:
417,323,366318,1,8,0:0:0:0:
417,323,366357,1,8,0:0:0:0:
423,310,366397,1,0,0:0:0:0:
399,339,366474,1,0,0:0:0:0:
397,335,366552,1,0,0:0:0:0:
399,335,366629,1,8,0:0:0:0:
399,339,366706,1,0,0:0:0:0:
397,335,366783,1,0,0:0:0:0:
399,335,366861,1,8,0:0:0:0:
378,296,366937,1,0,0:0:0:0:
378,296,367014,1,8,0:0:0:0:
403,306,367052,1,0,0:0:0:0:
428,308,367090,1,8,0:0:0:0:
403,306,367129,1,8,0:0:0:0:
403,306,367168,1,0,0:0:0:0:
441,319,367244,1,8,0:0:0:0:
432,328,367282,1,8,0:0:0:0:
447,294,367321,1,8,0:0:0:0:
441,258,367359,1,8,0:0:0:0:
356,266,367397,1,0,0:0:0:0:
356,266,367435,1,0,0:0:0:0:
356,266,367474,1,8,0:0:0:0:
426,323,367550,1,0,0:0:0:0:
426,323,367626,1,8,0:0:0:0:
451,323,367778,1,8,0:0:0:0:
331,301,367815,1,0,0:0:0:0:
451,323,367853,1,0,0:0:0:0:
426,325,367929,1,8,0:0:0:0:
426,325,367966,1,8,0:0:0:0:
426,325,368004,1,8,0:0:0:0:
444,327,368080,1,0,0:0:0:0:
373,237,368193,1,8,0:0:0:0:
426,325,368231,1,0,0:0:0:0:
431,328,368306,1,8,0:0:0:0:
426,325,368382,1,0,0:0:0:0:
441,328,368419,1,0,0:0:0:0:
441,328,368457,1,0,0:0:0:0:
437,254,368494,1,0,0:0:0:0:
440,311,368532,1,8,0:0:0:0:
426,325,368606,1,0,0:0:0:0:
422,328,368681,1,8,0:0:0:0:
422,328,368718,1,8,0:0:0:0:
447,327,368755,1,0,0:0:0:0:
446,327,368830,1,8,0:0:0:0:
446,324,368904,1,0,0:0:0:0:
447,327,368979,1,0,0:0:0:0:
446,327,369053,1,8,0:0:0:0:
446,324,369128,1,0,0:0:0:0:
447,327,369202,1,0,0:0:0:0:
446,327,369276,1,8,0:0:0:0:
399,317,369312,1,0,0:0:0:0:
446,324,369349,1,8,0:0:0:0:
399,317,369386,1,8,0:0:0:0:
447,327,369424,1,0,0:0:0:0:
446,327,369497,1,8,0:0:0:0:
446,324,369571,1,0,0:0:0:0:
447,327,369644,1,0,0:0:0:0:
421,338,369718,1,8,0:0:0:0:
421,338,369791,1,0,0:0:0:0:
380,293,369865,1,8,0:0:0:0:
473,304,369901,1,8,0:0:0:0:
441,280,369938,1,0,0:0:0:0:
394,266,369974,1,0,0:0:0:0:
401,264,370011,1,8,0:0:0:0:
422,269,370083,1,0,0:0:0:0:
423,312,370157,1,0,0:0:0:0:
423,312,370229,1,8,0:0:0:0:
416,288,370303,1,0,0:0:0:0:
416,288,370375,1,0,0:0:0:0:
416,288,370448,1,8,0:0:0:0:
445,259,370484,1,8,0:0:0:0:
434,328,370520,1,0,0:0:0:0:
434,328,370593,1,8,0:0:0:0:
402,317,370629,1,8,0:0:0:0:
402,317,370665,1,8,0:0:0:0:
417,338,370738,1,0,0:0:0:0:
417,338,370774,1,0,0:0:0:0:
417,338,370810,1,0,0:0:0:0:
426,331,370882,1,8,0:0:0:0:
471,256,370917,1,8,0:0:0:0:
475,278,370953,1,8,0:0:0:0:
437,314,371026,1,0,0:0:0:0:
437,314,371061,1,0,0:0:0:0:
437,314,371097,1,8,0:0:0:0:
437,303,371169,1,0,0:0:0:0:
436,333,371313,1,0,0:0:0:0:
436,333,371455,1,0,0:0:0:0:
436,333,371598,1,0,0:0:0:0:
403,290,371669,1,0,0:0:0:0:
436,333,371740,1,0,0:0:0:0:
412,258,371882,1,8,0:0:0:0:
412,258,371917,1,8,0:0:0:0:
412,258,371952,1,8,0:0:0:0:
412,258,371988,1,8,0:0:0:0:
412,258,372023,1,8,0:0:0:0:
432,316,372093,1,8,0:0:0:0:
432,316,372165,1,0,0:0:0:0:
432,316,372235,1,0,0:0:0:0:
442,336,372306,1,8,0:0:0:0:
435,306,372376,1,8,0:0:0:0:
442,336,372446,1,0,0:0:0:0:
442,336,372516,1,8,0:0:0:0:
442,336,372586,1,0,0:0:0:0:
442,336,372655,1,0,0:0:0:0:
443,344,372726,1,8,0:0:0:0:
442,336,372795,1,0,0:0:0:0:
442,336,372866,1,8,0:0:0:0:
440,311,372935,1,0,0:0:0:0:
446,289,373005,1,8,0:0:0:0:
414,313,373074,1,0,0:0:0:0:
414,313,373144,1,8,0:0:0:0:
414,313,373213,1,0,0:0:0:0:
414,313,373282,1,8,0:0:0:0:
414,313,373351,1,8,0:0:0:0:
436,297,373421,1,4,0:0:0:0:
424,300,373558,1,8,0:0:0:0:
424,300,373627,1,0,0:0:0:0:
424,300,373696,1,8,0:0:0:0:
424,300,373765,1,8,0:0:0:0:
424,300,373834,1,0,0:0:0:0:
424,300,373903,1,0,0:0:0:0:
424,300,373972,1,8,0:0:0:0:
424,300,374041,1,0,0:0:0:0:
425,281,374110,1,0,0:0:0:0:
424,300,374179,1,0,0:0:0:0:
352,288,374248,1,8,0:0:0:0:
352,288,374317,1,8,0:0:0:0:
413,308,374386,1,8,0:0:0:0:
413,308,374455,1,0,0:0:0:0:
413,308,374524,1,8,0:0:0:0:
413,308,374593,1,8,0:0:0:0:
413,308,374662,1,0,0:0:0:0:
423,311,374731,1,0,0:0:0:0:
397,289,374800,1,8,0:0:0:0:
397,289,374869,1,0,0:0:0:0:
397,289,374938,1,8,0:0:0:0:
416,291,375007,1,8,0:0:0:0:
417,291,375076,1,0,0:0:0:0:
383,303,375145,1,8,0:0:0:0:
383,303,375179,1,8,0:0:0:0:
383,303,375214,1,0,0:0:0:0:
425,279,375283,1,8,0:0:0:0:
425,279,375317,1,8,0:0:0:0:
425,279,375352,1,0,0:0:0:0:
399,300,375421,1,0,0:0:0:0:
399,300,375489,1,8,0:0:0:0:
391,254,375524,1,0,0:0:0:0:
419,249,375558,1,8,0:0:0:0:
452,254,375593,1,8,0:0:0:0:
414,266,375627,1,0,0:0:0:0:
420,304,375696,1,0,0:0:0:0:
408,306,375765,1,0,0:0:0:0:
408,306,375834,1,0,0:0:0:0:
416,320,375903,1,8,0:0:0:0:
408,306,375972,1,0,0:0:0:0:
408,306,376041,1,8,0:0:0:0:
414,305,376110,1,8,0:0:0:0:
416,325,376179,1,0,0:0:0:0:
449,302,376214,1,0,0:0:0:0:
449,302,376248,1,8,0:0:0:0:
456,297,376317,1,8,0:0:0:0:
456,297,376352,1,8,0:0:0:0:
456,297,376386,1,0,0:0:0:0:
460,253,376420,1,0,0:0:0:0:
456,297,376455,1,8,0:0:0:0:
432,317,376524,1,0,0:0:0:0:
432,317,376593,1,8,0:0:0:0:
432,317,376627,1,8,0:0:0:0:
391,282,376662,1,0,0:0:0:0:
436,299,376731,1,8,0:0:0:0:
441,265,376765,1,8,0:0:0:0:
441,265,376800,1,8,0:0:0:0:
376,274,376834,1,8,0:0:0:0:
431,294,376869,1,0,0:0:0:0:
397,292,376938,1,0,0:0:0:0:
432,279,377007,1,8,0:0:0:0:
432,279,377041,1,8,0:0:0:0:
432,279,377076,1,8,0:0:0:0:
450,273,377110,1,8,0:0:0:0:
439,271,377145,1,0,0:0:0:0:
390,318,377214,1,0,0:0:0:0:
416,302,377283,1,8,0:0:0:0:
423,317,377352,1,8,0:0:0:0:
413,312,377420,1,8,0:0:0:0:
413,312,377489,1,8,0:0:0:0:
413,312,377558,1,0,0:0:0:0:
423,301,377834,1,4,0:0:0:0:
434,305,377972,1,8,0:0:0:0:
434,304,378041,1,8,0:0:0:0:
434,305,378110,1,8,0:0:0:0:
447,292,378248,1,4,0:0:0:0:
357,290,378386,1,8,0:0:0:0:
357,290,378455,1,8,0:0:0:0:
357,290,378524,1,8,0:0:0:0:
408,296,378662,1,0,0:0:0:0:
408,296,378731,1,0,0:0:0:0:
408,296,378800,1,0,0:0:0:0:
408,296,378869,1,0,0:0:0:0:
428,259,378938,1,8,0:0:0:0:
445,291,379006,1,0,0:0:0:0:
441,311,379142,1,8,0:0:0:0:
434,289,379210,1,0,0:0:0:0:
445,268,379347,1,8,0:0:0:0:
407,279,379415,1,0,0:0:0:0:
407,279,379483,1,8,0:0:0:0:
421,302,379551,1,0,0:0:0:0:
421,302,379619,1,0,0:0:0:0:
381,280,379688,1,8,0:0:0:0:
381,280,379756,1,0,0:0:0:0:
381,280,379824,1,0,0:0:0:0:
422,306,379892,1,8,0:0:0:0:
435,312,379960,1,8,0:0:0:0:
427,328,380028,1,0,0:0:0:0:
427,328,380063,1,0,0:0:0:0:
427,328,380097,1,0,0:0:0:0:
427,328,380131,1,0,0:0:0:0:
427,328,380165,1,8,0:0:0:0:
376,277,380233,1,0,0:0:0:0:
398,258,380301,1,8,0:0:0:0:
446,308,380438,1,0,0:0:0:0:
446,308,380472,1,0,0:0:0:0:
446,308,380506,1,8,0:0:0:0:
412,297,380540,1,8,0:0:0:0:
412,297,380574,1,0,0:0:0:0:
411,272,380642,1,8,0:0:0:0:
424,275,380710,1,8,0:0:0:0:
390,315,380847,1,0,0:0:0:0:
390,315,380881,1,0,0:0:0:0:
390,315,380915,1,8,0:0:0:0:
442,308,380983,1,8,0:0:0:0:
442,308,381017,1,8,0:0:0:0:
427,300,381051,1,0,0:0:0:0:
427,300,381119,1,8,0:0:0:0:
391,261,381188,1,0,0:0:0:0:
431,316,381324,1,8,0:0:0:0:
435,303,381392,1,0,0:0:0:0:
440,300,381528,1,8,0:0:0:0:
441,298,381597,1,0,0:0:0:0:
391,270,381665,1,8,0:0:0:0:
407,291,381733,1,0,0:0:0:0:
387,285,381801,1,0,0:0:0:0:
405,292,381869,1,8,0:0:0:0:
441,298,381938,1,0,0:0:0:0:
413,298,382006,1,8,0:0:0:0:
413,298,382074,1,8,0:0:0:0:
430,290,382142,1,8,0:0:0:0:
436,314,382210,1,0,0:0:0:0:
434,317,382244,1,0,0:0:0:0:
461,320,382278,1,8,0:0:0:0:
440,297,382313,1,8,0:0:0:0:
411,314,382347,1,8,0:0:0:0:
415,297,382415,1,0,0:0:0:0:
420,288,382483,1,8,0:0:0:0:
425,303,382619,1,0,0:0:0:0:
425,320,382653,1,8,0:0:0:0:
425,303,382688,1,8,0:0:0:0:
425,303,382722,1,8,0:0:0:0:
425,303,382756,1,0,0:0:0:0:
431,278,382824,1,8,0:0:0:0:
425,303,382892,1,8,0:0:0:0:
408,309,383028,1,0,0:0:0:0:
408,309,383063,1,0,0:0:0:0:
408,309,383097,1,8,0:0:0:0:
408,309,383165,1,8,0:0:0:0:
408,309,383199,1,8,0:0:0:0:
408,309,383233,1,0,0:0:0:0:
410,302,383301,1,8,0:0:0:0:
430,303,383369,1,0,0:0:0:0:
345,280,383506,1,8,0:0:0:0:
389,265,383574,1,0,0:0:0:0:
439,308,383710,1,8,0:0:0:0:
439,308,383778,1,0,0:0:0:0:
406,265,383847,1,8,0:0:0:0:
449,312,383915,1,0,0:0:0:0:
446,283,383983,1,0,0:0:0:0:
380,296,384051,1,8,0:0:0:0:
380,296,384119,1,0,0:0:0:0:
380,296,384188,1,0,0:0:0:0:
409,313,384256,1,8,0:0:0:0:
428,277,384324,1,8,0:0:0:0:
343,291,384392,1,0,0:0:0:0:
343,291,384426,1,0,0:0:0:0:
343,291,384460,1,0,0:0:0:0:
343,291,384494,1,0,0:0:0:0:
343,291,384528,1,8,0:0:0:0:
357,286,384597,1,0,0:0:0:0:
357,278,384665,1,8,0:0:0:0:
403,299,384801,1,0,0:0:0:0:
439,308,384835,1,0,0:0:0:0:
403,299,384869,1,8,0:0:0:0:
403,299,384903,1,8,0:0:0:0:
403,299,384938,1,0,0:0:0:0:
386,273,385006,1,8,0:0:0:0:
403,299,385074,1,8,0:0:0:0:
409,298,385210,1,0,0:0:0:0:
409,298,385244,1,0,0:0:0:0:
403,299,385278,1,8,0:0:0:0:
421,303,385347,1,8,0:0:0:0:
421,303,385381,1,8,0:0:0:0:
421,303,385415,1,0,0:0:0:0:
434,282,385483,1,12,0:0:0:0:
447,297,385688,1,12,0:0:0:0:
447,297,385892,1,4,0:0:0:0:
447,297,386097,1,4,0:0:0:0:
435,300,386301,1,12,0:0:0:0:
435,300,386506,1,12,0:0:0:0:
435,300,386710,1,4,0:0:0:0:
435,300,386915,1,4,0:0:0:0:
419,283,387119,1,12,0:0:0:0:
447,286,387392,1,0,0:0:0:0:
460,279,387665,1,12,0:0:0:0:
429,307,387801,1,0,0:0:0:0:
403,291,387869,1,8,0:0:0:0:
391,272,387903,1,8,0:0:0:0:
422,289,387938,1,0,0:0:0:0:
429,307,388006,1,0,0:0:0:0:
422,305,388074,1,8,0:0:0:0:
427,308,388108,1,8,0:0:0:0:
422,305,388142,1,8,0:0:0:0:
422,304,388210,1,0,0:0:0:0:
422,305,388278,1,8,0:0:0:0:
422,305,388313,1,8,0:0:0:0:
427,308,388347,1,0,0:0:0:0:
411,318,388415,1,8,0:0:0:0:
411,317,388483,1,0,0:0:0:0:
440,281,388517,1,0,0:0:0:0:
404,286,388551,1,0,0:0:0:0:
404,286,388619,1,8,0:0:0:0:
433,319,388688,1,8,0:0:0:0:
433,319,388756,1,0,0:0:0:0:
433,319,388790,1,0,0:0:0:0:
433,319,388824,1,0,0:0:0:0:
443,267,388892,1,0,0:0:0:0:
421,296,388960,1,8,0:0:0:0:
437,322,388994,1,8,0:0:0:0:
425,293,389028,1,0,0:0:0:0:
439,318,389097,1,8,0:0:0:0:
439,318,389165,1,0,0:0:0:0:
439,318,389199,1,0,0:0:0:0:
437,322,389233,1,8,0:0:0:0:
404,320,389301,1,0,0:0:0:0:
421,290,389369,1,8,0:0:0:0:
421,290,389403,1,8,0:0:0:0:
421,290,389438,1,8,0:0:0:0:
412,323,389506,1,8,0:0:0:0:
412,323,389574,1,0,0:0:0:0:
412,323,389608,1,0,0:0:0:0:
399,293,389642,1,0,0:0:0:0:
399,293,389710,1,8,0:0:0:0:
412,283,389744,1,8,0:0:0:0:
399,293,389778,1,0,0:0:0:0:
426,276,389847,1,12,0:0:0:0:
431,306,389983,1,0,0:0:0:0:
440,326,390051,1,8,0:0:0:0:
417,308,390085,1,8,0:0:0:0:
417,308,390119,1,0,0:0:0:0:
417,308,390188,1,8,0:0:0:0:
423,298,390256,1,0,0:0:0:0:
423,298,390290,1,0,0:0:0:0:
405,284,390324,1,8,0:0:0:0:
405,284,390392,1,0,0:0:0:0:
425,312,390460,1,8,0:0:0:0:
425,312,390494,1,8,0:0:0:0:
425,312,390528,1,8,0:0:0:0:
447,295,390597,1,0,0:0:0:0:
431,316,390665,1,8,0:0:0:0:
429,258,390699,1,8,0:0:0:0:
406,301,390733,1,0,0:0:0:0:
386,312,390801,1,8,0:0:0:0:
396,294,390869,1,8,0:0:0:0:
424,283,390937,1,0,0:0:0:0:
418,312,390972,1,0,0:0:0:0:
418,312,391006,1,0,0:0:0:0:
422,303,391074,1,8,0:0:0:0:
442,311,391142,1,0,0:0:0:0:
442,311,391176,1,0,0:0:0:0:
442,311,391210,1,8,0:0:0:0:
447,301,391278,1,0,0:0:0:0:
344,248,391347,1,8,0:0:0:0:
344,248,391381,1,8,0:0:0:0:
344,248,391415,1,0,0:0:0:0:
408,262,391483,1,8,0:0:0:0:
412,301,391551,1,8,0:0:0:0:
430,299,391585,1,8,0:0:0:0:
430,299,391619,1,8,0:0:0:0:
430,299,391687,1,0,0:0:0:0:
453,329,391756,1,8,0:0:0:0:
437,284,391790,1,0,0:0:0:0:
442,308,391824,1,0,0:0:0:0:
442,308,391858,1,0,0:0:0:0:
442,307,391892,1,8,0:0:0:0:
460,279,392028,1,12,0:0:0:0:
429,307,392165,1,0,0:0:0:0:
403,291,392233,1,8,0:0:0:0:
391,272,392267,1,8,0:0:0:0:
422,289,392301,1,0,0:0:0:0:
429,307,392369,1,0,0:0:0:0:
422,305,392437,1,8,0:0:0:0:
427,308,392472,1,8,0:0:0:0:
422,305,392506,1,8,0:0:0:0:
387,286,392540,1,8,0:0:0:0:
422,304,392574,1,0,0:0:0:0:
422,305,392642,1,8,0:0:0:0:
422,305,392676,1,8,0:0:0:0:
427,308,392710,1,0,0:0:0:0:
411,318,392778,1,8,0:0:0:0:
411,317,392847,1,0,0:0:0:0:
439,296,392881,1,0,0:0:0:0:
404,286,392915,1,0,0:0:0:0:
404,286,392983,1,8,0:0:0:0:
433,319,393051,1,8,0:0:0:0:
433,319,393119,1,0,0:0:0:0:
433,319,393153,1,0,0:0:0:0:
412,248,393187,1,0,0:0:0:0:
443,267,393256,1,0,0:0:0:0:
421,296,393324,1,8,0:0:0:0:
437,322,393358,1,8,0:0:0:0:
425,293,393392,1,0,0:0:0:0:
439,318,393460,1,8,0:0:0:0:
439,318,393528,1,0,0:0:0:0:
439,318,393562,1,0,0:0:0:0:
437,322,393597,1,8,0:0:0:0:
419,287,393631,1,8,0:0:0:0:
404,320,393665,1,0,0:0:0:0:
421,290,393733,1,8,0:0:0:0:
421,290,393767,1,8,0:0:0:0:
421,290,393801,1,8,0:0:0:0:
426,283,393869,1,8,0:0:0:0:
399,293,393937,1,0,0:0:0:0:
420,304,393972,1,0,0:0:0:0:
436,273,394006,1,8,0:0:0:0:
399,293,394074,1,8,0:0:0:0:
436,300,394108,1,8,0:0:0:0:
399,293,394142,1,0,0:0:0:0:
426,276,394210,1,12,0:0:0:0:
431,306,394347,1,0,0:0:0:0:
440,326,394415,1,8,0:0:0:0:
417,308,394449,1,8,0:0:0:0:
417,308,394483,1,0,0:0:0:0:
419,308,394551,1,0,0:0:0:0:
419,303,394619,1,8,0:0:0:0:
419,303,394653,1,8,0:0:0:0:
405,284,394687,1,8,0:0:0:0:
402,265,394722,1,8,0:0:0:0:
405,284,394756,1,0,0:0:0:0:
425,312,394824,1,8,0:0:0:0:
425,312,394858,1,8,0:0:0:0:
425,312,394892,1,8,0:0:0:0:
447,295,394960,1,0,0:0:0:0:
431,316,395028,1,8,0:0:0:0:
439,297,395062,1,0,0:0:0:0:
406,301,395097,1,0,0:0:0:0:
386,312,395165,1,8,0:0:0:0:
396,294,395233,1,8,0:0:0:0:
451,297,395301,1,0,0:0:0:0:
413,308,395335,1,0,0:0:0:0:
413,308,395369,1,0,0:0:0:0:
413,308,395403,1,0,0:0:0:0:
413,308,395437,1,8,0:0:0:0:
430,290,395506,1,0,0:0:0:0:
431,315,395574,1,8,0:0:0:0:
431,311,395608,1,8,0:0:0:0:
431,311,395642,1,8,0:0:0:0:
407,272,395676,1,8,0:0:0:0:
443,294,395710,1,0,0:0:0:0:
443,294,395778,1,0,0:0:0:0:
445,321,395847,1,8,0:0:0:0:
431,311,395881,1,8,0:0:0:0:
433,312,395915,1,0,0:0:0:0:
433,312,395949,1,0,0:0:0:0:
433,312,395983,1,8,0:0:0:0:
433,308,396051,1,0,0:0:0:0:
420,318,396119,1,8,0:0:0:0:
440,301,396153,1,0,0:0:0:0:
440,301,396187,1,0,0:0:0:0:
431,277,396222,1,0,0:0:0:0:
440,301,396256,1,8,0:0:0:0:
443,330,396324,1,8,0:0:0:0:
450,321,396392,1,0,0:0:0:0:
376,286,396597,1,0,0:0:0:0:
376,286,396801,1,0,0:0:0:0:
398,305,397074,1,8,0:0:0:0:
452,285,397142,1,0,0:0:0:0:
398,305,397278,1,8,0:0:0:0:
441,244,397347,1,0,0:0:0:0:
398,305,397483,1,8,0:0:0:0:
398,305,397551,1,8,0:0:0:0:
398,305,397619,1,0,0:0:0:0:
398,305,397687,1,0,0:0:0:0:
386,273,397756,1,8,0:0:0:0:
374,278,397960,1,8,0:0:0:0:
431,243,398028,1,0,0:0:0:0:
418,302,398097,1,0,0:0:0:0:
429,320,398233,1,8,0:0:0:0:
429,320,398301,1,0,0:0:0:0:
429,320,398369,1,0,0:0:0:0:
485,310,398437,1,8,0:0:0:0:
411,294,398642,1,0,0:0:0:0:
411,294,398710,1,0,0:0:0:0:
411,294,398778,1,8,0:0:0:0:
437,297,398915,1,0,0:0:0:0:
429,310,398983,1,8,0:0:0:0:
429,310,399051,1,8,0:0:0:0:
418,290,399119,1,0,0:0:0:0:
411,313,399187,1,0,0:0:0:0:
411,313,399256,1,8,0:0:0:0:
408,298,399324,1,8,0:0:0:0:
407,292,399392,1,0,0:0:0:0:
407,292,399460,1,0,0:0:0:0:
444,306,399528,1,8,0:0:0:0:
444,306,399597,1,0,0:0:0:0:
438,318,399665,1,8,0:0:0:0:
394,268,399756,1,0,0:0:0:0:
394,268,399847,1,0,0:0:0:0:
394,268,399937,1,8,0:0:0:0:
330,224,400028,1,8,0:0:0:0:
402,251,400119,1,8,0:0:0:0:
445,245,400210,1,4,0:0:0:0:
256,192,400278,12,0,403892,0:0:0:0:
361,305,404028,5,8,0:0:0:0:
364,295,404074,1,8,0:0:0:0:
426,303,404119,1,0,0:0:0:0:
364,295,404165,1,0,0:0:0:0:
364,295,404210,1,0,0:0:0:0:
364,295,404256,1,0,0:0:0:0:
423,330,404301,1,8,0:0:0:0:
416,318,404347,1,8,0:0:0:0:
426,303,404392,1,0,0:0:0:0:
416,315,404437,1,0,0:0:0:0:
416,315,404483,1,0,0:0:0:0:
416,315,404528,1,0,0:0:0:0:
115,103,404574,2,4,L|191:132,2,70
91,325,404710,2,0,L|186:273,1,105
155,62,404814,2,0,L|233:142,1,105
39,305,404921,2,0,L|136:255,1,105
63,115,405029,2,0,L|169:171,1,105
72,326,405139,2,4,L|151:294,2,70
51,293,405289,2,0,L|122:263,2,70
106,116,405443,2,0,L|203:175,1,105
73,316,405561,2,0,L|163:261,1,105
101,76,405682,2,0,L|180:161,1,105
62,323,405804,2,4,L|168:293,1,105
51,216,405930,2,0,L|151:172,1,105
54,71,406058,2,0,L|134:153,1,105
84,318,406189,2,0,L|166:253,1,105
71,205,406323,2,0,L|177:250,1,105
45,299,406460,2,4,L|143:249,1,105
70,88,406600,2,0,L|151:162,1,105
61,332,406743,2,0,L|146:260,1,105
62,70,406891,2,0,L|156:145,1,105
49,292,407041,2,0,L|184:233,1,140
69,80,407244,2,4,L|184:165,2,140
55,322,407556,2,4,L|181:243,2,140
119,338,407876,2,4,L|221:235,2,140
23,305,408205,2,4,L|169:260,2,140
154,318,408542,2,4,L|264:222,2,140
136,117,408891,2,4,L|430:66,1,281
143,340,409249,2,4,L|227:220,2,140
93,315,409618,2,4,L|240:268,2,140
112,351,409999,2,4,L|206:230,1,140
455,283,410260,2,4,L|353:172,1,140
372,272,410526,2,4,L|267:171,1,140
299,90,410799,2,4,L|190:202,1,140
470,306,411078,5,4,0:0:0:0:
442,318,411220,1,0,0:0:0:0:
414,279,411364,1,0,0:0:0:0:
442,318,411510,1,0,0:0:0:0:
416,308,411656,1,0,0:0:0:0:
416,308,411731,1,0,0:0:0:0:
374,268,411806,1,0,0:0:0:0:
374,268,411881,1,0,0:0:0:0:
411,231,411956,1,8,0:0:0:0:
411,231,412007,1,8,0:0:0:0:
411,231,412058,1,8,0:0:0:0:
411,231,412109,1,8,0:0:0:0:
411,231,412161,1,8,0:0:0:0:
411,231,412212,1,8,0:0:0:0:
467,307,412264,1,4,0:0:0:0:
437,311,415737,5,8,0:0:0:0:
430,283,415842,1,8,0:0:0:0:
430,283,415948,1,8,0:0:0:0:
307,254,416053,1,0,0:0:0:0:
457,268,416211,1,8,0:0:0:0:
433,317,416369,1,0,0:0:0:0:
408,240,416527,1,0,0:0:0:0:
426,283,416685,1,8,0:0:0:0:
396,299,416842,1,0,0:0:0:0:
396,299,417000,1,8,0:0:0:0:
396,299,417158,1,8,0:0:0:0:
463,292,417316,1,4,0:0:0:0:
256,192,417395,12,0,424106,0:0:0:0:
