osu file format v14

[General]
AudioFilename: audio.mp3
AudioLeadIn: 0
PreviewTime: 79282
Countdown: 0
SampleSet: Soft
StackLeniency: 0.7
Mode: 3
LetterboxInBreaks: 0
SpecialStyle: 0
WidescreenStoryboard: 1

[Editor]
DistanceSpacing: 2
BeatDivisor: 4
GridSize: 4
TimelineZoom: 2.3

[Metadata]
Title:PSYCHO+HEROES
TitleUnicode:PSYCHO+HEROES
Artist:Camellia
ArtistUnicode:かめりあ
Creator:Ricca
Version:Worthless's BEGINNER
Source:SOUND VOLTEX III GRAVITY WARS コナステ
Tags:psystyle camellia かめりあ かめるかめりあ masaya oya SDVX 3 6 VI EXCEED GEAR cametek electronic instrumental Konami Bemani video game 大箭将也 大箭マサヤ kamelcamellia HDTOO Worthlessnut9
BeatmapID:4370652
BeatmapSetID:1855737

[Difficulty]
HPDrainRate:7
CircleSize:4
OverallDifficulty:7
ApproachRate:5
SliderMultiplier:1.4
SliderTickRate:1

[Events]
//Background and Video events
0,0,"bg.jpg",0,0
//Break Periods
2,61844,69137
//Storyboard Layer 0 (Background)
//Storyboard Layer 1 (Fail)
//Storyboard Layer 2 (Pass)
//Storyboard Layer 3 (Foreground)
//Storyboard Layer 4 (Overlay)
//Storyboard Sound Samples

[TimingPoints]
2357,285.035629453682,4,2,1,30,1,0
79886,-100,4,2,1,30,0,1
89007,-100,4,2,1,30,0,0
89292,-100,4,2,1,30,0,1
98128,-100,4,2,1,30,0,0

[HitObjects]
64,192,2356,5,12,0:0:0:0:
448,192,4637,1,12,0:0:0:0:
320,192,5777,1,12,0:0:0:0:
192,192,6062,1,12,0:0:0:0:
448,192,6347,1,12,0:0:0:0:
64,192,6632,1,12,0:0:0:0:
320,192,6917,1,12,0:0:0:0:
192,192,9197,1,12,0:0:0:0:
64,192,10337,1,8,0:0:0:0:
192,192,10623,1,8,0:0:0:0:
320,192,10908,1,8,0:0:0:0:
448,192,11193,1,8,0:0:0:0:
64,192,11478,128,8,12618:0:0:0:0:
192,192,12618,128,8,13758:0:0:0:0:
320,192,13758,128,8,14898:0:0:0:0:
448,192,14898,128,8,16038:0:0:0:0:
64,192,16038,128,8,17178:0:0:0:0:
192,192,17178,128,8,18318:0:0:0:0:
320,192,18318,128,0,18889:0:0:0:0:
448,192,18889,128,0,19459:0:0:0:0:
64,192,19459,128,0,20029:0:0:0:0:
320,192,20599,1,8,0:0:0:0:
192,192,20884,1,8,0:0:0:0:
448,192,21169,1,8,0:0:0:0:
320,192,21454,1,8,0:0:0:0:
192,192,21739,1,8,0:0:0:0:
64,192,22024,1,8,0:0:0:0:
320,192,22309,1,8,0:0:0:0:
448,192,22594,1,8,0:0:0:0:
192,192,22879,128,8,23164:0:0:0:0:
64,192,23449,1,8,0:0:0:0:
192,192,23734,1,8,0:0:0:0:
320,192,24019,1,8,0:0:0:0:
448,192,24304,1,8,0:0:0:0:
192,192,24589,1,8,0:0:0:0:
64,192,24874,1,8,0:0:0:0:
320,192,25159,128,8,25444:0:0:0:0:
448,192,25729,1,8,0:0:0:0:
320,192,26014,1,8,0:0:0:0:
192,192,26299,1,8,0:0:0:0:
64,192,26585,1,8,0:0:0:0:
320,192,26870,1,8,0:0:0:0:
192,192,27155,1,8,0:0:0:0:
64,192,27440,128,8,27725:0:0:0:0:
448,192,28010,128,8,28295:0:0:0:0:
320,192,28580,1,8,0:0:0:0:
192,192,28865,1,8,0:0:0:0:
64,192,29150,128,8,29435:0:0:0:0:
448,192,29435,128,0,29720:0:0:0:0:
192,192,29720,128,8,30290:0:0:0:0:
64,192,30290,1,10,0:0:0:0:
320,192,30860,1,8,0:0:0:0:
448,192,31430,1,10,0:0:0:0:
192,192,32000,1,8,0:0:0:0:
320,192,32570,1,10,0:0:0:0:
64,192,33140,1,8,0:0:0:0:
192,192,33425,1,8,0:0:0:0:
448,192,33710,1,10,0:0:0:0:
320,192,33995,1,8,0:0:0:0:
192,192,34280,1,8,0:0:0:0:
64,192,34566,1,8,0:0:0:0:
320,192,34851,1,10,0:0:0:0:
448,192,35421,1,8,0:0:0:0:
192,192,35991,1,10,0:0:0:0:
320,192,36561,1,8,0:0:0:0:
448,192,37131,1,10,0:0:0:0:
64,192,37701,128,8,38271:0:0:0:0:
448,192,38271,1,8,0:0:0:0:
320,192,38556,1,0,0:0:0:0:
192,192,38841,1,8,0:0:0:0:
320,192,39554,1,0,0:0:0:0:
64,192,39696,1,8,0:0:0:0:
192,192,39839,1,0,0:0:0:0:
448,192,40551,1,8,0:0:0:0:
320,192,40836,1,8,0:0:0:0:
192,192,41121,1,8,0:0:0:0:
64,192,41834,1,0,0:0:0:0:
320,192,41976,1,8,0:0:0:0:
192,192,42119,1,0,0:0:0:0:
64,192,43117,1,8,0:0:0:0:
192,192,43259,1,0,0:0:0:0:
448,192,43402,1,8,0:0:0:0:
320,192,44114,1,0,0:0:0:0:
192,192,44257,1,8,0:0:0:0:
64,192,44399,1,0,0:0:0:0:
320,192,45112,1,8,0:0:0:0:
192,192,45254,1,0,0:0:0:0:
448,192,45397,1,8,0:0:0:0:
64,192,45682,128,8,45967:0:0:0:0:
320,192,45967,128,8,46252:0:0:0:0:
192,192,46252,128,8,46537:0:0:0:0:
64,192,46537,128,8,46822:0:0:0:0:
320,192,46822,128,8,47107:0:0:0:0:
448,192,47392,1,10,0:0:0:0:
320,192,47677,1,10,0:0:0:0:
64,192,47962,1,8,0:0:0:0:
320,192,48247,1,10,0:0:0:0:
192,192,48817,1,10,0:0:0:0:
448,192,49387,1,10,0:0:0:0:
320,192,49957,1,10,0:0:0:0:
192,192,50528,1,10,0:0:0:0:
64,192,51098,1,10,0:0:0:0:
320,192,51668,1,10,0:0:0:0:
192,192,51953,1,8,0:0:0:0:
64,192,52238,1,10,0:0:0:0:
448,192,52808,1,10,0:0:0:0:
192,192,53378,1,10,0:0:0:0:
320,192,53948,1,10,0:0:0:0:
64,192,54518,1,2,0:0:0:0:
448,192,54803,1,12,0:0:0:0:
320,192,55017,1,12,0:0:0:0:
64,192,55231,1,12,0:0:0:0:
192,192,55373,128,12,55943:0:0:0:0:
64,192,56157,1,12,0:0:0:0:
192,192,56371,1,12,0:0:0:0:
448,192,56513,128,0,57083:0:0:0:40:TL.wav
192,192,57083,1,8,0:0:0:0:
64,192,57368,128,8,57653:0:0:0:0:
448,192,57938,1,8,0:0:0:0:
320,192,58509,128,8,58794:0:0:0:0:
192,192,58794,128,8,59079:0:0:0:0:
448,192,59364,1,8,0:0:0:0:
64,192,59649,128,8,59934:0:0:0:0:
192,192,60219,1,8,0:0:0:0:
320,192,60504,1,0,0:0:0:0:
448,192,60789,1,8,0:0:0:0:
64,192,61074,128,0,61644:0:0:0:40:TH.wav
320,192,61644,1,12,0:0:0:0:
448,192,70337,5,0,0:0:0:40:TL.wav
320,192,70480,1,8,0:0:0:0:
64,192,70765,128,8,71905:0:0:0:0:
192,192,71905,128,8,73045:0:0:0:0:
320,192,73045,128,8,74185:0:0:0:0:
448,192,74185,128,8,75326:0:0:0:0:
64,192,75326,128,8,76466:0:0:0:0:
192,192,76466,128,8,77606:0:0:0:0:
320,192,77606,128,8,78176:0:0:0:0:
448,192,78176,128,0,78746:0:0:0:0:
64,192,78746,128,0,79316:0:0:0:0:
320,192,79886,1,8,0:0:0:0:
192,192,80171,1,10,0:0:0:0:
448,192,80456,1,8,0:0:0:0:
64,192,80741,1,10,0:0:0:0:
192,192,81026,1,8,0:0:0:0:
320,192,81311,1,10,0:0:0:0:
64,192,81596,1,8,0:0:0:0:
448,192,81881,1,10,0:0:0:0:
192,192,82166,1,8,0:0:0:0:
320,192,82452,1,10,0:0:0:0:
448,192,82737,1,8,0:0:0:0:
192,192,83022,1,10,0:0:0:0:
320,192,83449,1,8,0:0:0:0:
448,192,83734,1,8,0:0:0:0:
192,192,84019,1,8,0:0:0:0:
320,192,84447,1,8,0:0:0:0:
64,192,84732,1,10,0:0:0:0:
448,192,85017,1,8,0:0:0:0:
192,192,85302,1,10,0:0:0:0:
320,192,85587,1,8,0:0:0:0:
64,192,85872,1,10,0:0:0:0:
448,192,86157,1,8,0:0:0:0:
320,192,86442,1,10,0:0:0:0:
192,192,86727,1,8,0:0:0:0:
64,192,87012,1,10,0:0:0:0:
448,192,87297,1,8,0:0:0:0:
192,192,87582,1,10,0:0:0:0:
320,192,87867,1,8,0:0:0:0:
64,192,88152,1,10,0:0:0:0:
192,192,88437,1,0,0:0:0:0:
448,192,88722,1,10,0:0:0:0:
320,192,89292,1,14,0:0:0:0:
192,192,89577,1,8,0:0:0:0:
64,192,89862,1,10,0:0:0:0:
448,192,90147,1,8,0:0:0:0:
192,192,90433,1,10,0:0:0:0:
320,192,90718,1,8,0:0:0:0:
64,192,91003,1,10,0:0:0:0:
448,192,91288,1,8,0:0:0:0:
192,192,91573,1,10,0:0:0:0:
320,192,91858,1,8,0:0:0:0:
64,192,92143,1,10,0:0:0:0:
320,192,92570,1,8,0:0:0:0:
448,192,92855,1,8,0:0:0:0:
320,192,93140,1,8,0:0:0:0:
192,192,93568,1,8,0:0:0:0:
64,192,94138,1,10,0:0:0:0:
448,192,94708,1,8,0:0:0:0:
192,192,95278,1,10,0:0:0:0:
320,192,95848,1,12,0:0:0:0:
64,192,96276,1,12,0:0:0:0:
448,192,96703,1,12,0:0:0:0:
192,192,96988,128,8,97273:0:0:0:0:
320,192,97273,128,0,97558:0:0:0:0:
448,192,97558,128,8,97843:0:0:0:0:
192,192,97843,128,0,98128:0:0:0:0:
448,192,98414,1,8,0:0:0:0:
192,192,98699,1,8,0:0:0:0:
320,192,98984,1,10,0:0:0:0:
448,192,99269,1,8,0:0:0:0:
64,192,99554,1,10,0:0:0:0:
320,192,99839,1,8,0:0:0:0:
192,192,100124,1,10,0:0:0:0:
64,192,100409,1,8,0:0:0:0:
320,192,100694,1,10,0:0:0:0:
192,192,100979,1,8,0:0:0:0:
448,192,101264,1,10,0:0:0:0:
64,192,101549,1,12,0:0:0:0:
320,192,101763,1,12,0:0:0:0:
192,192,101976,1,12,0:0:0:0:
448,192,102190,1,12,0:0:0:0:
320,192,102404,1,12,0:0:0:0:
192,192,102689,1,8,0:0:0:0:
64,192,102974,1,8,0:0:0:0:
448,192,103259,128,10,103829:0:0:0:0:
64,192,103829,128,8,104399:0:0:0:0:
320,192,104399,1,10,0:0:0:0:
192,192,104969,1,8,0:0:0:0:
448,192,105397,1,8,0:0:0:0:
320,192,105824,1,8,0:0:0:0:
192,192,106109,1,8,0:0:0:0:
64,192,106395,1,8,0:0:0:0:
448,192,106680,1,10,0:0:0:0:
320,192,106965,1,8,0:0:0:0:
192,192,107250,1,8,0:0:0:0:
64,192,107535,1,8,0:0:0:0:
320,192,107820,1,8,0:0:0:0:
448,192,108105,128,8,108675:0:0:0:0:
64,192,108675,1,8,0:0:0:0:
320,192,108960,1,8,0:0:0:0:
192,192,109245,128,8,109530:0:0:0:0:
448,192,109815,1,8,0:0:0:0:
64,192,110100,1,8,0:0:0:0:
320,192,110385,128,8,110955:0:0:0:0:
192,192,111240,1,8,0:0:0:0:
64,192,111810,128,8,112380:0:0:0:0:
192,192,112380,128,8,112950:0:0:0:0:
320,192,112950,128,8,113520:0:0:0:0:
448,192,113520,128,8,114090:0:0:0:0:
64,192,114090,128,8,114661:0:0:0:0:
320,192,114661,128,8,115231:0:0:0:0:
192,192,115231,128,8,115801:0:0:0:0:
448,192,115801,128,8,116086:0:0:0:0:
320,192,116086,128,8,116371:0:0:0:0:
64,192,116371,1,8,0:0:0:0:
