osu file format v14

[General]
AudioFilename: audio.mp3
AudioLeadIn: 0
PreviewTime: 79282
Countdown: 0
SampleSet: Soft
StackLeniency: 0.7
Mode: 3
LetterboxInBreaks: 0
SpecialStyle: 0
WidescreenStoryboard: 1

[Editor]
DistanceSpacing: 2
BeatDivisor: 8
GridSize: 4
TimelineZoom: 2.300002

[Metadata]
Title:PSYCHO+HEROES
TitleUnicode:PSYCHO+HEROES
Artist:Camellia
ArtistUnicode:かめりあ
Creator:Ricca
Version:PSYCHO
Source:SOUND VOLTEX III GRAVITY WARS コナステ
Tags:psystyle camellia かめりあ かめるかめりあ masaya oya SDVX 3 6 VI EXCEED GEAR cametek electronic instrumental Konami Bemani video game 大箭将也 大箭マサヤ kamelcamellia HDTOO Worthlessnut9
BeatmapID:3813464
BeatmapSetID:1855737

[Difficulty]
HPDrainRate:8.5
CircleSize:4
OverallDifficulty:8.5
ApproachRate:5
SliderMultiplier:1.4
SliderTickRate:1

[Events]
//Background and Video events
0,0,"bg.jpg",0,0
//Break Periods
//Storyboard Layer 0 (Background)
//Storyboard Layer 1 (Fail)
//Storyboard Layer 2 (Pass)
//Storyboard Layer 3 (Foreground)
//Storyboard Layer 4 (Overlay)
//Storyboard Sound Samples

[TimingPoints]
2357,285.035629453682,4,2,1,30,1,0
30290,-100,4,2,1,30,0,1
30295,-100,4,2,1,30,0,1
31430,-100,4,2,1,30,0,0
32570,-100,4,2,1,30,0,1
33140,-100,4,2,1,30,0,0
34851,-100,4,2,1,30,0,1
36561,-100,4,2,1,30,0,0
79886,-100,4,2,1,30,0,1
89007,-100,4,2,1,30,0,0
89292,-100,4,2,1,30,0,1
98128,-100,4,2,1,30,0,0

[HitObjects]
64,192,2356,5,4,0:0:0:0:
192,192,2356,1,8,0:0:0:0:
448,192,2356,128,0,2642:0:0:0:0:
192,192,2642,1,0,0:0:0:0:
192,192,2784,1,0,0:0:0:0:
192,192,2927,1,0,0:0:0:20:soft-hitwhistle.wav
448,192,2927,1,0,0:0:0:0:
192,192,3069,128,0,3497:0:0:0:30:soft-hitwhistle.wav
448,192,3069,1,0,0:0:0:0:
448,192,3212,1,0,0:0:0:40:soft-hitwhistle.wav
448,192,3354,1,0,0:0:0:10:soft-hitwhistle.wav
320,192,3497,1,0,0:0:0:0:
192,192,3639,1,0,0:0:0:0:
64,192,3710,1,0,0:0:0:0:
320,192,3782,1,0,0:0:0:0:
320,192,3924,1,0,0:0:0:0:
64,192,4067,1,0,0:0:0:0:
64,192,4209,1,0,0:0:0:0:
320,192,4352,1,0,0:0:0:0:
192,192,4423,1,0,0:0:0:0:
320,192,4494,1,0,0:0:0:0:
192,192,4566,1,0,0:0:0:0:
64,192,4637,128,4,4922:0:0:0:0:
320,192,4637,1,8,0:0:0:0:
448,192,4637,1,0,0:0:0:0:
320,192,4922,1,0,0:0:0:0:
320,192,5064,1,0,0:0:0:0:
64,192,5207,1,0,0:0:0:20:soft-hitwhistle.wav
320,192,5207,1,0,0:0:0:0:
64,192,5349,1,0,0:0:0:30:soft-hitwhistle.wav
320,192,5349,128,0,5777:0:0:0:0:
64,192,5492,1,0,0:0:0:40:soft-hitwhistle.wav
64,192,5634,1,0,0:0:0:10:soft-hitwhistle.wav
64,192,5777,1,8,0:0:0:0:
192,192,5777,1,4,0:0:0:0:
448,192,5777,1,0,0:0:0:0:
64,192,5919,1,8,0:0:0:0:
192,192,5919,1,4,0:0:0:0:
448,192,5919,1,0,0:0:0:0:
64,192,6062,1,8,0:0:0:0:
192,192,6062,1,4,0:0:0:0:
448,192,6062,1,0,0:0:0:0:
192,192,6204,128,0,6347:0:0:0:0:
64,192,6347,1,4,0:0:0:0:
320,192,6347,1,8,0:0:0:0:
448,192,6347,1,0,0:0:0:0:
448,192,6490,128,0,6632:0:0:0:0:
64,192,6632,1,4,0:0:0:0:
192,192,6632,1,8,0:0:0:0:
320,192,6632,128,0,6917:0:0:0:0:
64,192,6917,1,4,0:0:0:0:
192,192,6917,1,8,0:0:0:0:
448,192,6917,128,0,7202:0:0:0:0:
64,192,7202,1,0,0:0:0:0:
64,192,7345,1,0,0:0:0:0:
64,192,7487,1,0,0:0:0:20:soft-hitwhistle.wav
448,192,7487,1,0,0:0:0:0:
64,192,7630,128,0,8057:0:0:0:30:soft-hitwhistle.wav
448,192,7630,1,0,0:0:0:0:
448,192,7772,1,0,0:0:0:40:soft-hitwhistle.wav
448,192,7915,1,0,0:0:0:10:soft-hitwhistle.wav
320,192,8057,1,0,0:0:0:0:
64,192,8200,1,0,0:0:0:0:
320,192,8271,1,0,0:0:0:0:
64,192,8414,1,0,0:0:0:0:
320,192,8485,1,0,0:0:0:0:
448,192,8627,1,0,0:0:0:0:
448,192,8699,1,0,0:0:0:0:
64,192,8770,1,0,0:0:0:0:
64,192,8841,1,0,0:0:0:0:
320,192,8912,128,0,9197:0:0:0:0:
64,192,9197,128,4,9482:0:0:0:0:
192,192,9197,1,8,0:0:0:0:
448,192,9197,1,0,0:0:0:0:
448,192,9482,1,0,0:0:0:0:
448,192,9625,1,0,0:0:0:0:
64,192,9767,1,0,0:0:0:20:soft-hitwhistle.wav
448,192,9767,1,0,0:0:0:0:
64,192,9910,1,0,0:0:0:30:soft-hitwhistle.wav
448,192,9910,128,0,10337:0:0:0:0:
64,192,10052,1,0,0:0:0:40:soft-hitwhistle.wav
64,192,10195,1,0,0:0:0:10:soft-hitwhistle.wav
64,192,10337,1,8,0:0:0:0:
192,192,10337,1,0,0:0:0:0:
448,192,10409,1,0,0:0:0:0:
192,192,10480,1,8,0:0:0:0:
320,192,10480,1,0,0:0:0:0:
64,192,10551,1,0,0:0:0:0:
320,192,10623,1,8,0:0:0:0:
448,192,10623,1,0,0:0:0:0:
192,192,10694,1,0,0:0:0:0:
64,192,10765,1,0,0:0:0:0:
320,192,10836,1,0,0:0:0:0:
64,192,10908,1,8,0:0:0:0:
448,192,10908,1,0,0:0:0:0:
192,192,10979,1,0,0:0:0:0:
448,192,11050,1,0,0:0:0:0:
64,192,11121,1,0,0:0:0:0:
320,192,11193,1,8,0:0:0:0:
448,192,11193,1,0,0:0:0:0:
64,192,11264,1,8,0:0:0:0:
192,192,11264,1,0,0:0:0:0:
320,192,11335,1,8,0:0:0:0:
448,192,11335,1,0,0:0:0:0:
64,192,11406,1,8,0:0:0:0:
192,192,11406,1,0,0:0:0:0:
320,192,11478,1,8,0:0:0:0:
448,192,11478,1,0,0:0:0:0:
64,192,11620,1,8,0:0:0:0:
192,192,11620,1,0,0:0:0:0:
320,192,11691,1,8,0:0:0:0:
448,192,11691,1,0,0:0:0:0:
64,192,11834,1,8,0:0:0:0:
192,192,11834,1,0,0:0:0:0:
320,192,11905,1,8,0:0:0:0:
448,192,11905,1,0,0:0:0:0:
64,192,12048,1,8,0:0:0:0:
320,192,12083,1,8,0:0:0:0:
448,192,12119,1,8,0:0:0:0:
64,192,12190,1,8,0:0:0:0:
192,192,12190,1,0,0:0:0:0:
320,192,12261,1,8,0:0:0:0:
448,192,12261,1,0,0:0:0:0:
320,192,12404,1,8,0:0:0:0:
448,192,12404,1,0,0:0:0:0:
64,192,12475,1,8,0:0:0:0:
192,192,12475,1,0,0:0:0:0:
320,192,12547,1,8,0:0:0:0:
448,192,12547,1,0,0:0:0:0:
64,192,12618,1,8,0:0:0:0:
192,192,12760,1,8,0:0:0:0:
320,192,12760,1,0,0:0:0:0:
64,192,12832,1,8,0:0:0:0:
448,192,12832,1,0,0:0:0:0:
64,192,12974,1,8,0:0:0:0:
448,192,12974,1,0,0:0:0:0:
192,192,13045,1,8,0:0:0:0:
320,192,13045,1,0,0:0:0:0:
64,192,13188,1,8,0:0:0:0:
192,192,13223,1,8,0:0:0:0:
320,192,13259,1,8,0:0:0:0:
448,192,13330,1,8,0:0:0:0:
64,192,13366,1,8,0:0:0:0:
320,192,13402,1,8,0:0:0:0:
192,192,13473,1,8,0:0:0:0:
448,192,13509,1,8,0:0:0:0:
64,192,13544,1,8,0:0:0:0:
192,192,13615,1,8,0:0:0:0:
320,192,13651,1,8,0:0:0:0:
448,192,13687,1,8,0:0:0:0:
64,192,13758,1,8,0:0:0:0:
192,192,13758,1,0,0:0:0:0:
320,192,13900,1,8,0:0:0:0:
448,192,13900,1,0,0:0:0:0:
64,192,13972,1,8,0:0:0:0:
192,192,13972,1,0,0:0:0:0:
320,192,14114,1,8,0:0:0:0:
448,192,14114,1,0,0:0:0:0:
64,192,14185,1,8,0:0:0:0:
192,192,14185,1,0,0:0:0:0:
448,192,14328,1,8,0:0:0:0:
192,192,14364,1,8,0:0:0:0:
64,192,14399,1,8,0:0:0:0:
320,192,14471,1,8,0:0:0:0:
448,192,14471,1,0,0:0:0:0:
64,192,14542,1,8,0:0:0:0:
192,192,14542,1,0,0:0:0:0:
64,192,14684,1,8,0:0:0:0:
192,192,14684,1,0,0:0:0:0:
320,192,14756,1,8,0:0:0:0:
448,192,14756,1,0,0:0:0:0:
64,192,14827,1,8,0:0:0:0:
192,192,14827,1,0,0:0:0:0:
320,192,14898,1,8,0:0:0:0:
64,192,15041,1,8,0:0:0:0:
448,192,15041,1,0,0:0:0:0:
192,192,15112,1,8,0:0:0:0:
320,192,15112,1,0,0:0:0:0:
192,192,15254,1,8,0:0:0:0:
320,192,15254,1,0,0:0:0:0:
64,192,15326,1,8,0:0:0:0:
448,192,15326,1,0,0:0:0:0:
448,192,15468,1,8,0:0:0:0:
320,192,15504,1,8,0:0:0:0:
192,192,15539,1,8,0:0:0:0:
64,192,15611,1,8,0:0:0:0:
448,192,15646,1,8,0:0:0:0:
192,192,15682,1,8,0:0:0:0:
320,192,15753,1,8,0:0:0:0:
64,192,15789,1,8,0:0:0:0:
448,192,15824,1,8,0:0:0:0:
320,192,15896,1,8,0:0:0:0:
192,192,15931,1,8,0:0:0:0:
64,192,15967,1,8,0:0:0:0:
320,192,16038,1,8,0:0:0:0:
448,192,16074,1,8,0:0:0:0:
192,192,16109,1,8,0:0:0:0:
64,192,16181,1,0,0:0:0:0:
320,192,16181,1,0,0:0:0:0:
448,192,16252,1,0,0:0:0:0:
192,192,16323,1,8,0:0:0:0:
64,192,16359,1,8,0:0:0:0:
320,192,16395,1,8,0:0:0:0:
192,192,16466,1,0,0:0:0:0:
448,192,16466,1,0,0:0:0:0:
64,192,16537,1,0,0:0:0:0:
320,192,16608,1,8,0:0:0:0:
448,192,16644,1,8,0:0:0:0:
192,192,16680,1,8,0:0:0:0:
64,192,16751,1,0,0:0:0:0:
320,192,16751,1,0,0:0:0:0:
448,192,16822,1,0,0:0:0:0:
192,192,16893,1,8,0:0:0:0:
64,192,16929,1,8,0:0:0:0:
320,192,16965,1,8,0:0:0:0:
192,192,17036,1,0,0:0:0:0:
448,192,17036,1,0,0:0:0:0:
64,192,17107,1,0,0:0:0:0:
192,192,17178,1,8,0:0:0:0:
448,192,17214,1,8,0:0:0:0:
320,192,17250,1,8,0:0:0:0:
64,192,17321,1,0,0:0:0:0:
192,192,17321,1,0,0:0:0:0:
448,192,17392,1,0,0:0:0:0:
320,192,17463,1,8,0:0:0:0:
64,192,17499,1,8,0:0:0:0:
192,192,17535,1,8,0:0:0:0:
320,192,17606,1,0,0:0:0:0:
448,192,17606,1,0,0:0:0:0:
64,192,17677,1,0,0:0:0:0:
192,192,17748,1,8,0:0:0:0:
448,192,17784,1,8,0:0:0:0:
320,192,17820,1,8,0:0:0:0:
64,192,17891,1,0,0:0:0:0:
192,192,17891,1,0,0:0:0:0:
448,192,17962,1,0,0:0:0:0:
320,192,18033,1,8,0:0:0:0:
64,192,18069,1,8,0:0:0:0:
192,192,18105,1,8,0:0:0:0:
320,192,18176,1,0,0:0:0:0:
448,192,18176,1,0,0:0:0:0:
64,192,18247,1,0,0:0:0:0:
192,192,18318,1,0,0:0:0:0:
448,192,18318,1,0,0:0:0:0:
320,192,18390,1,0,0:0:0:0:
64,192,18461,1,0,0:0:0:0:
192,192,18461,1,0,0:0:0:0:
320,192,18532,1,0,0:0:0:0:
64,192,18604,1,0,0:0:0:0:
192,192,18604,1,0,0:0:0:0:
320,192,18675,1,0,0:0:0:0:
64,192,18746,1,0,0:0:0:0:
448,192,18746,1,0,0:0:0:0:
192,192,18817,1,0,0:0:0:0:
320,192,18889,1,0,0:0:0:0:
448,192,18889,1,0,0:0:0:0:
192,192,18960,1,0,0:0:0:0:
320,192,19031,1,0,0:0:0:0:
448,192,19031,1,0,0:0:0:0:
192,192,19102,1,0,0:0:0:0:
64,192,19174,1,0,0:0:0:0:
448,192,19174,1,0,0:0:0:0:
320,192,19245,1,0,0:0:0:0:
64,192,19316,1,0,0:0:0:0:
192,192,19316,1,0,0:0:0:0:
320,192,19387,1,0,0:0:0:0:
64,192,19459,1,0,0:0:0:0:
192,192,19494,1,0,0:0:0:0:
448,192,19530,1,0,0:0:0:0:
320,192,19566,1,0,0:0:0:0:
64,192,19601,1,0,0:0:0:0:
192,192,19637,1,0,0:0:0:0:
320,192,19672,1,0,0:0:0:0:
448,192,19708,1,0,0:0:0:0:
192,192,19744,1,0,0:0:0:0:
64,192,19779,1,0,0:0:0:0:
320,192,19815,1,0,0:0:0:0:
448,192,19851,1,0,0:0:0:0:
192,192,19886,1,0,0:0:0:0:
64,192,19922,1,0,0:0:0:0:
448,192,19957,1,0,0:0:0:0:
320,192,19993,1,0,0:0:0:0:
64,192,20029,128,0,20599:0:0:0:0:
192,192,20029,1,0,0:0:0:0:
320,192,20171,128,0,20278:0:0:0:0:
192,192,20207,128,0,20314:0:0:0:0:
448,192,20314,128,0,20456:0:0:0:0:
192,192,20456,128,0,20599:0:0:0:0:
320,192,20599,1,8,0:0:0:0:
448,192,20599,1,0,0:0:0:0:
192,192,20670,1,0,0:0:0:0:
64,192,20741,1,0,0:0:0:0:
192,192,20813,1,0,0:0:0:0:
320,192,20884,1,8,0:0:0:0:
448,192,20884,1,0,0:0:0:0:
64,192,20955,1,0,0:0:0:0:
192,192,21026,128,0,21169:0:0:0:0:
320,192,21098,128,0,21169:0:0:0:0:
64,192,21169,1,8,0:0:0:0:
448,192,21169,1,0,0:0:0:0:
192,192,21240,1,0,0:0:0:0:
320,192,21311,128,0,21454:0:0:0:0:
192,192,21383,128,0,21454:0:0:0:0:
64,192,21454,128,8,21596:0:0:0:0:
448,192,21454,128,0,21525:0:0:0:0:
320,192,21525,1,0,0:0:0:0:
192,192,21596,1,0,0:0:0:0:
320,192,21668,1,0,0:0:0:0:
64,192,21739,128,8,21881:0:0:0:0:
448,192,21739,1,0,0:0:0:0:
192,192,21810,1,0,0:0:0:0:
320,192,21881,128,0,22024:0:0:0:0:
448,192,21953,1,0,0:0:0:0:
64,192,22024,1,8,0:0:0:0:
192,192,22024,1,0,0:0:0:0:
320,192,22095,1,0,0:0:0:0:
64,192,22166,128,0,22309:0:0:0:0:
192,192,22238,1,0,0:0:0:0:
320,192,22309,1,8,0:0:0:0:
448,192,22309,128,0,22452:0:0:0:0:
64,192,22380,1,0,0:0:0:0:
192,192,22452,1,0,0:0:0:0:
320,192,22523,1,0,0:0:0:0:
64,192,22594,1,8,0:0:0:0:
448,192,22594,128,0,22772:0:0:0:0:
320,192,22665,128,0,22808:0:0:0:0:
192,192,22737,128,0,22843:0:0:0:0:
64,192,22808,128,0,22879:0:0:0:0:
320,192,22879,1,8,0:0:0:0:
448,192,22879,1,0,0:0:0:0:
192,192,22950,1,0,0:0:0:0:
64,192,23022,1,0,0:0:0:0:
192,192,23093,1,0,0:0:0:0:
320,192,23164,1,8,0:0:0:0:
448,192,23164,1,0,0:0:0:0:
64,192,23235,1,0,0:0:0:0:
192,192,23307,128,0,23449:0:0:0:0:
320,192,23378,128,0,23449:0:0:0:0:
64,192,23449,1,8,0:0:0:0:
448,192,23449,1,0,0:0:0:0:
192,192,23520,1,0,0:0:0:0:
320,192,23592,128,0,23734:0:0:0:0:
192,192,23663,128,0,23734:0:0:0:0:
64,192,23734,128,8,23770:0:0:0:0:
448,192,23734,128,0,23770:0:0:0:0:
320,192,23805,128,0,23841:0:0:0:0:
192,192,23877,128,0,23912:0:0:0:0:
320,192,23948,128,0,23984:0:0:0:0:
64,192,24019,1,8,0:0:0:0:
448,192,24019,128,0,24162:0:0:0:0:
320,192,24090,1,0,0:0:0:0:
192,192,24162,128,0,24304:0:0:0:0:
64,192,24233,1,0,0:0:0:0:
320,192,24304,1,8,0:0:0:0:
448,192,24304,1,0,0:0:0:0:
192,192,24376,1,0,0:0:0:0:
64,192,24447,128,0,24589:0:0:0:0:
448,192,24518,1,0,0:0:0:0:
192,192,24589,1,8,0:0:0:0:
320,192,24589,128,0,24732:0:0:0:0:
64,192,24661,1,0,0:0:0:0:
448,192,24732,1,0,0:0:0:0:
192,192,24803,1,0,0:0:0:0:
320,192,24874,1,8,0:0:0:0:
448,192,24874,128,0,25159:0:0:0:0:
192,192,24946,1,0,0:0:0:0:
64,192,25017,128,0,25159:0:0:0:0:
192,192,25159,1,8,0:0:0:0:
320,192,25159,1,0,0:0:0:0:
64,192,25231,1,8,0:0:0:0:
448,192,25231,1,0,0:0:0:0:
192,192,25302,1,8,0:0:0:0:
320,192,25302,1,0,0:0:0:0:
64,192,25444,1,8,0:0:0:0:
320,192,25444,1,4,0:0:0:0:
448,192,25444,1,0,0:0:0:0:
192,192,25516,1,0,0:0:0:0:
320,192,25587,128,0,25729:0:0:0:0:
192,192,25658,128,0,25729:0:0:0:0:
64,192,25729,1,8,0:0:0:0:
448,192,25729,1,0,0:0:0:0:
320,192,25801,1,0,0:0:0:0:
192,192,25872,128,0,26014:0:0:0:0:
320,192,25943,128,0,26014:0:0:0:0:
64,192,26014,128,8,26086:0:0:0:0:
448,192,26014,128,0,26157:0:0:0:0:
192,192,26086,1,0,0:0:0:0:
320,192,26157,1,0,0:0:0:0:
192,192,26228,1,0,0:0:0:0:
64,192,26299,1,8,0:0:0:0:
448,192,26299,128,0,26442:0:0:0:0:
320,192,26371,1,0,0:0:0:0:
192,192,26442,128,0,26585:0:0:0:0:
64,192,26513,1,0,0:0:0:0:
320,192,26585,1,8,0:0:0:0:
448,192,26585,1,0,0:0:0:0:
192,192,26656,1,0,0:0:0:0:
448,192,26727,128,0,26870:0:0:0:0:
320,192,26798,1,0,0:0:0:0:
64,192,26870,128,8,27012:0:0:0:0:
192,192,26870,1,0,0:0:0:0:
448,192,26941,1,0,0:0:0:0:
320,192,27012,1,0,0:0:0:0:
192,192,27083,1,0,0:0:0:0:
64,192,27155,128,8,27333:0:0:0:0:
448,192,27155,1,0,0:0:0:0:
192,192,27226,128,0,27368:0:0:0:0:
320,192,27297,128,0,27404:0:0:0:0:
448,192,27368,128,0,27440:0:0:0:0:
64,192,27440,1,8,0:0:0:0:
192,192,27440,1,0,0:0:0:0:
320,192,27511,1,0,0:0:0:0:
64,192,27582,1,8,0:0:0:0:
192,192,27582,1,0,0:0:0:0:
448,192,27653,1,0,0:0:0:0:
64,192,27725,1,8,0:0:0:0:
192,192,27725,1,0,0:0:0:0:
320,192,27725,1,0,0:0:0:0:
448,192,27796,1,0,0:0:0:0:
192,192,27867,128,0,27938:0:0:0:0:
320,192,27938,1,0,0:0:0:0:
64,192,28010,1,8,0:0:0:0:
192,192,28045,1,8,0:0:0:0:
320,192,28081,128,8,28152:0:0:0:0:
448,192,28081,1,0,0:0:0:0:
64,192,28152,1,8,0:0:0:0:
192,192,28152,128,0,28223:0:0:0:0:
320,192,28223,128,8,28295:0:0:0:0:
448,192,28223,1,0,0:0:0:0:
192,192,28295,128,0,28580:0:0:0:0:
320,192,28366,1,0,0:0:0:0:
64,192,28437,1,8,0:0:0:0:
448,192,28437,1,0,0:0:0:0:
320,192,28509,1,0,0:0:0:0:
64,192,28580,128,8,28651:0:0:0:0:
448,192,28580,128,0,28722:0:0:0:0:
192,192,28651,128,0,28722:0:0:0:0:
64,192,28722,128,8,28794:0:0:0:0:
320,192,28722,128,0,28865:0:0:0:0:
448,192,28794,128,0,28865:0:0:0:0:
64,192,28865,128,8,29007:0:0:0:0:
192,192,28865,128,0,29007:0:0:0:0:
448,192,28936,128,0,29007:0:0:0:0:
320,192,29007,128,0,29150:0:0:0:0:
192,192,29079,128,0,29150:0:0:0:0:
64,192,29150,128,8,29221:0:0:0:0:
448,192,29150,128,0,29292:0:0:0:0:
192,192,29221,128,8,29364:0:0:0:0:
320,192,29221,128,0,29292:0:0:0:0:
64,192,29292,128,0,29506:0:0:0:0:
320,192,29364,128,8,29435:0:0:0:0:
448,192,29364,128,0,29506:0:0:0:0:
192,192,29435,128,0,29577:0:0:0:0:
320,192,29506,128,0,29649:0:0:0:0:
64,192,29577,128,8,29720:0:0:0:0:
448,192,29577,128,0,29649:0:0:0:0:
192,192,29649,128,0,29720:0:0:0:0:
320,192,29720,128,8,30076:0:0:0:0:
448,192,29720,128,0,30076:0:0:0:0:
64,192,30076,1,8,0:0:0:0:
192,192,30076,1,0,0:0:0:0:
64,192,30219,1,8,0:0:0:0:
192,192,30219,1,0,0:0:0:0:
320,192,30290,128,8,30361:0:0:0:0:
448,192,30290,1,2,0:0:0:0:
64,192,30361,128,0,30433:0:0:0:0:
320,192,30433,128,0,30504:0:0:0:0:
64,192,30504,128,0,30575:0:0:0:0:
448,192,30575,128,0,30646:0:0:0:0:
192,192,30646,128,0,30718:0:0:0:0:
448,192,30718,128,0,30789:0:0:0:0:
192,192,30789,128,0,30860:0:0:0:0:
64,192,30860,128,8,30931:0:0:0:0:
320,192,30860,1,0,0:0:0:0:
448,192,30931,128,0,31003:0:0:0:0:
192,192,31003,128,0,31074:0:0:0:0:
320,192,31074,128,0,31145:0:0:0:0:
64,192,31145,128,0,31216:0:0:0:0:
448,192,31216,128,0,31288:0:0:0:0:
192,192,31288,128,0,31359:0:0:0:0:
320,192,31359,128,0,31430:0:0:0:0:
64,192,31430,128,8,31573:0:0:0:0:
192,192,31430,128,2,31573:0:0:0:0:
320,192,31573,128,0,31715:0:0:0:0:
448,192,31573,128,0,31715:0:0:0:0:
64,192,31715,128,0,32000:0:0:0:0:
192,192,31715,128,0,32000:0:0:0:0:
320,192,32000,1,8,0:0:0:0:
448,192,32000,1,0,0:0:0:0:
320,192,32190,1,8,0:0:0:0:
448,192,32190,1,0,0:0:0:0:
192,192,32380,1,8,0:0:0:0:
320,192,32380,1,0,0:0:0:0:
64,192,32570,128,8,32642:0:0:0:0:
192,192,32570,1,2,0:0:0:0:
448,192,32642,128,0,32713:0:0:0:0:
192,192,32713,128,0,32784:0:0:0:0:
320,192,32784,128,0,32855:0:0:0:0:
64,192,32855,128,0,32927:0:0:0:0:
448,192,32927,128,0,32998:0:0:0:0:
192,192,32998,128,0,33069:0:0:0:0:
320,192,33069,128,0,33140:0:0:0:0:
64,192,33140,128,8,33425:0:0:0:0:
192,192,33140,128,0,33212:0:0:0:0:
192,192,33283,128,8,33425:0:0:0:0:
320,192,33283,128,0,33354:0:0:0:0:
320,192,33425,128,8,33710:0:0:0:0:
448,192,33425,128,0,33568:0:0:0:0:
192,192,33568,128,0,33710:0:0:0:0:
64,192,33710,1,8,0:0:0:0:
448,192,33710,1,2,0:0:0:0:
192,192,33853,1,8,0:0:0:0:
320,192,33853,1,0,0:0:0:0:
64,192,33995,1,8,0:0:0:0:
448,192,33995,128,0,34138:0:0:0:0:
320,192,34067,128,0,34174:0:0:0:0:
192,192,34138,128,0,34209:0:0:0:0:
64,192,34209,128,0,34566:0:0:0:0:
320,192,34280,1,8,0:0:0:0:
448,192,34280,128,0,34566:0:0:0:0:
192,192,34566,1,8,0:0:0:0:
320,192,34566,128,0,34708:0:0:0:0:
448,192,34637,128,0,34708:0:0:0:0:
192,192,34708,128,0,34851:0:0:0:0:
64,192,34744,128,0,34815:0:0:0:0:
320,192,34851,128,8,34922:0:0:0:0:
448,192,34851,1,2,0:0:0:0:
64,192,34922,128,0,34993:0:0:0:0:
448,192,34993,128,0,35064:0:0:0:0:
192,192,35064,128,0,35136:0:0:0:0:
320,192,35136,128,0,35207:0:0:0:0:
64,192,35207,128,0,35278:0:0:0:0:
448,192,35278,128,0,35349:0:0:0:0:
192,192,35349,128,0,35421:0:0:0:0:
320,192,35421,128,8,35611:0:0:0:0:
448,192,35421,128,0,35896:0:0:0:0:
192,192,35516,128,0,35706:0:0:0:0:
64,192,35611,128,0,35896:0:0:0:0:
320,192,35706,128,0,35801:0:0:0:0:
192,192,35801,128,0,35991:0:0:0:0:
320,192,35896,128,0,35991:0:0:0:0:
64,192,35991,1,8,0:0:0:0:
448,192,35991,128,2,36062:0:0:0:0:
192,192,36062,128,0,36133:0:0:0:0:
448,192,36133,128,0,36204:0:0:0:0:
192,192,36204,128,0,36276:0:0:0:0:
320,192,36276,128,0,36347:0:0:0:0:
64,192,36347,128,0,36418:0:0:0:0:
320,192,36418,128,0,36490:0:0:0:0:
64,192,36490,128,0,36561:0:0:0:0:
192,192,36561,1,8,0:0:0:0:
320,192,36561,1,0,0:0:0:0:
448,192,36561,1,0,0:0:0:0:
64,192,36751,1,8,0:0:0:0:
192,192,36751,1,0,0:0:0:0:
320,192,36751,1,0,0:0:0:0:
64,192,36941,1,8,0:0:0:0:
192,192,36941,1,0,0:0:0:0:
448,192,36941,1,0,0:0:0:0:
64,192,37131,1,8,0:0:0:0:
192,192,37131,1,2,0:0:0:0:
320,192,37131,1,0,0:0:0:0:
448,192,37131,1,0,0:0:0:0:
192,192,37321,1,8,0:0:0:0:
320,192,37321,1,0,0:0:0:0:
448,192,37321,1,0,0:0:0:0:
64,192,37511,1,8,0:0:0:0:
320,192,37511,1,0,0:0:0:0:
448,192,37511,1,0,0:0:0:0:
192,192,37701,128,8,37843:0:0:0:0:
320,192,37701,128,0,37772:0:0:0:0:
448,192,37701,128,0,38200:0:0:0:0:
64,192,37772,128,0,37915:0:0:0:0:
320,192,37843,128,0,38057:0:0:0:0:
192,192,37915,128,0,37986:0:0:0:0:
64,192,37986,128,0,38128:0:0:0:0:
192,192,38057,128,0,38271:0:0:0:0:
320,192,38128,128,0,38271:0:0:0:0:
64,192,38200,128,0,38271:0:0:0:0:
448,192,38271,1,8,0:0:0:0:
320,192,38366,1,0,0:0:0:0:
192,192,38461,1,0,0:0:0:0:
64,192,38556,1,0,0:0:0:0:
192,192,38651,1,0,0:0:0:0:
320,192,38746,1,0,0:0:0:0:
64,192,38841,128,8,38912:0:0:0:0:
192,192,38841,128,0,38912:0:0:0:0:
448,192,38841,128,0,38912:0:0:0:0:
320,192,38912,1,0,0:0:0:0:
64,192,38984,1,0,0:0:0:0:
192,192,39055,1,0,0:0:0:0:
320,192,39126,1,8,0:0:0:0:
448,192,39126,1,0,0:0:0:0:
192,192,39197,1,0,0:0:0:0:
64,192,39269,1,0,0:0:0:0:
320,192,39340,1,0,0:0:0:0:
192,192,39411,1,8,0:0:0:0:
448,192,39411,1,0,0:0:0:0:
64,192,39482,1,0,0:0:0:0:
192,192,39554,128,0,39696:0:0:0:0:
64,192,39625,1,0,0:0:0:0:
320,192,39696,1,8,0:0:0:0:
448,192,39696,128,0,39839:0:0:0:0:
192,192,39767,1,0,0:0:0:0:
64,192,39839,128,0,39981:0:0:0:0:
320,192,39910,1,0,0:0:0:0:
192,192,39981,1,8,0:0:0:0:
448,192,39981,1,0,0:0:0:0:
320,192,40052,1,0,0:0:0:0:
64,192,40124,1,0,0:0:0:0:
192,192,40195,1,0,0:0:0:0:
320,192,40266,1,8,0:0:0:0:
448,192,40266,1,0,0:0:0:0:
64,192,40337,1,0,0:0:0:0:
192,192,40409,1,0,0:0:0:0:
320,192,40480,1,0,0:0:0:0:
192,192,40551,1,8,0:0:0:0:
448,192,40551,128,0,40694:0:0:0:0:
64,192,40623,1,0,0:0:0:0:
320,192,40694,128,0,40836:0:0:0:0:
448,192,40765,1,0,0:0:0:0:
64,192,40836,128,8,40931:0:0:0:0:
192,192,40836,1,0,0:0:0:0:
448,192,40884,128,0,40979:0:0:0:0:
320,192,40931,128,0,41026:0:0:0:0:
192,192,40979,128,0,41074:0:0:0:0:
64,192,41050,1,0,0:0:0:0:
320,192,41121,128,8,41193:0:0:0:0:
448,192,41121,128,0,41193:0:0:0:0:
192,192,41193,1,0,0:0:0:0:
64,192,41264,1,0,0:0:0:0:
448,192,41335,1,0,0:0:0:0:
64,192,41406,1,8,0:0:0:0:
320,192,41406,1,0,0:0:0:0:
192,192,41478,1,0,0:0:0:0:
448,192,41549,1,0,0:0:0:0:
320,192,41620,1,0,0:0:0:0:
64,192,41691,1,8,0:0:0:0:
192,192,41691,1,0,0:0:0:0:
448,192,41763,1,0,0:0:0:0:
320,192,41834,128,0,41976:0:0:0:0:
192,192,41905,1,0,0:0:0:0:
64,192,41976,128,8,42119:0:0:0:0:
448,192,41976,1,0,0:0:0:0:
320,192,42048,1,0,0:0:0:0:
448,192,42119,128,0,42261:0:0:0:0:
192,192,42190,1,0,0:0:0:0:
64,192,42261,1,8,0:0:0:0:
320,192,42261,1,0,0:0:0:0:
192,192,42333,1,0,0:0:0:0:
448,192,42404,1,0,0:0:0:0:
320,192,42475,1,0,0:0:0:0:
64,192,42547,1,8,0:0:0:0:
192,192,42547,1,0,0:0:0:0:
448,192,42618,1,0,0:0:0:0:
192,192,42689,1,0,0:0:0:0:
320,192,42760,1,0,0:0:0:0:
64,192,42832,1,8,0:0:0:0:
448,192,42832,1,0,0:0:0:0:
192,192,42903,1,0,0:0:0:0:
448,192,42974,1,0,0:0:0:0:
320,192,43045,1,0,0:0:0:0:
64,192,43117,1,8,0:0:0:0:
192,192,43117,128,0,43259:0:0:0:0:
448,192,43188,1,0,0:0:0:0:
320,192,43259,128,0,43402:0:0:0:0:
192,192,43330,1,0,0:0:0:0:
64,192,43402,128,8,43473:0:0:0:0:
448,192,43402,128,0,43473:0:0:0:0:
320,192,43473,1,0,0:0:0:0:
192,192,43544,1,0,0:0:0:0:
448,192,43615,1,0,0:0:0:0:
64,192,43687,1,8,0:0:0:0:
192,192,43687,1,0,0:0:0:0:
320,192,43758,1,0,0:0:0:0:
448,192,43829,1,0,0:0:0:0:
192,192,43900,1,0,0:0:0:0:
64,192,43972,1,8,0:0:0:0:
320,192,43972,1,0,0:0:0:0:
448,192,44043,1,0,0:0:0:0:
192,192,44114,128,0,44257:0:0:0:0:
320,192,44185,1,0,0:0:0:0:
64,192,44257,128,8,44399:0:0:0:0:
448,192,44257,1,0,0:0:0:0:
320,192,44328,1,0,0:0:0:0:
448,192,44399,128,0,44542:0:0:0:0:
192,192,44471,1,0,0:0:0:0:
64,192,44542,1,8,0:0:0:0:
320,192,44542,1,0,0:0:0:0:
192,192,44613,1,0,0:0:0:0:
320,192,44684,1,0,0:0:0:0:
64,192,44756,1,0,0:0:0:0:
320,192,44827,1,8,0:0:0:0:
448,192,44827,1,0,0:0:0:0:
192,192,44898,1,0,0:0:0:0:
64,192,44969,1,0,0:0:0:0:
448,192,45041,1,0,0:0:0:0:
64,192,45112,128,8,45254:0:0:0:0:
320,192,45112,1,0,0:0:0:0:
448,192,45183,1,0,0:0:0:0:
192,192,45254,128,0,45397:0:0:0:0:
64,192,45326,1,0,0:0:0:0:
320,192,45397,1,8,0:0:0:0:
448,192,45397,128,0,45492:0:0:0:0:
64,192,45444,128,0,45539:0:0:0:0:
192,192,45492,128,0,45587:0:0:0:0:
320,192,45539,128,0,45634:0:0:0:0:
448,192,45611,1,0,0:0:0:0:
64,192,45682,128,8,45896:0:0:0:0:
192,192,45682,128,0,45753:0:0:0:0:
448,192,45753,128,0,45896:0:0:0:0:
320,192,45824,128,0,45896:0:0:0:0:
192,192,45896,128,0,45967:0:0:0:0:
320,192,45967,128,8,46038:0:0:0:0:
448,192,45967,128,0,46181:0:0:0:0:
64,192,46038,128,0,46181:0:0:0:0:
320,192,46109,128,0,46181:0:0:0:0:
192,192,46181,128,0,46252:0:0:0:0:
64,192,46252,128,8,46466:0:0:0:0:
448,192,46252,128,0,46323:0:0:0:0:
192,192,46323,128,0,46466:0:0:0:0:
448,192,46395,128,0,46466:0:0:0:0:
320,192,46466,128,0,46537:0:0:0:0:
192,192,46537,128,8,46608:0:0:0:0:
448,192,46537,128,0,46751:0:0:0:0:
64,192,46608,128,0,46751:0:0:0:0:
192,192,46680,128,0,46751:0:0:0:0:
320,192,46751,128,0,46822:0:0:0:0:
64,192,46822,128,8,46893:0:0:0:0:
192,192,46822,128,0,47107:0:0:0:0:
320,192,46893,128,0,46965:0:0:0:0:
64,192,46965,128,8,47036:0:0:0:0:
448,192,46965,128,0,47036:0:0:0:0:
320,192,47036,128,0,47107:0:0:0:0:
64,192,47107,128,8,47178:0:0:0:0:
448,192,47107,128,0,47178:0:0:0:0:
192,192,47178,128,0,47250:0:0:0:0:
320,192,47250,128,8,47392:0:0:0:0:
448,192,47250,128,0,47321:0:0:0:0:
64,192,47321,128,0,47392:0:0:0:0:
192,192,47392,128,8,47463:0:0:0:0:
448,192,47392,128,2,47463:0:0:0:0:
64,192,47463,128,8,47535:0:0:0:0:
320,192,47463,128,0,47535:0:0:0:0:
192,192,47535,128,0,47606:0:0:0:0:
64,192,47606,128,8,47677:0:0:0:0:
448,192,47606,128,0,47677:0:0:0:0:
192,192,47677,128,8,47748:0:0:0:0:
320,192,47677,128,2,47748:0:0:0:0:
448,192,47748,128,0,47820:0:0:0:0:
64,192,47820,128,8,47891:0:0:0:0:
192,192,47820,128,0,47891:0:0:0:0:
320,192,47891,128,8,47962:0:0:0:0:
448,192,47891,128,0,47962:0:0:0:0:
64,192,47962,1,8,0:0:0:0:
192,192,47962,1,0,0:0:0:0:
320,192,48033,1,0,0:0:0:0:
448,192,48105,128,0,48247:0:0:0:0:
320,192,48176,128,0,48247:0:0:0:0:
64,192,48247,1,8,0:0:0:0:
192,192,48247,1,2,0:0:0:0:
320,192,48318,1,0,0:0:0:0:
64,192,48390,128,0,48461:0:0:0:0:
192,192,48390,128,0,48461:0:0:0:0:
448,192,48461,1,0,0:0:0:0:
64,192,48532,128,8,48604:0:0:0:0:
192,192,48532,128,0,48604:0:0:0:0:
448,192,48604,1,0,0:0:0:0:
64,192,48675,128,0,48746:0:0:0:0:
192,192,48675,128,0,48746:0:0:0:0:
448,192,48746,1,0,0:0:0:0:
64,192,48817,1,2,0:0:0:0:
192,192,48817,1,8,0:0:0:0:
448,192,48889,1,0,0:0:0:0:
64,192,48960,128,0,49102:0:0:0:0:
192,192,48960,128,0,49102:0:0:0:0:
320,192,49102,1,8,0:0:0:0:
448,192,49102,1,0,0:0:0:0:
192,192,49174,1,0,0:0:0:0:
64,192,49245,128,0,49387:0:0:0:0:
192,192,49316,128,0,49387:0:0:0:0:
320,192,49387,1,2,0:0:0:0:
448,192,49387,1,8,0:0:0:0:
192,192,49459,1,0,0:0:0:0:
320,192,49530,128,0,49601:0:0:0:0:
448,192,49530,128,0,49601:0:0:0:0:
64,192,49601,1,0,0:0:0:0:
320,192,49672,128,8,49744:0:0:0:0:
448,192,49672,128,0,49744:0:0:0:0:
64,192,49744,1,0,0:0:0:0:
320,192,49815,128,0,49886:0:0:0:0:
448,192,49815,128,0,49886:0:0:0:0:
64,192,49886,1,0,0:0:0:0:
192,192,49957,1,2,0:0:0:0:
448,192,49957,128,8,50100:0:0:0:0:
64,192,49993,1,0,0:0:0:0:
320,192,50029,128,0,50100:0:0:0:0:
192,192,50100,1,0,0:0:0:0:
64,192,50242,1,8,0:0:0:0:
192,192,50242,1,0,0:0:0:0:
320,192,50314,1,0,0:0:0:0:
448,192,50385,128,0,50528:0:0:0:0:
320,192,50456,128,0,50528:0:0:0:0:
64,192,50528,1,2,0:0:0:0:
192,192,50528,1,8,0:0:0:0:
320,192,50599,1,0,0:0:0:0:
64,192,50670,128,0,50741:0:0:0:0:
192,192,50670,128,0,50741:0:0:0:0:
448,192,50741,1,0,0:0:0:0:
64,192,50813,128,8,50884:0:0:0:0:
192,192,50813,128,0,50884:0:0:0:0:
448,192,50884,1,0,0:0:0:0:
64,192,50955,128,0,51098:0:0:0:0:
192,192,50955,128,0,51098:0:0:0:0:
320,192,51098,1,2,0:0:0:0:
448,192,51098,1,8,0:0:0:0:
64,192,51240,128,0,51383:0:0:0:0:
192,192,51240,128,0,51383:0:0:0:0:
320,192,51383,1,8,0:0:0:0:
448,192,51383,1,0,0:0:0:0:
192,192,51454,1,0,0:0:0:0:
64,192,51525,128,0,51668:0:0:0:0:
192,192,51596,128,0,51668:0:0:0:0:
320,192,51668,1,2,0:0:0:0:
448,192,51668,1,8,0:0:0:0:
320,192,51810,128,0,51953:0:0:0:0:
448,192,51810,128,0,51953:0:0:0:0:
64,192,51953,128,8,52024:0:0:0:0:
192,192,51953,1,0,0:0:0:0:
448,192,52024,128,0,52095:0:0:0:0:
64,192,52095,128,0,52166:0:0:0:0:
448,192,52166,128,0,52238:0:0:0:0:
64,192,52238,128,2,52380:0:0:0:0:
192,192,52238,1,8,0:0:0:0:
320,192,52238,1,0,0:0:0:0:
448,192,52309,128,0,52416:0:0:0:0:
320,192,52345,128,0,52452:0:0:0:0:
192,192,52380,128,0,52487:0:0:0:0:
64,192,52452,128,0,52523:0:0:0:0:
320,192,52523,1,8,0:0:0:0:
448,192,52523,1,0,0:0:0:0:
192,192,52594,1,0,0:0:0:0:
64,192,52665,128,0,52808:0:0:0:0:
192,192,52737,128,0,52808:0:0:0:0:
320,192,52808,1,2,0:0:0:0:
448,192,52808,1,8,0:0:0:0:
192,192,52879,1,0,0:0:0:0:
320,192,52950,128,0,53022:0:0:0:0:
448,192,52950,128,0,53022:0:0:0:0:
64,192,53022,1,0,0:0:0:0:
320,192,53093,128,8,53164:0:0:0:0:
448,192,53093,128,0,53164:0:0:0:0:
64,192,53164,1,0,0:0:0:0:
320,192,53235,128,0,53307:0:0:0:0:
448,192,53235,128,0,53307:0:0:0:0:
64,192,53307,128,8,53378:0:0:0:0:
192,192,53307,128,0,53378:0:0:0:0:
320,192,53378,1,2,0:0:0:0:
448,192,53378,1,8,0:0:0:0:
320,192,53520,128,8,53663:0:0:0:0:
448,192,53520,128,0,53663:0:0:0:0:
64,192,53663,1,8,0:0:0:0:
192,192,53663,1,0,0:0:0:0:
320,192,53734,1,0,0:0:0:0:
448,192,53805,128,0,53948:0:0:0:0:
320,192,53877,128,0,53948:0:0:0:0:
64,192,53948,1,8,0:0:0:0:
192,192,53948,1,2,0:0:0:0:
320,192,54019,1,0,0:0:0:0:
64,192,54090,128,0,54162:0:0:0:0:
192,192,54090,128,0,54162:0:0:0:0:
448,192,54162,1,0,0:0:0:0:
64,192,54233,128,8,54304:0:0:0:0:
192,192,54233,128,0,54304:0:0:0:0:
448,192,54304,1,0,0:0:0:0:
64,192,54376,128,0,54447:0:0:0:0:
192,192,54376,128,0,54447:0:0:0:0:
320,192,54447,1,8,0:0:0:0:
448,192,54447,1,0,0:0:0:0:
64,192,54518,128,2,54613:0:0:0:0:
192,192,54566,128,0,54661:0:0:0:0:
320,192,54613,1,0,0:0:0:0:
64,192,54661,1,8,0:0:0:0:
448,192,54661,1,0,0:0:0:0:
64,192,54803,128,8,54874:0:0:0:0:
192,192,54803,128,4,54874:0:0:0:0:
448,192,54803,128,0,54874:0:0:0:0:
64,192,55017,128,8,55088:0:0:0:0:
320,192,55017,128,4,55088:0:0:0:0:
448,192,55017,128,0,55088:0:0:0:0:
192,192,55231,128,8,55302:0:0:0:0:
320,192,55231,128,4,55302:0:0:0:0:
448,192,55231,128,0,55302:0:0:0:0:
64,192,55373,128,8,55444:0:0:0:0:
192,192,55373,128,4,55444:0:0:0:0:
320,192,55373,128,0,55444:0:0:0:0:
64,192,55587,128,8,55658:0:0:0:0:
320,192,55587,128,4,55658:0:0:0:0:
448,192,55587,128,0,55658:0:0:0:0:
64,192,55801,128,8,55872:0:0:0:0:
192,192,55801,128,4,55872:0:0:0:0:
448,192,55801,128,0,55872:0:0:0:0:
64,192,55943,128,8,56014:0:0:0:0:
320,192,55943,128,4,56014:0:0:0:0:
448,192,55943,128,0,56014:0:0:0:0:
64,192,56157,128,8,56228:0:0:0:0:
192,192,56157,128,4,56228:0:0:0:0:
320,192,56157,128,0,56228:0:0:0:0:
192,192,56371,128,8,56442:0:0:0:0:
320,192,56371,128,4,56442:0:0:0:0:
448,192,56371,128,0,56442:0:0:0:0:
64,192,56513,1,0,0:0:0:40:TL.wav
192,192,56585,1,0,0:0:0:0:
320,192,56656,1,0,0:0:0:0:
192,192,56727,1,0,0:0:0:40:TM.wav
448,192,56727,1,0,0:0:0:0:
64,192,56798,1,0,0:0:0:40:TH.wav
320,192,56798,1,0,0:0:0:0:
192,192,56870,1,0,0:0:0:0:
320,192,56941,1,0,0:0:0:40:TL.wav
448,192,56941,1,0,0:0:0:0:
192,192,57012,1,0,0:0:0:0:
64,192,57083,128,8,57226:0:0:0:0:
320,192,57083,1,0,0:0:0:0:
192,192,57155,128,0,57226:0:0:0:0:
448,192,57226,128,0,57368:0:0:0:0:
320,192,57297,128,0,57368:0:0:0:0:
64,192,57368,1,8,0:0:0:0:
192,192,57368,1,0,0:0:0:0:
448,192,57511,1,8,0:0:0:0:
320,192,57547,1,8,0:0:0:0:
192,192,57582,1,8,0:0:0:0:
64,192,57618,1,8,0:0:0:0:
320,192,57653,1,8,0:0:0:0:
448,192,57653,1,0,0:0:0:0:
64,192,57725,1,8,0:0:0:0:
192,192,57725,1,0,0:0:0:0:
320,192,57867,1,8,0:0:0:0:
448,192,57867,1,0,0:0:0:0:
64,192,57938,1,8,0:0:0:0:
192,192,57938,1,0,0:0:0:0:
320,192,58010,1,8,0:0:0:0:
448,192,58010,1,0,0:0:0:0:
64,192,58081,128,8,58437:0:0:0:0:
192,192,58081,128,0,58295:0:0:0:0:
448,192,58152,128,0,58223:0:0:0:0:
320,192,58223,128,0,58366:0:0:0:0:
448,192,58295,128,0,58509:0:0:0:0:
192,192,58366,128,0,58437:0:0:0:0:
320,192,58437,128,0,58509:0:0:0:0:
64,192,58509,1,8,0:0:0:0:
192,192,58509,1,0,0:0:0:0:
448,192,58651,1,8,0:0:0:0:
320,192,58687,1,8,0:0:0:0:
192,192,58722,1,8,0:0:0:0:
64,192,58758,1,8,0:0:0:0:
320,192,58794,1,8,0:0:0:0:
448,192,58794,1,0,0:0:0:0:
64,192,58865,1,8,0:0:0:0:
192,192,58865,1,0,0:0:0:0:
320,192,58936,1,8,0:0:0:0:
448,192,58972,1,8,0:0:0:0:
192,192,59007,1,8,0:0:0:0:
64,192,59043,1,8,0:0:0:0:
320,192,59079,128,8,59150:0:0:0:0:
448,192,59079,128,0,59292:0:0:0:0:
192,192,59150,128,0,59364:0:0:0:0:
320,192,59221,128,0,59292:0:0:0:0:
64,192,59292,128,0,59364:0:0:0:0:
320,192,59364,1,8,0:0:0:0:
448,192,59364,1,0,0:0:0:0:
320,192,59506,128,0,59649:0:0:0:0:
192,192,59577,128,0,59649:0:0:0:0:
64,192,59649,1,8,0:0:0:0:
448,192,59649,1,0,0:0:0:0:
192,192,59720,1,0,0:0:0:0:
320,192,59791,1,8,0:0:0:0:
448,192,59827,1,8,0:0:0:0:
192,192,59862,1,8,0:0:0:0:
64,192,59898,1,8,0:0:0:0:
320,192,59934,1,8,0:0:0:0:
448,192,59934,1,0,0:0:0:0:
64,192,60005,1,8,0:0:0:0:
192,192,60005,1,0,0:0:0:0:
320,192,60147,1,8,0:0:0:0:
448,192,60147,1,0,0:0:0:0:
64,192,60219,1,8,0:0:0:0:
192,192,60219,1,0,0:0:0:0:
320,192,60290,1,8,0:0:0:0:
448,192,60290,1,0,0:0:0:0:
64,192,60361,128,8,60575:0:0:0:0:
192,192,60361,128,0,60433:0:0:0:0:
448,192,60433,128,0,60789:0:0:0:0:
192,192,60504,128,0,60718:0:0:0:0:
320,192,60575,128,0,60646:0:0:0:0:
64,192,60646,128,0,60718:0:0:0:0:
320,192,60718,128,0,60789:0:0:0:0:
64,192,60789,1,8,0:0:0:0:
192,192,60789,1,0,0:0:0:0:
64,192,60931,1,8,0:0:0:0:
192,192,60967,1,8,0:0:0:0:
448,192,61003,1,8,0:0:0:0:
320,192,61038,1,8,0:0:0:0:
64,192,61074,1,0,0:0:0:40:TH.wav
192,192,61074,1,0,0:0:0:0:
320,192,61145,1,0,0:0:0:40:TH.wav
448,192,61145,1,0,0:0:0:0:
64,192,61216,1,0,0:0:0:40:TH.wav
192,192,61216,1,0,0:0:0:0:
448,192,61288,1,0,0:0:0:40:TM.wav
192,192,61359,1,0,0:0:0:40:TM.wav
192,192,61430,1,0,0:0:0:0:
448,192,61501,1,0,0:0:0:40:TL.wav
448,192,61573,1,0,0:0:0:0:
64,192,61644,1,8,0:0:0:0:
192,192,61644,1,4,0:0:0:0:
320,192,61644,1,0,0:0:0:0:
448,192,62499,1,0,0:0:0:0:
320,192,62642,1,0,0:0:0:0:
448,192,63354,1,0,0:0:0:0:
320,192,63497,1,0,0:0:0:0:
192,192,63639,1,0,0:0:0:0:
64,192,63782,1,0,0:0:0:0:
64,192,65634,1,0,0:0:0:0:
192,192,65919,1,0,0:0:0:0:
448,192,66204,1,0,0:0:0:0:
448,192,67060,1,0,0:0:0:0:
320,192,67202,1,0,0:0:0:0:
192,192,68200,1,0,0:0:0:0:
64,192,68342,1,0,0:0:0:0:
448,192,69055,128,0,70337:0:0:0:0:
192,192,69625,128,0,70337:0:0:0:0:
64,192,70195,128,0,70337:0:0:0:0:
320,192,70337,1,0,0:0:0:40:TL.wav
320,192,70409,1,0,0:0:0:40:TL.wav
64,192,70480,1,8,0:0:0:0:
192,192,70480,128,0,70765:0:0:0:0:
448,192,70480,1,0,0:0:0:0:
64,192,70765,1,8,0:0:0:0:
320,192,70765,1,0,0:0:0:0:
448,192,70765,1,0,0:0:0:0:
64,192,70908,1,8,0:0:0:0:
192,192,70908,1,0,0:0:0:0:
320,192,70979,1,8,0:0:0:0:
448,192,70979,1,0,0:0:0:0:
64,192,71121,1,8,0:0:0:0:
192,192,71121,1,0,0:0:0:0:
320,192,71193,1,8,0:0:0:0:
448,192,71193,1,0,0:0:0:0:
64,192,71335,1,8,0:0:0:0:
320,192,71371,1,8,0:0:0:0:
448,192,71406,1,8,0:0:0:0:
64,192,71478,1,8,0:0:0:0:
192,192,71478,1,0,0:0:0:0:
320,192,71549,1,8,0:0:0:0:
448,192,71549,1,0,0:0:0:0:
320,192,71691,1,8,0:0:0:0:
448,192,71691,1,0,0:0:0:0:
64,192,71763,1,8,0:0:0:0:
192,192,71763,1,0,0:0:0:0:
320,192,71834,1,8,0:0:0:0:
64,192,71905,1,8,0:0:0:0:
448,192,71905,1,0,0:0:0:0:
192,192,72048,1,8,0:0:0:0:
320,192,72048,1,0,0:0:0:0:
64,192,72119,1,8,0:0:0:0:
448,192,72119,1,0,0:0:0:0:
64,192,72261,1,8,0:0:0:0:
448,192,72261,1,0,0:0:0:0:
192,192,72333,1,8,0:0:0:0:
320,192,72333,1,0,0:0:0:0:
448,192,72475,1,8,0:0:0:0:
320,192,72511,1,8,0:0:0:0:
192,192,72547,1,8,0:0:0:0:
64,192,72618,1,8,0:0:0:0:
448,192,72653,1,8,0:0:0:0:
192,192,72689,1,8,0:0:0:0:
320,192,72760,1,8,0:0:0:0:
64,192,72796,1,8,0:0:0:0:
448,192,72832,1,8,0:0:0:0:
320,192,72903,1,8,0:0:0:0:
192,192,72938,1,8,0:0:0:0:
64,192,72974,1,8,0:0:0:0:
320,192,73045,1,8,0:0:0:0:
448,192,73045,1,0,0:0:0:0:
320,192,73188,1,8,0:0:0:0:
448,192,73188,1,0,0:0:0:0:
64,192,73259,1,8,0:0:0:0:
192,192,73259,1,0,0:0:0:0:
320,192,73402,1,8,0:0:0:0:
448,192,73402,1,0,0:0:0:0:
64,192,73473,1,8,0:0:0:0:
192,192,73473,1,0,0:0:0:0:
448,192,73615,1,8,0:0:0:0:
192,192,73651,1,8,0:0:0:0:
64,192,73687,1,8,0:0:0:0:
320,192,73758,1,8,0:0:0:0:
448,192,73758,1,0,0:0:0:0:
64,192,73829,1,8,0:0:0:0:
192,192,73829,1,0,0:0:0:0:
64,192,73972,1,8,0:0:0:0:
192,192,73972,1,0,0:0:0:0:
320,192,74043,1,8,0:0:0:0:
448,192,74043,1,0,0:0:0:0:
192,192,74114,1,8,0:0:0:0:
64,192,74185,1,8,0:0:0:0:
448,192,74185,1,0,0:0:0:0:
64,192,74328,1,8,0:0:0:0:
448,192,74328,1,0,0:0:0:0:
192,192,74399,1,8,0:0:0:0:
320,192,74399,1,0,0:0:0:0:
192,192,74542,1,8,0:0:0:0:
320,192,74542,1,0,0:0:0:0:
64,192,74613,1,8,0:0:0:0:
448,192,74613,1,0,0:0:0:0:
64,192,74756,1,8,0:0:0:0:
192,192,74791,1,8,0:0:0:0:
320,192,74827,1,8,0:0:0:0:
448,192,74898,1,8,0:0:0:0:
64,192,74934,1,8,0:0:0:0:
320,192,74969,1,8,0:0:0:0:
192,192,75041,1,8,0:0:0:0:
448,192,75076,1,8,0:0:0:0:
64,192,75112,1,8,0:0:0:0:
192,192,75183,1,8,0:0:0:0:
320,192,75219,1,8,0:0:0:0:
448,192,75254,1,8,0:0:0:0:
192,192,75326,1,8,0:0:0:0:
64,192,75361,1,8,0:0:0:0:
320,192,75397,1,8,0:0:0:0:
192,192,75468,1,0,0:0:0:0:
448,192,75468,1,0,0:0:0:0:
64,192,75539,1,0,0:0:0:0:
320,192,75611,1,8,0:0:0:0:
448,192,75646,1,8,0:0:0:0:
192,192,75682,1,8,0:0:0:0:
64,192,75753,1,0,0:0:0:0:
320,192,75753,1,0,0:0:0:0:
448,192,75824,1,0,0:0:0:0:
192,192,75896,1,8,0:0:0:0:
64,192,75931,1,8,0:0:0:0:
320,192,75967,1,8,0:0:0:0:
192,192,76038,1,0,0:0:0:0:
448,192,76038,1,0,0:0:0:0:
64,192,76109,1,0,0:0:0:0:
320,192,76181,1,8,0:0:0:0:
448,192,76216,1,8,0:0:0:0:
192,192,76252,1,8,0:0:0:0:
64,192,76323,1,0,0:0:0:0:
320,192,76323,1,0,0:0:0:0:
448,192,76395,1,0,0:0:0:0:
320,192,76466,1,8,0:0:0:0:
64,192,76501,1,8,0:0:0:0:
192,192,76537,1,8,0:0:0:0:
320,192,76608,1,0,0:0:0:0:
448,192,76608,1,0,0:0:0:0:
64,192,76680,1,0,0:0:0:0:
192,192,76751,1,8,0:0:0:0:
448,192,76786,1,8,0:0:0:0:
320,192,76822,1,8,0:0:0:0:
64,192,76893,1,0,0:0:0:0:
192,192,76893,1,0,0:0:0:0:
448,192,76965,1,0,0:0:0:0:
320,192,77036,1,8,0:0:0:0:
64,192,77071,1,8,0:0:0:0:
192,192,77107,1,8,0:0:0:0:
320,192,77178,1,0,0:0:0:0:
448,192,77178,1,0,0:0:0:0:
64,192,77250,1,0,0:0:0:0:
192,192,77321,1,8,0:0:0:0:
448,192,77357,1,8,0:0:0:0:
320,192,77392,1,8,0:0:0:0:
64,192,77463,1,0,0:0:0:0:
192,192,77463,1,0,0:0:0:0:
320,192,77535,1,0,0:0:0:0:
64,192,77606,1,8,0:0:0:0:
448,192,77606,1,0,0:0:0:0:
192,192,77677,1,0,0:0:0:0:
320,192,77748,1,0,0:0:0:0:
448,192,77820,1,0,0:0:0:0:
64,192,77891,1,0,0:0:0:0:
192,192,77891,1,0,0:0:0:0:
320,192,77962,1,0,0:0:0:0:
448,192,77962,1,0,0:0:0:0:
64,192,78033,1,0,0:0:0:0:
192,192,78033,1,0,0:0:0:0:
320,192,78105,1,0,0:0:0:0:
64,192,78176,1,0,0:0:0:0:
448,192,78176,1,0,0:0:0:0:
192,192,78247,1,0,0:0:0:0:
320,192,78318,1,0,0:0:0:0:
448,192,78318,1,0,0:0:0:0:
192,192,78390,1,0,0:0:0:0:
64,192,78461,1,0,0:0:0:0:
448,192,78461,1,0,0:0:0:0:
320,192,78532,1,0,0:0:0:0:
64,192,78604,1,0,0:0:0:0:
192,192,78604,1,0,0:0:0:0:
320,192,78675,1,0,0:0:0:0:
64,192,78746,1,0,0:0:0:0:
192,192,78782,1,0,0:0:0:0:
448,192,78817,1,0,0:0:0:0:
320,192,78853,1,0,0:0:0:0:
64,192,78889,1,0,0:0:0:0:
192,192,78924,1,0,0:0:0:0:
320,192,78960,1,0,0:0:0:0:
448,192,78995,1,0,0:0:0:0:
192,192,79031,1,0,0:0:0:0:
64,192,79067,1,0,0:0:0:0:
320,192,79102,1,0,0:0:0:0:
448,192,79138,1,0,0:0:0:0:
64,192,79174,1,0,0:0:0:0:
192,192,79209,1,0,0:0:0:0:
448,192,79245,1,0,0:0:0:0:
320,192,79280,1,0,0:0:0:0:
64,192,79316,128,0,79886:0:0:0:0:
192,192,79316,1,0,0:0:0:0:
320,192,79459,128,0,79530:0:0:0:0:
448,192,79494,128,0,79744:0:0:0:0:
320,192,79601,128,0,79779:0:0:0:0:
192,192,79744,128,0,79815:0:0:0:0:
192,192,79886,128,8,80029:0:0:0:0:
320,192,79886,128,0,80029:0:0:0:0:
448,192,79886,128,0,80029:0:0:0:0:
64,192,80029,1,0,0:0:0:0:
320,192,80100,128,0,80242:0:0:0:0:
64,192,80171,128,8,80242:0:0:0:0:
192,192,80171,128,2,80242:0:0:0:0:
448,192,80242,128,0,80385:0:0:0:0:
192,192,80314,128,0,80456:0:0:0:0:
320,192,80385,1,0,0:0:0:0:
64,192,80456,1,8,0:0:0:0:
448,192,80456,1,0,0:0:0:0:
320,192,80528,128,0,80670:0:0:0:0:
192,192,80599,128,0,80741:0:0:0:0:
448,192,80670,128,0,80884:0:0:0:0:
64,192,80741,128,8,80884:0:0:0:0:
320,192,80741,128,2,80813:0:0:0:0:
192,192,80813,128,0,80884:0:0:0:0:
320,192,80884,128,0,80955:0:0:0:0:
448,192,80955,128,0,81026:0:0:0:0:
64,192,81026,128,8,81169:0:0:0:0:
192,192,81026,128,0,81169:0:0:0:0:
320,192,81098,128,0,81169:0:0:0:0:
448,192,81169,128,0,81240:0:0:0:0:
192,192,81240,128,0,81383:0:0:0:0:
320,192,81311,128,2,81383:0:0:0:0:
448,192,81311,128,8,81383:0:0:0:0:
64,192,81383,128,0,81525:0:0:0:0:
320,192,81454,128,0,81596:0:0:0:0:
192,192,81525,1,0,0:0:0:0:
64,192,81596,1,8,0:0:0:0:
448,192,81596,1,0,0:0:0:0:
320,192,81668,128,0,81810:0:0:0:0:
192,192,81739,128,0,81881:0:0:0:0:
64,192,81810,128,0,81953:0:0:0:0:
320,192,81881,128,8,82024:0:0:0:0:
448,192,81881,128,2,82024:0:0:0:0:
192,192,81953,128,0,82024:0:0:0:0:
64,192,82024,128,0,82095:0:0:0:0:
320,192,82095,128,0,82166:0:0:0:0:
64,192,82166,128,8,82309:0:0:0:0:
448,192,82166,128,0,82309:0:0:0:0:
192,192,82309,128,0,82380:0:0:0:0:
320,192,82380,128,0,82452:0:0:0:0:
64,192,82452,128,2,82523:0:0:0:0:
192,192,82452,128,8,82523:0:0:0:0:
448,192,82523,128,0,82665:0:0:0:0:
192,192,82594,128,0,82737:0:0:0:0:
320,192,82665,1,0,0:0:0:0:
64,192,82737,128,8,82879:0:0:0:0:
448,192,82737,128,0,82808:0:0:0:0:
192,192,82808,128,0,82950:0:0:0:0:
320,192,82879,128,0,83093:0:0:0:0:
448,192,82950,128,0,83022:0:0:0:0:
64,192,83022,128,8,83164:0:0:0:0:
192,192,83022,128,2,83164:0:0:0:0:
448,192,83093,128,0,83164:0:0:0:0:
320,192,83164,128,0,83235:0:0:0:0:
192,192,83235,128,0,83307:0:0:0:0:
64,192,83307,1,8,0:0:0:0:
320,192,83307,128,0,83449:0:0:0:0:
448,192,83307,1,0,0:0:0:0:
64,192,83449,1,8,0:0:0:0:
192,192,83449,1,0,0:0:0:0:
448,192,83449,128,0,83592:0:0:0:0:
64,192,83592,1,8,0:0:0:0:
320,192,83592,1,2,0:0:0:0:
192,192,83663,1,0,0:0:0:0:
64,192,83734,128,8,83877:0:0:0:0:
320,192,83734,1,0,0:0:0:0:
448,192,83734,1,0,0:0:0:0:
320,192,83877,1,0,0:0:0:0:
448,192,83877,1,0,0:0:0:0:
192,192,83948,1,0,0:0:0:0:
64,192,84019,1,8,0:0:0:0:
320,192,84019,1,0,0:0:0:0:
448,192,84019,128,0,84162:0:0:0:0:
64,192,84162,1,2,0:0:0:0:
192,192,84162,1,8,0:0:0:0:
320,192,84233,1,8,0:0:0:0:
448,192,84233,1,0,0:0:0:0:
64,192,84304,1,8,0:0:0:0:
192,192,84304,1,0,0:0:0:0:
320,192,84376,1,8,0:0:0:0:
448,192,84376,1,0,0:0:0:0:
64,192,84447,128,8,84589:0:0:0:0:
192,192,84447,128,0,84589:0:0:0:0:
320,192,84589,1,8,0:0:0:0:
448,192,84589,1,0,0:0:0:0:
192,192,84661,128,0,84803:0:0:0:0:
320,192,84732,128,2,84803:0:0:0:0:
448,192,84732,128,8,84803:0:0:0:0:
64,192,84803,128,0,84946:0:0:0:0:
192,192,84874,128,0,85017:0:0:0:0:
320,192,84946,1,0,0:0:0:0:
64,192,85017,128,8,85231:0:0:0:0:
448,192,85017,128,0,85159:0:0:0:0:
320,192,85088,128,0,85231:0:0:0:0:
192,192,85159,128,0,85302:0:0:0:0:
448,192,85231,128,0,85373:0:0:0:0:
64,192,85302,128,8,85444:0:0:0:0:
320,192,85302,128,2,85444:0:0:0:0:
192,192,85373,128,0,85444:0:0:0:0:
448,192,85444,128,0,85516:0:0:0:0:
320,192,85516,128,0,85587:0:0:0:0:
64,192,85587,1,8,0:0:0:0:
448,192,85587,1,0,0:0:0:0:
192,192,85658,1,8,0:0:0:0:
320,192,85658,1,0,0:0:0:0:
64,192,85729,1,8,0:0:0:0:
448,192,85729,1,0,0:0:0:0:
320,192,85801,128,0,85943:0:0:0:0:
64,192,85872,128,8,85943:0:0:0:0:
192,192,85872,128,2,85943:0:0:0:0:
448,192,85943,128,0,86086:0:0:0:0:
320,192,86014,128,0,86157:0:0:0:0:
192,192,86086,1,0,0:0:0:0:
64,192,86157,128,8,86371:0:0:0:0:
448,192,86157,128,0,86371:0:0:0:0:
192,192,86228,128,0,86299:0:0:0:0:
320,192,86299,128,0,86442:0:0:0:0:
192,192,86371,128,0,86513:0:0:0:0:
64,192,86442,128,2,86585:0:0:0:0:
448,192,86442,128,8,86585:0:0:0:0:
320,192,86513,128,0,86585:0:0:0:0:
192,192,86585,128,0,86656:0:0:0:0:
320,192,86656,128,0,86727:0:0:0:0:
64,192,86727,128,8,86870:0:0:0:0:
192,192,86727,128,0,86941:0:0:0:0:
320,192,86870,128,8,87012:0:0:0:0:
448,192,86870,128,0,86941:0:0:0:0:
64,192,86941,128,0,87083:0:0:0:0:
192,192,87012,128,8,87083:0:0:0:0:
448,192,87012,128,2,87083:0:0:0:0:
320,192,87083,128,0,87155:0:0:0:0:
192,192,87155,128,0,87226:0:0:0:0:
64,192,87226,1,8,0:0:0:0:
448,192,87226,1,0,0:0:0:0:
192,192,87297,128,8,87511:0:0:0:0:
320,192,87297,128,0,87440:0:0:0:0:
448,192,87368,128,0,87440:0:0:0:0:
64,192,87440,128,0,87511:0:0:0:0:
320,192,87511,128,8,87582:0:0:0:0:
448,192,87511,128,0,87582:0:0:0:0:
64,192,87582,128,8,87653:0:0:0:0:
192,192,87582,128,2,87653:0:0:0:0:
320,192,87653,128,8,87725:0:0:0:0:
448,192,87653,128,0,87725:0:0:0:0:
64,192,87725,1,8,0:0:0:0:
192,192,87760,1,8,0:0:0:0:
448,192,87796,1,8,0:0:0:0:
320,192,87832,1,8,0:0:0:0:
64,192,87867,128,8,87938:0:0:0:0:
192,192,87867,128,0,87938:0:0:0:0:
64,192,88010,128,8,88152:0:0:0:0:
320,192,88010,1,0,0:0:0:0:
448,192,88010,128,0,88152:0:0:0:0:
192,192,88152,1,8,0:0:0:0:
320,192,88152,1,2,0:0:0:0:
448,192,88223,128,0,88295:0:0:0:0:
64,192,88295,128,8,88366:0:0:0:0:
192,192,88295,128,0,88366:0:0:0:0:
320,192,88366,1,8,0:0:0:0:
448,192,88366,1,0,0:0:0:0:
64,192,88437,128,0,88509:0:0:0:0:
320,192,88509,128,8,88651:0:0:0:0:
448,192,88509,128,0,88580:0:0:0:0:
64,192,88580,128,8,88651:0:0:0:0:
192,192,88580,128,0,88651:0:0:0:0:
448,192,88651,128,0,88722:0:0:0:0:
192,192,88722,128,8,88794:0:0:0:0:
320,192,88722,128,2,88794:0:0:0:0:
64,192,88794,128,0,88865:0:0:0:0:
192,192,88865,128,8,88936:0:0:0:0:
320,192,88865,128,0,88936:0:0:0:0:
448,192,88936,128,0,89007:0:0:0:0:
320,192,89007,128,0,89292:0:0:0:0:
64,192,89292,128,8,89364:0:0:0:0:
192,192,89292,128,2,89364:0:0:0:0:
448,192,89292,128,4,89364:0:0:0:0:
320,192,89364,128,0,89506:0:0:0:0:
192,192,89435,128,0,89577:0:0:0:0:
64,192,89506,1,0,0:0:0:0:
320,192,89577,128,8,89791:0:0:0:0:
448,192,89577,128,0,89720:0:0:0:0:
64,192,89649,128,0,89791:0:0:0:0:
192,192,89720,128,0,89862:0:0:0:0:
448,192,89791,128,0,90005:0:0:0:0:
64,192,89862,128,8,90005:0:0:0:0:
320,192,89862,128,2,89934:0:0:0:0:
192,192,89934,128,0,90005:0:0:0:0:
320,192,90005,128,0,90076:0:0:0:0:
448,192,90076,128,0,90147:0:0:0:0:
64,192,90147,128,8,90290:0:0:0:0:
192,192,90147,128,0,90290:0:0:0:0:
320,192,90219,128,0,90290:0:0:0:0:
448,192,90290,1,0,0:0:0:0:
192,192,90361,128,0,90504:0:0:0:0:
64,192,90433,128,2,90504:0:0:0:0:
448,192,90433,128,8,90504:0:0:0:0:
320,192,90504,128,0,90646:0:0:0:0:
192,192,90575,128,0,90646:0:0:0:0:
64,192,90646,1,0,0:0:0:0:
320,192,90718,128,8,91074:0:0:0:0:
448,192,90718,128,0,90860:0:0:0:0:
64,192,90789,128,0,90931:0:0:0:0:
192,192,90860,128,0,90931:0:0:0:0:
448,192,90931,128,0,91003:0:0:0:0:
64,192,91003,128,8,91145:0:0:0:0:
192,192,91003,128,2,91145:0:0:0:0:
448,192,91074,128,0,91145:0:0:0:0:
320,192,91145,128,0,91216:0:0:0:0:
192,192,91216,128,0,91288:0:0:0:0:
64,192,91288,128,8,91430:0:0:0:0:
448,192,91288,128,0,91430:0:0:0:0:
320,192,91430,1,0,0:0:0:0:
192,192,91501,128,0,91573:0:0:0:0:
64,192,91573,128,2,91715:0:0:0:0:
448,192,91573,128,8,91715:0:0:0:0:
192,192,91644,128,0,91786:0:0:0:0:
320,192,91715,128,0,91858:0:0:0:0:
64,192,91786,1,0,0:0:0:0:
192,192,91858,1,8,0:0:0:0:
448,192,91858,1,0,0:0:0:0:
320,192,91929,1,0,0:0:0:0:
192,192,92000,1,8,0:0:0:0:
64,192,92036,1,8,0:0:0:0:
320,192,92071,1,8,0:0:0:0:
448,192,92107,1,8,0:0:0:0:
64,192,92143,1,8,0:0:0:0:
192,192,92143,1,2,0:0:0:0:
320,192,92214,1,0,0:0:0:0:
64,192,92285,1,8,0:0:0:0:
192,192,92321,1,8,0:0:0:0:
448,192,92357,1,8,0:0:0:0:
320,192,92392,1,8,0:0:0:0:
64,192,92428,128,8,92570:0:0:0:0:
192,192,92428,128,0,92570:0:0:0:0:
320,192,92570,128,8,92642:0:0:0:0:
448,192,92570,128,0,92642:0:0:0:0:
64,192,92642,128,8,92713:0:0:0:0:
192,192,92642,128,0,92713:0:0:0:0:
320,192,92713,1,8,0:0:0:0:
448,192,92713,1,2,0:0:0:0:
64,192,92855,128,8,92927:0:0:0:0:
192,192,92855,128,0,92927:0:0:0:0:
320,192,92927,128,8,92998:0:0:0:0:
448,192,92927,128,0,92998:0:0:0:0:
64,192,92998,1,8,0:0:0:0:
192,192,92998,1,2,0:0:0:0:
320,192,93140,128,8,93212:0:0:0:0:
448,192,93140,128,0,93212:0:0:0:0:
64,192,93212,128,8,93283:0:0:0:0:
192,192,93212,128,0,93283:0:0:0:0:
320,192,93283,128,8,93354:0:0:0:0:
448,192,93283,128,2,93354:0:0:0:0:
64,192,93354,128,8,93425:0:0:0:0:
192,192,93354,128,0,93425:0:0:0:0:
320,192,93425,128,8,93497:0:0:0:0:
448,192,93425,128,0,93497:0:0:0:0:
64,192,93497,128,8,93568:0:0:0:0:
192,192,93497,128,0,93568:0:0:0:0:
320,192,93568,128,8,93710:0:0:0:0:
448,192,93568,128,0,93853:0:0:0:0:
192,192,93710,128,0,93782:0:0:0:0:
320,192,93782,128,0,93853:0:0:0:0:
64,192,93853,128,8,94138:0:0:0:0:
192,192,93853,128,0,94102:0:0:0:0:
448,192,93924,128,0,94031:0:0:0:0:
320,192,93995,128,0,94067:0:0:0:0:
320,192,94138,1,8,0:0:0:0:
448,192,94138,1,2,0:0:0:0:
192,192,94209,128,0,94280:0:0:0:0:
448,192,94280,128,0,94352:0:0:0:0:
64,192,94352,128,0,94423:0:0:0:0:
320,192,94423,128,0,94494:0:0:0:0:
192,192,94494,128,0,94566:0:0:0:0:
448,192,94566,128,0,94637:0:0:0:0:
64,192,94637,128,0,94708:0:0:0:0:
320,192,94708,1,8,0:0:0:0:
448,192,94708,1,0,0:0:0:0:
192,192,94779,128,0,94851:0:0:0:0:
320,192,94851,128,0,94922:0:0:0:0:
64,192,94922,128,0,94993:0:0:0:0:
448,192,94993,128,0,95064:0:0:0:0:
192,192,95064,128,0,95136:0:0:0:0:
320,192,95136,128,0,95207:0:0:0:0:
64,192,95207,128,0,95278:0:0:0:0:
320,192,95278,128,8,95349:0:0:0:0:
448,192,95278,128,2,95421:0:0:0:0:
192,192,95421,128,0,95492:0:0:0:0:
320,192,95421,128,0,95563:0:0:0:0:
64,192,95563,128,0,95706:0:0:0:0:
192,192,95563,128,0,95634:0:0:0:0:
448,192,95634,128,0,95706:0:0:0:0:
320,192,95706,128,0,95777:0:0:0:0:
192,192,95777,128,0,95848:0:0:0:0:
64,192,95848,128,8,95991:0:0:0:0:
320,192,95848,128,4,95991:0:0:0:0:
448,192,95848,128,0,96062:0:0:0:0:
192,192,95991,1,0,0:0:0:40:TL.wav
320,192,96062,1,0,0:0:0:40:TL.wav
448,192,96133,1,0,0:0:0:0:
320,192,96204,1,0,0:0:0:0:
64,192,96276,128,8,96490:0:0:0:0:
192,192,96276,128,4,96418:0:0:0:0:
448,192,96276,128,0,96418:0:0:0:0:
320,192,96418,1,0,0:0:0:40:TL.wav
192,192,96490,1,0,0:0:0:40:TL.wav
64,192,96561,1,0,0:0:0:0:
192,192,96632,1,0,0:0:0:0:
64,192,96703,128,4,96846:0:0:0:0:
320,192,96703,128,8,96775:0:0:0:0:
448,192,96703,128,0,96846:0:0:0:0:
192,192,96775,128,0,96846:0:0:0:0:
320,192,96846,128,0,96988:0:0:0:0:
192,192,96917,128,0,96988:0:0:0:0:
64,192,96988,1,8,0:0:0:0:
448,192,96988,1,0,0:0:0:0:
320,192,97060,1,0,0:0:0:0:
192,192,97131,1,0,0:0:0:0:
64,192,97202,1,8,0:0:0:0:
320,192,97202,1,0,0:0:0:0:
448,192,97202,1,0,0:0:0:0:
192,192,97273,1,0,0:0:0:0:
320,192,97345,1,0,0:0:0:0:
64,192,97416,1,8,0:0:0:0:
192,192,97416,1,0,0:0:0:0:
448,192,97416,1,0,0:0:0:0:
320,192,97487,1,0,0:0:0:0:
64,192,97558,1,8,0:0:0:0:
448,192,97558,1,0,0:0:0:0:
192,192,97630,1,0,0:0:0:0:
320,192,97701,1,0,0:0:0:0:
448,192,97701,1,0,0:0:0:0:
64,192,97772,1,0,0:0:0:0:
192,192,97772,1,0,0:0:0:0:
320,192,97843,1,0,0:0:0:0:
192,192,97915,1,0,0:0:0:0:
64,192,97986,1,0,0:0:0:0:
448,192,97986,1,0,0:0:0:0:
320,192,98057,1,0,0:0:0:0:
192,192,98128,1,0,0:0:0:0:
64,192,98176,1,0,0:0:0:0:
320,192,98223,1,0,0:0:0:0:
448,192,98271,1,0,0:0:0:0:
64,192,98318,1,0,0:0:0:0:
192,192,98366,1,0,0:0:0:0:
320,192,98414,1,8,0:0:0:0:
448,192,98414,1,0,0:0:0:0:
64,192,98485,1,8,0:0:0:0:
192,192,98485,1,0,0:0:0:0:
320,192,98556,128,8,98627:0:0:0:0:
448,192,98556,128,0,98627:0:0:0:0:
64,192,98627,128,8,98699:0:0:0:0:
192,192,98627,128,0,98699:0:0:0:0:
320,192,98699,1,8,0:0:0:0:
448,192,98699,1,0,0:0:0:0:
192,192,98841,128,8,98984:0:0:0:0:
320,192,98841,128,0,98984:0:0:0:0:
64,192,98984,1,8,0:0:0:0:
448,192,98984,128,2,99162:0:0:0:0:
320,192,99055,128,0,99197:0:0:0:0:
192,192,99126,128,0,99233:0:0:0:0:
64,192,99197,128,0,99269:0:0:0:0:
320,192,99269,1,8,0:0:0:0:
448,192,99269,128,0,99411:0:0:0:0:
64,192,99340,1,0,0:0:0:0:
192,192,99411,128,0,99554:0:0:0:0:
320,192,99482,1,0,0:0:0:0:
64,192,99554,1,8,0:0:0:0:
448,192,99554,1,2,0:0:0:0:
320,192,99625,1,0,0:0:0:0:
192,192,99696,128,0,99839:0:0:0:0:
64,192,99767,1,0,0:0:0:0:
320,192,99839,1,8,0:0:0:0:
448,192,99839,128,0,99981:0:0:0:0:
192,192,99910,1,0,0:0:0:0:
64,192,99981,1,0,0:0:0:0:
192,192,100052,1,0,0:0:0:0:
320,192,100124,1,8,0:0:0:0:
448,192,100124,128,2,100409:0:0:0:0:
64,192,100195,128,0,100337:0:0:0:0:
192,192,100266,128,0,100373:0:0:0:0:
320,192,100337,128,0,100409:0:0:0:0:
64,192,100409,1,8,0:0:0:0:
192,192,100409,1,0,0:0:0:0:
448,192,100480,1,0,0:0:0:0:
64,192,100551,1,8,0:0:0:0:
192,192,100551,1,0,0:0:0:0:
448,192,100623,1,0,0:0:0:0:
64,192,100694,1,8,0:0:0:0:
192,192,100694,1,2,0:0:0:0:
320,192,100765,1,0,0:0:0:0:
448,192,100836,128,0,100908:0:0:0:0:
192,192,100908,128,0,100979:0:0:0:0:
320,192,100979,1,8,0:0:0:0:
448,192,100979,1,0,0:0:0:0:
64,192,101050,1,0,0:0:0:0:
448,192,101121,128,0,101193:0:0:0:0:
192,192,101193,128,0,101264:0:0:0:0:
320,192,101264,1,8,0:0:0:0:
448,192,101264,1,2,0:0:0:0:
64,192,101335,1,0,0:0:0:0:
320,192,101406,1,0,0:0:0:0:
192,192,101478,1,0,0:0:0:0:
64,192,101549,128,8,101620:0:0:0:0:
320,192,101549,128,4,101620:0:0:0:0:
448,192,101549,128,0,101620:0:0:0:0:
320,192,101691,1,0,0:0:0:0:
64,192,101763,128,8,101834:0:0:0:0:
192,192,101763,128,4,101834:0:0:0:0:
448,192,101763,128,0,101834:0:0:0:0:
192,192,101905,1,0,0:0:0:0:
64,192,101976,128,8,102048:0:0:0:0:
320,192,101976,128,4,102048:0:0:0:0:
448,192,101976,128,0,102048:0:0:0:0:
320,192,102119,1,0,0:0:0:0:
64,192,102190,128,8,102261:0:0:0:0:
192,192,102190,128,4,102261:0:0:0:0:
448,192,102190,128,0,102261:0:0:0:0:
320,192,102333,1,0,0:0:0:0:
64,192,102404,128,8,102475:0:0:0:0:
192,192,102404,128,4,102475:0:0:0:0:
448,192,102404,128,0,102582:0:0:0:0:
320,192,102475,128,0,102618:0:0:0:0:
192,192,102547,128,8,102653:0:0:0:0:
64,192,102618,128,0,102689:0:0:0:0:
320,192,102689,1,8,0:0:0:0:
448,192,102689,1,0,0:0:0:0:
320,192,102784,1,8,0:0:0:0:
448,192,102784,1,0,0:0:0:0:
64,192,102879,1,8,0:0:0:0:
192,192,102879,1,0,0:0:0:0:
64,192,102974,128,8,103259:0:0:0:0:
192,192,102974,128,0,103259:0:0:0:0:
320,192,103259,1,8,0:0:0:0:
448,192,103259,1,2,0:0:0:0:
192,192,103330,128,0,103402:0:0:0:0:
448,192,103402,128,0,103473:0:0:0:0:
192,192,103473,128,0,103544:0:0:0:0:
448,192,103544,128,0,103615:0:0:0:0:
192,192,103615,128,0,103687:0:0:0:0:
448,192,103687,128,0,103758:0:0:0:0:
192,192,103758,128,0,103829:0:0:0:0:
320,192,103829,1,8,0:0:0:0:
448,192,103829,1,0,0:0:0:0:
64,192,103900,128,0,103972:0:0:0:0:
320,192,103972,128,0,104043:0:0:0:0:
64,192,104043,128,0,104114:0:0:0:0:
320,192,104114,128,0,104185:0:0:0:0:
64,192,104185,128,0,104257:0:0:0:0:
320,192,104257,128,0,104328:0:0:0:0:
64,192,104328,128,0,104399:0:0:0:0:
192,192,104399,128,8,104471:0:0:0:0:
448,192,104399,128,2,104471:0:0:0:0:
192,192,104542,128,0,104613:0:0:0:0:
320,192,104542,128,0,104613:0:0:0:0:
64,192,104684,128,0,104827:0:0:0:0:
192,192,104684,128,0,104898:0:0:0:0:
320,192,104756,128,0,104898:0:0:0:0:
448,192,104827,128,0,104969:0:0:0:0:
64,192,104898,128,0,104969:0:0:0:0:
192,192,104969,1,8,0:0:0:0:
320,192,104969,1,0,0:0:0:0:
448,192,105041,128,0,105112:0:0:0:0:
192,192,105112,128,0,105183:0:0:0:0:
320,192,105183,128,0,105254:0:0:0:0:
64,192,105254,1,8,0:0:0:0:
192,192,105254,128,2,105397:0:0:0:0:
448,192,105254,1,0,0:0:0:0:
320,192,105397,1,8,0:0:0:0:
448,192,105397,1,0,0:0:0:0:
64,192,105468,128,0,105539:0:0:0:0:
320,192,105539,128,0,105611:0:0:0:0:
192,192,105611,128,0,105682:0:0:0:0:
64,192,105682,1,8,0:0:0:0:
320,192,105682,128,2,105824:0:0:0:0:
448,192,105682,1,0,0:0:0:0:
64,192,105824,1,8,0:0:0:0:
192,192,105824,1,0,0:0:0:0:
448,192,105896,128,0,105967:0:0:0:0:
192,192,105967,128,0,106038:0:0:0:0:
320,192,106038,128,0,106109:0:0:0:0:
64,192,106109,1,8,0:0:0:0:
448,192,106109,1,0,0:0:0:0:
192,192,106181,1,0,0:0:0:0:
320,192,106252,1,8,0:0:0:0:
448,192,106252,1,0,0:0:0:0:
192,192,106323,1,0,0:0:0:0:
64,192,106395,1,8,0:0:0:0:
448,192,106395,1,0,0:0:0:0:
320,192,106466,1,0,0:0:0:0:
192,192,106537,1,0,0:0:0:0:
320,192,106608,1,0,0:0:0:0:
64,192,106680,1,8,0:0:0:0:
448,192,106680,1,2,0:0:0:0:
192,192,106751,1,0,0:0:0:0:
64,192,106822,1,8,0:0:0:0:
320,192,106822,1,0,0:0:0:0:
448,192,106893,1,0,0:0:0:0:
64,192,106965,1,8,0:0:0:0:
192,192,106965,1,0,0:0:0:0:
320,192,107036,1,0,0:0:0:0:
448,192,107107,1,0,0:0:0:0:
192,192,107178,1,0,0:0:0:0:
64,192,107250,1,8,0:0:0:0:
448,192,107250,128,0,107392:0:0:0:0:
320,192,107321,128,0,107392:0:0:0:0:
64,192,107392,128,0,107535:0:0:0:0:
192,192,107463,128,0,107535:0:0:0:0:
320,192,107535,1,8,0:0:0:0:
448,192,107535,1,0,0:0:0:0:
64,192,107677,1,8,0:0:0:0:
192,192,107713,1,8,0:0:0:0:
320,192,107748,1,8,0:0:0:0:
448,192,107784,1,8,0:0:0:0:
64,192,107820,1,8,0:0:0:0:
192,192,107820,1,0,0:0:0:0:
320,192,107891,1,8,0:0:0:0:
448,192,107891,1,0,0:0:0:0:
64,192,108033,1,8,0:0:0:0:
192,192,108033,1,0,0:0:0:0:
320,192,108105,1,8,0:0:0:0:
448,192,108105,1,0,0:0:0:0:
64,192,108176,1,8,0:0:0:0:
192,192,108176,1,0,0:0:0:0:
320,192,108247,128,8,108390:0:0:0:0:
448,192,108247,128,0,108461:0:0:0:0:
192,192,108318,128,0,108675:0:0:0:0:
64,192,108390,128,0,108532:0:0:0:0:
320,192,108461,128,0,108604:0:0:0:0:
448,192,108532,128,0,108604:0:0:0:0:
64,192,108604,128,0,108675:0:0:0:0:
320,192,108675,1,8,0:0:0:0:
448,192,108675,1,0,0:0:0:0:
64,192,108817,1,8,0:0:0:0:
192,192,108853,1,8,0:0:0:0:
320,192,108889,1,8,0:0:0:0:
448,192,108924,1,8,0:0:0:0:
64,192,108960,1,8,0:0:0:0:
192,192,108960,1,0,0:0:0:0:
320,192,109031,1,8,0:0:0:0:
448,192,109031,1,0,0:0:0:0:
192,192,109102,1,8,0:0:0:0:
64,192,109138,1,8,0:0:0:0:
320,192,109174,1,8,0:0:0:0:
448,192,109209,1,8,0:0:0:0:
64,192,109245,128,8,109387:0:0:0:0:
192,192,109245,128,0,109530:0:0:0:0:
448,192,109316,128,0,109459:0:0:0:0:
320,192,109387,128,0,109459:0:0:0:0:
64,192,109459,128,0,109530:0:0:0:0:
320,192,109530,1,8,0:0:0:0:
448,192,109530,1,0,0:0:0:0:
192,192,109672,128,0,109815:0:0:0:0:
320,192,109744,128,0,109815:0:0:0:0:
64,192,109815,1,8,0:0:0:0:
448,192,109815,1,0,0:0:0:0:
192,192,109957,1,8,0:0:0:0:
64,192,109993,1,8,0:0:0:0:
320,192,110029,1,8,0:0:0:0:
448,192,110064,1,8,0:0:0:0:
64,192,110100,1,8,0:0:0:0:
192,192,110100,1,0,0:0:0:0:
320,192,110171,1,8,0:0:0:0:
448,192,110171,1,0,0:0:0:0:
64,192,110314,1,8,0:0:0:0:
192,192,110314,1,0,0:0:0:0:
320,192,110385,1,8,0:0:0:0:
448,192,110385,1,0,0:0:0:0:
64,192,110456,1,8,0:0:0:0:
192,192,110456,1,0,0:0:0:0:
320,192,110528,128,8,110599:0:0:0:0:
448,192,110528,128,0,110741:0:0:0:0:
64,192,110599,128,0,110884:0:0:0:0:
320,192,110670,128,0,110813:0:0:0:0:
192,192,110741,128,0,110884:0:0:0:0:
448,192,110813,128,0,110955:0:0:0:0:
320,192,110884,128,0,110955:0:0:0:0:
64,192,110955,1,8,0:0:0:0:
192,192,110955,1,0,0:0:0:0:
448,192,111098,1,8,0:0:0:0:
320,192,111133,1,8,0:0:0:0:
192,192,111169,1,8,0:0:0:0:
64,192,111204,1,8,0:0:0:0:
320,192,111240,1,8,0:0:0:0:
448,192,111240,128,0,111525:0:0:0:0:
320,192,111383,1,0,0:0:0:0:
192,192,111525,1,0,0:0:0:0:
64,192,111596,1,0,0:0:0:0:
192,192,111668,1,0,0:0:0:0:
64,192,111739,1,0,0:0:0:0:
448,192,111810,1,8,0:0:0:0:
192,192,111846,1,8,0:0:0:0:
320,192,111881,1,8,0:0:0:0:
64,192,111917,1,8,0:0:0:0:
448,192,111953,1,8,0:0:0:0:
192,192,112024,1,8,0:0:0:0:
320,192,112095,1,0,0:0:0:0:
64,192,112166,1,8,0:0:0:0:
448,192,112238,1,8,0:0:0:0:
192,192,112273,1,8,0:0:0:0:
320,192,112309,1,8,0:0:0:0:
64,192,112345,1,8,0:0:0:0:
448,192,112380,1,8,0:0:0:0:
192,192,112452,1,8,0:0:0:0:
64,192,112594,1,8,0:0:0:0:
448,192,112665,1,8,0:0:0:0:
192,192,112701,1,8,0:0:0:0:
320,192,112737,1,8,0:0:0:0:
64,192,112772,1,8,0:0:0:0:
448,192,112808,1,8,0:0:0:0:
192,192,112879,1,8,0:0:0:0:
64,192,112950,1,8,0:0:0:0:
320,192,112986,1,8,0:0:0:0:
192,192,113022,1,8,0:0:0:0:
448,192,113057,1,8,0:0:0:0:
64,192,113093,1,8,0:0:0:0:
320,192,113164,1,8,0:0:0:0:
448,192,113307,1,8,0:0:0:0:
64,192,113378,1,8,0:0:0:0:
320,192,113414,1,8,0:0:0:0:
192,192,113449,1,8,0:0:0:0:
448,192,113485,1,8,0:0:0:0:
64,192,113520,1,8,0:0:0:0:
192,192,113592,1,8,0:0:0:0:
448,192,113663,1,8,0:0:0:0:
64,192,113699,1,8,0:0:0:0:
192,192,113734,1,8,0:0:0:0:
320,192,113770,1,8,0:0:0:0:
448,192,113805,1,8,0:0:0:0:
192,192,113841,1,0,0:0:0:0:
64,192,113877,1,8,0:0:0:0:
448,192,113912,1,8,0:0:0:0:
320,192,113948,1,8,0:0:0:0:
192,192,113984,1,8,0:0:0:0:
64,192,114019,1,8,0:0:0:0:
448,192,114055,1,8,0:0:0:0:
192,192,114090,1,8,0:0:0:0:
320,192,114126,1,8,0:0:0:0:
448,192,114162,1,8,0:0:0:0:
64,192,114197,1,8,0:0:0:0:
192,192,114233,1,8,0:0:0:0:
448,192,114304,1,8,0:0:0:0:
64,192,114447,1,8,0:0:0:0:
448,192,114518,1,8,0:0:0:0:
320,192,114554,1,8,0:0:0:0:
192,192,114589,1,8,0:0:0:0:
64,192,114625,1,8,0:0:0:0:
448,192,114661,1,8,0:0:0:0:
320,192,114732,1,8,0:0:0:0:
64,192,114874,1,8,0:0:0:0:
192,192,114946,1,8,0:0:0:0:
320,192,114981,1,8,0:0:0:0:
448,192,115017,1,8,0:0:0:0:
64,192,115052,1,8,0:0:0:0:
192,192,115088,1,8,0:0:0:0:
320,192,115159,1,8,0:0:0:0:
448,192,115231,1,8,0:0:0:0:
192,192,115266,1,8,0:0:0:0:
320,192,115302,1,8,0:0:0:0:
64,192,115337,1,8,0:0:0:0:
448,192,115373,1,8,0:0:0:0:
192,192,115444,1,8,0:0:0:0:
448,192,115587,1,8,0:0:0:0:
64,192,115658,1,8,0:0:0:0:
320,192,115694,1,8,0:0:0:0:
192,192,115729,1,8,0:0:0:0:
448,192,115765,1,8,0:0:0:0:
64,192,115801,1,8,0:0:0:0:
320,192,115872,1,8,0:0:0:0:
192,192,115943,1,8,0:0:0:0:
64,192,115979,1,8,0:0:0:0:
320,192,116014,1,8,0:0:0:0:
448,192,116050,1,8,0:0:0:0:
192,192,116086,1,8,0:0:0:0:
64,192,116121,1,8,0:0:0:0:
320,192,116157,1,8,0:0:0:0:
448,192,116193,1,8,0:0:0:0:
192,192,116228,1,8,0:0:0:0:
64,192,116264,1,8,0:0:0:0:
320,192,116299,1,8,0:0:0:0:
448,192,116335,1,8,0:0:0:0:
64,192,116371,1,8,0:0:0:0:
192,192,116371,1,0,0:0:0:0:
448,192,116585,1,0,0:0:0:0:
64,192,116798,1,0,0:0:0:0:
448,192,117012,1,0,0:0:0:0:
64,192,117226,1,0,0:0:0:0:
448,192,117440,1,0,0:0:0:0:
