osu file format v14

[General]
AudioFilename: audio.mp3
AudioLeadIn: 0
PreviewTime: 79282
Countdown: 0
SampleSet: Soft
StackLeniency: 0.7
Mode: 3
LetterboxInBreaks: 0
SpecialStyle: 0
WidescreenStoryboard: 1

[Editor]
DistanceSpacing: 2
BeatDivisor: 6
GridSize: 4
TimelineZoom: 2.6

[Metadata]
Title:PSYCHO+HEROES
TitleUnicode:PSYCHO+HEROES
Artist:Camellia
ArtistUnicode:かめりあ
Creator:Ricca
Version:HDTOO's NOVICE
Source:SOUND VOLTEX III GRAVITY WARS コナステ
Tags:psystyle camellia かめりあ かめるかめりあ masaya oya SDVX 3 6 VI EXCEED GEAR cametek electronic instrumental Konami Bemani video game 大箭将也 大箭マサヤ kamelcamellia HDTOO Worthlessnut9
BeatmapID:3890192
BeatmapSetID:1855737

[Difficulty]
HPDrainRate:7.5
CircleSize:4
OverallDifficulty:7.5
ApproachRate:5
SliderMultiplier:1.4
SliderTickRate:1

[Events]
//Background and Video events
0,0,"bg.jpg",0,0
//Break Periods
2,61910,69137
//Storyboard Layer 0 (Background)
//Storyboard Layer 1 (Fail)
//Storyboard Layer 2 (Pass)
//Storyboard Layer 3 (Foreground)
//Storyboard Layer 4 (Overlay)
//Storyboard Sound Samples

[TimingPoints]
2357,285.035629453682,4,2,1,30,1,0
79886,-100,4,2,1,30,0,1
89007,-100,4,2,1,30,0,0
89292,-100,4,2,1,30,0,1
98128,-100,4,2,1,30,0,0

[HitObjects]
64,192,2356,5,4,0:0:0:0:
449,192,2356,1,8,0:0:0:0:
192,192,2642,1,0,0:0:0:0:
321,192,2784,1,0,0:0:0:0:
192,192,2927,1,0,0:0:0:20:soft-hitwhistle.wav
448,192,3069,128,0,3497:0:0:0:30:soft-hitwhistle.wav
64,192,3497,1,0,0:0:0:0:
320,192,3639,1,0,0:0:0:0:
64,192,3782,1,0,0:0:0:0:
64,192,3924,1,0,0:0:0:0:
449,192,4067,1,0,0:0:0:0:
449,192,4209,1,0,0:0:0:0:
192,192,4352,128,0,4637:0:0:0:0:
64,192,4637,1,4,0:0:0:0:
449,192,4637,1,8,0:0:0:0:
320,192,4922,1,0,0:0:0:0:
192,192,5064,1,0,0:0:0:0:
320,192,5207,1,0,0:0:0:20:soft-hitwhistle.wav
64,192,5349,128,0,5777:0:0:0:30:soft-hitwhistle.wav
320,192,5777,1,8,0:0:0:0:
448,192,5777,1,4,0:0:0:0:
64,192,5919,1,8,0:0:0:0:
192,192,5919,1,4,0:0:0:0:
320,192,6062,1,8,0:0:0:0:
448,192,6062,1,4,0:0:0:0:
64,192,6347,1,4,0:0:0:0:
449,192,6347,1,8,0:0:0:0:
192,192,6632,128,4,6917:0:0:0:0:
321,192,6632,128,8,6917:0:0:0:0:
64,192,6917,1,4,0:0:0:0:
449,192,6917,1,8,0:0:0:0:
321,192,7202,1,0,0:0:0:0:
64,192,7345,1,0,0:0:0:0:
448,192,7487,1,0,0:0:0:20:soft-hitwhistle.wav
192,192,7630,128,0,8057:0:0:0:30:soft-hitwhistle.wav
449,192,8057,128,0,8271:0:0:0:0:
64,192,8271,128,0,8485:0:0:0:0:
449,192,8485,128,0,8627:0:0:0:0:
192,192,8627,128,0,8770:0:0:0:0:
320,192,8770,128,0,8912:0:0:0:0:
192,192,8912,128,0,9197:0:0:0:0:
64,192,9197,1,4,0:0:0:0:
449,192,9197,1,8,0:0:0:0:
192,192,9482,1,0,0:0:0:0:
448,192,9625,1,0,0:0:0:0:
64,192,9767,1,0,0:0:0:20:soft-hitwhistle.wav
320,192,9910,128,0,10337:0:0:0:30:soft-hitwhistle.wav
64,192,10337,1,8,0:0:0:0:
448,192,10337,1,0,0:0:0:0:
192,192,10480,1,8,0:0:0:0:
321,192,10480,1,0,0:0:0:0:
64,192,10623,128,8,10908:0:0:0:0:
449,192,10623,128,0,10908:0:0:0:0:
192,192,10908,128,8,11193:0:0:0:0:
321,192,10908,128,0,11478:0:0:0:0:
448,192,11193,128,8,11478:0:0:0:0:
64,192,11478,1,8,0:0:0:0:
192,192,11478,1,0,0:0:0:0:
448,192,11620,1,8,0:0:0:0:
192,192,11691,1,8,0:0:0:0:
448,192,11834,1,8,0:0:0:0:
192,192,11905,1,8,0:0:0:0:
64,192,12048,128,8,12190:0:0:0:0:
448,192,12190,1,8,0:0:0:0:
320,192,12261,1,8,0:0:0:0:
64,192,12404,1,8,0:0:0:0:
192,192,12475,1,8,0:0:0:0:
320,192,12547,1,8,0:0:0:0:
448,192,12618,1,8,0:0:0:0:
64,192,12760,1,8,0:0:0:0:
321,192,12832,1,8,0:0:0:0:
64,192,12974,1,8,0:0:0:0:
321,192,13045,1,8,0:0:0:0:
192,192,13188,128,8,13330:0:0:0:0:
448,192,13330,128,8,13473:0:0:0:0:
64,192,13473,128,8,13615:0:0:0:0:
320,192,13615,128,8,13758:0:0:0:0:
64,192,13758,1,8,0:0:0:0:
192,192,13758,1,0,0:0:0:0:
448,192,13900,1,8,0:0:0:0:
192,192,13972,1,8,0:0:0:0:
448,192,14114,1,8,0:0:0:0:
192,192,14185,1,8,0:0:0:0:
64,192,14328,128,8,14471:0:0:0:0:
320,192,14471,1,8,0:0:0:0:
448,192,14542,1,8,0:0:0:0:
64,192,14684,1,8,0:0:0:0:
192,192,14756,1,8,0:0:0:0:
448,192,14827,1,8,0:0:0:0:
320,192,14898,1,8,0:0:0:0:
64,192,15041,1,8,0:0:0:0:
320,192,15112,1,8,0:0:0:0:
64,192,15254,1,8,0:0:0:0:
320,192,15326,1,8,0:0:0:0:
449,192,15468,128,8,15611:0:0:0:0:
192,192,15611,128,8,15753:0:0:0:0:
321,192,15753,128,8,15896:0:0:0:0:
64,192,15896,128,8,16038:0:0:0:0:
449,192,16038,128,8,16181:0:0:0:0:
192,192,16181,1,0,0:0:0:0:
320,192,16323,128,8,16466:0:0:0:0:
64,192,16466,1,0,0:0:0:0:
192,192,16608,128,8,16751:0:0:0:0:
448,192,16751,1,0,0:0:0:0:
64,192,16893,128,8,17036:0:0:0:0:
320,192,17036,1,0,0:0:0:0:
448,192,17178,128,8,17321:0:0:0:0:
192,192,17321,1,0,0:0:0:0:
320,192,17463,128,8,17606:0:0:0:0:
64,192,17606,1,0,0:0:0:0:
192,192,17748,128,8,17891:0:0:0:0:
448,192,17891,1,0,0:0:0:0:
64,192,18033,128,8,18176:0:0:0:0:
320,192,18176,1,0,0:0:0:0:
449,192,18318,128,0,18461:0:0:0:0:
320,192,18461,128,0,18604:0:0:0:0:
192,192,18604,128,0,18746:0:0:0:0:
448,192,18746,1,0,0:0:0:0:
64,192,18889,128,0,19031:0:0:0:0:
192,192,19031,128,0,19174:0:0:0:0:
321,192,19174,128,0,19316:0:0:0:0:
64,192,19316,128,0,20029:0:0:0:0:
449,192,19459,128,0,20029:0:0:0:0:
192,192,20029,128,0,20171:0:0:0:0:
321,192,20171,128,0,20314:0:0:0:0:
192,192,20314,128,0,20599:0:0:0:0:
321,192,20456,128,0,20599:0:0:0:0:
64,192,20599,1,8,0:0:0:0:
449,192,20599,1,0,0:0:0:0:
64,192,20884,1,8,0:0:0:0:
192,192,20884,1,0,0:0:0:0:
449,192,21026,1,0,0:0:0:0:
64,192,21169,1,8,0:0:0:0:
192,192,21169,1,0,0:0:0:0:
449,192,21311,1,0,0:0:0:0:
64,192,21454,128,8,21596:0:0:0:0:
192,192,21454,1,0,0:0:0:0:
320,192,21596,128,0,21739:0:0:0:0:
192,192,21739,1,8,0:0:0:0:
448,192,21739,1,0,0:0:0:0:
320,192,21881,1,0,0:0:0:0:
64,192,22024,1,8,0:0:0:0:
448,192,22024,1,0,0:0:0:0:
192,192,22166,1,0,0:0:0:0:
64,192,22309,1,8,0:0:0:0:
448,192,22309,1,0,0:0:0:0:
320,192,22452,1,0,0:0:0:0:
192,192,22594,1,8,0:0:0:0:
448,192,22594,128,0,22879:0:0:0:0:
64,192,22879,1,8,0:0:0:0:
192,192,22879,1,0,0:0:0:0:
321,192,23164,1,8,0:0:0:0:
448,192,23164,1,0,0:0:0:0:
64,192,23307,1,0,0:0:0:0:
321,192,23449,1,8,0:0:0:0:
448,192,23449,1,0,0:0:0:0:
64,192,23592,1,0,0:0:0:0:
320,192,23734,128,8,23877:0:0:0:0:
448,192,23734,1,0,0:0:0:0:
192,192,23877,128,0,24019:0:0:0:0:
64,192,24019,1,8,0:0:0:0:
448,192,24019,1,0,0:0:0:0:
192,192,24162,1,0,0:0:0:0:
320,192,24304,1,8,0:0:0:0:
449,192,24304,1,0,0:0:0:0:
192,192,24447,1,0,0:0:0:0:
64,192,24589,1,8,0:0:0:0:
448,192,24589,1,0,0:0:0:0:
192,192,24732,128,0,24874:0:0:0:0:
64,192,24874,1,8,0:0:0:0:
320,192,24874,128,0,25017:0:0:0:0:
448,192,25017,128,0,25159:0:0:0:0:
192,192,25159,1,8,0:0:0:0:
320,192,25302,1,8,0:0:0:0:
64,192,25444,1,8,0:0:0:0:
192,192,25444,1,4,0:0:0:0:
448,192,25587,1,0,0:0:0:0:
64,192,25729,1,8,0:0:0:0:
192,192,25729,1,0,0:0:0:0:
448,192,25872,1,0,0:0:0:0:
64,192,26014,128,8,26157:0:0:0:0:
192,192,26014,1,0,0:0:0:0:
320,192,26157,128,0,26299:0:0:0:0:
192,192,26299,1,8,0:0:0:0:
448,192,26299,1,0,0:0:0:0:
320,192,26442,1,0,0:0:0:0:
64,192,26585,1,8,0:0:0:0:
448,192,26585,1,0,0:0:0:0:
192,192,26727,1,0,0:0:0:0:
64,192,26870,1,8,0:0:0:0:
448,192,26870,1,0,0:0:0:0:
320,192,27012,1,0,0:0:0:0:
192,192,27155,1,8,0:0:0:0:
448,192,27155,128,0,27440:0:0:0:0:
64,192,27440,1,8,0:0:0:0:
192,192,27440,1,0,0:0:0:0:
320,192,27582,1,8,0:0:0:0:
448,192,27582,1,0,0:0:0:0:
64,192,27725,1,8,0:0:0:0:
192,192,27725,1,0,0:0:0:0:
448,192,27867,128,0,28580:0:0:0:0:
64,192,28010,128,8,28152:0:0:0:0:
192,192,28152,128,8,28295:0:0:0:0:
320,192,28295,128,0,28580:0:0:0:0:
64,192,28580,128,8,28722:0:0:0:0:
448,192,28722,128,8,28865:0:0:0:0:
192,192,28865,128,8,29007:0:0:0:0:
320,192,29007,128,0,29150:0:0:0:0:
64,192,29150,128,8,29292:0:0:0:0:
192,192,29292,128,0,29435:0:0:0:0:
448,192,29435,128,0,29577:0:0:0:0:
320,192,29577,128,8,29720:0:0:0:0:
64,192,29720,1,8,0:0:0:0:
192,192,29720,128,0,30290:0:0:0:0:
64,192,30290,1,8,0:0:0:0:
449,192,30290,1,2,0:0:0:0:
448,192,30433,1,0,0:0:0:0:
192,192,30575,1,0,0:0:0:0:
192,192,30718,1,0,0:0:0:0:
321,192,30860,1,8,0:0:0:0:
449,192,30860,1,0,0:0:0:0:
320,192,31003,1,0,0:0:0:0:
64,192,31145,1,0,0:0:0:0:
64,192,31288,1,0,0:0:0:0:
320,192,31430,1,8,0:0:0:0:
449,192,31430,128,2,31573:0:0:0:0:
64,192,31573,128,0,31715:0:0:0:0:
449,192,31715,128,0,32000:0:0:0:0:
192,192,32000,1,8,0:0:0:0:
321,192,32000,1,0,0:0:0:0:
64,192,32190,1,8,0:0:0:0:
449,192,32190,1,0,0:0:0:0:
192,192,32380,1,8,0:0:0:0:
321,192,32380,1,0,0:0:0:0:
64,192,32570,1,8,0:0:0:0:
449,192,32570,1,2,0:0:0:0:
64,192,32713,1,0,0:0:0:0:
321,192,32855,1,0,0:0:0:0:
321,192,32998,1,0,0:0:0:0:
64,192,33140,1,8,0:0:0:0:
192,192,33140,1,0,0:0:0:0:
321,192,33283,1,8,0:0:0:0:
448,192,33283,1,0,0:0:0:0:
64,192,33425,1,8,0:0:0:0:
192,192,33425,1,0,0:0:0:0:
321,192,33568,1,0,0:0:0:0:
64,192,33710,1,8,0:0:0:0:
449,192,33710,1,2,0:0:0:0:
192,192,33853,1,8,0:0:0:0:
320,192,33853,1,0,0:0:0:0:
64,192,33995,128,8,34280:0:0:0:0:
448,192,33995,128,0,34280:0:0:0:0:
321,192,34280,128,8,34566:0:0:0:0:
192,192,34566,128,8,34851:0:0:0:0:
320,192,34708,128,0,34851:0:0:0:0:
64,192,34851,1,8,0:0:0:0:
449,192,34851,1,2,0:0:0:0:
449,192,34993,1,0,0:0:0:0:
192,192,35136,1,0,0:0:0:0:
192,192,35278,1,0,0:0:0:0:
449,192,35421,1,8,0:0:0:0:
321,192,35516,1,0,0:0:0:0:
192,192,35611,1,0,0:0:0:0:
64,192,35706,1,0,0:0:0:0:
192,192,35801,1,0,0:0:0:0:
320,192,35896,1,0,0:0:0:0:
64,192,35991,1,8,0:0:0:0:
449,192,35991,1,2,0:0:0:0:
64,192,36133,1,0,0:0:0:0:
321,192,36276,1,0,0:0:0:0:
321,192,36418,1,0,0:0:0:0:
64,192,36561,1,8,0:0:0:0:
192,192,36561,1,0,0:0:0:0:
64,192,36751,1,8,0:0:0:0:
192,192,36751,1,0,0:0:0:0:
64,192,36941,1,8,0:0:0:0:
192,192,36941,1,0,0:0:0:0:
320,192,37131,1,8,0:0:0:0:
448,192,37131,1,2,0:0:0:0:
320,192,37321,1,8,0:0:0:0:
448,192,37321,1,0,0:0:0:0:
321,192,37511,1,8,0:0:0:0:
449,192,37511,1,0,0:0:0:0:
64,192,37701,128,8,37986:0:0:0:0:
192,192,37843,128,0,38128:0:0:0:0:
321,192,37986,128,0,38271:0:0:0:0:
449,192,38128,128,0,38271:0:0:0:0:
64,192,38271,1,8,0:0:0:0:
192,192,38366,1,0,0:0:0:0:
320,192,38461,1,0,0:0:0:0:
448,192,38556,1,0,0:0:0:0:
320,192,38651,1,0,0:0:0:0:
192,192,38746,1,0,0:0:0:0:
64,192,38841,1,8,0:0:0:0:
449,192,38841,1,0,0:0:0:0:
192,192,39126,1,8,0:0:0:0:
449,192,39126,1,0,0:0:0:0:
64,192,39411,1,8,0:0:0:0:
449,192,39411,1,0,0:0:0:0:
192,192,39554,1,0,0:0:0:0:
321,192,39696,1,8,0:0:0:0:
448,192,39696,1,0,0:0:0:0:
192,192,39839,1,0,0:0:0:0:
64,192,39981,1,8,0:0:0:0:
448,192,39981,1,0,0:0:0:0:
64,192,40266,1,8,0:0:0:0:
320,192,40266,1,0,0:0:0:0:
64,192,40551,1,8,0:0:0:0:
448,192,40551,1,0,0:0:0:0:
320,192,40694,1,0,0:0:0:0:
64,192,40836,1,8,0:0:0:0:
192,192,40836,1,0,0:0:0:0:
320,192,40979,1,0,0:0:0:0:
64,192,41121,1,8,0:0:0:0:
448,192,41121,1,0,0:0:0:0:
64,192,41406,1,8,0:0:0:0:
320,192,41406,1,0,0:0:0:0:
192,192,41691,1,8,0:0:0:0:
448,192,41691,1,0,0:0:0:0:
321,192,41834,1,0,0:0:0:0:
64,192,41976,1,8,0:0:0:0:
448,192,41976,1,0,0:0:0:0:
192,192,42119,1,0,0:0:0:0:
64,192,42261,1,8,0:0:0:0:
320,192,42261,1,0,0:0:0:0:
64,192,42547,1,8,0:0:0:0:
448,192,42547,1,0,0:0:0:0:
64,192,42832,1,8,0:0:0:0:
320,192,42832,128,0,43117:0:0:0:0:
192,192,43117,128,8,43402:0:0:0:0:
448,192,43117,1,0,0:0:0:0:
64,192,43402,1,8,0:0:0:0:
448,192,43402,1,0,0:0:0:0:
64,192,43687,1,8,0:0:0:0:
320,192,43687,1,0,0:0:0:0:
64,192,43972,1,8,0:0:0:0:
448,192,43972,1,0,0:0:0:0:
320,192,44114,1,0,0:0:0:0:
64,192,44257,1,8,0:0:0:0:
192,192,44257,1,0,0:0:0:0:
320,192,44399,1,0,0:0:0:0:
64,192,44542,1,8,0:0:0:0:
448,192,44542,1,0,0:0:0:0:
192,192,44827,1,8,0:0:0:0:
448,192,44827,1,0,0:0:0:0:
64,192,45112,1,8,0:0:0:0:
448,192,45112,1,0,0:0:0:0:
192,192,45254,1,0,0:0:0:0:
320,192,45397,1,8,0:0:0:0:
448,192,45397,1,0,0:0:0:0:
192,192,45539,1,0,0:0:0:0:
64,192,45682,1,8,0:0:0:0:
449,192,45682,1,0,0:0:0:0:
321,192,45824,1,0,0:0:0:0:
192,192,45967,1,8,0:0:0:0:
64,192,46109,1,0,0:0:0:0:
64,192,46252,1,8,0:0:0:0:
192,192,46395,1,0,0:0:0:0:
320,192,46537,1,8,0:0:0:0:
448,192,46680,1,0,0:0:0:0:
449,192,46822,128,8,46965:0:0:0:0:
192,192,46965,128,8,47107:0:0:0:0:
321,192,47107,128,8,47250:0:0:0:0:
64,192,47250,128,8,47392:0:0:0:0:
449,192,47392,128,10,47535:0:0:0:0:
321,192,47535,128,0,47677:0:0:0:0:
64,192,47677,128,10,47820:0:0:0:0:
192,192,47820,128,8,47962:0:0:0:0:
64,192,47962,1,8,0:0:0:0:
449,192,47962,1,0,0:0:0:0:
192,192,48105,128,0,48247:0:0:0:0:
449,192,48247,1,10,0:0:0:0:
192,192,48390,128,0,48532:0:0:0:0:
321,192,48532,128,8,48675:0:0:0:0:
192,192,48675,128,0,48817:0:0:0:0:
449,192,48817,1,10,0:0:0:0:
192,192,48960,128,0,49102:0:0:0:0:
321,192,49102,1,8,0:0:0:0:
64,192,49245,128,0,49387:0:0:0:0:
449,192,49387,1,10,0:0:0:0:
64,192,49530,128,0,49672:0:0:0:0:
321,192,49672,128,8,49815:0:0:0:0:
64,192,49815,128,0,49957:0:0:0:0:
449,192,49957,128,10,50242:0:0:0:0:
64,192,50242,1,8,0:0:0:0:
192,192,50242,1,0,0:0:0:0:
321,192,50385,128,0,50528:0:0:0:0:
64,192,50528,1,10,0:0:0:0:
321,192,50670,128,0,50813:0:0:0:0:
192,192,50813,128,8,50955:0:0:0:0:
321,192,50955,128,0,51098:0:0:0:0:
64,192,51098,1,10,0:0:0:0:
320,192,51240,128,0,51383:0:0:0:0:
192,192,51383,1,8,0:0:0:0:
449,192,51525,128,0,51668:0:0:0:0:
64,192,51668,1,10,0:0:0:0:
449,192,51810,128,0,51953:0:0:0:0:
192,192,51953,128,8,52095:0:0:0:0:
448,192,52095,128,0,52238:0:0:0:0:
64,192,52238,1,2,0:0:0:0:
192,192,52238,1,8,0:0:0:0:
320,192,52380,1,0,0:0:0:0:
64,192,52523,1,8,0:0:0:0:
448,192,52523,1,0,0:0:0:0:
192,192,52665,128,0,52808:0:0:0:0:
449,192,52808,1,10,0:0:0:0:
192,192,52950,128,0,53093:0:0:0:0:
321,192,53093,128,8,53235:0:0:0:0:
192,192,53235,128,0,53378:0:0:0:0:
449,192,53378,1,10,0:0:0:0:
192,192,53520,128,8,53663:0:0:0:0:
321,192,53663,1,8,0:0:0:0:
448,192,53663,1,0,0:0:0:0:
64,192,53805,128,0,53948:0:0:0:0:
449,192,53948,1,10,0:0:0:0:
64,192,54090,128,0,54233:0:0:0:0:
321,192,54233,128,8,54376:0:0:0:0:
64,192,54376,128,0,54518:0:0:0:0:
449,192,54518,128,2,54661:0:0:0:0:
192,192,54661,128,8,54803:0:0:0:0:
64,192,54803,1,8,0:0:0:0:
448,192,54803,1,4,0:0:0:0:
192,192,55017,1,8,0:0:0:0:
448,192,55017,1,4,0:0:0:0:
320,192,55231,1,8,0:0:0:0:
448,192,55231,1,4,0:0:0:0:
64,192,55373,1,8,0:0:0:0:
192,192,55373,1,4,0:0:0:0:
64,192,55587,1,8,0:0:0:0:
320,192,55587,1,4,0:0:0:0:
64,192,55801,1,8,0:0:0:0:
448,192,55801,1,4,0:0:0:0:
192,192,55943,1,8,0:0:0:0:
320,192,55943,1,4,0:0:0:0:
192,192,56157,1,8,0:0:0:0:
320,192,56157,1,4,0:0:0:0:
192,192,56371,1,8,0:0:0:0:
320,192,56371,1,4,0:0:0:0:
64,192,56513,128,0,57083:0:0:0:40:TL.wav
448,192,56513,128,0,57083:0:0:0:0:
192,192,57083,1,8,0:0:0:0:
320,192,57083,1,0,0:0:0:0:
64,192,57226,128,0,57368:0:0:0:0:
448,192,57368,1,8,0:0:0:0:
192,192,57511,128,8,57653:0:0:0:0:
320,192,57653,1,8,0:0:0:0:
448,192,57725,1,8,0:0:0:0:
64,192,57867,1,8,0:0:0:0:
192,192,57938,1,8,0:0:0:0:
321,192,58010,1,8,0:0:0:0:
448,192,58081,128,8,58223:0:0:0:0:
320,192,58223,128,0,58509:0:0:0:0:
64,192,58366,128,0,58509:0:0:0:0:
192,192,58509,128,8,58794:0:0:0:0:
448,192,58651,128,8,58794:0:0:0:0:
320,192,58794,128,8,59079:0:0:0:0:
64,192,58936,128,8,59079:0:0:0:0:
192,192,59079,128,8,59364:0:0:0:0:
64,192,59364,1,8,0:0:0:0:
320,192,59364,1,0,0:0:0:0:
449,192,59506,128,0,59649:0:0:0:0:
64,192,59649,1,8,0:0:0:0:
320,192,59791,128,8,59934:0:0:0:0:
192,192,59934,1,8,0:0:0:0:
64,192,60005,1,8,0:0:0:0:
448,192,60147,1,8,0:0:0:0:
320,192,60219,1,8,0:0:0:0:
192,192,60290,1,8,0:0:0:0:
64,192,60361,128,8,60504:0:0:0:0:
448,192,60504,128,0,60789:0:0:0:0:
192,192,60789,1,8,0:0:0:0:
320,192,60789,1,0,0:0:0:0:
64,192,60931,128,8,61216:0:0:0:0:
448,192,61074,128,0,61359:0:0:0:40:TH.wav
192,192,61216,128,0,61644:0:0:0:40:TH.wav
320,192,61359,128,0,61644:0:0:0:40:TM.wav
64,192,61644,1,8,0:0:0:0:
449,192,61644,1,4,0:0:0:0:
64,192,70337,5,0,0:0:0:40:TL.wav
320,192,70409,1,0,0:0:0:40:TL.wav
192,192,70480,128,8,70765:0:0:0:0:
320,192,70765,1,8,0:0:0:0:
448,192,70765,1,0,0:0:0:0:
64,192,70908,1,8,0:0:0:0:
320,192,70979,1,8,0:0:0:0:
64,192,71121,1,8,0:0:0:0:
320,192,71193,1,8,0:0:0:0:
448,192,71335,128,8,71478:0:0:0:0:
64,192,71478,1,8,0:0:0:0:
192,192,71549,1,8,0:0:0:0:
448,192,71691,1,8,0:0:0:0:
320,192,71763,1,8,0:0:0:0:
192,192,71834,1,8,0:0:0:0:
64,192,71905,1,8,0:0:0:0:
448,192,72048,1,8,0:0:0:0:
192,192,72119,1,8,0:0:0:0:
448,192,72261,1,8,0:0:0:0:
192,192,72333,1,8,0:0:0:0:
448,192,72475,128,8,72618:0:0:0:0:
64,192,72618,128,8,72760:0:0:0:0:
320,192,72760,128,8,72903:0:0:0:0:
192,192,72903,128,8,73045:0:0:0:0:
320,192,73045,1,8,0:0:0:0:
448,192,73045,1,0,0:0:0:0:
64,192,73188,1,8,0:0:0:0:
320,192,73259,1,8,0:0:0:0:
64,192,73402,1,8,0:0:0:0:
320,192,73473,1,8,0:0:0:0:
448,192,73615,128,8,73758:0:0:0:0:
192,192,73758,1,8,0:0:0:0:
64,192,73829,1,8,0:0:0:0:
448,192,73972,1,8,0:0:0:0:
320,192,74043,1,8,0:0:0:0:
64,192,74114,1,8,0:0:0:0:
192,192,74185,1,8,0:0:0:0:
448,192,74328,1,8,0:0:0:0:
192,192,74399,1,8,0:0:0:0:
448,192,74542,1,8,0:0:0:0:
192,192,74613,1,8,0:0:0:0:
64,192,74756,128,8,74898:0:0:0:0:
320,192,74898,128,8,75041:0:0:0:0:
192,192,75041,128,8,75183:0:0:0:0:
448,192,75183,128,8,75326:0:0:0:0:
64,192,75326,128,8,75468:0:0:0:0:
320,192,75468,1,0,0:0:0:0:
192,192,75611,128,8,75753:0:0:0:0:
448,192,75753,1,0,0:0:0:0:
320,192,75896,128,8,76038:0:0:0:0:
64,192,76038,1,0,0:0:0:0:
448,192,76181,128,8,76323:0:0:0:0:
192,192,76323,1,0,0:0:0:0:
448,192,76466,128,8,76608:0:0:0:0:
192,192,76608,1,0,0:0:0:0:
320,192,76751,128,8,76893:0:0:0:0:
64,192,76893,1,0,0:0:0:0:
192,192,77036,128,8,77178:0:0:0:0:
448,192,77178,1,0,0:0:0:0:
64,192,77321,128,8,77463:0:0:0:0:
320,192,77463,1,0,0:0:0:0:
64,192,77606,128,8,77748:0:0:0:0:
192,192,77748,128,0,77891:0:0:0:0:
448,192,77891,128,0,78033:0:0:0:0:
320,192,78033,128,0,78176:0:0:0:0:
64,192,78176,128,0,78318:0:0:0:0:
192,192,78318,128,0,78461:0:0:0:0:
448,192,78461,128,0,78604:0:0:0:0:
320,192,78604,128,0,79316:0:0:0:0:
64,192,78746,128,0,79316:0:0:0:0:
192,192,79316,128,0,79459:0:0:0:0:
321,192,79459,128,0,79601:0:0:0:0:
192,192,79601,128,0,79886:0:0:0:0:
321,192,79744,128,0,79886:0:0:0:0:
64,192,79886,1,8,0:0:0:0:
449,192,79886,1,0,0:0:0:0:
192,192,80029,1,0,0:0:0:0:
64,192,80171,1,8,0:0:0:0:
321,192,80171,128,2,80456:0:0:0:0:
192,192,80314,128,0,80456:0:0:0:0:
64,192,80456,1,8,0:0:0:0:
449,192,80456,1,0,0:0:0:0:
192,192,80599,1,0,0:0:0:0:
321,192,80741,1,8,0:0:0:0:
448,192,80741,1,2,0:0:0:0:
192,192,80884,1,0,0:0:0:0:
64,192,81026,1,8,0:0:0:0:
449,192,81026,1,0,0:0:0:0:
321,192,81169,1,0,0:0:0:0:
192,192,81311,128,2,81596:0:0:0:0:
448,192,81311,1,8,0:0:0:0:
321,192,81454,128,0,81596:0:0:0:0:
64,192,81596,1,8,0:0:0:0:
448,192,81596,1,0,0:0:0:0:
320,192,81739,1,0,0:0:0:0:
64,192,81881,1,8,0:0:0:0:
192,192,81881,1,2,0:0:0:0:
321,192,82024,1,0,0:0:0:0:
64,192,82166,1,8,0:0:0:0:
449,192,82166,1,0,0:0:0:0:
192,192,82309,1,0,0:0:0:0:
64,192,82452,1,2,0:0:0:0:
449,192,82452,128,8,82737:0:0:0:0:
321,192,82594,128,0,82737:0:0:0:0:
64,192,82737,1,8,0:0:0:0:
192,192,82737,1,0,0:0:0:0:
449,192,82879,1,0,0:0:0:0:
192,192,83022,1,10,0:0:0:0:
321,192,83164,1,0,0:0:0:0:
64,192,83307,128,8,83449:0:0:0:0:
192,192,83307,128,0,83449:0:0:0:0:
321,192,83449,128,8,83592:0:0:0:0:
449,192,83449,128,0,83592:0:0:0:0:
192,192,83734,128,8,83877:0:0:0:0:
321,192,83734,128,0,83877:0:0:0:0:
64,192,84019,128,8,84162:0:0:0:0:
449,192,84019,128,0,84162:0:0:0:0:
192,192,84162,128,10,84304:0:0:0:0:
320,192,84304,128,8,84447:0:0:0:0:
64,192,84447,1,8,0:0:0:0:
449,192,84447,1,0,0:0:0:0:
321,192,84589,1,8,0:0:0:0:
64,192,84732,1,2,0:0:0:0:
192,192,84732,128,8,85017:0:0:0:0:
449,192,84874,128,0,85017:0:0:0:0:
64,192,85017,1,8,0:0:0:0:
320,192,85017,1,0,0:0:0:0:
449,192,85159,1,0,0:0:0:0:
64,192,85302,1,8,0:0:0:0:
192,192,85302,1,2,0:0:0:0:
321,192,85444,1,0,0:0:0:0:
64,192,85587,1,8,0:0:0:0:
449,192,85587,1,0,0:0:0:0:
192,192,85729,1,8,0:0:0:0:
321,192,85872,128,8,86157:0:0:0:0:
448,192,85872,1,2,0:0:0:0:
64,192,86014,128,0,86157:0:0:0:0:
192,192,86157,1,8,0:0:0:0:
449,192,86157,1,0,0:0:0:0:
64,192,86299,1,0,0:0:0:0:
321,192,86442,1,2,0:0:0:0:
448,192,86442,1,8,0:0:0:0:
192,192,86585,1,0,0:0:0:0:
64,192,86727,1,8,0:0:0:0:
449,192,86727,1,0,0:0:0:0:
321,192,86870,1,8,0:0:0:0:
192,192,87012,128,8,87297:0:0:0:0:
448,192,87012,1,2,0:0:0:0:
321,192,87155,128,0,87297:0:0:0:0:
64,192,87297,1,8,0:0:0:0:
448,192,87297,1,0,0:0:0:0:
320,192,87440,1,0,0:0:0:0:
64,192,87582,1,8,0:0:0:0:
448,192,87582,1,2,0:0:0:0:
192,192,87725,1,8,0:0:0:0:
321,192,87867,128,8,88010:0:0:0:0:
449,192,87867,128,0,88010:0:0:0:0:
64,192,88010,128,8,88152:0:0:0:0:
192,192,88010,128,0,88152:0:0:0:0:
320,192,88152,128,10,88295:0:0:0:0:
64,192,88295,128,8,88437:0:0:0:0:
448,192,88295,128,0,88437:0:0:0:0:
320,192,88437,128,0,88580:0:0:0:0:
192,192,88580,128,8,88722:0:0:0:0:
448,192,88722,128,10,88865:0:0:0:0:
64,192,88865,128,8,89007:0:0:0:0:
320,192,89007,128,0,89292:0:0:0:0:
64,192,89292,128,10,89577:0:0:0:0:
448,192,89292,1,4,0:0:0:0:
192,192,89435,128,0,89577:0:0:0:0:
320,192,89577,1,8,0:0:0:0:
448,192,89577,1,0,0:0:0:0:
192,192,89720,1,0,0:0:0:0:
64,192,89862,1,8,0:0:0:0:
448,192,89862,1,2,0:0:0:0:
320,192,90005,1,0,0:0:0:0:
64,192,90147,1,8,0:0:0:0:
192,192,90147,1,0,0:0:0:0:
321,192,90290,1,0,0:0:0:0:
64,192,90433,1,2,0:0:0:0:
448,192,90433,128,8,90718:0:0:0:0:
320,192,90575,128,0,90718:0:0:0:0:
64,192,90718,1,8,0:0:0:0:
192,192,90718,1,0,0:0:0:0:
448,192,90860,1,0,0:0:0:0:
64,192,91003,1,8,0:0:0:0:
320,192,91003,1,2,0:0:0:0:
192,192,91145,1,0,0:0:0:0:
64,192,91288,1,8,0:0:0:0:
449,192,91288,1,0,0:0:0:0:
192,192,91430,1,0,0:0:0:0:
321,192,91573,128,2,91858:0:0:0:0:
448,192,91573,1,8,0:0:0:0:
64,192,91715,128,0,91858:0:0:0:0:
192,192,91858,1,8,0:0:0:0:
449,192,91858,1,0,0:0:0:0:
320,192,92000,128,8,92143:0:0:0:0:
64,192,92143,1,8,0:0:0:0:
448,192,92143,1,2,0:0:0:0:
192,192,92285,128,8,92428:0:0:0:0:
321,192,92428,128,8,92570:0:0:0:0:
449,192,92428,128,0,92570:0:0:0:0:
64,192,92570,128,8,92713:0:0:0:0:
192,192,92570,128,0,92713:0:0:0:0:
192,192,92855,128,8,92998:0:0:0:0:
320,192,92855,128,0,92998:0:0:0:0:
64,192,93140,128,8,93283:0:0:0:0:
448,192,93140,128,0,93283:0:0:0:0:
320,192,93283,128,10,93568:0:0:0:0:
192,192,93425,128,8,93568:0:0:0:0:
64,192,93568,1,8,0:0:0:0:
448,192,93568,1,0,0:0:0:0:
321,192,93710,1,0,0:0:0:0:
192,192,93853,128,8,94138:0:0:0:0:
320,192,93995,128,0,94138:0:0:0:0:
64,192,94138,1,8,0:0:0:0:
449,192,94138,1,2,0:0:0:0:
64,192,94280,1,0,0:0:0:0:
321,192,94423,1,0,0:0:0:0:
321,192,94566,1,0,0:0:0:0:
64,192,94708,1,8,0:0:0:0:
192,192,94708,1,0,0:0:0:0:
192,192,94851,1,0,0:0:0:0:
448,192,94993,1,0,0:0:0:0:
448,192,95136,1,0,0:0:0:0:
64,192,95278,128,8,95421:0:0:0:0:
192,192,95278,1,2,0:0:0:0:
448,192,95421,128,0,95563:0:0:0:0:
64,192,95563,128,0,95848:0:0:0:0:
321,192,95848,1,8,0:0:0:0:
449,192,95848,1,4,0:0:0:0:
192,192,95991,1,0,0:0:0:40:TL.wav
320,192,96062,1,0,0:0:0:40:TL.wav
64,192,96276,1,8,0:0:0:0:
448,192,96276,1,4,0:0:0:0:
192,192,96418,1,0,0:0:0:40:TL.wav
320,192,96490,1,0,0:0:0:40:TL.wav
64,192,96703,1,4,0:0:0:0:
448,192,96703,1,8,0:0:0:0:
192,192,96846,1,0,0:0:0:0:
320,192,96988,128,8,97202:0:0:0:0:
449,192,96988,128,0,97558:0:0:0:0:
192,192,97202,128,8,97416:0:0:0:0:
320,192,97416,128,8,97558:0:0:0:0:
64,192,97558,128,8,98128:0:0:0:0:
192,192,97558,128,0,97772:0:0:0:0:
321,192,97772,128,0,97986:0:0:0:0:
192,192,97986,128,0,98128:0:0:0:0:
449,192,98128,128,0,98414:0:0:0:0:
64,192,98414,1,8,0:0:0:0:
192,192,98414,1,0,0:0:0:0:
448,192,98556,1,8,0:0:0:0:
64,192,98699,1,8,0:0:0:0:
192,192,98699,1,0,0:0:0:0:
448,192,98841,1,8,0:0:0:0:
64,192,98984,128,8,99126:0:0:0:0:
192,192,98984,1,2,0:0:0:0:
320,192,99126,128,0,99269:0:0:0:0:
192,192,99269,1,8,0:0:0:0:
448,192,99269,1,0,0:0:0:0:
320,192,99411,1,0,0:0:0:0:
64,192,99554,1,8,0:0:0:0:
448,192,99554,1,2,0:0:0:0:
192,192,99696,1,0,0:0:0:0:
64,192,99839,1,8,0:0:0:0:
448,192,99839,1,0,0:0:0:0:
320,192,99981,1,0,0:0:0:0:
64,192,100124,128,8,100409:0:0:0:0:
192,192,100124,1,2,0:0:0:0:
320,192,100409,1,8,0:0:0:0:
449,192,100409,1,0,0:0:0:0:
192,192,100551,1,8,0:0:0:0:
320,192,100694,1,8,0:0:0:0:
448,192,100694,1,2,0:0:0:0:
64,192,100836,1,0,0:0:0:0:
320,192,100979,1,8,0:0:0:0:
448,192,100979,1,0,0:0:0:0:
64,192,101121,1,0,0:0:0:0:
320,192,101264,128,8,101406:0:0:0:0:
448,192,101264,1,2,0:0:0:0:
192,192,101406,128,0,101549:0:0:0:0:
64,192,101549,1,8,0:0:0:0:
448,192,101549,1,4,0:0:0:0:
64,192,101763,1,8,0:0:0:0:
192,192,101763,1,4,0:0:0:0:
192,192,101976,1,8,0:0:0:0:
320,192,101976,1,4,0:0:0:0:
320,192,102190,1,8,0:0:0:0:
448,192,102190,1,4,0:0:0:0:
64,192,102404,128,8,102689:0:0:0:0:
448,192,102404,128,4,102689:0:0:0:0:
192,192,102689,1,8,0:0:0:0:
320,192,102784,1,8,0:0:0:0:
192,192,102879,1,8,0:0:0:0:
320,192,102974,128,8,103259:0:0:0:0:
64,192,103259,1,8,0:0:0:0:
449,192,103259,1,2,0:0:0:0:
449,192,103402,1,0,0:0:0:0:
192,192,103544,1,0,0:0:0:0:
192,192,103687,1,0,0:0:0:0:
320,192,103829,1,8,0:0:0:0:
449,192,103829,1,0,0:0:0:0:
320,192,103972,1,0,0:0:0:0:
64,192,104114,1,0,0:0:0:0:
64,192,104257,1,0,0:0:0:0:
320,192,104399,1,8,0:0:0:0:
449,192,104399,128,2,104542:0:0:0:0:
192,192,104542,128,0,104684:0:0:0:0:
449,192,104684,128,0,104969:0:0:0:0:
64,192,104969,128,8,105254:0:0:0:0:
192,192,104969,128,0,105254:0:0:0:0:
449,192,105254,1,10,0:0:0:0:
192,192,105397,128,8,105682:0:0:0:0:
321,192,105397,128,0,105682:0:0:0:0:
64,192,105682,1,10,0:0:0:0:
321,192,105824,128,8,106109:0:0:0:0:
449,192,105824,128,0,106109:0:0:0:0:
64,192,106109,128,8,106252:0:0:0:0:
192,192,106252,128,8,106395:0:0:0:0:
321,192,106395,128,8,106537:0:0:0:0:
449,192,106537,128,0,106680:0:0:0:0:
192,192,106680,128,10,106822:0:0:0:0:
320,192,106822,128,8,106965:0:0:0:0:
64,192,106965,128,8,107107:0:0:0:0:
449,192,107107,128,0,107250:0:0:0:0:
192,192,107250,1,8,0:0:0:0:
320,192,107250,1,0,0:0:0:0:
64,192,107392,128,0,107535:0:0:0:0:
448,192,107535,1,8,0:0:0:0:
192,192,107677,128,8,107820:0:0:0:0:
320,192,107820,1,8,0:0:0:0:
448,192,107891,1,8,0:0:0:0:
64,192,108033,1,8,0:0:0:0:
192,192,108105,1,8,0:0:0:0:
320,192,108176,1,8,0:0:0:0:
448,192,108247,128,8,108390:0:0:0:0:
320,192,108390,128,0,108675:0:0:0:0:
64,192,108532,128,0,108675:0:0:0:0:
192,192,108675,128,8,108960:0:0:0:0:
448,192,108817,128,8,108960:0:0:0:0:
320,192,108960,128,8,109245:0:0:0:0:
64,192,109102,128,8,109245:0:0:0:0:
192,192,109245,128,8,109530:0:0:0:0:
64,192,109530,1,8,0:0:0:0:
320,192,109530,1,0,0:0:0:0:
448,192,109672,128,0,109815:0:0:0:0:
64,192,109815,1,8,0:0:0:0:
320,192,109957,128,8,110100:0:0:0:0:
192,192,110100,1,8,0:0:0:0:
64,192,110171,1,8,0:0:0:0:
448,192,110314,1,8,0:0:0:0:
320,192,110385,1,8,0:0:0:0:
192,192,110456,1,8,0:0:0:0:
64,192,110528,128,8,110670:0:0:0:0:
448,192,110670,128,0,110955:0:0:0:0:
64,192,110955,1,8,0:0:0:0:
192,192,110955,1,0,0:0:0:0:
320,192,111098,128,8,111240:0:0:0:0:
64,192,111240,128,8,111525:0:0:0:0:
448,192,111240,128,0,111525:0:0:0:0:
192,192,111525,128,0,111810:0:0:0:0:
448,192,111810,128,8,111953:0:0:0:0:
192,192,111953,128,8,112095:0:0:0:0:
448,192,112095,128,0,112238:0:0:0:0:
320,192,112238,1,8,0:0:0:0:
192,192,112309,1,8,0:0:0:0:
64,192,112380,128,8,112523:0:0:0:0:
320,192,112523,128,0,112665:0:0:0:0:
64,192,112665,128,8,112808:0:0:0:0:
192,192,112808,1,8,0:0:0:0:
320,192,112879,1,8,0:0:0:0:
448,192,112950,128,8,113093:0:0:0:0:
64,192,113093,128,8,113235:0:0:0:0:
448,192,113235,128,0,113378:0:0:0:0:
320,192,113378,1,8,0:0:0:0:
192,192,113449,1,8,0:0:0:0:
64,192,113520,128,8,113663:0:0:0:0:
448,192,113663,128,8,113805:0:0:0:0:
64,192,113805,128,8,113948:0:0:0:0:
192,192,113948,1,8,0:0:0:0:
320,192,114019,1,8,0:0:0:0:
448,192,114090,128,8,114233:0:0:0:0:
192,192,114233,128,8,114376:0:0:0:0:
320,192,114376,128,0,114518:0:0:0:0:
64,192,114518,128,8,114661:0:0:0:0:
448,192,114661,128,8,114803:0:0:0:0:
192,192,114803,128,0,114946:0:0:0:0:
448,192,114946,128,8,115088:0:0:0:0:
64,192,115088,128,8,115231:0:0:0:0:
320,192,115231,128,8,115516:0:0:0:0:
192,192,115373,128,8,115658:0:0:0:0:
448,192,115516,128,0,115801:0:0:0:0:
64,192,115658,128,8,115943:0:0:0:0:
320,192,115801,128,8,116086:0:0:0:0:
192,192,115943,128,8,116228:0:0:0:0:
448,192,116086,128,8,116371:0:0:0:0:
64,192,116228,128,8,116371:0:0:0:0:
192,192,116371,1,8,0:0:0:0:
320,192,116371,1,0,0:0:0:0:
