osu file format v14

[General]
AudioFilename: audio.mp3
AudioLeadIn: 0
PreviewTime: 79282
Countdown: 0
SampleSet: Soft
StackLeniency: 0.7
Mode: 3
LetterboxInBreaks: 0
SpecialStyle: 0
WidescreenStoryboard: 1

[Editor]
DistanceSpacing: 2
BeatDivisor: 4
GridSize: 4
TimelineZoom: 1.8

[Metadata]
Title:PSYCHO+HEROES
TitleUnicode:PSYCHO+HEROES
Artist:Camellia
ArtistUnicode:かめりあ
Creator:Ricca
Version:EXHAUST
Source:SOUND VOLTEX III GRAVITY WARS コナステ
Tags:psystyle camellia かめりあ かめるかめりあ masaya oya SDVX 3 6 VI EXCEED GEAR cametek electronic instrumental Konami Bemani video game 大箭将也 大箭マサヤ kamelcamellia HDTOO Worthlessnut9
BeatmapID:3816048
BeatmapSetID:1855737

[Difficulty]
HPDrainRate:8.3
CircleSize:4
OverallDifficulty:8.3
ApproachRate:5
SliderMultiplier:1.4
SliderTickRate:1

[Events]
//Background and Video events
0,0,"bg.jpg",0,0
//Break Periods
//Storyboard Layer 0 (Background)
//Storyboard Layer 1 (Fail)
//Storyboard Layer 2 (Pass)
//Storyboard Layer 3 (Foreground)
//Storyboard Layer 4 (Overlay)
//Storyboard Sound Samples

[TimingPoints]
2357,285.035629453682,4,2,1,30,1,0
30290,-100,4,2,1,30,0,1
30295,-100,4,2,1,30,0,1
31430,-100,4,2,1,30,0,0
32570,-100,4,2,1,30,0,1
33140,-100,4,2,1,30,0,0
34851,-100,4,2,1,30,0,1
36561,-100,4,2,1,30,0,0
79886,-100,4,2,1,30,0,1
89007,-100,4,2,1,30,0,0
89292,-100,4,2,1,30,0,1
98128,-100,4,2,1,30,0,0

[HitObjects]
64,192,2356,5,4,0:0:0:0:
320,192,2356,1,8,0:0:0:0:
448,192,2356,1,0,0:0:0:0:
192,192,2642,1,0,0:0:0:0:
192,192,2784,1,0,0:0:0:0:
320,192,2927,1,0,0:0:0:20:soft-hitwhistle.wav
320,192,3069,128,0,3497:0:0:0:30:soft-hitwhistle.wav
64,192,3212,1,0,0:0:0:40:soft-hitwhistle.wav
64,192,3354,1,0,0:0:0:10:soft-hitwhistle.wav
448,192,3497,1,0,0:0:0:0:
192,192,3639,1,0,0:0:0:0:
64,192,3710,1,0,0:0:0:0:
448,192,3782,1,0,0:0:0:0:
448,192,3924,1,0,0:0:0:0:
320,192,4067,1,0,0:0:0:0:
320,192,4209,1,0,0:0:0:0:
320,192,4352,128,0,4637:0:0:0:0:
64,192,4637,1,4,0:0:0:0:
192,192,4637,1,8,0:0:0:0:
448,192,4637,1,0,0:0:0:0:
320,192,4922,1,0,0:0:0:0:
320,192,5064,1,0,0:0:0:0:
192,192,5207,1,0,0:0:0:20:soft-hitwhistle.wav
192,192,5349,128,0,5777:0:0:0:30:soft-hitwhistle.wav
448,192,5492,1,0,0:0:0:40:soft-hitwhistle.wav
448,192,5634,1,0,0:0:0:10:soft-hitwhistle.wav
64,192,5777,1,8,0:0:0:0:
320,192,5777,1,4,0:0:0:0:
448,192,5777,1,0,0:0:0:0:
64,192,5919,1,8,0:0:0:0:
320,192,5919,1,4,0:0:0:0:
448,192,5919,1,0,0:0:0:0:
64,192,6062,1,8,0:0:0:0:
320,192,6062,1,4,0:0:0:0:
448,192,6062,1,0,0:0:0:0:
192,192,6204,128,0,6347:0:0:0:0:
64,192,6347,1,4,0:0:0:0:
320,192,6347,1,8,0:0:0:0:
448,192,6347,1,0,0:0:0:0:
448,192,6490,128,0,6632:0:0:0:0:
64,192,6632,1,4,0:0:0:0:
192,192,6632,1,8,0:0:0:0:
320,192,6632,128,0,6917:0:0:0:0:
64,192,6917,1,4,0:0:0:0:
192,192,6917,1,8,0:0:0:0:
448,192,6917,1,0,0:0:0:0:
192,192,7202,1,0,0:0:0:0:
192,192,7345,1,0,0:0:0:0:
320,192,7487,1,0,0:0:0:20:soft-hitwhistle.wav
320,192,7630,128,0,8057:0:0:0:30:soft-hitwhistle.wav
64,192,7772,1,0,0:0:0:40:soft-hitwhistle.wav
64,192,7915,1,0,0:0:0:10:soft-hitwhistle.wav
448,192,8057,1,0,0:0:0:0:
192,192,8200,1,0,0:0:0:0:
448,192,8271,1,0,0:0:0:0:
192,192,8414,1,0,0:0:0:0:
448,192,8485,1,0,0:0:0:0:
320,192,8627,1,0,0:0:0:0:
192,192,8699,1,0,0:0:0:0:
320,192,8770,1,0,0:0:0:0:
192,192,8841,1,0,0:0:0:0:
64,192,8912,128,0,9197:0:0:0:0:
192,192,9197,1,4,0:0:0:0:
320,192,9197,1,8,0:0:0:0:
448,192,9197,1,0,0:0:0:0:
192,192,9482,1,0,0:0:0:0:
192,192,9625,1,0,0:0:0:0:
320,192,9767,1,0,0:0:0:20:soft-hitwhistle.wav
320,192,9910,128,0,10337:0:0:0:30:soft-hitwhistle.wav
64,192,10052,1,0,0:0:0:40:soft-hitwhistle.wav
64,192,10195,1,0,0:0:0:10:soft-hitwhistle.wav
64,192,10337,1,8,0:0:0:0:
192,192,10337,1,0,0:0:0:0:
192,192,10480,1,8,0:0:0:0:
320,192,10480,1,0,0:0:0:0:
320,192,10623,1,8,0:0:0:0:
448,192,10623,1,0,0:0:0:0:
64,192,10694,1,0,0:0:0:0:
192,192,10765,1,0,0:0:0:0:
320,192,10836,1,0,0:0:0:0:
64,192,10908,1,8,0:0:0:0:
192,192,10908,1,0,0:0:0:0:
448,192,10979,1,0,0:0:0:0:
320,192,11050,1,0,0:0:0:0:
192,192,11121,1,0,0:0:0:0:
64,192,11193,1,8,0:0:0:0:
448,192,11193,1,0,0:0:0:0:
192,192,11264,1,8,0:0:0:0:
320,192,11264,1,0,0:0:0:0:
64,192,11335,1,8,0:0:0:0:
448,192,11335,1,0,0:0:0:0:
192,192,11406,1,8,0:0:0:0:
320,192,11406,1,0,0:0:0:0:
64,192,11478,1,8,0:0:0:0:
448,192,11478,1,0,0:0:0:0:
64,192,11620,1,8,0:0:0:0:
192,192,11620,1,0,0:0:0:0:
320,192,11691,1,8,0:0:0:0:
448,192,11691,1,0,0:0:0:0:
64,192,11834,1,8,0:0:0:0:
192,192,11834,1,0,0:0:0:0:
320,192,11905,1,8,0:0:0:0:
448,192,11905,1,0,0:0:0:0:
64,192,12048,1,8,0:0:0:0:
320,192,12083,1,8,0:0:0:0:
448,192,12119,1,8,0:0:0:0:
192,192,12190,1,8,0:0:0:0:
320,192,12261,1,8,0:0:0:0:
64,192,12404,1,8,0:0:0:0:
320,192,12475,1,8,0:0:0:0:
192,192,12547,1,8,0:0:0:0:
320,192,12618,1,8,0:0:0:0:
448,192,12618,1,0,0:0:0:0:
64,192,12760,1,8,0:0:0:0:
192,192,12760,1,0,0:0:0:0:
320,192,12832,1,8,0:0:0:0:
448,192,12832,1,0,0:0:0:0:
64,192,12974,1,8,0:0:0:0:
192,192,12974,1,0,0:0:0:0:
320,192,13045,1,8,0:0:0:0:
448,192,13045,1,0,0:0:0:0:
64,192,13188,1,8,0:0:0:0:
192,192,13223,1,8,0:0:0:0:
320,192,13259,1,8,0:0:0:0:
64,192,13330,1,8,0:0:0:0:
192,192,13366,1,8,0:0:0:0:
320,192,13402,1,8,0:0:0:0:
192,192,13473,1,8,0:0:0:0:
320,192,13509,1,8,0:0:0:0:
448,192,13544,1,8,0:0:0:0:
192,192,13615,1,8,0:0:0:0:
320,192,13651,1,8,0:0:0:0:
448,192,13687,1,8,0:0:0:0:
64,192,13758,1,8,0:0:0:0:
192,192,13758,1,0,0:0:0:0:
320,192,13900,1,8,0:0:0:0:
448,192,13900,1,0,0:0:0:0:
64,192,13972,1,8,0:0:0:0:
192,192,13972,1,0,0:0:0:0:
320,192,14114,1,8,0:0:0:0:
448,192,14114,1,0,0:0:0:0:
64,192,14185,1,8,0:0:0:0:
192,192,14185,1,0,0:0:0:0:
448,192,14328,1,8,0:0:0:0:
192,192,14364,1,8,0:0:0:0:
64,192,14399,1,8,0:0:0:0:
320,192,14471,1,8,0:0:0:0:
192,192,14542,1,8,0:0:0:0:
448,192,14684,1,8,0:0:0:0:
192,192,14756,1,8,0:0:0:0:
320,192,14827,1,8,0:0:0:0:
64,192,14898,1,8,0:0:0:0:
448,192,14898,1,0,0:0:0:0:
192,192,15041,1,8,0:0:0:0:
320,192,15041,1,0,0:0:0:0:
64,192,15112,1,8,0:0:0:0:
448,192,15112,1,0,0:0:0:0:
192,192,15254,1,8,0:0:0:0:
320,192,15254,1,0,0:0:0:0:
64,192,15326,1,8,0:0:0:0:
448,192,15326,1,0,0:0:0:0:
448,192,15468,1,8,0:0:0:0:
320,192,15504,1,8,0:0:0:0:
192,192,15539,1,8,0:0:0:0:
448,192,15611,1,8,0:0:0:0:
320,192,15646,1,8,0:0:0:0:
192,192,15682,1,8,0:0:0:0:
320,192,15753,1,8,0:0:0:0:
192,192,15789,1,8,0:0:0:0:
64,192,15824,1,8,0:0:0:0:
320,192,15896,1,8,0:0:0:0:
192,192,15931,1,8,0:0:0:0:
64,192,15967,1,8,0:0:0:0:
448,192,16038,1,8,0:0:0:0:
320,192,16074,1,8,0:0:0:0:
192,192,16109,1,8,0:0:0:0:
64,192,16181,1,0,0:0:0:0:
448,192,16252,1,0,0:0:0:0:
64,192,16323,1,8,0:0:0:0:
192,192,16359,1,8,0:0:0:0:
320,192,16395,1,8,0:0:0:0:
448,192,16466,1,0,0:0:0:0:
64,192,16537,1,0,0:0:0:0:
448,192,16608,1,8,0:0:0:0:
320,192,16644,1,8,0:0:0:0:
192,192,16680,1,8,0:0:0:0:
64,192,16751,1,0,0:0:0:0:
448,192,16822,1,0,0:0:0:0:
64,192,16893,1,8,0:0:0:0:
192,192,16929,1,8,0:0:0:0:
320,192,16965,1,8,0:0:0:0:
448,192,17036,1,0,0:0:0:0:
64,192,17107,1,0,0:0:0:0:
320,192,17178,1,8,0:0:0:0:
448,192,17214,1,8,0:0:0:0:
192,192,17250,1,8,0:0:0:0:
448,192,17321,1,0,0:0:0:0:
320,192,17392,1,0,0:0:0:0:
192,192,17463,1,8,0:0:0:0:
64,192,17499,1,8,0:0:0:0:
320,192,17535,1,8,0:0:0:0:
64,192,17606,1,0,0:0:0:0:
192,192,17677,1,0,0:0:0:0:
320,192,17748,1,8,0:0:0:0:
448,192,17784,1,8,0:0:0:0:
192,192,17820,1,8,0:0:0:0:
448,192,17891,1,0,0:0:0:0:
320,192,17962,1,0,0:0:0:0:
192,192,18033,1,8,0:0:0:0:
64,192,18069,1,8,0:0:0:0:
320,192,18105,1,8,0:0:0:0:
64,192,18176,1,0,0:0:0:0:
192,192,18247,1,0,0:0:0:0:
64,192,18318,128,0,18461:0:0:0:0:
320,192,18318,1,0,0:0:0:0:
192,192,18461,1,0,0:0:0:0:
448,192,18461,128,0,18604:0:0:0:0:
64,192,18604,1,0,0:0:0:0:
320,192,18604,128,0,18746:0:0:0:0:
192,192,18746,128,0,18889:0:0:0:0:
448,192,18746,1,0,0:0:0:0:
64,192,18889,128,0,19031:0:0:0:0:
320,192,18889,1,0,0:0:0:0:
192,192,19031,1,0,0:0:0:0:
448,192,19031,128,0,19174:0:0:0:0:
64,192,19174,1,0,0:0:0:0:
320,192,19174,128,0,19316:0:0:0:0:
192,192,19316,128,0,19459:0:0:0:0:
448,192,19316,1,0,0:0:0:0:
64,192,19459,128,0,20029:0:0:0:0:
448,192,19459,1,0,0:0:0:0:
320,192,19506,1,0,0:0:0:0:
192,192,19554,1,0,0:0:0:0:
448,192,19601,1,0,0:0:0:0:
320,192,19649,1,0,0:0:0:0:
192,192,19696,1,0,0:0:0:0:
448,192,19744,1,0,0:0:0:0:
320,192,19791,1,0,0:0:0:0:
192,192,19839,1,0,0:0:0:0:
448,192,19886,1,0,0:0:0:0:
320,192,19934,1,0,0:0:0:0:
192,192,19981,1,0,0:0:0:0:
448,192,20029,128,0,20599:0:0:0:0:
64,192,20171,128,0,20314:0:0:0:0:
192,192,20314,128,0,20456:0:0:0:0:
320,192,20456,128,0,20599:0:0:0:0:
64,192,20599,1,8,0:0:0:0:
192,192,20599,1,0,0:0:0:0:
448,192,20670,1,0,0:0:0:0:
192,192,20741,1,0,0:0:0:0:
320,192,20813,1,0,0:0:0:0:
64,192,20884,1,8,0:0:0:0:
448,192,20884,1,0,0:0:0:0:
320,192,20955,1,0,0:0:0:0:
192,192,21026,128,0,21169:0:0:0:0:
64,192,21169,1,8,0:0:0:0:
448,192,21169,1,0,0:0:0:0:
192,192,21240,1,0,0:0:0:0:
320,192,21311,128,0,21454:0:0:0:0:
64,192,21454,128,8,21596:0:0:0:0:
448,192,21454,128,0,21596:0:0:0:0:
192,192,21596,1,0,0:0:0:0:
320,192,21668,1,0,0:0:0:0:
64,192,21739,128,8,21881:0:0:0:0:
192,192,21739,1,0,0:0:0:0:
320,192,21881,128,0,22024:0:0:0:0:
64,192,22024,1,8,0:0:0:0:
448,192,22024,1,0,0:0:0:0:
320,192,22095,1,0,0:0:0:0:
192,192,22166,128,0,22309:0:0:0:0:
320,192,22309,1,8,0:0:0:0:
448,192,22309,128,0,22452:0:0:0:0:
192,192,22452,1,0,0:0:0:0:
320,192,22523,1,0,0:0:0:0:
64,192,22594,1,8,0:0:0:0:
448,192,22594,128,0,22665:0:0:0:0:
320,192,22665,128,0,22737:0:0:0:0:
192,192,22737,128,0,22808:0:0:0:0:
64,192,22808,128,0,22879:0:0:0:0:
320,192,22879,1,8,0:0:0:0:
448,192,22879,1,0,0:0:0:0:
64,192,22950,1,0,0:0:0:0:
320,192,23022,1,0,0:0:0:0:
192,192,23093,1,0,0:0:0:0:
64,192,23164,1,8,0:0:0:0:
448,192,23164,1,0,0:0:0:0:
192,192,23235,1,0,0:0:0:0:
320,192,23307,128,0,23449:0:0:0:0:
64,192,23449,1,8,0:0:0:0:
448,192,23449,1,0,0:0:0:0:
320,192,23520,1,0,0:0:0:0:
192,192,23592,128,0,23734:0:0:0:0:
64,192,23734,1,8,0:0:0:0:
448,192,23734,128,0,23877:0:0:0:0:
320,192,23805,128,0,23877:0:0:0:0:
64,192,23877,1,0,0:0:0:0:
192,192,23948,1,0,0:0:0:0:
320,192,24019,1,8,0:0:0:0:
448,192,24019,128,0,24162:0:0:0:0:
192,192,24162,128,0,24304:0:0:0:0:
64,192,24304,1,8,0:0:0:0:
448,192,24304,1,0,0:0:0:0:
192,192,24376,1,0,0:0:0:0:
320,192,24447,128,0,24589:0:0:0:0:
64,192,24589,128,8,24732:0:0:0:0:
192,192,24589,1,0,0:0:0:0:
320,192,24732,1,0,0:0:0:0:
192,192,24803,1,0,0:0:0:0:
64,192,24874,128,8,24946:0:0:0:0:
448,192,24874,128,0,24946:0:0:0:0:
320,192,24946,128,0,25017:0:0:0:0:
192,192,25017,128,0,25088:0:0:0:0:
448,192,25088,128,0,25159:0:0:0:0:
64,192,25159,1,8,0:0:0:0:
192,192,25159,1,0,0:0:0:0:
320,192,25231,1,8,0:0:0:0:
448,192,25231,1,0,0:0:0:0:
64,192,25302,1,8,0:0:0:0:
192,192,25302,1,0,0:0:0:0:
64,192,25444,1,8,0:0:0:0:
448,192,25444,1,4,0:0:0:0:
192,192,25516,1,0,0:0:0:0:
320,192,25587,128,0,25729:0:0:0:0:
64,192,25729,1,8,0:0:0:0:
448,192,25729,1,0,0:0:0:0:
320,192,25801,1,0,0:0:0:0:
192,192,25872,128,0,26014:0:0:0:0:
64,192,26014,128,8,26157:0:0:0:0:
448,192,26014,128,0,26157:0:0:0:0:
320,192,26157,1,0,0:0:0:0:
192,192,26228,1,0,0:0:0:0:
320,192,26299,1,8,0:0:0:0:
448,192,26299,128,0,26442:0:0:0:0:
192,192,26442,128,0,26585:0:0:0:0:
64,192,26585,1,8,0:0:0:0:
448,192,26585,1,0,0:0:0:0:
192,192,26656,1,0,0:0:0:0:
320,192,26727,128,0,26870:0:0:0:0:
64,192,26870,128,8,27012:0:0:0:0:
192,192,26870,1,0,0:0:0:0:
320,192,27012,1,0,0:0:0:0:
192,192,27083,1,0,0:0:0:0:
64,192,27155,1,8,0:0:0:0:
448,192,27155,128,0,27226:0:0:0:0:
320,192,27226,128,0,27297:0:0:0:0:
192,192,27297,128,0,27368:0:0:0:0:
64,192,27368,128,0,27440:0:0:0:0:
320,192,27440,1,8,0:0:0:0:
448,192,27440,1,0,0:0:0:0:
192,192,27582,1,8,0:0:0:0:
320,192,27582,1,0,0:0:0:0:
64,192,27725,1,8,0:0:0:0:
192,192,27725,1,0,0:0:0:0:
448,192,27725,1,0,0:0:0:0:
64,192,27867,128,0,28010:0:0:0:0:
192,192,28010,1,8,0:0:0:0:
320,192,28045,1,8,0:0:0:0:
448,192,28081,1,8,0:0:0:0:
64,192,28152,1,8,0:0:0:0:
192,192,28152,1,0,0:0:0:0:
320,192,28223,1,8,0:0:0:0:
448,192,28223,1,0,0:0:0:0:
64,192,28295,128,0,28580:0:0:0:0:
320,192,28437,1,8,0:0:0:0:
448,192,28437,1,0,0:0:0:0:
320,192,28580,1,8,0:0:0:0:
448,192,28580,1,0,0:0:0:0:
64,192,28651,1,0,0:0:0:0:
192,192,28722,1,8,0:0:0:0:
448,192,28722,1,0,0:0:0:0:
320,192,28794,1,0,0:0:0:0:
64,192,28865,1,8,0:0:0:0:
448,192,28865,1,0,0:0:0:0:
192,192,28936,1,0,0:0:0:0:
448,192,29007,1,0,0:0:0:0:
320,192,29079,1,0,0:0:0:0:
192,192,29150,1,8,0:0:0:0:
448,192,29150,1,0,0:0:0:0:
64,192,29221,1,8,0:0:0:0:
320,192,29221,1,0,0:0:0:0:
192,192,29292,1,0,0:0:0:0:
64,192,29364,1,8,0:0:0:0:
448,192,29364,1,0,0:0:0:0:
320,192,29435,1,0,0:0:0:0:
192,192,29506,1,0,0:0:0:0:
64,192,29577,1,8,0:0:0:0:
448,192,29577,1,0,0:0:0:0:
320,192,29649,1,0,0:0:0:0:
64,192,29720,128,8,30076:0:0:0:0:
192,192,29720,1,0,0:0:0:0:
448,192,29720,128,0,30076:0:0:0:0:
192,192,30076,1,8,0:0:0:0:
320,192,30076,1,0,0:0:0:0:
192,192,30219,1,8,0:0:0:0:
320,192,30219,1,0,0:0:0:0:
64,192,30290,1,8,0:0:0:0:
448,192,30290,1,2,0:0:0:0:
192,192,30361,1,0,0:0:0:0:
320,192,30433,1,0,0:0:0:0:
64,192,30504,1,0,0:0:0:0:
320,192,30575,1,0,0:0:0:0:
192,192,30646,1,0,0:0:0:0:
448,192,30718,1,0,0:0:0:0:
320,192,30789,1,0,0:0:0:0:
64,192,30860,1,8,0:0:0:0:
192,192,30860,1,0,0:0:0:0:
320,192,30931,1,0,0:0:0:0:
64,192,31003,1,0,0:0:0:0:
448,192,31074,1,0,0:0:0:0:
192,192,31145,1,0,0:0:0:0:
320,192,31216,1,0,0:0:0:0:
64,192,31288,1,0,0:0:0:0:
192,192,31359,1,0,0:0:0:0:
320,192,31430,128,8,31573:0:0:0:0:
448,192,31430,128,2,31573:0:0:0:0:
64,192,31573,128,0,31715:0:0:0:0:
192,192,31573,128,0,31715:0:0:0:0:
320,192,31715,128,0,32000:0:0:0:0:
448,192,31715,128,0,32000:0:0:0:0:
64,192,32000,1,8,0:0:0:0:
192,192,32000,1,0,0:0:0:0:
320,192,32190,1,8,0:0:0:0:
448,192,32190,1,0,0:0:0:0:
192,192,32380,1,8,0:0:0:0:
320,192,32380,1,0,0:0:0:0:
64,192,32570,1,8,0:0:0:0:
192,192,32570,1,2,0:0:0:0:
448,192,32642,1,0,0:0:0:0:
64,192,32713,1,0,0:0:0:0:
320,192,32784,1,0,0:0:0:0:
192,192,32855,1,0,0:0:0:0:
448,192,32927,1,0,0:0:0:0:
64,192,32998,1,0,0:0:0:0:
192,192,33069,1,0,0:0:0:0:
320,192,33140,128,8,33212:0:0:0:0:
448,192,33140,128,0,33212:0:0:0:0:
320,192,33283,128,8,33354:0:0:0:0:
448,192,33283,128,0,33354:0:0:0:0:
320,192,33425,128,8,33568:0:0:0:0:
448,192,33425,128,0,33568:0:0:0:0:
192,192,33568,128,0,33710:0:0:0:0:
64,192,33710,1,8,0:0:0:0:
320,192,33710,1,2,0:0:0:0:
448,192,33710,1,0,0:0:0:0:
192,192,33853,1,8,0:0:0:0:
320,192,33853,1,0,0:0:0:0:
64,192,33995,1,8,0:0:0:0:
448,192,33995,128,0,34209:0:0:0:0:
320,192,34067,128,0,34209:0:0:0:0:
192,192,34138,128,0,34280:0:0:0:0:
64,192,34209,128,0,34280:0:0:0:0:
320,192,34280,128,8,34566:0:0:0:0:
448,192,34280,128,0,34566:0:0:0:0:
64,192,34566,128,8,34708:0:0:0:0:
192,192,34566,128,0,34708:0:0:0:0:
320,192,34708,128,0,34779:0:0:0:0:
64,192,34851,1,8,0:0:0:0:
448,192,34851,1,2,0:0:0:0:
192,192,34922,1,0,0:0:0:0:
448,192,34993,1,0,0:0:0:0:
64,192,35064,1,0,0:0:0:0:
320,192,35136,1,0,0:0:0:0:
192,192,35207,1,0,0:0:0:0:
448,192,35278,1,0,0:0:0:0:
320,192,35349,1,0,0:0:0:0:
64,192,35421,128,8,35516:0:0:0:0:
192,192,35421,128,0,35516:0:0:0:0:
448,192,35516,128,0,35611:0:0:0:0:
192,192,35611,128,0,35706:0:0:0:0:
448,192,35706,128,0,35801:0:0:0:0:
192,192,35801,128,0,35896:0:0:0:0:
448,192,35896,128,0,35991:0:0:0:0:
64,192,35991,1,8,0:0:0:0:
192,192,35991,1,2,0:0:0:0:
448,192,36062,1,0,0:0:0:0:
64,192,36133,1,0,0:0:0:0:
448,192,36204,1,0,0:0:0:0:
192,192,36276,1,0,0:0:0:0:
320,192,36347,1,0,0:0:0:0:
64,192,36418,1,0,0:0:0:0:
192,192,36490,1,0,0:0:0:0:
320,192,36561,1,8,0:0:0:0:
448,192,36561,1,0,0:0:0:0:
64,192,36751,1,8,0:0:0:0:
192,192,36751,1,0,0:0:0:0:
192,192,36941,1,8,0:0:0:0:
320,192,36941,1,0,0:0:0:0:
64,192,37131,1,8,0:0:0:0:
192,192,37131,1,2,0:0:0:0:
448,192,37131,1,0,0:0:0:0:
192,192,37321,1,8,0:0:0:0:
320,192,37321,1,0,0:0:0:0:
320,192,37511,1,8,0:0:0:0:
448,192,37511,1,0,0:0:0:0:
64,192,37701,1,8,0:0:0:0:
192,192,37701,1,0,0:0:0:0:
320,192,37772,1,0,0:0:0:0:
448,192,37843,1,0,0:0:0:0:
192,192,37915,1,0,0:0:0:0:
64,192,37986,1,0,0:0:0:0:
448,192,38057,1,0,0:0:0:0:
192,192,38128,1,0,0:0:0:0:
320,192,38200,1,0,0:0:0:0:
448,192,38271,128,8,38366:0:0:0:0:
320,192,38366,128,0,38461:0:0:0:0:
192,192,38461,128,0,38556:0:0:0:0:
64,192,38556,128,0,38651:0:0:0:0:
192,192,38651,128,0,38746:0:0:0:0:
320,192,38746,128,0,38841:0:0:0:0:
64,192,38841,1,8,0:0:0:0:
192,192,38841,1,0,0:0:0:0:
448,192,38841,128,0,39411:0:0:0:0:
192,192,38984,1,0,0:0:0:0:
64,192,39126,1,8,0:0:0:0:
320,192,39126,1,0,0:0:0:0:
192,192,39269,1,0,0:0:0:0:
64,192,39411,1,8,0:0:0:0:
320,192,39411,1,0,0:0:0:0:
192,192,39554,128,0,39696:0:0:0:0:
64,192,39696,1,8,0:0:0:0:
448,192,39696,128,0,39839:0:0:0:0:
320,192,39839,128,0,40551:0:0:0:0:
64,192,39981,1,8,0:0:0:0:
192,192,39981,1,0,0:0:0:0:
192,192,40124,1,0,0:0:0:0:
64,192,40266,1,8,0:0:0:0:
448,192,40266,1,0,0:0:0:0:
192,192,40409,1,0,0:0:0:0:
64,192,40551,1,8,0:0:0:0:
448,192,40551,128,0,40694:0:0:0:0:
320,192,40694,128,0,40836:0:0:0:0:
64,192,40836,1,8,0:0:0:0:
192,192,40836,128,0,41074:0:0:0:0:
448,192,40884,128,0,40979:0:0:0:0:
320,192,40931,128,0,41026:0:0:0:0:
64,192,40979,128,0,41121:0:0:0:0:
320,192,41121,128,8,41834:0:0:0:0:
448,192,41121,1,0,0:0:0:0:
192,192,41264,1,0,0:0:0:0:
64,192,41406,1,8,0:0:0:0:
448,192,41406,1,0,0:0:0:0:
192,192,41549,1,0,0:0:0:0:
64,192,41691,1,8,0:0:0:0:
448,192,41691,1,0,0:0:0:0:
192,192,41834,128,0,41976:0:0:0:0:
64,192,41976,128,8,42119:0:0:0:0:
448,192,41976,1,0,0:0:0:0:
192,192,42119,128,0,42832:0:0:0:0:
320,192,42261,1,8,0:0:0:0:
448,192,42261,1,0,0:0:0:0:
320,192,42404,1,0,0:0:0:0:
64,192,42547,1,8,0:0:0:0:
448,192,42547,1,0,0:0:0:0:
320,192,42689,1,0,0:0:0:0:
64,192,42832,1,8,0:0:0:0:
448,192,42832,1,0,0:0:0:0:
320,192,42974,1,0,0:0:0:0:
64,192,43117,128,8,43259:0:0:0:0:
448,192,43117,1,0,0:0:0:0:
192,192,43259,128,0,43402:0:0:0:0:
320,192,43402,128,8,43972:0:0:0:0:
448,192,43402,1,0,0:0:0:0:
192,192,43544,1,0,0:0:0:0:
64,192,43687,1,8,0:0:0:0:
448,192,43687,1,0,0:0:0:0:
192,192,43829,1,0,0:0:0:0:
64,192,43972,1,8,0:0:0:0:
448,192,43972,1,0,0:0:0:0:
192,192,44114,128,0,44257:0:0:0:0:
64,192,44257,1,8,0:0:0:0:
320,192,44257,128,0,44399:0:0:0:0:
448,192,44399,128,0,45112:0:0:0:0:
64,192,44542,1,8,0:0:0:0:
192,192,44542,1,0,0:0:0:0:
192,192,44684,1,0,0:0:0:0:
64,192,44827,1,8,0:0:0:0:
320,192,44827,1,0,0:0:0:0:
192,192,44969,1,0,0:0:0:0:
64,192,45112,1,8,0:0:0:0:
320,192,45112,128,0,45254:0:0:0:0:
448,192,45254,128,0,45397:0:0:0:0:
64,192,45397,128,8,45682:0:0:0:0:
192,192,45397,1,0,0:0:0:0:
448,192,45444,128,0,45539:0:0:0:0:
320,192,45492,128,0,45587:0:0:0:0:
192,192,45539,128,0,45634:0:0:0:0:
320,192,45682,1,8,0:0:0:0:
448,192,45682,1,0,0:0:0:0:
192,192,45753,1,0,0:0:0:0:
64,192,45824,1,0,0:0:0:0:
320,192,45896,1,0,0:0:0:0:
64,192,45967,1,8,0:0:0:0:
192,192,45967,1,0,0:0:0:0:
448,192,46038,1,0,0:0:0:0:
320,192,46109,1,0,0:0:0:0:
192,192,46181,1,0,0:0:0:0:
64,192,46252,1,8,0:0:0:0:
448,192,46252,1,0,0:0:0:0:
320,192,46323,1,0,0:0:0:0:
192,192,46395,1,0,0:0:0:0:
64,192,46466,1,0,0:0:0:0:
320,192,46537,1,8,0:0:0:0:
448,192,46537,1,0,0:0:0:0:
192,192,46608,1,0,0:0:0:0:
64,192,46680,1,0,0:0:0:0:
320,192,46751,1,0,0:0:0:0:
64,192,46822,1,8,0:0:0:0:
192,192,46822,1,0,0:0:0:0:
448,192,46893,1,0,0:0:0:0:
64,192,46965,1,8,0:0:0:0:
320,192,46965,1,0,0:0:0:0:
192,192,47036,1,0,0:0:0:0:
320,192,47107,1,8,0:0:0:0:
448,192,47107,1,0,0:0:0:0:
64,192,47178,1,0,0:0:0:0:
192,192,47250,1,8,0:0:0:0:
320,192,47250,1,0,0:0:0:0:
448,192,47321,1,0,0:0:0:0:
64,192,47392,1,8,0:0:0:0:
192,192,47392,1,2,0:0:0:0:
320,192,47463,1,8,0:0:0:0:
448,192,47463,1,0,0:0:0:0:
64,192,47535,1,0,0:0:0:0:
320,192,47606,1,8,0:0:0:0:
448,192,47606,1,0,0:0:0:0:
64,192,47677,1,8,0:0:0:0:
192,192,47677,1,2,0:0:0:0:
448,192,47748,1,0,0:0:0:0:
64,192,47820,1,8,0:0:0:0:
192,192,47820,1,0,0:0:0:0:
320,192,47891,1,8,0:0:0:0:
448,192,47891,1,0,0:0:0:0:
64,192,47962,1,8,0:0:0:0:
192,192,47962,1,0,0:0:0:0:
192,192,48105,128,0,48247:0:0:0:0:
320,192,48176,128,0,48247:0:0:0:0:
64,192,48247,1,8,0:0:0:0:
448,192,48247,1,2,0:0:0:0:
320,192,48390,128,0,48461:0:0:0:0:
192,192,48532,1,8,0:0:0:0:
320,192,48532,128,0,48604:0:0:0:0:
320,192,48675,128,0,48817:0:0:0:0:
64,192,48817,1,2,0:0:0:0:
448,192,48817,1,8,0:0:0:0:
320,192,48960,128,0,49102:0:0:0:0:
192,192,49102,1,8,0:0:0:0:
448,192,49102,1,0,0:0:0:0:
192,192,49245,128,0,49387:0:0:0:0:
320,192,49316,128,0,49387:0:0:0:0:
64,192,49387,1,2,0:0:0:0:
448,192,49387,1,8,0:0:0:0:
320,192,49530,128,0,49601:0:0:0:0:
192,192,49672,1,8,0:0:0:0:
320,192,49672,128,0,49744:0:0:0:0:
320,192,49815,128,0,49886:0:0:0:0:
64,192,49957,1,2,0:0:0:0:
192,192,49957,128,8,50242:0:0:0:0:
320,192,50029,128,0,50242:0:0:0:0:
64,192,50242,1,8,0:0:0:0:
448,192,50242,1,0,0:0:0:0:
320,192,50385,128,0,50528:0:0:0:0:
192,192,50456,128,0,50528:0:0:0:0:
64,192,50528,1,2,0:0:0:0:
448,192,50528,1,8,0:0:0:0:
192,192,50670,128,0,50741:0:0:0:0:
192,192,50813,128,8,50884:0:0:0:0:
320,192,50813,1,0,0:0:0:0:
192,192,50955,128,0,51098:0:0:0:0:
64,192,51098,1,2,0:0:0:0:
448,192,51098,1,8,0:0:0:0:
192,192,51240,128,0,51383:0:0:0:0:
64,192,51383,1,8,0:0:0:0:
320,192,51383,1,0,0:0:0:0:
320,192,51525,128,0,51668:0:0:0:0:
192,192,51596,128,0,51668:0:0:0:0:
64,192,51668,1,2,0:0:0:0:
448,192,51668,1,8,0:0:0:0:
192,192,51810,128,0,51953:0:0:0:0:
320,192,51953,128,8,52024:0:0:0:0:
448,192,51953,1,0,0:0:0:0:
192,192,52024,128,0,52095:0:0:0:0:
320,192,52095,128,0,52166:0:0:0:0:
192,192,52166,128,0,52238:0:0:0:0:
64,192,52238,128,2,52309:0:0:0:0:
448,192,52238,128,8,52309:0:0:0:0:
192,192,52309,128,0,52380:0:0:0:0:
448,192,52380,128,0,52452:0:0:0:0:
320,192,52452,128,0,52523:0:0:0:0:
64,192,52523,1,8,0:0:0:0:
192,192,52523,1,0,0:0:0:0:
192,192,52665,128,0,52808:0:0:0:0:
320,192,52737,128,0,52808:0:0:0:0:
64,192,52808,1,2,0:0:0:0:
448,192,52808,1,8,0:0:0:0:
320,192,52950,128,0,53022:0:0:0:0:
64,192,53093,1,8,0:0:0:0:
320,192,53093,128,0,53164:0:0:0:0:
320,192,53235,128,0,53307:0:0:0:0:
64,192,53307,1,8,0:0:0:0:
192,192,53307,1,0,0:0:0:0:
320,192,53378,1,2,0:0:0:0:
448,192,53378,1,8,0:0:0:0:
320,192,53520,128,8,53663:0:0:0:0:
448,192,53520,1,0,0:0:0:0:
64,192,53663,1,8,0:0:0:0:
192,192,53663,1,0,0:0:0:0:
320,192,53805,128,0,53948:0:0:0:0:
192,192,53877,128,0,53948:0:0:0:0:
64,192,53948,1,8,0:0:0:0:
448,192,53948,1,2,0:0:0:0:
192,192,54090,128,0,54162:0:0:0:0:
192,192,54233,128,8,54304:0:0:0:0:
448,192,54233,1,0,0:0:0:0:
192,192,54376,128,0,54447:0:0:0:0:
320,192,54447,1,8,0:0:0:0:
448,192,54447,1,0,0:0:0:0:
64,192,54518,1,2,0:0:0:0:
192,192,54518,128,0,54803:0:0:0:0:
320,192,54661,1,8,0:0:0:0:
448,192,54661,1,0,0:0:0:0:
64,192,54803,1,8,0:0:0:0:
320,192,54803,1,4,0:0:0:0:
448,192,54803,1,0,0:0:0:0:
192,192,55017,1,8,0:0:0:0:
320,192,55017,1,4,0:0:0:0:
448,192,55017,1,0,0:0:0:0:
192,192,55231,1,8,0:0:0:0:
320,192,55231,1,4,0:0:0:0:
448,192,55231,1,0,0:0:0:0:
64,192,55373,1,8,0:0:0:0:
320,192,55373,1,4,0:0:0:0:
448,192,55373,1,0,0:0:0:0:
64,192,55587,1,8,0:0:0:0:
192,192,55587,1,4,0:0:0:0:
320,192,55587,1,0,0:0:0:0:
64,192,55801,1,8,0:0:0:0:
192,192,55801,1,4,0:0:0:0:
320,192,55801,1,0,0:0:0:0:
64,192,55943,1,8,0:0:0:0:
192,192,55943,1,4,0:0:0:0:
448,192,55943,1,0,0:0:0:0:
64,192,56157,1,8,0:0:0:0:
192,192,56157,1,4,0:0:0:0:
448,192,56157,1,0,0:0:0:0:
64,192,56371,1,8,0:0:0:0:
192,192,56371,1,4,0:0:0:0:
448,192,56371,1,0,0:0:0:0:
64,192,56513,1,0,0:0:0:40:TL.wav
448,192,56513,1,0,0:0:0:0:
192,192,56585,1,0,0:0:0:0:
320,192,56656,1,0,0:0:0:0:
64,192,56727,1,0,0:0:0:40:TM.wav
192,192,56727,1,0,0:0:0:0:
320,192,56798,1,0,0:0:0:40:TH.wav
448,192,56798,1,0,0:0:0:0:
192,192,56870,1,0,0:0:0:0:
320,192,56941,1,0,0:0:0:40:TL.wav
448,192,57012,1,0,0:0:0:0:
64,192,57083,1,8,0:0:0:0:
192,192,57083,1,0,0:0:0:0:
320,192,57226,128,0,57368:0:0:0:0:
192,192,57297,128,0,57368:0:0:0:0:
64,192,57368,1,8,0:0:0:0:
448,192,57368,1,0,0:0:0:0:
320,192,57511,1,8,0:0:0:0:
448,192,57547,1,8,0:0:0:0:
192,192,57582,1,8,0:0:0:0:
64,192,57618,1,8,0:0:0:0:
320,192,57653,1,8,0:0:0:0:
192,192,57725,1,8,0:0:0:0:
320,192,57867,1,8,0:0:0:0:
448,192,57867,1,0,0:0:0:0:
64,192,57938,1,8,0:0:0:0:
192,192,57938,1,0,0:0:0:0:
320,192,58010,1,8,0:0:0:0:
448,192,58010,1,0,0:0:0:0:
192,192,58081,128,8,58223:0:0:0:0:
64,192,58152,128,0,58295:0:0:0:0:
320,192,58223,128,0,58366:0:0:0:0:
192,192,58295,128,0,58437:0:0:0:0:
448,192,58366,128,0,58509:0:0:0:0:
320,192,58437,128,0,58509:0:0:0:0:
64,192,58509,1,8,0:0:0:0:
192,192,58509,1,0,0:0:0:0:
448,192,58651,1,8,0:0:0:0:
320,192,58687,1,8,0:0:0:0:
192,192,58722,1,8,0:0:0:0:
64,192,58758,1,8,0:0:0:0:
448,192,58794,1,8,0:0:0:0:
192,192,58865,1,8,0:0:0:0:
448,192,58936,1,8,0:0:0:0:
320,192,58972,1,8,0:0:0:0:
64,192,59007,1,8,0:0:0:0:
192,192,59043,1,8,0:0:0:0:
448,192,59079,128,8,59257:0:0:0:0:
320,192,59150,128,0,59292:0:0:0:0:
192,192,59221,128,0,59328:0:0:0:0:
64,192,59292,128,0,59364:0:0:0:0:
320,192,59364,1,8,0:0:0:0:
448,192,59364,1,0,0:0:0:0:
192,192,59506,128,0,59649:0:0:0:0:
320,192,59577,128,0,59649:0:0:0:0:
64,192,59649,1,8,0:0:0:0:
448,192,59649,1,0,0:0:0:0:
192,192,59791,1,8,0:0:0:0:
64,192,59827,1,8,0:0:0:0:
320,192,59862,1,8,0:0:0:0:
448,192,59898,1,8,0:0:0:0:
192,192,59934,1,8,0:0:0:0:
320,192,60005,1,8,0:0:0:0:
64,192,60147,1,8,0:0:0:0:
192,192,60147,1,0,0:0:0:0:
320,192,60219,1,8,0:0:0:0:
448,192,60219,1,0,0:0:0:0:
64,192,60290,1,8,0:0:0:0:
192,192,60290,1,0,0:0:0:0:
320,192,60361,128,8,60575:0:0:0:0:
448,192,60433,128,0,60646:0:0:0:0:
64,192,60504,128,0,60718:0:0:0:0:
192,192,60575,128,0,60718:0:0:0:0:
320,192,60646,128,0,60789:0:0:0:0:
448,192,60718,128,0,60789:0:0:0:0:
64,192,60789,1,8,0:0:0:0:
192,192,60789,1,0,0:0:0:0:
448,192,60931,1,8,0:0:0:0:
320,192,60967,1,8,0:0:0:0:
192,192,61003,1,8,0:0:0:0:
64,192,61038,1,8,0:0:0:0:
448,192,61074,1,0,0:0:0:40:TH.wav
192,192,61145,1,0,0:0:0:40:TH.wav
448,192,61216,1,0,0:0:0:40:TH.wav
64,192,61288,1,0,0:0:0:40:TM.wav
448,192,61359,1,0,0:0:0:40:TM.wav
192,192,61430,1,0,0:0:0:0:
320,192,61501,1,0,0:0:0:40:TL.wav
64,192,61573,1,0,0:0:0:0:
192,192,61644,1,8,0:0:0:0:
320,192,61644,1,4,0:0:0:0:
448,192,61644,1,0,0:0:0:0:
448,192,62499,1,0,0:0:0:0:
320,192,62642,1,0,0:0:0:0:
448,192,63354,1,0,0:0:0:0:
320,192,63497,1,0,0:0:0:0:
192,192,63639,1,0,0:0:0:0:
64,192,63782,1,0,0:0:0:0:
64,192,65634,1,0,0:0:0:0:
192,192,65919,1,0,0:0:0:0:
448,192,66204,1,0,0:0:0:0:
448,192,67060,1,0,0:0:0:0:
320,192,67202,1,0,0:0:0:0:
192,192,68200,1,0,0:0:0:0:
64,192,68342,1,0,0:0:0:0:
448,192,69055,1,0,0:0:0:0:
320,192,69625,1,0,0:0:0:0:
64,192,70195,1,0,0:0:0:0:
192,192,70337,1,0,0:0:0:40:TL.wav
448,192,70337,1,0,0:0:0:0:
320,192,70409,1,0,0:0:0:40:TL.wav
64,192,70480,1,8,0:0:0:0:
192,192,70480,1,0,0:0:0:0:
448,192,70480,1,0,0:0:0:0:
64,192,70765,1,8,0:0:0:0:
192,192,70765,1,0,0:0:0:0:
320,192,70908,1,8,0:0:0:0:
448,192,70908,1,0,0:0:0:0:
64,192,70979,1,8,0:0:0:0:
192,192,70979,1,0,0:0:0:0:
320,192,71121,1,8,0:0:0:0:
448,192,71121,1,0,0:0:0:0:
64,192,71193,1,8,0:0:0:0:
192,192,71193,1,0,0:0:0:0:
448,192,71335,1,8,0:0:0:0:
192,192,71371,1,8,0:0:0:0:
64,192,71406,1,8,0:0:0:0:
320,192,71478,1,8,0:0:0:0:
192,192,71549,1,8,0:0:0:0:
448,192,71691,1,8,0:0:0:0:
192,192,71763,1,8,0:0:0:0:
320,192,71834,1,8,0:0:0:0:
64,192,71905,1,8,0:0:0:0:
192,192,71905,1,0,0:0:0:0:
320,192,72048,1,8,0:0:0:0:
448,192,72048,1,0,0:0:0:0:
64,192,72119,1,8,0:0:0:0:
192,192,72119,1,0,0:0:0:0:
320,192,72261,1,8,0:0:0:0:
448,192,72261,1,0,0:0:0:0:
64,192,72333,1,8,0:0:0:0:
192,192,72333,1,0,0:0:0:0:
448,192,72475,1,8,0:0:0:0:
320,192,72511,1,8,0:0:0:0:
192,192,72547,1,8,0:0:0:0:
448,192,72618,1,8,0:0:0:0:
320,192,72653,1,8,0:0:0:0:
192,192,72689,1,8,0:0:0:0:
320,192,72760,1,8,0:0:0:0:
192,192,72796,1,8,0:0:0:0:
64,192,72832,1,8,0:0:0:0:
320,192,72903,1,8,0:0:0:0:
192,192,72938,1,8,0:0:0:0:
64,192,72974,1,8,0:0:0:0:
320,192,73045,1,8,0:0:0:0:
448,192,73045,1,0,0:0:0:0:
64,192,73188,1,8,0:0:0:0:
192,192,73188,1,0,0:0:0:0:
320,192,73259,1,8,0:0:0:0:
448,192,73259,1,0,0:0:0:0:
64,192,73402,1,8,0:0:0:0:
192,192,73402,1,0,0:0:0:0:
320,192,73473,1,8,0:0:0:0:
448,192,73473,1,0,0:0:0:0:
64,192,73615,1,8,0:0:0:0:
320,192,73651,1,8,0:0:0:0:
448,192,73687,1,8,0:0:0:0:
192,192,73758,1,8,0:0:0:0:
320,192,73829,1,8,0:0:0:0:
448,192,73972,1,8,0:0:0:0:
192,192,74043,1,8,0:0:0:0:
320,192,74114,1,8,0:0:0:0:
64,192,74185,1,8,0:0:0:0:
448,192,74185,1,0,0:0:0:0:
192,192,74328,1,8,0:0:0:0:
320,192,74328,1,0,0:0:0:0:
64,192,74399,1,8,0:0:0:0:
448,192,74399,1,0,0:0:0:0:
192,192,74542,1,8,0:0:0:0:
320,192,74542,1,0,0:0:0:0:
64,192,74613,1,8,0:0:0:0:
448,192,74613,1,0,0:0:0:0:
64,192,74756,1,8,0:0:0:0:
192,192,74791,1,8,0:0:0:0:
320,192,74827,1,8,0:0:0:0:
64,192,74898,1,8,0:0:0:0:
192,192,74934,1,8,0:0:0:0:
320,192,74969,1,8,0:0:0:0:
192,192,75041,1,8,0:0:0:0:
320,192,75076,1,8,0:0:0:0:
448,192,75112,1,8,0:0:0:0:
192,192,75183,1,8,0:0:0:0:
320,192,75219,1,8,0:0:0:0:
448,192,75254,1,8,0:0:0:0:
64,192,75326,1,8,0:0:0:0:
192,192,75361,1,8,0:0:0:0:
320,192,75397,1,8,0:0:0:0:
448,192,75468,1,0,0:0:0:0:
64,192,75539,1,0,0:0:0:0:
448,192,75611,1,8,0:0:0:0:
320,192,75646,1,8,0:0:0:0:
192,192,75682,1,8,0:0:0:0:
64,192,75753,1,0,0:0:0:0:
448,192,75824,1,0,0:0:0:0:
64,192,75896,1,8,0:0:0:0:
192,192,75931,1,8,0:0:0:0:
320,192,75967,1,8,0:0:0:0:
448,192,76038,1,0,0:0:0:0:
64,192,76109,1,0,0:0:0:0:
448,192,76181,1,8,0:0:0:0:
320,192,76216,1,8,0:0:0:0:
192,192,76252,1,8,0:0:0:0:
64,192,76323,1,0,0:0:0:0:
448,192,76395,1,0,0:0:0:0:
192,192,76466,1,8,0:0:0:0:
64,192,76501,1,8,0:0:0:0:
320,192,76537,1,8,0:0:0:0:
64,192,76608,1,0,0:0:0:0:
192,192,76680,1,0,0:0:0:0:
320,192,76751,1,8,0:0:0:0:
448,192,76786,1,8,0:0:0:0:
192,192,76822,1,8,0:0:0:0:
448,192,76893,1,0,0:0:0:0:
320,192,76965,1,0,0:0:0:0:
192,192,77036,1,8,0:0:0:0:
64,192,77071,1,8,0:0:0:0:
320,192,77107,1,8,0:0:0:0:
64,192,77178,1,0,0:0:0:0:
192,192,77250,1,0,0:0:0:0:
320,192,77321,1,8,0:0:0:0:
448,192,77357,1,8,0:0:0:0:
192,192,77392,1,8,0:0:0:0:
448,192,77463,1,0,0:0:0:0:
320,192,77535,1,0,0:0:0:0:
192,192,77606,1,8,0:0:0:0:
448,192,77606,128,0,77748:0:0:0:0:
64,192,77748,128,0,77891:0:0:0:0:
320,192,77748,1,0,0:0:0:0:
192,192,77891,128,0,78033:0:0:0:0:
448,192,77891,1,0,0:0:0:0:
64,192,78033,1,0,0:0:0:0:
320,192,78033,128,0,78176:0:0:0:0:
192,192,78176,1,0,0:0:0:0:
448,192,78176,128,0,78318:0:0:0:0:
64,192,78318,128,0,78461:0:0:0:0:
320,192,78318,1,0,0:0:0:0:
192,192,78461,128,0,78604:0:0:0:0:
448,192,78461,1,0,0:0:0:0:
64,192,78604,1,0,0:0:0:0:
320,192,78604,128,0,78746:0:0:0:0:
64,192,78746,1,0,0:0:0:0:
448,192,78746,128,0,79316:0:0:0:0:
192,192,78794,1,0,0:0:0:0:
320,192,78841,1,0,0:0:0:0:
64,192,78889,1,0,0:0:0:0:
192,192,78936,1,0,0:0:0:0:
320,192,78984,1,0,0:0:0:0:
64,192,79031,1,0,0:0:0:0:
192,192,79079,1,0,0:0:0:0:
320,192,79126,1,0,0:0:0:0:
64,192,79174,1,0,0:0:0:0:
192,192,79221,1,0,0:0:0:0:
320,192,79269,1,0,0:0:0:0:
64,192,79316,128,0,79459:0:0:0:0:
320,192,79459,128,0,79601:0:0:0:0:
448,192,79530,128,0,79601:0:0:0:0:
192,192,79601,128,0,79744:0:0:0:0:
448,192,79744,128,0,79886:0:0:0:0:
64,192,79886,1,8,0:0:0:0:
192,192,79886,1,0,0:0:0:0:
320,192,79886,1,0,0:0:0:0:
192,192,80029,1,0,0:0:0:0:
320,192,80100,1,0,0:0:0:0:
64,192,80171,1,8,0:0:0:0:
448,192,80171,1,2,0:0:0:0:
320,192,80242,1,0,0:0:0:0:
192,192,80314,1,0,0:0:0:0:
320,192,80456,1,8,0:0:0:0:
448,192,80456,1,0,0:0:0:0:
64,192,80528,1,0,0:0:0:0:
192,192,80599,1,0,0:0:0:0:
448,192,80670,1,0,0:0:0:0:
64,192,80741,1,8,0:0:0:0:
192,192,80741,1,2,0:0:0:0:
320,192,80813,1,0,0:0:0:0:
448,192,80884,1,0,0:0:0:0:
64,192,80955,1,0,0:0:0:0:
192,192,81026,1,8,0:0:0:0:
320,192,81026,1,0,0:0:0:0:
448,192,81026,1,0,0:0:0:0:
320,192,81169,1,0,0:0:0:0:
192,192,81240,1,0,0:0:0:0:
64,192,81311,1,2,0:0:0:0:
448,192,81311,1,8,0:0:0:0:
192,192,81383,1,0,0:0:0:0:
320,192,81454,1,0,0:0:0:0:
64,192,81596,1,8,0:0:0:0:
192,192,81596,1,0,0:0:0:0:
448,192,81668,1,0,0:0:0:0:
320,192,81739,1,0,0:0:0:0:
64,192,81810,1,0,0:0:0:0:
320,192,81881,1,8,0:0:0:0:
448,192,81881,1,2,0:0:0:0:
64,192,81953,1,0,0:0:0:0:
192,192,82024,1,0,0:0:0:0:
320,192,82095,1,0,0:0:0:0:
64,192,82166,1,8,0:0:0:0:
192,192,82166,1,0,0:0:0:0:
448,192,82166,1,0,0:0:0:0:
320,192,82309,1,0,0:0:0:0:
448,192,82380,1,0,0:0:0:0:
192,192,82452,1,2,0:0:0:0:
320,192,82452,1,8,0:0:0:0:
64,192,82523,1,0,0:0:0:0:
192,192,82594,1,0,0:0:0:0:
320,192,82737,1,8,0:0:0:0:
448,192,82737,1,0,0:0:0:0:
192,192,82808,1,0,0:0:0:0:
64,192,82879,1,0,0:0:0:0:
320,192,82950,1,0,0:0:0:0:
64,192,83022,1,8,0:0:0:0:
448,192,83022,1,2,0:0:0:0:
192,192,83093,1,0,0:0:0:0:
448,192,83164,1,0,0:0:0:0:
320,192,83235,1,0,0:0:0:0:
64,192,83307,1,8,0:0:0:0:
192,192,83307,1,0,0:0:0:0:
448,192,83307,1,0,0:0:0:0:
64,192,83449,1,8,0:0:0:0:
320,192,83449,1,0,0:0:0:0:
448,192,83449,1,0,0:0:0:0:
192,192,83592,1,10,0:0:0:0:
320,192,83663,1,0,0:0:0:0:
64,192,83734,1,8,0:0:0:0:
192,192,83734,1,0,0:0:0:0:
448,192,83734,1,0,0:0:0:0:
320,192,83877,1,0,0:0:0:0:
192,192,83948,1,0,0:0:0:0:
64,192,84019,1,8,0:0:0:0:
320,192,84019,1,0,0:0:0:0:
448,192,84019,1,0,0:0:0:0:
64,192,84162,1,2,0:0:0:0:
192,192,84162,1,8,0:0:0:0:
320,192,84233,1,8,0:0:0:0:
448,192,84233,1,0,0:0:0:0:
64,192,84304,1,8,0:0:0:0:
192,192,84304,1,0,0:0:0:0:
320,192,84376,1,8,0:0:0:0:
448,192,84376,1,0,0:0:0:0:
64,192,84447,1,8,0:0:0:0:
192,192,84447,1,0,0:0:0:0:
320,192,84589,1,8,0:0:0:0:
448,192,84589,1,0,0:0:0:0:
192,192,84661,1,0,0:0:0:0:
64,192,84732,1,2,0:0:0:0:
448,192,84732,1,8,0:0:0:0:
192,192,84803,1,0,0:0:0:0:
320,192,84874,1,0,0:0:0:0:
64,192,85017,1,8,0:0:0:0:
192,192,85017,1,0,0:0:0:0:
448,192,85088,1,0,0:0:0:0:
320,192,85159,1,0,0:0:0:0:
64,192,85231,1,0,0:0:0:0:
320,192,85302,1,8,0:0:0:0:
448,192,85302,1,2,0:0:0:0:
192,192,85373,1,0,0:0:0:0:
64,192,85444,1,0,0:0:0:0:
320,192,85516,1,0,0:0:0:0:
64,192,85587,1,8,0:0:0:0:
448,192,85587,1,0,0:0:0:0:
192,192,85658,1,8,0:0:0:0:
320,192,85658,1,0,0:0:0:0:
64,192,85729,1,8,0:0:0:0:
448,192,85729,1,0,0:0:0:0:
320,192,85801,1,0,0:0:0:0:
64,192,85872,1,8,0:0:0:0:
192,192,85872,1,2,0:0:0:0:
448,192,85943,1,0,0:0:0:0:
320,192,86014,1,0,0:0:0:0:
64,192,86157,1,8,0:0:0:0:
448,192,86157,1,0,0:0:0:0:
192,192,86228,1,0,0:0:0:0:
320,192,86299,1,0,0:0:0:0:
448,192,86371,1,0,0:0:0:0:
64,192,86442,1,2,0:0:0:0:
192,192,86442,1,8,0:0:0:0:
320,192,86513,1,0,0:0:0:0:
64,192,86585,1,0,0:0:0:0:
192,192,86656,1,0,0:0:0:0:
320,192,86727,1,8,0:0:0:0:
448,192,86727,1,0,0:0:0:0:
64,192,86870,1,8,0:0:0:0:
192,192,86870,1,0,0:0:0:0:
320,192,86941,1,0,0:0:0:0:
64,192,87012,1,8,0:0:0:0:
448,192,87012,1,2,0:0:0:0:
320,192,87083,1,0,0:0:0:0:
192,192,87155,1,0,0:0:0:0:
64,192,87226,1,8,0:0:0:0:
448,192,87226,1,0,0:0:0:0:
192,192,87297,1,8,0:0:0:0:
320,192,87297,1,0,0:0:0:0:
64,192,87368,1,0,0:0:0:0:
448,192,87440,1,0,0:0:0:0:
64,192,87511,1,8,0:0:0:0:
192,192,87511,1,0,0:0:0:0:
320,192,87582,1,8,0:0:0:0:
448,192,87582,1,2,0:0:0:0:
64,192,87653,1,8,0:0:0:0:
192,192,87725,1,8,0:0:0:0:
320,192,87796,1,8,0:0:0:0:
64,192,87867,1,8,0:0:0:0:
448,192,87867,1,0,0:0:0:0:
320,192,88010,1,8,0:0:0:0:
448,192,88010,1,0,0:0:0:0:
64,192,88152,1,8,0:0:0:0:
192,192,88152,1,2,0:0:0:0:
320,192,88223,1,0,0:0:0:0:
192,192,88295,1,8,0:0:0:0:
448,192,88295,1,0,0:0:0:0:
64,192,88366,1,8,0:0:0:0:
320,192,88366,1,0,0:0:0:0:
192,192,88437,1,0,0:0:0:0:
320,192,88509,1,8,0:0:0:0:
448,192,88509,1,0,0:0:0:0:
64,192,88580,1,8,0:0:0:0:
192,192,88580,1,0,0:0:0:0:
448,192,88651,1,0,0:0:0:0:
64,192,88722,1,8,0:0:0:0:
320,192,88722,1,2,0:0:0:0:
192,192,88794,1,0,0:0:0:0:
64,192,88865,1,8,0:0:0:0:
448,192,88865,1,0,0:0:0:0:
320,192,88936,1,0,0:0:0:0:
192,192,89007,128,0,89292:0:0:0:0:
64,192,89292,1,8,0:0:0:0:
320,192,89292,1,2,0:0:0:0:
448,192,89292,1,4,0:0:0:0:
192,192,89364,1,0,0:0:0:0:
320,192,89435,1,0,0:0:0:0:
64,192,89577,1,8,0:0:0:0:
192,192,89577,1,0,0:0:0:0:
448,192,89649,1,0,0:0:0:0:
320,192,89720,1,0,0:0:0:0:
64,192,89791,1,0,0:0:0:0:
320,192,89862,1,8,0:0:0:0:
448,192,89862,1,2,0:0:0:0:
192,192,89934,1,0,0:0:0:0:
64,192,90005,1,0,0:0:0:0:
448,192,90076,1,0,0:0:0:0:
64,192,90147,1,8,0:0:0:0:
192,192,90147,1,0,0:0:0:0:
320,192,90147,1,0,0:0:0:0:
192,192,90290,1,0,0:0:0:0:
320,192,90361,1,0,0:0:0:0:
64,192,90433,1,2,0:0:0:0:
448,192,90433,1,8,0:0:0:0:
320,192,90504,1,0,0:0:0:0:
192,192,90575,1,0,0:0:0:0:
320,192,90718,1,8,0:0:0:0:
448,192,90718,1,0,0:0:0:0:
64,192,90789,1,0,0:0:0:0:
192,192,90860,1,0,0:0:0:0:
448,192,90931,1,0,0:0:0:0:
64,192,91003,1,8,0:0:0:0:
192,192,91003,1,2,0:0:0:0:
448,192,91074,1,0,0:0:0:0:
320,192,91145,1,0,0:0:0:0:
192,192,91216,1,0,0:0:0:0:
64,192,91288,1,8,0:0:0:0:
320,192,91288,1,0,0:0:0:0:
448,192,91288,1,0,0:0:0:0:
192,192,91430,1,0,0:0:0:0:
64,192,91501,1,0,0:0:0:0:
192,192,91573,1,2,0:0:0:0:
320,192,91573,1,8,0:0:0:0:
448,192,91644,1,0,0:0:0:0:
320,192,91715,1,0,0:0:0:0:
64,192,91858,1,8,0:0:0:0:
192,192,91858,1,0,0:0:0:0:
320,192,91929,1,0,0:0:0:0:
448,192,92000,1,8,0:0:0:0:
320,192,92048,1,0,0:0:0:0:
192,192,92095,1,0,0:0:0:0:
64,192,92143,1,8,0:0:0:0:
448,192,92143,1,2,0:0:0:0:
192,192,92214,1,0,0:0:0:0:
448,192,92285,1,8,0:0:0:0:
320,192,92333,1,0,0:0:0:0:
192,192,92380,1,0,0:0:0:0:
64,192,92428,1,8,0:0:0:0:
448,192,92428,1,0,0:0:0:0:
192,192,92570,1,8,0:0:0:0:
320,192,92570,1,0,0:0:0:0:
64,192,92642,1,8,0:0:0:0:
448,192,92642,1,0,0:0:0:0:
192,192,92713,1,8,0:0:0:0:
320,192,92713,1,2,0:0:0:0:
64,192,92855,1,8,0:0:0:0:
448,192,92855,1,0,0:0:0:0:
192,192,92927,1,8,0:0:0:0:
320,192,92927,1,0,0:0:0:0:
64,192,92998,1,10,0:0:0:0:
320,192,93140,1,8,0:0:0:0:
448,192,93140,1,0,0:0:0:0:
64,192,93212,1,8,0:0:0:0:
192,192,93212,1,0,0:0:0:0:
320,192,93283,1,8,0:0:0:0:
448,192,93283,1,2,0:0:0:0:
64,192,93354,1,8,0:0:0:0:
192,192,93425,1,8,0:0:0:0:
320,192,93497,1,8,0:0:0:0:
64,192,93568,1,8,0:0:0:0:
448,192,93568,128,0,93924:0:0:0:0:
320,192,93710,1,0,0:0:0:0:
192,192,93782,1,0,0:0:0:0:
64,192,93853,1,8,0:0:0:0:
320,192,93853,128,0,93924:0:0:0:0:
192,192,93924,128,0,94138:0:0:0:0:
64,192,93995,128,0,94138:0:0:0:0:
320,192,94138,1,8,0:0:0:0:
448,192,94138,1,2,0:0:0:0:
64,192,94209,1,0,0:0:0:0:
448,192,94280,1,0,0:0:0:0:
192,192,94352,1,0,0:0:0:0:
320,192,94423,1,0,0:0:0:0:
64,192,94494,1,0,0:0:0:0:
448,192,94566,1,0,0:0:0:0:
192,192,94637,1,0,0:0:0:0:
320,192,94708,1,8,0:0:0:0:
448,192,94708,1,0,0:0:0:0:
64,192,94779,1,0,0:0:0:0:
320,192,94851,1,0,0:0:0:0:
192,192,94922,1,0,0:0:0:0:
448,192,94993,1,0,0:0:0:0:
64,192,95064,1,0,0:0:0:0:
320,192,95136,1,0,0:0:0:0:
192,192,95207,1,0,0:0:0:0:
64,192,95278,128,8,95706:0:0:0:0:
448,192,95278,128,2,95421:0:0:0:0:
320,192,95421,128,0,95563:0:0:0:0:
192,192,95492,128,0,95634:0:0:0:0:
448,192,95563,128,0,95741:0:0:0:0:
320,192,95634,128,0,95777:0:0:0:0:
192,192,95706,128,0,95813:0:0:0:0:
64,192,95777,128,0,95848:0:0:0:0:
320,192,95848,1,8,0:0:0:0:
448,192,95848,1,4,0:0:0:0:
64,192,95991,1,0,0:0:0:40:TL.wav
192,192,96062,1,0,0:0:0:40:TL.wav
320,192,96133,1,0,0:0:0:0:
192,192,96204,1,0,0:0:0:0:
64,192,96276,1,8,0:0:0:0:
320,192,96276,1,4,0:0:0:0:
448,192,96276,1,0,0:0:0:0:
192,192,96418,1,0,0:0:0:40:TL.wav
64,192,96490,1,0,0:0:0:40:TL.wav
320,192,96561,1,0,0:0:0:0:
192,192,96632,1,0,0:0:0:0:
64,192,96703,1,4,0:0:0:0:
320,192,96703,1,8,0:0:0:0:
448,192,96703,1,0,0:0:0:0:
192,192,96846,1,0,0:0:0:0:
320,192,96917,1,0,0:0:0:0:
64,192,96988,1,8,0:0:0:0:
448,192,96988,1,0,0:0:0:0:
320,192,97060,1,0,0:0:0:0:
192,192,97131,1,0,0:0:0:0:
64,192,97202,1,8,0:0:0:0:
448,192,97202,1,0,0:0:0:0:
192,192,97273,1,0,0:0:0:0:
320,192,97345,1,0,0:0:0:0:
64,192,97416,1,8,0:0:0:0:
448,192,97416,1,0,0:0:0:0:
192,192,97487,1,0,0:0:0:0:
320,192,97558,1,8,0:0:0:0:
448,192,97558,1,0,0:0:0:0:
192,192,97630,1,0,0:0:0:0:
448,192,97701,1,0,0:0:0:0:
64,192,97772,1,0,0:0:0:0:
192,192,97772,1,0,0:0:0:0:
320,192,97843,1,0,0:0:0:0:
64,192,97915,1,0,0:0:0:0:
320,192,97986,1,0,0:0:0:0:
448,192,97986,1,0,0:0:0:0:
192,192,98057,1,0,0:0:0:0:
64,192,98128,1,0,0:0:0:0:
448,192,98128,1,0,0:0:0:0:
320,192,98176,1,0,0:0:0:0:
192,192,98223,1,0,0:0:0:0:
64,192,98271,1,0,0:0:0:0:
448,192,98318,1,0,0:0:0:0:
320,192,98366,1,0,0:0:0:0:
64,192,98414,1,8,0:0:0:0:
192,192,98414,1,0,0:0:0:0:
320,192,98485,1,8,0:0:0:0:
448,192,98485,1,0,0:0:0:0:
64,192,98556,1,8,0:0:0:0:
192,192,98556,1,0,0:0:0:0:
320,192,98627,1,8,0:0:0:0:
448,192,98627,1,0,0:0:0:0:
64,192,98699,1,8,0:0:0:0:
192,192,98699,1,0,0:0:0:0:
320,192,98841,128,8,98984:0:0:0:0:
448,192,98841,1,0,0:0:0:0:
64,192,98984,1,8,0:0:0:0:
192,192,98984,128,2,99126:0:0:0:0:
448,192,99126,1,0,0:0:0:0:
64,192,99197,1,0,0:0:0:0:
320,192,99269,128,8,99411:0:0:0:0:
448,192,99269,1,0,0:0:0:0:
192,192,99411,128,0,99554:0:0:0:0:
320,192,99554,1,8,0:0:0:0:
448,192,99554,1,2,0:0:0:0:
64,192,99625,1,0,0:0:0:0:
448,192,99696,128,0,99839:0:0:0:0:
64,192,99839,128,8,99981:0:0:0:0:
192,192,99839,1,0,0:0:0:0:
320,192,99981,1,0,0:0:0:0:
192,192,100052,1,0,0:0:0:0:
64,192,100124,1,8,0:0:0:0:
448,192,100124,128,2,100302:0:0:0:0:
320,192,100195,128,0,100337:0:0:0:0:
192,192,100266,128,0,100373:0:0:0:0:
64,192,100337,128,0,100409:0:0:0:0:
320,192,100409,1,8,0:0:0:0:
448,192,100409,1,0,0:0:0:0:
192,192,100551,1,8,0:0:0:0:
320,192,100551,1,0,0:0:0:0:
64,192,100694,1,8,0:0:0:0:
192,192,100694,1,2,0:0:0:0:
320,192,100836,128,0,100979:0:0:0:0:
192,192,100908,128,0,100979:0:0:0:0:
64,192,100979,1,8,0:0:0:0:
448,192,100979,1,0,0:0:0:0:
192,192,101121,128,0,101264:0:0:0:0:
320,192,101193,128,0,101264:0:0:0:0:
64,192,101264,1,8,0:0:0:0:
448,192,101264,1,2,0:0:0:0:
192,192,101335,1,0,0:0:0:0:
320,192,101406,1,0,0:0:0:0:
448,192,101478,1,0,0:0:0:0:
64,192,101549,1,8,0:0:0:0:
192,192,101549,1,4,0:0:0:0:
320,192,101549,1,0,0:0:0:0:
448,192,101691,1,0,0:0:0:0:
64,192,101763,1,8,0:0:0:0:
192,192,101763,1,4,0:0:0:0:
320,192,101763,1,0,0:0:0:0:
64,192,101905,1,0,0:0:0:0:
192,192,101976,1,8,0:0:0:0:
320,192,101976,1,4,0:0:0:0:
448,192,101976,1,0,0:0:0:0:
448,192,102119,1,0,0:0:0:0:
64,192,102190,1,8,0:0:0:0:
192,192,102190,1,4,0:0:0:0:
320,192,102190,1,0,0:0:0:0:
320,192,102333,1,0,0:0:0:0:
64,192,102404,1,8,0:0:0:0:
192,192,102404,1,4,0:0:0:0:
448,192,102404,1,0,0:0:0:0:
320,192,102475,1,0,0:0:0:0:
192,192,102547,1,8,0:0:0:0:
64,192,102618,1,0,0:0:0:0:
320,192,102689,1,8,0:0:0:0:
448,192,102689,1,0,0:0:0:0:
64,192,102784,1,8,0:0:0:0:
192,192,102784,1,0,0:0:0:0:
320,192,102879,1,8,0:0:0:0:
448,192,102879,1,0,0:0:0:0:
64,192,102974,128,8,103259:0:0:0:0:
192,192,102974,128,0,103259:0:0:0:0:
320,192,103259,1,8,0:0:0:0:
448,192,103259,1,2,0:0:0:0:
64,192,103330,1,0,0:0:0:0:
448,192,103402,1,0,0:0:0:0:
192,192,103473,1,0,0:0:0:0:
320,192,103544,1,0,0:0:0:0:
64,192,103615,1,0,0:0:0:0:
448,192,103687,1,0,0:0:0:0:
192,192,103758,1,0,0:0:0:0:
320,192,103829,1,8,0:0:0:0:
448,192,103829,1,0,0:0:0:0:
64,192,103900,1,0,0:0:0:0:
320,192,103972,1,0,0:0:0:0:
192,192,104043,1,0,0:0:0:0:
448,192,104114,1,0,0:0:0:0:
64,192,104185,1,0,0:0:0:0:
320,192,104257,1,0,0:0:0:0:
192,192,104328,1,0,0:0:0:0:
320,192,104399,128,8,104684:0:0:0:0:
448,192,104399,128,2,104969:0:0:0:0:
192,192,104542,128,0,104684:0:0:0:0:
64,192,104684,128,0,104827:0:0:0:0:
192,192,104756,128,0,104898:0:0:0:0:
320,192,104827,128,0,104969:0:0:0:0:
64,192,104969,1,8,0:0:0:0:
192,192,104969,1,0,0:0:0:0:
448,192,105041,1,0,0:0:0:0:
192,192,105112,1,0,0:0:0:0:
320,192,105183,1,0,0:0:0:0:
64,192,105254,1,8,0:0:0:0:
192,192,105254,1,2,0:0:0:0:
192,192,105397,1,8,0:0:0:0:
320,192,105397,1,0,0:0:0:0:
448,192,105397,1,0,0:0:0:0:
64,192,105468,1,0,0:0:0:0:
320,192,105539,1,0,0:0:0:0:
192,192,105611,1,0,0:0:0:0:
320,192,105682,1,8,0:0:0:0:
448,192,105682,1,2,0:0:0:0:
64,192,105824,1,8,0:0:0:0:
192,192,105824,1,0,0:0:0:0:
320,192,105824,1,0,0:0:0:0:
448,192,105896,1,0,0:0:0:0:
192,192,105967,1,0,0:0:0:0:
320,192,106038,1,0,0:0:0:0:
64,192,106109,1,8,0:0:0:0:
448,192,106109,1,0,0:0:0:0:
320,192,106181,1,0,0:0:0:0:
64,192,106252,1,8,0:0:0:0:
192,192,106252,1,0,0:0:0:0:
448,192,106323,1,0,0:0:0:0:
64,192,106395,1,8,0:0:0:0:
320,192,106395,1,0,0:0:0:0:
192,192,106466,1,0,0:0:0:0:
448,192,106537,1,0,0:0:0:0:
320,192,106608,1,0,0:0:0:0:
64,192,106680,1,8,0:0:0:0:
192,192,106680,1,2,0:0:0:0:
320,192,106751,1,0,0:0:0:0:
64,192,106822,1,8,0:0:0:0:
448,192,106822,1,0,0:0:0:0:
192,192,106893,1,0,0:0:0:0:
320,192,106965,1,8,0:0:0:0:
448,192,106965,1,0,0:0:0:0:
192,192,107036,1,0,0:0:0:0:
320,192,107107,1,0,0:0:0:0:
448,192,107178,1,0,0:0:0:0:
64,192,107250,1,8,0:0:0:0:
192,192,107250,1,0,0:0:0:0:
320,192,107392,128,0,107535:0:0:0:0:
192,192,107463,128,0,107535:0:0:0:0:
64,192,107535,1,8,0:0:0:0:
448,192,107535,1,0,0:0:0:0:
192,192,107677,1,8,0:0:0:0:
64,192,107713,1,8,0:0:0:0:
320,192,107748,1,8,0:0:0:0:
448,192,107784,1,8,0:0:0:0:
192,192,107820,1,8,0:0:0:0:
320,192,107891,1,8,0:0:0:0:
64,192,108033,1,8,0:0:0:0:
192,192,108033,1,0,0:0:0:0:
320,192,108105,1,8,0:0:0:0:
448,192,108105,1,0,0:0:0:0:
64,192,108176,1,8,0:0:0:0:
192,192,108176,1,0,0:0:0:0:
320,192,108247,128,8,108461:0:0:0:0:
448,192,108318,128,0,108532:0:0:0:0:
64,192,108390,128,0,108532:0:0:0:0:
192,192,108461,128,0,108604:0:0:0:0:
320,192,108532,128,0,108675:0:0:0:0:
448,192,108604,128,0,108675:0:0:0:0:
64,192,108675,1,8,0:0:0:0:
192,192,108675,1,0,0:0:0:0:
448,192,108817,1,8,0:0:0:0:
320,192,108853,1,8,0:0:0:0:
192,192,108889,1,8,0:0:0:0:
64,192,108924,1,8,0:0:0:0:
448,192,108960,1,8,0:0:0:0:
192,192,109031,1,8,0:0:0:0:
448,192,109102,1,8,0:0:0:0:
320,192,109138,1,8,0:0:0:0:
64,192,109174,1,8,0:0:0:0:
192,192,109209,1,8,0:0:0:0:
448,192,109245,128,8,109387:0:0:0:0:
320,192,109316,128,0,109459:0:0:0:0:
192,192,109387,128,0,109530:0:0:0:0:
64,192,109459,128,0,109530:0:0:0:0:
320,192,109530,1,8,0:0:0:0:
448,192,109530,1,0,0:0:0:0:
192,192,109672,128,0,109815:0:0:0:0:
320,192,109744,128,0,109815:0:0:0:0:
64,192,109815,1,8,0:0:0:0:
448,192,109815,1,0,0:0:0:0:
192,192,109957,1,8,0:0:0:0:
64,192,109993,1,8,0:0:0:0:
320,192,110029,1,8,0:0:0:0:
448,192,110064,1,8,0:0:0:0:
192,192,110100,1,8,0:0:0:0:
320,192,110171,1,8,0:0:0:0:
64,192,110314,1,8,0:0:0:0:
192,192,110314,1,0,0:0:0:0:
320,192,110385,1,8,0:0:0:0:
448,192,110385,1,0,0:0:0:0:
64,192,110456,1,8,0:0:0:0:
192,192,110456,1,0,0:0:0:0:
320,192,110528,1,8,0:0:0:0:
448,192,110528,1,0,0:0:0:0:
192,192,110599,128,0,110813:0:0:0:0:
64,192,110670,128,0,110884:0:0:0:0:
448,192,110741,128,0,110884:0:0:0:0:
320,192,110813,128,0,110955:0:0:0:0:
192,192,110884,128,0,110955:0:0:0:0:
64,192,110955,1,8,0:0:0:0:
448,192,110955,1,0,0:0:0:0:
448,192,111098,1,8,0:0:0:0:
320,192,111133,1,8,0:0:0:0:
64,192,111169,1,8,0:0:0:0:
192,192,111204,1,8,0:0:0:0:
320,192,111240,1,8,0:0:0:0:
448,192,111240,128,0,111525:0:0:0:0:
64,192,111311,128,0,111454:0:0:0:0:
192,192,111383,128,0,111490:0:0:0:0:
320,192,111454,128,0,111525:0:0:0:0:
64,192,111525,1,0,0:0:0:0:
448,192,111596,1,0,0:0:0:0:
64,192,111668,1,0,0:0:0:0:
448,192,111739,1,0,0:0:0:0:
64,192,111810,1,8,0:0:0:0:
192,192,111846,1,8,0:0:0:0:
320,192,111881,1,8,0:0:0:0:
448,192,111917,1,8,0:0:0:0:
64,192,111953,1,8,0:0:0:0:
192,192,112024,1,8,0:0:0:0:
448,192,112166,1,8,0:0:0:0:
64,192,112238,1,8,0:0:0:0:
192,192,112273,1,8,0:0:0:0:
320,192,112309,1,8,0:0:0:0:
448,192,112345,1,8,0:0:0:0:
192,192,112380,1,8,0:0:0:0:
64,192,112452,1,8,0:0:0:0:
320,192,112594,1,8,0:0:0:0:
448,192,112665,1,8,0:0:0:0:
64,192,112701,1,8,0:0:0:0:
192,192,112737,1,8,0:0:0:0:
320,192,112772,1,8,0:0:0:0:
448,192,112808,1,8,0:0:0:0:
192,192,112879,1,8,0:0:0:0:
64,192,112950,1,8,0:0:0:0:
448,192,112986,1,8,0:0:0:0:
320,192,113022,1,8,0:0:0:0:
192,192,113057,1,8,0:0:0:0:
64,192,113093,1,8,0:0:0:0:
448,192,113164,1,8,0:0:0:0:
64,192,113307,1,8,0:0:0:0:
448,192,113378,1,8,0:0:0:0:
320,192,113414,1,8,0:0:0:0:
192,192,113449,1,8,0:0:0:0:
64,192,113485,1,8,0:0:0:0:
320,192,113520,1,8,0:0:0:0:
448,192,113592,1,8,0:0:0:0:
64,192,113663,1,8,0:0:0:0:
192,192,113699,1,8,0:0:0:0:
320,192,113734,1,8,0:0:0:0:
448,192,113770,1,8,0:0:0:0:
192,192,113805,1,8,0:0:0:0:
64,192,113877,1,8,0:0:0:0:
448,192,113912,1,8,0:0:0:0:
320,192,113948,1,8,0:0:0:0:
192,192,113984,1,8,0:0:0:0:
64,192,114019,1,8,0:0:0:0:
448,192,114055,1,8,0:0:0:0:
320,192,114090,1,8,0:0:0:0:
192,192,114126,1,8,0:0:0:0:
64,192,114162,1,8,0:0:0:0:
448,192,114197,1,8,0:0:0:0:
320,192,114233,1,8,0:0:0:0:
64,192,114304,1,8,0:0:0:0:
448,192,114447,1,8,0:0:0:0:
64,192,114518,1,8,0:0:0:0:
192,192,114554,1,8,0:0:0:0:
320,192,114589,1,8,0:0:0:0:
448,192,114625,1,8,0:0:0:0:
64,192,114661,1,8,0:0:0:0:
320,192,114732,1,8,0:0:0:0:
64,192,114874,1,8,0:0:0:0:
448,192,114946,1,8,0:0:0:0:
320,192,114981,1,8,0:0:0:0:
192,192,115017,1,8,0:0:0:0:
64,192,115052,1,8,0:0:0:0:
448,192,115088,1,8,0:0:0:0:
320,192,115159,1,8,0:0:0:0:
64,192,115231,1,8,0:0:0:0:
192,192,115266,1,8,0:0:0:0:
320,192,115302,1,8,0:0:0:0:
448,192,115337,1,8,0:0:0:0:
64,192,115373,1,8,0:0:0:0:
192,192,115444,1,8,0:0:0:0:
448,192,115587,1,8,0:0:0:0:
64,192,115658,1,8,0:0:0:0:
320,192,115694,1,8,0:0:0:0:
192,192,115729,1,8,0:0:0:0:
448,192,115765,1,8,0:0:0:0:
64,192,115801,1,8,0:0:0:0:
192,192,115872,1,8,0:0:0:0:
448,192,115943,1,8,0:0:0:0:
320,192,115979,1,8,0:0:0:0:
192,192,116014,1,8,0:0:0:0:
64,192,116050,1,8,0:0:0:0:
448,192,116086,1,8,0:0:0:0:
320,192,116121,1,8,0:0:0:0:
192,192,116157,1,8,0:0:0:0:
64,192,116193,1,8,0:0:0:0:
448,192,116228,1,8,0:0:0:0:
320,192,116264,1,8,0:0:0:0:
192,192,116299,1,8,0:0:0:0:
64,192,116335,1,8,0:0:0:0:
320,192,116371,1,8,0:0:0:0:
448,192,116371,1,0,0:0:0:0:
