osu file format v14

[General]
AudioFilename: audio.mp3
AudioLeadIn: 0
PreviewTime: 79282
Countdown: 0
SampleSet: Soft
StackLeniency: 0.7
Mode: 3
LetterboxInBreaks: 0
SpecialStyle: 0
WidescreenStoryboard: 1

[Editor]
DistanceSpacing: 2
BeatDivisor: 4
GridSize: 4
TimelineZoom: 2.3

[Metadata]
Title:PSYCHO+HEROES
TitleUnicode:PSYCHO+HEROES
Artist:Camellia
ArtistUnicode:かめりあ
Creator:Ricca
Version:BASIC
Source:SOUND VOLTEX III GRAVITY WARS コナステ
Tags:psystyle camellia かめりあ かめるかめりあ masaya oya SDVX 3 6 VI EXCEED GEAR cametek electronic instrumental Konami Bemani video game 大箭将也 大箭マサヤ kamelcamellia HDTOO Worthlessnut9
BeatmapID:3907218
BeatmapSetID:1855737

[Difficulty]
HPDrainRate:7
CircleSize:4
OverallDifficulty:7
ApproachRate:5
SliderMultiplier:1.4
SliderTickRate:1

[Events]
//Background and Video events
0,0,"bg.jpg",0,0
//Break Periods
2,61844,69134
//Storyboard Layer 0 (Background)
//Storyboard Layer 1 (Fail)
//Storyboard Layer 2 (Pass)
//Storyboard Layer 3 (Foreground)
//Storyboard Layer 4 (Overlay)
//Storyboard Sound Samples

[TimingPoints]
2357,285.035629453682,4,2,1,30,1,0
79886,-100,4,2,1,30,0,1
89007,-100,4,2,1,30,0,0
89292,-100,4,2,1,30,0,1
98128,-100,4,2,1,30,0,0

[HitObjects]
64,192,2356,128,12,3497:0:0:0:0:
448,192,3497,128,0,3782:0:0:0:0:
64,192,3782,128,0,4067:0:0:0:0:
192,192,4067,1,0,0:0:0:0:
320,192,4209,1,0,0:0:0:0:
448,192,4352,128,0,4637:0:0:0:0:
64,192,4637,128,12,5777:0:0:0:0:
192,192,5777,1,12,0:0:0:0:
448,192,5919,1,12,0:0:0:0:
192,192,6062,1,12,0:0:0:0:
320,192,6347,1,4,0:0:0:0:
448,192,6347,1,8,0:0:0:0:
64,192,6632,1,4,0:0:0:0:
192,192,6632,1,8,0:0:0:0:
448,192,6917,128,12,8057:0:0:0:0:
64,192,8057,128,0,8627:0:0:0:0:
320,192,8627,128,0,8912:0:0:0:0:
64,192,8912,128,0,9197:0:0:0:0:
448,192,9197,128,12,10337:0:0:0:0:
64,192,10337,1,8,0:0:0:0:
320,192,10480,1,8,0:0:0:0:
64,192,10623,1,8,0:0:0:0:
320,192,10908,1,8,0:0:0:0:
448,192,10908,1,0,0:0:0:0:
64,192,11193,128,8,11478:0:0:0:0:
448,192,11478,128,8,12048:0:0:0:0:
192,192,12048,128,8,12618:0:0:0:0:
320,192,12618,128,8,13188:0:0:0:0:
64,192,13188,128,8,13473:0:0:0:0:
448,192,13473,128,8,13758:0:0:0:0:
64,192,13758,128,8,14328:0:0:0:0:
448,192,14328,128,8,14898:0:0:0:0:
192,192,14898,128,8,15468:0:0:0:0:
448,192,15468,128,8,15753:0:0:0:0:
64,192,15753,128,8,16038:0:0:0:0:
448,192,16038,128,8,16323:0:0:0:0:
320,192,16323,128,8,16608:0:0:0:0:
192,192,16608,128,8,16893:0:0:0:0:
64,192,16893,128,8,17178:0:0:0:0:
448,192,17178,128,8,17463:0:0:0:0:
192,192,17463,128,8,17748:0:0:0:0:
320,192,17748,128,8,18033:0:0:0:0:
64,192,18033,128,8,18318:0:0:0:0:
448,192,18318,128,0,19459:0:0:0:0:
64,192,18889,128,0,19459:0:0:0:0:
192,192,19459,128,0,20029:0:0:0:0:
320,192,19459,128,0,20029:0:0:0:0:
64,192,20599,1,8,0:0:0:0:
192,192,20599,1,0,0:0:0:0:
64,192,20884,1,8,0:0:0:0:
448,192,20884,1,0,0:0:0:0:
320,192,21169,1,8,0:0:0:0:
448,192,21169,1,0,0:0:0:0:
64,192,21454,1,8,0:0:0:0:
192,192,21454,1,0,0:0:0:0:
448,192,21739,128,8,22024:0:0:0:0:
192,192,22024,128,8,22309:0:0:0:0:
320,192,22309,128,8,22594:0:0:0:0:
64,192,22594,128,8,22879:0:0:0:0:
320,192,22879,1,8,0:0:0:0:
448,192,22879,1,0,0:0:0:0:
64,192,23164,1,8,0:0:0:0:
448,192,23164,1,0,0:0:0:0:
64,192,23449,1,8,0:0:0:0:
192,192,23449,1,0,0:0:0:0:
320,192,23734,1,8,0:0:0:0:
448,192,23734,1,0,0:0:0:0:
64,192,24019,128,8,24304:0:0:0:0:
192,192,24304,128,8,24589:0:0:0:0:
448,192,24589,128,8,24874:0:0:0:0:
64,192,24874,128,8,25159:0:0:0:0:
320,192,25159,1,8,0:0:0:0:
192,192,25302,1,8,0:0:0:0:
64,192,25444,1,8,0:0:0:0:
448,192,25444,1,4,0:0:0:0:
64,192,25729,1,8,0:0:0:0:
192,192,25729,1,0,0:0:0:0:
320,192,26014,1,8,0:0:0:0:
448,192,26014,1,0,0:0:0:0:
64,192,26299,128,8,26585:0:0:0:0:
320,192,26585,128,8,26870:0:0:0:0:
192,192,26870,128,8,27155:0:0:0:0:
448,192,27155,128,8,27440:0:0:0:0:
64,192,27440,1,8,0:0:0:0:
192,192,27440,1,0,0:0:0:0:
448,192,27582,1,8,0:0:0:0:
64,192,27725,1,8,0:0:0:0:
448,192,28010,128,8,28295:0:0:0:0:
192,192,28295,128,0,28580:0:0:0:0:
320,192,28580,1,8,0:0:0:0:
448,192,28580,1,0,0:0:0:0:
192,192,28722,1,8,0:0:0:0:
64,192,28865,128,8,29150:0:0:0:0:
448,192,29150,128,8,29435:0:0:0:0:
192,192,29435,128,0,29720:0:0:0:0:
64,192,29720,128,8,30290:0:0:0:0:
448,192,29720,128,0,30290:0:0:0:0:
320,192,30290,128,10,30575:0:0:0:0:
192,192,30575,128,0,30860:0:0:0:0:
448,192,30860,128,8,31145:0:0:0:0:
64,192,31145,128,0,31430:0:0:0:0:
192,192,31430,128,8,31715:0:0:0:0:
448,192,31430,128,2,32000:0:0:0:0:
320,192,31715,128,0,32000:0:0:0:0:
64,192,32000,1,8,0:0:0:0:
192,192,32190,1,8,0:0:0:0:
320,192,32380,1,8,0:0:0:0:
448,192,32570,128,10,32855:0:0:0:0:
64,192,32855,128,0,33140:0:0:0:0:
448,192,33140,1,8,0:0:0:0:
320,192,33283,1,8,0:0:0:0:
192,192,33425,1,8,0:0:0:0:
320,192,33710,128,10,33995:0:0:0:0:
192,192,33995,128,8,34280:0:0:0:0:
64,192,34280,128,8,34566:0:0:0:0:
448,192,34280,128,0,34566:0:0:0:0:
192,192,34566,1,8,0:0:0:0:
320,192,34708,1,0,0:0:0:0:
64,192,34851,128,10,35136:0:0:0:0:
448,192,35136,128,0,35421:0:0:0:0:
64,192,35421,1,8,0:0:0:0:
192,192,35563,1,0,0:0:0:0:
320,192,35706,1,0,0:0:0:0:
448,192,35848,1,0,0:0:0:0:
64,192,35991,128,10,36276:0:0:0:0:
448,192,36276,128,0,36561:0:0:0:0:
64,192,36561,1,8,0:0:0:0:
192,192,36561,1,0,0:0:0:0:
320,192,36751,1,8,0:0:0:0:
448,192,36941,1,8,0:0:0:0:
192,192,37131,1,8,0:0:0:0:
320,192,37131,1,2,0:0:0:0:
64,192,37321,1,8,0:0:0:0:
192,192,37511,1,8,0:0:0:0:
320,192,37701,128,8,38271:0:0:0:0:
448,192,37701,128,0,38271:0:0:0:0:
64,192,38271,1,8,0:0:0:0:
192,192,38414,1,0,0:0:0:0:
448,192,38556,1,0,0:0:0:0:
320,192,38699,1,0,0:0:0:0:
64,192,38841,1,8,0:0:0:0:
192,192,38841,1,0,0:0:0:0:
64,192,39126,1,8,0:0:0:0:
448,192,39126,1,0,0:0:0:0:
192,192,39411,1,8,0:0:0:0:
320,192,39411,1,0,0:0:0:0:
64,192,39696,1,8,0:0:0:0:
448,192,39696,1,0,0:0:0:0:
320,192,39981,1,8,0:0:0:0:
448,192,39981,1,0,0:0:0:0:
64,192,40266,1,8,0:0:0:0:
448,192,40266,1,0,0:0:0:0:
192,192,40551,1,8,0:0:0:0:
320,192,40551,1,0,0:0:0:0:
64,192,40836,1,8,0:0:0:0:
448,192,40836,1,0,0:0:0:0:
64,192,41121,1,8,0:0:0:0:
192,192,41121,1,0,0:0:0:0:
64,192,41406,1,8,0:0:0:0:
448,192,41406,1,0,0:0:0:0:
192,192,41691,1,8,0:0:0:0:
320,192,41691,1,0,0:0:0:0:
64,192,41976,1,8,0:0:0:0:
448,192,41976,1,0,0:0:0:0:
320,192,42261,1,8,0:0:0:0:
448,192,42261,1,0,0:0:0:0:
64,192,42547,1,8,0:0:0:0:
448,192,42547,1,0,0:0:0:0:
320,192,42832,128,8,43117:0:0:0:0:
64,192,43117,128,8,43402:0:0:0:0:
320,192,43402,1,8,0:0:0:0:
448,192,43402,1,0,0:0:0:0:
64,192,43687,1,8,0:0:0:0:
448,192,43687,1,0,0:0:0:0:
192,192,43972,1,8,0:0:0:0:
320,192,43972,1,0,0:0:0:0:
64,192,44257,1,8,0:0:0:0:
448,192,44257,1,0,0:0:0:0:
64,192,44542,1,8,0:0:0:0:
192,192,44542,1,0,0:0:0:0:
64,192,44827,1,8,0:0:0:0:
448,192,44827,1,0,0:0:0:0:
192,192,45112,1,8,0:0:0:0:
320,192,45112,1,0,0:0:0:0:
64,192,45397,1,8,0:0:0:0:
448,192,45397,1,0,0:0:0:0:
448,192,45682,128,8,45967:0:0:0:0:
64,192,45967,128,8,46252:0:0:0:0:
192,192,46252,128,8,46537:0:0:0:0:
320,192,46537,128,8,46822:0:0:0:0:
448,192,46822,128,8,47250:0:0:0:0:
64,192,47250,128,8,47677:0:0:0:0:
320,192,47677,128,10,47962:0:0:0:0:
64,192,47962,1,8,0:0:0:0:
192,192,47962,1,0,0:0:0:0:
64,192,48247,1,8,0:0:0:0:
448,192,48247,1,2,0:0:0:0:
320,192,48532,1,8,0:0:0:0:
448,192,48532,1,0,0:0:0:0:
64,192,48817,1,2,0:0:0:0:
448,192,48817,1,8,0:0:0:0:
64,192,49102,1,8,0:0:0:0:
320,192,49102,1,0,0:0:0:0:
64,192,49387,1,2,0:0:0:0:
448,192,49387,1,8,0:0:0:0:
192,192,49672,1,8,0:0:0:0:
448,192,49672,1,0,0:0:0:0:
64,192,49957,1,2,0:0:0:0:
448,192,49957,1,8,0:0:0:0:
64,192,50242,1,8,0:0:0:0:
192,192,50242,1,0,0:0:0:0:
64,192,50528,1,2,0:0:0:0:
448,192,50528,1,8,0:0:0:0:
320,192,50813,1,8,0:0:0:0:
448,192,50813,1,0,0:0:0:0:
64,192,51098,1,2,0:0:0:0:
448,192,51098,1,8,0:0:0:0:
64,192,51383,1,8,0:0:0:0:
192,192,51383,1,0,0:0:0:0:
64,192,51668,1,2,0:0:0:0:
448,192,51668,1,8,0:0:0:0:
192,192,51953,128,8,52238:0:0:0:0:
320,192,51953,128,0,52238:0:0:0:0:
64,192,52238,128,2,52523:0:0:0:0:
448,192,52238,128,8,52523:0:0:0:0:
192,192,52523,1,8,0:0:0:0:
320,192,52523,1,0,0:0:0:0:
64,192,52808,1,2,0:0:0:0:
448,192,52808,1,8,0:0:0:0:
192,192,53093,1,8,0:0:0:0:
320,192,53093,1,0,0:0:0:0:
448,192,53378,1,10,0:0:0:0:
320,192,53520,1,8,0:0:0:0:
64,192,53663,1,8,0:0:0:0:
192,192,53663,1,0,0:0:0:0:
320,192,53948,1,8,0:0:0:0:
448,192,53948,1,2,0:0:0:0:
64,192,54233,1,8,0:0:0:0:
192,192,54233,1,0,0:0:0:0:
320,192,54518,1,2,0:0:0:0:
192,192,54661,1,8,0:0:0:0:
64,192,54803,128,8,55373:0:0:0:0:
320,192,54803,128,4,55373:0:0:0:0:
192,192,55373,128,8,55943:0:0:0:0:
448,192,55373,128,4,55943:0:0:0:0:
64,192,55943,1,12,0:0:0:0:
192,192,56157,1,12,0:0:0:0:
320,192,56371,1,12,0:0:0:0:
64,192,56513,128,0,57083:0:0:0:40:TL.wav
448,192,56513,128,0,57083:0:0:0:0:
320,192,57083,128,8,57368:0:0:0:0:
192,192,57368,128,8,57653:0:0:0:0:
320,192,57653,1,8,0:0:0:0:
192,192,57796,1,0,0:0:0:0:
64,192,57938,128,8,58223:0:0:0:0:
192,192,58223,1,0,0:0:0:0:
320,192,58366,1,0,0:0:0:0:
448,192,58509,128,8,58794:0:0:0:0:
320,192,58794,1,8,0:0:0:0:
192,192,58936,1,8,0:0:0:0:
64,192,59079,128,8,59364:0:0:0:0:
448,192,59364,128,8,59649:0:0:0:0:
192,192,59649,128,8,59934:0:0:0:0:
448,192,59934,1,8,0:0:0:0:
320,192,60076,1,0,0:0:0:0:
64,192,60219,1,8,0:0:0:0:
192,192,60361,1,8,0:0:0:0:
448,192,60504,128,0,60789:0:0:0:0:
64,192,60789,128,8,61074:0:0:0:0:
448,192,61074,1,0,0:0:0:40:TH.wav
320,192,61216,1,0,0:0:0:40:TH.wav
192,192,61359,1,0,0:0:0:40:TM.wav
64,192,61501,1,0,0:0:0:40:TL.wav
320,192,61644,1,8,0:0:0:0:
448,192,61644,1,4,0:0:0:0:
448,192,70337,5,0,0:0:0:40:TL.wav
64,192,70480,128,8,70765:0:0:0:0:
320,192,70765,128,8,71335:0:0:0:0:
64,192,71335,128,8,71905:0:0:0:0:
320,192,71905,128,8,72475:0:0:0:0:
192,192,72475,128,8,72760:0:0:0:0:
64,192,72760,128,8,73045:0:0:0:0:
448,192,73045,128,8,73615:0:0:0:0:
192,192,73615,128,8,74185:0:0:0:0:
448,192,74185,128,8,74756:0:0:0:0:
192,192,74756,128,8,75041:0:0:0:0:
320,192,75041,128,8,75326:0:0:0:0:
448,192,75326,128,8,75611:0:0:0:0:
64,192,75611,128,8,75896:0:0:0:0:
320,192,75896,128,8,76181:0:0:0:0:
192,192,76181,128,8,76466:0:0:0:0:
448,192,76466,128,8,76751:0:0:0:0:
64,192,76751,128,8,77036:0:0:0:0:
320,192,77036,128,8,77321:0:0:0:0:
192,192,77321,128,8,77606:0:0:0:0:
448,192,77606,128,8,78746:0:0:0:0:
64,192,78176,128,0,78746:0:0:0:0:
192,192,78746,128,0,79316:0:0:0:0:
320,192,78746,128,0,79316:0:0:0:0:
64,192,79886,1,8,0:0:0:0:
448,192,79886,1,0,0:0:0:0:
192,192,80171,1,10,0:0:0:0:
320,192,80314,1,0,0:0:0:0:
64,192,80456,1,8,0:0:0:0:
448,192,80456,1,0,0:0:0:0:
192,192,80741,1,8,0:0:0:0:
320,192,80741,1,2,0:0:0:0:
64,192,81026,1,8,0:0:0:0:
448,192,81026,1,0,0:0:0:0:
320,192,81311,1,10,0:0:0:0:
192,192,81454,1,0,0:0:0:0:
64,192,81596,1,8,0:0:0:0:
448,192,81596,1,0,0:0:0:0:
192,192,81881,1,8,0:0:0:0:
320,192,81881,1,2,0:0:0:0:
64,192,82166,1,8,0:0:0:0:
192,192,82166,1,0,0:0:0:0:
448,192,82452,1,10,0:0:0:0:
320,192,82594,1,0,0:0:0:0:
64,192,82737,1,8,0:0:0:0:
192,192,82737,1,0,0:0:0:0:
320,192,83022,1,8,0:0:0:0:
448,192,83022,1,2,0:0:0:0:
64,192,83307,1,8,0:0:0:0:
192,192,83307,1,0,0:0:0:0:
448,192,83449,1,8,0:0:0:0:
320,192,83734,1,8,0:0:0:0:
192,192,84019,1,8,0:0:0:0:
64,192,84162,128,10,84447:0:0:0:0:
320,192,84447,1,8,0:0:0:0:
448,192,84447,1,0,0:0:0:0:
64,192,84732,1,10,0:0:0:0:
192,192,84874,1,0,0:0:0:0:
320,192,85017,1,8,0:0:0:0:
448,192,85017,1,0,0:0:0:0:
64,192,85302,1,8,0:0:0:0:
448,192,85302,1,2,0:0:0:0:
64,192,85587,1,8,0:0:0:0:
192,192,85587,1,0,0:0:0:0:
448,192,85872,1,10,0:0:0:0:
320,192,86014,1,0,0:0:0:0:
64,192,86157,1,8,0:0:0:0:
192,192,86157,1,0,0:0:0:0:
64,192,86442,1,2,0:0:0:0:
448,192,86442,1,8,0:0:0:0:
320,192,86727,1,8,0:0:0:0:
448,192,86727,1,0,0:0:0:0:
64,192,87012,1,10,0:0:0:0:
192,192,87155,1,0,0:0:0:0:
320,192,87297,1,8,0:0:0:0:
448,192,87297,128,0,87582:0:0:0:0:
64,192,87582,128,8,87867:0:0:0:0:
192,192,87582,1,2,0:0:0:0:
448,192,87867,1,8,0:0:0:0:
192,192,88010,1,8,0:0:0:0:
320,192,88152,1,10,0:0:0:0:
64,192,88295,128,8,88722:0:0:0:0:
320,192,88722,1,10,0:0:0:0:
192,192,88865,1,8,0:0:0:0:
448,192,89007,128,0,89292:0:0:0:0:
192,192,89292,1,14,0:0:0:0:
320,192,89435,1,0,0:0:0:0:
64,192,89577,1,8,0:0:0:0:
448,192,89577,1,0,0:0:0:0:
192,192,89862,1,8,0:0:0:0:
320,192,89862,1,2,0:0:0:0:
64,192,90147,1,8,0:0:0:0:
448,192,90147,1,0,0:0:0:0:
320,192,90433,1,10,0:0:0:0:
192,192,90575,1,0,0:0:0:0:
64,192,90718,1,8,0:0:0:0:
448,192,90718,1,0,0:0:0:0:
192,192,91003,1,8,0:0:0:0:
320,192,91003,1,2,0:0:0:0:
320,192,91288,1,8,0:0:0:0:
448,192,91288,1,0,0:0:0:0:
64,192,91573,1,10,0:0:0:0:
192,192,91715,1,0,0:0:0:0:
320,192,91858,1,8,0:0:0:0:
448,192,91858,128,0,92143:0:0:0:0:
64,192,92143,128,8,92428:0:0:0:0:
192,192,92143,1,2,0:0:0:0:
448,192,92428,1,8,0:0:0:0:
192,192,92570,1,8,0:0:0:0:
448,192,92855,1,8,0:0:0:0:
192,192,93140,1,8,0:0:0:0:
64,192,93283,128,10,93568:0:0:0:0:
320,192,93568,1,8,0:0:0:0:
448,192,93568,1,0,0:0:0:0:
64,192,93853,1,8,0:0:0:0:
192,192,93853,1,0,0:0:0:0:
320,192,94138,1,8,0:0:0:0:
448,192,94138,128,2,94708:0:0:0:0:
64,192,94708,128,8,95278:0:0:0:0:
192,192,94708,1,0,0:0:0:0:
320,192,95278,1,8,0:0:0:0:
448,192,95278,128,2,95563:0:0:0:0:
192,192,95563,128,0,95848:0:0:0:0:
320,192,95848,1,8,0:0:0:0:
448,192,95848,1,4,0:0:0:0:
192,192,96276,1,8,0:0:0:0:
320,192,96276,1,4,0:0:0:0:
64,192,96703,1,4,0:0:0:0:
192,192,96703,1,8,0:0:0:0:
448,192,96988,1,8,0:0:0:0:
192,192,97202,1,8,0:0:0:0:
448,192,97416,1,8,0:0:0:0:
64,192,97558,1,8,0:0:0:0:
320,192,97772,1,0,0:0:0:0:
192,192,97986,1,0,0:0:0:0:
448,192,98128,128,0,98414:0:0:0:0:
64,192,98414,128,8,98699:0:0:0:0:
320,192,98699,1,8,0:0:0:0:
192,192,98841,1,8,0:0:0:0:
64,192,98984,1,8,0:0:0:0:
448,192,98984,1,2,0:0:0:0:
192,192,99269,128,8,99554:0:0:0:0:
448,192,99554,128,10,99839:0:0:0:0:
64,192,99839,128,8,100124:0:0:0:0:
448,192,100124,128,10,100409:0:0:0:0:
64,192,100409,1,8,0:0:0:0:
192,192,100409,1,0,0:0:0:0:
64,192,100694,1,8,0:0:0:0:
448,192,100694,1,2,0:0:0:0:
320,192,100979,1,8,0:0:0:0:
448,192,100979,1,0,0:0:0:0:
64,192,101264,1,8,0:0:0:0:
448,192,101264,1,2,0:0:0:0:
320,192,101549,128,12,101763:0:0:0:0:
64,192,101763,128,12,101976:0:0:0:0:
448,192,101976,128,12,102190:0:0:0:0:
192,192,102190,128,12,102404:0:0:0:0:
320,192,102404,128,12,102689:0:0:0:0:
64,192,102689,128,8,103259:0:0:0:0:
448,192,102689,128,0,103259:0:0:0:0:
192,192,103259,128,10,103544:0:0:0:0:
320,192,103544,128,0,103829:0:0:0:0:
64,192,103829,128,8,104114:0:0:0:0:
448,192,104114,128,0,104399:0:0:0:0:
64,192,104399,128,8,104969:0:0:0:0:
192,192,104399,128,2,104684:0:0:0:0:
320,192,104684,128,0,104969:0:0:0:0:
448,192,104969,128,8,105254:0:0:0:0:
192,192,105254,1,10,0:0:0:0:
64,192,105397,128,8,105682:0:0:0:0:
320,192,105682,1,10,0:0:0:0:
448,192,105824,128,8,106109:0:0:0:0:
64,192,106109,1,8,0:0:0:0:
192,192,106252,1,8,0:0:0:0:
448,192,106395,128,8,106680:0:0:0:0:
64,192,106680,1,10,0:0:0:0:
192,192,106822,1,8,0:0:0:0:
320,192,106965,1,8,0:0:0:0:
448,192,107107,1,0,0:0:0:0:
64,192,107250,128,8,107535:0:0:0:0:
320,192,107535,128,8,107820:0:0:0:0:
448,192,107820,1,8,0:0:0:0:
192,192,107962,1,0,0:0:0:0:
64,192,108105,128,8,108390:0:0:0:0:
192,192,108390,1,0,0:0:0:0:
320,192,108532,1,0,0:0:0:0:
448,192,108675,128,8,108960:0:0:0:0:
64,192,108960,1,8,0:0:0:0:
192,192,109102,1,8,0:0:0:0:
320,192,109245,128,8,109530:0:0:0:0:
448,192,109530,1,8,0:0:0:0:
192,192,109672,1,0,0:0:0:0:
64,192,109815,1,8,0:0:0:0:
448,192,109957,1,8,0:0:0:0:
320,192,110100,128,8,110385:0:0:0:0:
64,192,110385,1,8,0:0:0:0:
448,192,110528,128,8,110955:0:0:0:0:
64,192,110955,1,8,0:0:0:0:
192,192,111098,1,8,0:0:0:0:
320,192,111240,128,8,111525:0:0:0:0:
448,192,111810,1,8,0:0:0:0:
192,192,111953,1,8,0:0:0:0:
448,192,112095,128,0,112380:0:0:0:0:
64,192,112380,1,8,0:0:0:0:
320,192,112523,1,0,0:0:0:0:
64,192,112665,128,8,112950:0:0:0:0:
448,192,112950,1,8,0:0:0:0:
192,192,113093,1,8,0:0:0:0:
320,192,113235,128,0,113520:0:0:0:0:
64,192,113520,1,8,0:0:0:0:
320,192,113663,1,8,0:0:0:0:
192,192,113805,128,8,114090:0:0:0:0:
448,192,114090,128,8,114376:0:0:0:0:
192,192,114376,128,0,114661:0:0:0:0:
448,192,114661,128,8,114946:0:0:0:0:
64,192,114946,128,8,115231:0:0:0:0:
320,192,115231,128,8,115516:0:0:0:0:
64,192,115516,128,0,115801:0:0:0:0:
320,192,115801,128,8,116371:0:0:0:0:
192,192,116086,128,8,116371:0:0:0:0:
64,192,116371,1,8,0:0:0:0:
448,192,116371,1,0,0:0:0:0:
