osu file format v14

[General]
AudioFilename: audio.mp3
AudioLeadIn: 0
PreviewTime: 238830
Countdown: 0
SampleSet: Normal
StackLeniency: 0.7
Mode: 1
LetterboxInBreaks: 0
WidescreenStoryboard: 1

[Editor]
Bookmarks: 120030,133230,139630,238830
DistanceSpacing: 0.8
BeatDivisor: 4
GridSize: 32
TimelineZoom: 4.600004

[Metadata]
Title:POWA OF DA WILDANES
TitleUnicode:POWA OF DA WILDANES
Artist:Camellia
ArtistUnicode:かめりあ
Creator:Whulf
Version:ONI
Source:
Tags:INVAIDAS FROM DA JUNGLE fa featured artist かめるかめりあ kamelcamellia Ooya Masaya 大箭将也 大箭マサヤ cametek comic market 92 c92 CTCD-016 comiket コミケ92 コミックマーケット92 speedcore marathon electronic instrumental power the wilderness
BeatmapID:4006825
BeatmapSetID:1938286

[Difficulty]
HPDrainRate:4.5
CircleSize:2
OverallDifficulty:8
ApproachRate:10
SliderMultiplier:1.4
SliderTickRate:1

[Events]
//Background and Video events
0,0,"qawerfew.jpg",0,30
//Break Periods
2,171830,177580
2,303030,308780
//Storyboard Layer 0 (Background)
//Storyboard Layer 1 (Fail)
//Storyboard Layer 2 (Pass)
//Storyboard Layer 3 (Foreground)
//Storyboard Layer 4 (Overlay)
//Storyboard Sound Samples

[TimingPoints]
8430,400,4,1,0,20,1,0
14825,-90.9090909090909,4,1,0,30,0,0
27425,-87.719298245614,4,1,0,33,0,0
27525,-86.2068965517241,4,1,0,36,0,0
27625,-84.7457627118644,4,1,0,39,0,0
40425,-76.9230769230769,4,1,0,50,0,0
53230,200,4,1,0,80,1,0
53230,-125,4,1,0,80,0,0
75625,-125,4,1,0,80,0,0
75725,-124.031007751938,4,1,0,80,0,0
75825,-123.076923076923,4,1,0,80,0,0
75925,-122.137404580153,4,1,0,80,0,0
76025,-121.212121212121,4,1,0,80,0,0
76125,-120.300751879699,4,1,0,80,0,0
76225,-119.402985074627,4,1,0,80,0,0
76325,-118.518518518519,4,1,0,80,0,0
76425,-117.647058823529,4,1,0,80,0,0
76525,-116.788321167883,4,1,0,80,0,0
76625,-115.942028985507,4,1,0,80,0,0
76725,-115.107913669065,4,1,0,80,0,0
76825,-114.285714285714,4,1,0,80,0,0
76925,-113.475177304965,4,1,0,80,0,0
77025,-112.676056338028,4,1,0,80,0,0
77125,-111.888111888112,4,1,0,80,0,0
77225,-111.111111111111,4,1,0,80,0,0
77325,-110.344827586207,4,1,0,80,0,0
77425,-109.58904109589,4,1,0,80,0,0
77525,-108.843537414966,4,1,0,80,0,0
77625,-108.108108108108,4,1,0,80,0,0
77725,-107.382550335571,4,1,0,80,0,0
77825,-106.666666666667,4,1,0,80,0,0
77925,-105.960264900662,4,1,0,80,0,0
78025,-105.263157894737,4,1,0,80,0,0
78075,-104.918032786885,4,1,0,80,0,0
78125,-104.575163398693,4,1,0,80,0,0
78175,-104.234527687296,4,1,0,80,0,0
78225,-103.896103896104,4,1,0,80,0,0
78275,-103.559870550162,4,1,0,80,0,0
78325,-103.225806451613,4,1,0,80,0,0
78375,-102.893890675241,4,1,0,80,0,0
78425,-102.564102564103,4,1,0,80,0,0
78475,-102.23642172524,4,1,0,80,0,0
78525,-101.910828025478,4,1,0,80,0,0
78575,-101.587301587302,4,1,0,80,0,0
78625,-101.26582278481,4,1,0,80,0,0
78675,-100.946372239748,4,1,0,80,0,0
78725,-100.62893081761,4,1,0,80,0,0
78775,-100.313479623824,4,1,0,80,0,0
78825,-100,4,1,0,80,0,0
78925,-50,4,1,0,80,0,0
79025,-100,4,1,0,80,0,0
94025,-96.1538461538461,4,1,0,80,0,0
94225,-92.5925925925926,4,1,0,80,0,0
94425,-89.2857142857143,4,1,0,80,0,0
94625,-86.2068965517241,4,1,0,80,0,0
94825,-100,4,1,0,80,0,0
139025,-90.9090909090909,4,1,0,80,0,0
139225,-83.3333333333333,4,1,0,80,0,0
139425,-100,4,1,0,80,0,0
164625,-97.0873786407767,4,1,0,80,0,0
164825,-94.3396226415094,4,1,0,80,0,0
165025,-91.743119266055,4,1,0,80,0,0
165230,400,4,1,0,80,1,0
165230,-44.4444444444445,4,1,0,80,0,0
165325,-41.6666666666667,4,1,0,80,0,0
165375,-45.4545454545455,4,1,0,80,0,0
166025,-50,4,1,0,75,0,0
166825,-55.5555555555556,4,1,0,70,0,0
167625,-62.5,4,1,0,65,0,0
168425,-71.4285714285714,4,1,0,60,0,0
169225,-83.3333333333333,4,1,0,55,0,0
170030,-83.3333333333333,4,1,0,50,0,0
171630,-83.3333333333333,4,1,0,45,0,0
178025,-83.3333333333333,4,1,0,40,0,0
190625,-80.6451612903226,4,1,0,40,0,0
190725,-78.125,4,1,0,40,0,0
190825,-75.7575757575758,4,1,0,40,0,0
203625,-75.7575757575758,4,1,0,40,0,0
203750,-74.3494423791822,4,1,0,42,0,0
203875,-72.992700729927,4,1,0,44,0,0
203987,-71.8184429761563,4,1,0,46,0,0
204091,-70.761392584206,4,1,0,48,0,0
204191,-69.7739324588334,4,1,0,50,0,0
204291,-68.8136526286815,4,1,0,52,0,0
204391,-67.8794461037198,4,1,0,54,0,0
204475,-67.1140939597315,4,1,0,56,0,0
204558,-66.3746183459445,4,1,0,58,0,0
204641,-65.6512605042017,4,1,0,60,0,0
204708,-65.078745281791,4,1,0,62,0,0
204775,-64.5161290322581,4,1,0,64,0,0
204837,-64.0040962621608,4,1,0,66,0,0
204900,-63.4920634920635,4,1,0,68,0,0
204962,-62.996094242157,4,1,0,70,0,0
205025,-62.5,4,1,0,70,0,0
205082,-62.0578379049274,4,1,0,70,0,0
205139,-61.6218880946512,4,1,0,70,0,0
205196,-61.1920205605189,4,1,0,70,0,0
205225,-60.9756097560976,4,1,0,70,0,0
205250,-60.790273556231,4,1,0,70,0,0
205300,-60.4229607250755,4,1,0,70,0,0
205350,-60.0600600600601,4,1,0,70,0,0
205400,-59.7014925373134,4,1,0,70,0,0
205447,-59.3683210638803,4,1,0,70,0,0
205491,-59.0597684857075,4,1,0,70,0,0
205536,-58.7475032311127,4,1,0,70,0,0
205580,-58.4453535943892,4,1,0,70,0,0
205625,-58.1395348837209,4,1,0,70,0,0
205665,-57.8703703703704,4,1,0,70,0,0
205705,-57.6036866359447,4,1,0,70,0,0
205745,-57.3394495412844,4,1,0,70,0,0
205785,-57.0776255707763,4,1,0,70,0,0
205825,-56.8181818181818,4,1,0,70,0,0
205865,-56.5610859728507,4,1,0,70,0,0
205905,-56.3063063063063,4,1,0,70,0,0
205945,-56.0538116591928,4,1,0,70,0,0
205985,-55.8035714285714,4,1,0,70,0,0
206025,-55.5555555555556,4,1,0,70,0,0
206830,200,4,1,0,80,1,0
206830,-111.111111111111,4,1,0,80,0,0
209225,-111.111111111111,4,1,0,40,0,0
209425,-114.942528735632,4,1,0,40,0,0
209625,-119.047619047619,4,1,0,40,0,0
209825,-123.456790123457,4,1,0,40,0,0
210025,-111.111111111111,4,1,0,80,0,0
215625,-111.111111111111,4,1,0,40,0,0
215825,-114.942528735632,4,1,0,40,0,0
216025,-119.047619047619,4,1,0,40,0,0
216225,-123.456790123457,4,1,0,40,0,0
216425,-111.111111111111,4,1,0,80,0,0
229225,-111.111111111111,4,1,0,80,0,0
229325,-110.726643598616,4,1,0,80,0,0
229425,-110.344827586207,4,1,0,80,0,0
229525,-109.965635738832,4,1,0,80,0,0
229625,-109.58904109589,4,1,0,80,0,0
229725,-109.215017064846,4,1,0,80,0,0
229825,-108.843537414966,4,1,0,80,0,0
229925,-108.474576271186,4,1,0,80,0,0
230025,-108.108108108108,4,1,0,80,0,0
230125,-107.744107744108,4,1,0,80,0,0
230225,-107.382550335571,4,1,0,80,0,0
230325,-107.023411371238,4,1,0,80,0,0
230425,-106.666666666667,4,1,0,80,0,0
230525,-106.312292358804,4,1,0,80,0,0
230625,-105.960264900662,4,1,0,80,0,0
230725,-105.610561056106,4,1,0,80,0,0
230825,-105.263157894737,4,1,0,80,0,0
230925,-104.918032786885,4,1,0,80,0,0
231025,-104.575163398693,4,1,0,80,0,0
231125,-104.234527687296,4,1,0,80,0,0
231225,-103.896103896104,4,1,0,80,0,0
231325,-103.559870550162,4,1,0,80,0,0
231425,-103.225806451613,4,1,0,80,0,0
231525,-102.893890675241,4,1,0,80,0,0
231625,-102.564102564103,4,1,0,80,0,0
231675,-102.4,4,1,0,80,0,0
231725,-102.23642172524,4,1,0,80,0,0
231775,-102.07336523126,4,1,0,80,0,0
231825,-101.910828025478,4,1,0,80,0,0
231875,-101.748807631161,4,1,0,80,0,0
231925,-101.587301587302,4,1,0,80,0,0
231975,-101.426307448494,4,1,0,80,0,0
232025,-101.26582278481,4,1,0,80,0,0
232075,-101.105845181675,4,1,0,80,0,0
232125,-100.946372239748,4,1,0,80,0,0
232175,-100.787401574803,4,1,0,80,0,0
232225,-100.62893081761,4,1,0,80,0,0
232275,-100.470957613815,4,1,0,80,0,0
232325,-100.313479623824,4,1,0,80,0,0
232375,-100.156494522692,4,1,0,80,0,0
232425,-100,4,1,0,80,0,0
232525,-50,4,1,0,80,0,0
232625,-100,4,1,0,80,0,0
238830,-100,4,1,0,80,0,1
262830,-100,4,1,0,80,0,0
267625,-94.3396226415094,4,1,0,80,0,0
267675,-96.1538461538461,4,1,0,80,0,0
267725,-98.0392156862745,4,1,0,80,0,0
267775,-100,4,1,0,80,0,0
268025,-94.3396226415094,4,1,0,80,0,0
268075,-96.1538461538461,4,1,0,80,0,0
268125,-98.0392156862745,4,1,0,80,0,0
268175,-100,4,1,0,80,0,0
268425,-94.3396226415094,4,1,0,80,0,0
268475,-96.1538461538461,4,1,0,80,0,0
268525,-98.0392156862745,4,1,0,80,0,0
268575,-100,4,1,0,80,0,0
268825,-94.3396226415094,4,1,0,80,0,0
268875,-96.1538461538461,4,1,0,80,0,0
268925,-98.0392156862745,4,1,0,80,0,0
268975,-100,4,1,0,80,0,0
269225,-90.9090909090909,4,1,0,80,0,0
269425,-100,4,1,0,80,0,0
270830,-100,4,1,0,80,0,1
282825,-95.2380952380952,4,1,0,80,0,1
283025,-90.9090909090909,4,1,0,80,0,1
283225,-86.9565217391304,4,1,0,80,0,1
283425,-83.3333333333333,4,1,0,80,0,1
283625,-100,4,1,0,80,0,1
294830,-100,4,1,0,80,0,0
295625,-100,4,1,0,80,0,0
295725,-99.009900990099,4,1,0,80,0,0
295825,-98.0392156862745,4,1,0,80,0,0
295925,-97.0873786407767,4,1,0,80,0,0
296025,-96.1538461538461,4,1,0,80,0,0
296125,-95.2380952380952,4,1,0,80,0,0
296225,-94.3396226415094,4,1,0,80,0,0
296325,-93.4579439252336,4,1,0,80,0,0
296430,400,4,1,0,80,1,0
296430,-46.2962962962963,4,1,0,80,0,0
296525,-33.3333333333333,4,1,0,80,0,0
296575,-52.0833333333333,4,1,0,80,0,0
298025,-55.5555555555556,4,1,0,75,0,0
298825,-58.8235294117647,4,1,0,70,0,0
299625,-63.2911392405063,4,1,0,65,0,0
300425,-67.5675675675676,4,1,0,60,0,0
301225,-73.5294117647059,4,1,0,55,0,0
302025,-79.3650793650794,4,1,0,50,0,0
302830,-79.3650793650794,4,1,0,45,0,0
309225,-100,4,1,0,40,0,0

[HitObjects]
360,185,8430,5,8,0:0:0:0:
139,178,8630,1,0,0:0:0:0:
139,178,8730,1,8,0:0:0:0:
432,235,8930,1,0,0:0:0:0:
432,235,9030,1,0,0:0:0:0:
195,110,9230,1,8,0:0:0:0:
195,110,9530,1,0,0:0:0:0:
195,110,9830,1,0,0:0:0:0:
195,110,10030,1,8,0:0:0:0:
195,110,10330,1,8,0:0:0:0:
195,110,10530,1,8,0:0:0:0:
195,110,10630,1,0,0:0:0:0:
228,124,10830,1,8,0:0:0:0:
229,164,11630,1,0,0:0:0:0:
199,162,11830,1,0,0:0:0:0:
199,162,11930,1,8,0:0:0:0:
199,162,12130,1,8,0:0:0:0:
236,160,12230,1,0,0:0:0:0:
236,160,12430,1,8,0:0:0:0:
236,160,12730,1,0,0:0:0:0:
236,160,13030,1,0,0:0:0:0:
236,160,13230,1,8,0:0:0:0:
467,268,13530,1,8,0:0:0:0:
467,268,13730,1,8,0:0:0:0:
308,199,13830,1,0,0:0:0:0:
236,160,14030,1,8,0:0:0:0:
332,258,14830,1,8,0:0:0:0:
305,169,15130,1,8,0:0:0:0:
305,169,15430,1,0,0:0:0:0:
305,169,15730,1,0,0:0:0:0:
305,169,16030,1,0,0:0:0:0:
30,159,16230,1,0,0:0:0:0:
305,169,16330,1,0,0:0:0:0:
305,169,16430,1,8,0:0:0:0:
305,169,16730,1,8,0:0:0:0:
305,169,17030,1,0,0:0:0:0:
305,169,17330,1,0,0:0:0:0:
305,169,17630,1,0,0:0:0:0:
305,169,17830,1,8,0:0:0:0:
305,169,17930,1,0,0:0:0:0:
305,169,18030,1,8,0:0:0:0:
305,169,18330,1,8,0:0:0:0:
148,71,18630,1,0,0:0:0:0:
148,71,18930,1,0,0:0:0:0:
148,71,19230,1,0,0:0:0:0:
182,64,19430,1,0,0:0:0:0:
182,64,19530,1,0,0:0:0:0:
182,64,19630,1,8,0:0:0:0:
183,64,19930,1,8,0:0:0:0:
182,64,20230,1,0,0:0:0:0:
183,64,20530,1,0,0:0:0:0:
182,64,20830,1,0,0:0:0:0:
182,64,21030,1,8,0:0:0:0:
183,64,21130,1,0,0:0:0:0:
183,64,21230,1,8,0:0:0:0:
250,145,21530,1,8,0:0:0:0:
330,203,21830,1,0,0:0:0:0:
276,186,22130,1,0,0:0:0:0:
276,186,22430,1,0,0:0:0:0:
276,186,22630,1,0,0:0:0:0:
210,168,22730,1,8,0:0:0:0:
276,186,22830,1,8,0:0:0:0:
210,168,23130,1,8,0:0:0:0:
210,168,23430,1,0,0:0:0:0:
210,168,23730,1,0,0:0:0:0:
210,168,24030,1,0,0:0:0:0:
210,168,24230,1,8,0:0:0:0:
210,168,24330,1,0,0:0:0:0:
210,168,24430,1,8,0:0:0:0:
210,168,24730,1,8,0:0:0:0:
210,168,25030,1,0,0:0:0:0:
117,50,25330,1,0,0:0:0:0:
117,50,25630,1,0,0:0:0:0:
192,93,25830,1,0,0:0:0:0:
192,93,25930,1,0,0:0:0:0:
192,93,26030,1,8,0:0:0:0:
192,93,26330,1,8,0:0:0:0:
192,93,26630,1,0,0:0:0:0:
192,93,26930,1,0,0:0:0:0:
192,93,27230,1,0,0:0:0:0:
192,93,27430,1,8,0:0:0:0:
192,93,27530,1,0,0:0:0:0:
183,93,27630,1,8,0:0:0:0:
347,174,28230,1,8,0:0:0:0:
347,174,28330,1,8,0:0:0:0:
347,174,28430,1,0,0:0:0:0:
352,190,28480,1,0,0:0:0:0:
350,189,28530,1,8,0:0:0:0:
383,289,29630,1,0,0:0:0:0:
383,289,30030,1,0,0:0:0:0:
351,235,30430,1,8,0:0:0:0:
384,242,30730,1,0,0:0:0:0:
351,235,30830,1,8,0:0:0:0:
316,238,31430,1,8,0:0:0:0:
318,238,31530,1,0,0:0:0:0:
319,238,31630,1,8,0:0:0:0:
316,238,31680,1,8,0:0:0:0:
316,238,31730,1,0,0:0:0:0:
130,291,32830,5,8,0:0:0:0:
130,291,33230,1,8,0:0:0:0:
130,291,33530,1,8,0:0:0:0:
130,291,33630,1,0,0:0:0:0:
130,291,34030,1,8,0:0:0:0:
130,291,34630,1,8,0:0:0:0:
130,291,34730,1,8,0:0:0:0:
130,291,34830,1,0,0:0:0:0:
130,291,34880,1,8,0:0:0:0:
130,291,34930,1,0,0:0:0:0:
155,177,36030,1,0,0:0:0:0:
155,177,36430,1,8,0:0:0:0:
155,177,36830,1,8,0:0:0:0:
155,177,37130,1,8,0:0:0:0:
155,177,37230,1,0,0:0:0:0:
155,177,37830,1,8,0:0:0:0:
155,177,37930,1,8,0:0:0:0:
155,177,38030,1,0,0:0:0:0:
155,177,38080,1,0,0:0:0:0:
190,73,38130,1,8,0:0:0:0:
194,110,39230,1,0,0:0:0:0:
194,110,39630,1,8,0:0:0:0:
194,110,40030,1,8,0:0:0:0:
385,220,40430,1,4,0:0:0:0:
385,220,40830,1,0,0:0:0:0:
385,220,41230,1,8,0:0:0:0:
385,220,41630,1,8,0:0:0:0:
385,220,41830,1,8,0:0:0:0:
385,220,42030,1,0,0:0:0:0:
385,220,42330,1,0,0:0:0:0:
385,220,42630,1,0,0:0:0:0:
385,220,42830,1,8,0:0:0:0:
385,220,43230,1,8,0:0:0:0:
385,220,43630,1,0,0:0:0:0:
385,220,44030,1,0,0:0:0:0:
385,220,44430,1,8,0:0:0:0:
385,220,44830,1,8,0:0:0:0:
385,220,45030,1,8,0:0:0:0:
385,220,45230,1,0,0:0:0:0:
385,220,45530,1,0,0:0:0:0:
385,220,45830,1,0,0:0:0:0:
385,220,46030,1,8,0:0:0:0:
385,220,46430,1,8,0:0:0:0:
385,220,46830,1,0,0:0:0:0:
385,220,47230,1,0,0:0:0:0:
385,220,47630,1,8,0:0:0:0:
385,220,48030,1,8,0:0:0:0:
385,220,48230,1,8,0:0:0:0:
385,220,48430,1,0,0:0:0:0:
385,220,48730,1,0,0:0:0:0:
385,220,49030,1,0,0:0:0:0:
385,220,49230,1,8,0:0:0:0:
385,220,49630,1,8,0:0:0:0:
385,220,50030,1,0,0:0:0:0:
385,220,50430,1,0,0:0:0:0:
385,220,50830,1,8,0:0:0:0:
385,220,51230,1,8,0:0:0:0:
385,220,51430,1,0,0:0:0:0:
321,154,51630,1,8,0:0:0:0:
370,234,53230,5,4,0:0:0:0:
466,84,56430,1,4,0:0:0:0:
256,210,58830,1,12,0:0:0:0:
256,210,59030,1,12,0:0:0:0:
256,210,59230,1,12,0:0:0:0:
256,210,59430,1,12,0:0:0:0:
401,157,59630,1,4,0:0:0:0:
425,137,62830,5,4,0:0:0:0:
368,182,65230,1,12,0:0:0:0:
368,182,65430,1,12,0:0:0:0:
368,182,65630,1,12,0:0:0:0:
368,182,65830,1,12,0:0:0:0:
68,125,66030,5,4,0:0:0:0:
68,125,66230,1,8,0:0:0:0:
68,125,66330,1,0,0:0:0:0:
195,151,66430,1,8,0:0:0:0:
195,151,66530,1,0,0:0:0:0:
195,151,66630,1,8,0:0:0:0:
195,151,66730,1,8,0:0:0:0:
195,151,66830,1,0,0:0:0:0:
195,151,66930,1,0,0:0:0:0:
195,151,67030,1,8,0:0:0:0:
195,151,67130,1,0,0:0:0:0:
195,151,67230,1,8,0:0:0:0:
195,151,67330,1,8,0:0:0:0:
195,151,67430,1,0,0:0:0:0:
167,57,67630,1,8,0:0:0:0:
167,57,67730,1,8,0:0:0:0:
167,57,67830,1,0,0:0:0:0:
261,131,67880,1,0,0:0:0:0:
167,57,67930,1,0,0:0:0:0:
261,131,67980,1,0,0:0:0:0:
167,57,68030,1,8,0:0:0:0:
167,57,68130,1,8,0:0:0:0:
473,304,68230,1,0,0:0:0:0:
343,191,68280,1,0,0:0:0:0:
473,304,68330,1,8,0:0:0:0:
343,191,68380,1,8,0:0:0:0:
343,191,68430,1,0,0:0:0:0:
343,191,68530,1,8,0:0:0:0:
343,191,68580,1,8,0:0:0:0:
343,191,68630,1,0,0:0:0:0:
343,191,68730,1,8,0:0:0:0:
343,191,68780,1,0,0:0:0:0:
343,191,68830,1,8,0:0:0:0:
341,148,68930,1,0,0:0:0:0:
187,72,69030,1,8,0:0:0:0:
302,179,69230,1,0,0:0:0:0:
302,179,69330,1,8,0:0:0:0:
232,118,69430,1,8,0:0:0:0:
232,118,69530,1,0,0:0:0:0:
319,204,69630,1,8,0:0:0:0:
319,204,69730,1,0,0:0:0:0:
319,204,69830,1,8,0:0:0:0:
319,204,69930,1,8,0:0:0:0:
293,144,70030,1,0,0:0:0:0:
313,88,70130,1,0,0:0:0:0:
313,88,70230,1,8,0:0:0:0:
313,88,70330,1,8,0:0:0:0:
306,82,70430,1,0,0:0:0:0:
306,82,70530,1,8,0:0:0:0:
304,82,70630,1,0,0:0:0:0:
405,66,70830,1,8,0:0:0:0:
412,71,70880,1,8,0:0:0:0:
415,71,70930,1,8,0:0:0:0:
303,95,71030,1,0,0:0:0:0:
303,95,71130,1,8,0:0:0:0:
286,78,71180,1,8,0:0:0:0:
277,78,71230,1,0,0:0:0:0:
212,40,71330,1,0,0:0:0:0:
203,49,71430,1,8,0:0:0:0:
190,55,71480,1,8,0:0:0:0:
425,224,71530,1,0,0:0:0:0:
425,224,71580,1,0,0:0:0:0:
425,224,71630,1,8,0:0:0:0:
425,224,71730,1,8,0:0:0:0:
425,224,71780,1,8,0:0:0:0:
340,201,71830,1,0,0:0:0:0:
340,201,71880,1,0,0:0:0:0:
340,201,71930,1,8,0:0:0:0:
340,201,71980,1,8,0:0:0:0:
340,201,72030,1,0,0:0:0:0:
340,201,72130,1,8,0:0:0:0:
270,169,72230,1,0,0:0:0:0:
266,117,72430,1,8,0:0:0:0:
266,117,72530,1,0,0:0:0:0:
266,117,72630,1,8,0:0:0:0:
266,117,72730,1,8,0:0:0:0:
266,117,72830,1,0,0:0:0:0:
266,117,72930,1,0,0:0:0:0:
266,117,73030,1,8,0:0:0:0:
266,117,73130,1,8,0:0:0:0:
266,117,73230,1,0,0:0:0:0:
266,117,73330,1,8,0:0:0:0:
266,117,73430,1,0,0:0:0:0:
266,117,73530,1,0,0:0:0:0:
258,118,73630,1,0,0:0:0:0:
257,118,73730,1,12,0:0:0:0:
212,81,74030,1,8,0:0:0:0:
121,46,74130,1,8,0:0:0:0:
121,46,74230,1,8,0:0:0:0:
121,46,74330,1,0,0:0:0:0:
121,46,74430,1,8,0:0:0:0:
121,46,74530,1,8,0:0:0:0:
121,46,74630,1,0,0:0:0:0:
121,46,74730,1,0,0:0:0:0:
121,46,74830,1,8,0:0:0:0:
121,46,74930,1,0,0:0:0:0:
121,46,75030,1,8,0:0:0:0:
121,46,75130,1,8,0:0:0:0:
121,46,75230,1,0,0:0:0:0:
121,46,75330,1,12,0:0:0:0:
121,46,75630,1,0,0:0:0:0:
121,46,75730,1,0,0:0:0:0:
121,46,75830,1,8,0:0:0:0:
121,46,75930,1,8,0:0:0:0:
121,46,76030,1,0,0:0:0:0:
121,46,76130,1,8,0:0:0:0:
121,46,76230,1,0,0:0:0:0:
121,46,76330,1,0,0:0:0:0:
121,46,76430,1,8,0:0:0:0:
121,46,76530,1,8,0:0:0:0:
121,46,76630,1,0,0:0:0:0:
121,46,76730,1,0,0:0:0:0:
250,114,76830,1,8,0:0:0:0:
250,114,76930,1,8,0:0:0:0:
250,114,77030,1,8,0:0:0:0:
250,114,77130,1,0,0:0:0:0:
220,78,77230,1,8,0:0:0:0:
220,78,77330,1,8,0:0:0:0:
220,78,77430,1,0,0:0:0:0:
220,78,77530,1,8,0:0:0:0:
220,78,77630,1,0,0:0:0:0:
235,98,77730,1,0,0:0:0:0:
235,98,77830,1,8,0:0:0:0:
235,98,77930,1,8,0:0:0:0:
248,132,78030,1,0,0:0:0:0:
248,132,78080,1,0,0:0:0:0:
248,132,78130,1,0,0:0:0:0:
248,132,78180,1,0,0:0:0:0:
161,83,78230,1,8,0:0:0:0:
161,83,78280,1,8,0:0:0:0:
161,83,78330,1,0,0:0:0:0:
161,83,78380,1,0,0:0:0:0:
161,83,78430,1,8,0:0:0:0:
161,83,78480,1,8,0:0:0:0:
161,83,78530,1,8,0:0:0:0:
161,83,78580,1,8,0:0:0:0:
161,83,78630,1,0,0:0:0:0:
161,83,78680,1,0,0:0:0:0:
161,83,78730,1,8,0:0:0:0:
161,83,78780,1,8,0:0:0:0:
161,83,78830,1,4,0:0:0:0:
256,192,78930,12,0,81230,0:0:0:0:
219,119,82030,5,0,0:0:0:0:
294,129,82130,1,8,0:0:0:0:
294,129,82230,1,0,0:0:0:0:
294,129,82330,1,0,0:0:0:0:
294,129,82380,1,0,0:0:0:0:
294,129,82430,1,8,0:0:0:0:
216,73,82530,1,0,0:0:0:0:
199,52,82630,1,8,0:0:0:0:
199,52,82680,1,0,0:0:0:0:
199,52,82730,1,8,0:0:0:0:
199,52,82780,1,8,0:0:0:0:
199,52,82830,1,0,0:0:0:0:
195,58,82930,1,8,0:0:0:0:
192,61,83030,1,0,0:0:0:0:
256,112,83080,1,0,0:0:0:0:
192,61,83130,1,0,0:0:0:0:
286,190,83230,1,8,0:0:0:0:
169,35,83330,1,8,0:0:0:0:
169,35,83430,1,0,0:0:0:0:
272,197,83630,1,8,0:0:0:0:
272,197,83730,1,8,0:0:0:0:
239,103,83830,1,0,0:0:0:0:
239,103,83930,1,8,0:0:0:0:
177,95,84030,1,0,0:0:0:0:
177,95,84130,1,8,0:0:0:0:
155,75,84230,1,8,0:0:0:0:
177,95,84280,1,8,0:0:0:0:
177,95,84330,1,0,0:0:0:0:
155,75,84380,1,0,0:0:0:0:
155,75,84430,1,8,0:0:0:0:
305,140,84530,1,0,0:0:0:0:
305,140,84580,1,0,0:0:0:0:
183,51,84630,1,8,0:0:0:0:
179,51,84730,1,0,0:0:0:0:
175,43,84780,1,0,0:0:0:0:
179,51,84830,1,0,0:0:0:0:
179,51,84930,1,8,0:0:0:0:
179,51,84980,1,8,0:0:0:0:
169,39,85030,1,8,0:0:0:0:
170,41,85130,1,0,0:0:0:0:
169,39,85230,1,8,0:0:0:0:
256,100,85330,1,0,0:0:0:0:
256,100,85430,1,8,0:0:0:0:
256,100,85530,1,8,0:0:0:0:
256,100,85630,1,0,0:0:0:0:
256,100,85730,1,8,0:0:0:0:
256,100,85830,1,0,0:0:0:0:
256,100,85880,1,0,0:0:0:0:
256,100,85930,1,0,0:0:0:0:
256,100,85980,1,0,0:0:0:0:
232,60,86030,1,8,0:0:0:0:
232,60,86130,1,8,0:0:0:0:
232,60,86230,1,0,0:0:0:0:
232,60,86330,1,8,0:0:0:0:
232,60,86430,1,0,0:0:0:0:
232,60,86530,1,8,0:0:0:0:
232,60,86630,1,0,0:0:0:0:
368,212,86830,1,8,0:0:0:0:
217,149,86930,1,8,0:0:0:0:
254,119,87030,1,0,0:0:0:0:
254,119,87130,1,0,0:0:0:0:
217,149,87230,1,8,0:0:0:0:
217,149,87330,1,0,0:0:0:0:
217,149,87430,1,8,0:0:0:0:
104,111,87480,1,8,0:0:0:0:
217,149,87530,1,8,0:0:0:0:
217,149,87580,1,8,0:0:0:0:
362,205,87630,1,0,0:0:0:0:
362,205,87830,1,0,0:0:0:0:
362,205,88030,1,0,0:0:0:0:
362,205,88230,1,0,0:0:0:0:
195,138,88430,1,8,0:0:0:0:
195,138,88530,1,0,0:0:0:0:
195,138,88630,1,8,0:0:0:0:
258,98,88730,1,8,0:0:0:0:
258,98,88830,1,0,0:0:0:0:
221,92,88930,1,0,0:0:0:0:
221,92,89030,1,8,0:0:0:0:
221,92,89080,1,8,0:0:0:0:
221,92,89130,1,8,0:0:0:0:
221,92,89180,1,8,0:0:0:0:
221,92,89230,1,0,0:0:0:0:
221,92,89330,1,0,0:0:0:0:
214,101,89430,1,8,0:0:0:0:
214,101,89530,1,8,0:0:0:0:
214,101,89630,1,0,0:0:0:0:
159,149,89730,1,8,0:0:0:0:
159,149,89830,1,0,0:0:0:0:
159,149,90030,1,0,0:0:0:0:
170,139,90130,1,0,0:0:0:0:
168,138,90230,1,8,0:0:0:0:
168,138,90330,1,8,0:0:0:0:
168,138,90430,1,0,0:0:0:0:
168,138,90530,1,8,0:0:0:0:
235,69,90630,1,0,0:0:0:0:
235,69,90680,1,0,0:0:0:0:
235,69,90730,1,8,0:0:0:0:
235,69,90780,1,8,0:0:0:0:
235,69,90830,1,0,0:0:0:0:
235,69,90930,1,8,0:0:0:0:
319,127,90980,1,8,0:0:0:0:
196,37,91030,1,0,0:0:0:0:
196,37,91130,1,8,0:0:0:0:
196,37,91180,1,8,0:0:0:0:
196,37,91230,1,8,0:0:0:0:
196,37,91330,1,0,0:0:0:0:
196,37,91380,1,0,0:0:0:0:
196,37,91430,1,8,0:0:0:0:
221,134,91530,1,0,0:0:0:0:
339,269,91630,1,8,0:0:0:0:
339,269,91663,1,8,0:0:0:0:
339,269,91696,1,8,0:0:0:0:
290,102,91730,1,0,0:0:0:0:
290,102,91780,1,0,0:0:0:0:
290,102,91830,1,8,0:0:0:0:
384,195,91930,1,8,0:0:0:0:
254,102,92030,1,8,0:0:0:0:
254,102,92130,1,0,0:0:0:0:
452,129,92330,1,0,0:0:0:0:
452,129,92530,1,0,0:0:0:0:
170,138,92730,1,0,0:0:0:0:
170,138,92830,1,0,0:0:0:0:
170,138,93030,1,0,0:0:0:0:
52,188,93230,1,0,0:0:0:0:
256,192,93430,12,0,93930,0:0:0:0:
368,145,94030,5,4,0:0:0:0:
368,145,94230,1,4,0:0:0:0:
368,145,94430,1,12,0:0:0:0:
342,201,94630,1,4,0:0:0:0:
349,265,94830,1,8,0:0:0:0:
349,265,94930,1,8,0:0:0:0:
349,265,95030,1,0,0:0:0:0:
349,265,95130,1,8,0:0:0:0:
217,167,95230,1,0,0:0:0:0:
217,167,95330,1,0,0:0:0:0:
217,167,95430,1,8,0:0:0:0:
217,167,95480,1,0,0:0:0:0:
217,167,95530,1,0,0:0:0:0:
217,167,95580,1,0,0:0:0:0:
217,167,95630,1,8,0:0:0:0:
203,128,95730,1,8,0:0:0:0:
203,128,95830,1,0,0:0:0:0:
203,128,95930,1,8,0:0:0:0:
203,128,96030,1,0,0:0:0:0:
203,128,96080,1,0,0:0:0:0:
203,128,96130,1,8,0:0:0:0:
203,128,96230,1,0,0:0:0:0:
312,246,96430,5,8,0:0:0:0:
305,209,96530,1,8,0:0:0:0:
305,209,96630,1,0,0:0:0:0:
305,209,96730,1,0,0:0:0:0:
434,275,96830,1,8,0:0:0:0:
434,275,96930,1,0,0:0:0:0:
182,148,97030,1,8,0:0:0:0:
182,148,97080,1,8,0:0:0:0:
182,148,97130,1,0,0:0:0:0:
203,62,97180,1,8,0:0:0:0:
203,62,97230,1,0,0:0:0:0:
250,117,97330,1,8,0:0:0:0:
250,117,97380,1,8,0:0:0:0:
250,117,97430,1,8,0:0:0:0:
250,117,97530,1,0,0:0:0:0:
250,117,97580,1,0,0:0:0:0:
250,117,97630,1,8,0:0:0:0:
250,117,97730,1,0,0:0:0:0:
250,117,97780,1,0,0:0:0:0:
250,117,97830,1,0,0:0:0:0:
250,117,97930,1,0,0:0:0:0:
250,117,98030,1,8,0:0:0:0:
240,108,98080,1,8,0:0:0:0:
239,106,98130,1,0,0:0:0:0:
239,106,98180,1,0,0:0:0:0:
239,106,98230,1,8,0:0:0:0:
239,106,98280,1,0,0:0:0:0:
179,62,98330,1,8,0:0:0:0:
179,62,98380,1,8,0:0:0:0:
409,293,98430,1,0,0:0:0:0:
409,293,98530,1,0,0:0:0:0:
409,293,98630,1,0,0:0:0:0:
401,179,98730,1,12,0:0:0:0:
261,177,98930,1,0,0:0:0:0:
261,177,99030,1,0,0:0:0:0:
261,177,99130,1,0,0:0:0:0:
261,177,99230,1,8,0:0:0:0:
261,177,99330,1,0,0:0:0:0:
261,177,99430,1,0,0:0:0:0:
195,83,99630,1,0,0:0:0:0:
197,161,99730,1,8,0:0:0:0:
197,161,99780,1,8,0:0:0:0:
197,161,99830,1,8,0:0:0:0:
197,161,99930,1,0,0:0:0:0:
197,161,99980,1,0,0:0:0:0:
276,162,100030,1,0,0:0:0:0:
276,162,100130,1,8,0:0:0:0:
276,162,100180,1,8,0:0:0:0:
276,162,100230,1,0,0:0:0:0:
423,205,100280,1,0,0:0:0:0:
276,162,100330,1,8,0:0:0:0:
276,162,100380,1,8,0:0:0:0:
276,162,100430,1,0,0:0:0:0:
235,178,100630,1,8,0:0:0:0:
235,178,100730,1,0,0:0:0:0:
235,178,100830,1,8,0:0:0:0:
235,178,100930,1,8,0:0:0:0:
210,112,101030,1,0,0:0:0:0:
210,112,101080,1,0,0:0:0:0:
210,112,101130,1,8,0:0:0:0:
210,112,101180,1,8,0:0:0:0:
432,200,101230,1,4,0:0:0:0:
324,103,101430,1,8,0:0:0:0:
324,103,101630,1,8,0:0:0:0:
324,103,101830,1,8,0:0:0:0:
324,103,102030,1,8,0:0:0:0:
324,103,102230,1,8,0:0:0:0:
209,77,102430,1,8,0:0:0:0:
487,165,102530,1,4,0:0:0:0:
379,138,102830,1,8,0:0:0:0:
209,77,103030,1,8,0:0:0:0:
209,77,103230,1,8,0:0:0:0:
209,77,103430,1,8,0:0:0:0:
209,77,103630,1,8,0:0:0:0:
209,77,103830,1,8,0:0:0:0:
209,77,104030,1,8,0:0:0:0:
248,64,104130,1,4,0:0:0:0:
329,175,104430,5,0,0:0:0:0:
329,175,104480,1,0,0:0:0:0:
329,175,104530,1,0,0:0:0:0:
329,175,104580,1,0,0:0:0:0:
329,175,104630,1,8,0:0:0:0:
329,175,104680,1,8,0:0:0:0:
329,175,104730,1,0,0:0:0:0:
329,175,104780,1,0,0:0:0:0:
329,175,104830,1,8,0:0:0:0:
329,175,104880,1,0,0:0:0:0:
329,175,104930,1,8,0:0:0:0:
329,175,104980,1,8,0:0:0:0:
329,175,105030,1,0,0:0:0:0:
329,175,105080,1,0,0:0:0:0:
329,175,105130,1,8,0:0:0:0:
329,175,105180,1,8,0:0:0:0:
329,175,105230,1,0,0:0:0:0:
329,175,105280,1,0,0:0:0:0:
329,175,105330,1,0,0:0:0:0:
329,175,105380,1,0,0:0:0:0:
329,175,105430,1,8,0:0:0:0:
329,175,105480,1,8,0:0:0:0:
329,175,105530,1,0,0:0:0:0:
254,88,105580,1,0,0:0:0:0:
329,175,105630,1,8,0:0:0:0:
254,88,105680,1,0,0:0:0:0:
254,88,105730,1,8,0:0:0:0:
248,80,105780,1,0,0:0:0:0:
150,75,105830,5,8,0:0:0:0:
150,75,105880,1,8,0:0:0:0:
150,75,105930,1,8,0:0:0:0:
150,75,105980,1,8,0:0:0:0:
150,75,106030,1,0,0:0:0:0:
428,231,106430,1,8,0:0:0:0:
215,140,106530,1,8,0:0:0:0:
215,140,106630,1,0,0:0:0:0:
215,140,106730,1,0,0:0:0:0:
215,140,106830,1,8,0:0:0:0:
188,110,106930,1,8,0:0:0:0:
188,110,107030,1,0,0:0:0:0:
188,110,107130,1,0,0:0:0:0:
367,202,107230,1,8,0:0:0:0:
367,202,107280,1,8,0:0:0:0:
367,202,107330,1,8,0:0:0:0:
367,202,107380,1,8,0:0:0:0:
367,202,107430,1,0,0:0:0:0:
367,202,107480,1,0,0:0:0:0:
367,202,107530,1,0,0:0:0:0:
367,202,107580,1,0,0:0:0:0:
367,202,107630,1,12,0:0:0:0:
428,135,107930,1,12,0:0:0:0:
428,135,108230,1,12,0:0:0:0:
322,142,108430,1,8,0:0:0:0:
322,142,108480,1,0,0:0:0:0:
322,142,108530,1,8,0:0:0:0:
322,142,108580,1,8,0:0:0:0:
322,142,108630,1,0,0:0:0:0:
322,142,108680,1,0,0:0:0:0:
238,80,108730,1,8,0:0:0:0:
238,80,108780,1,0,0:0:0:0:
238,80,108830,1,8,0:0:0:0:
238,80,108880,1,8,0:0:0:0:
238,80,108930,1,0,0:0:0:0:
238,80,108980,1,0,0:0:0:0:
238,80,109030,1,8,0:0:0:0:
238,80,109080,1,0,0:0:0:0:
238,80,109130,1,8,0:0:0:0:
238,80,109180,1,8,0:0:0:0:
238,80,109230,1,0,0:0:0:0:
238,80,109280,1,0,0:0:0:0:
265,118,109330,1,0,0:0:0:0:
265,118,109380,1,0,0:0:0:0:
495,277,109430,1,8,0:0:0:0:
376,216,109530,1,8,0:0:0:0:
376,216,109630,1,0,0:0:0:0:
376,216,109680,1,0,0:0:0:0:
376,216,109730,1,8,0:0:0:0:
376,216,109780,1,8,0:0:0:0:
158,37,109830,1,8,0:0:0:0:
376,216,109880,1,8,0:0:0:0:
376,216,109930,1,0,0:0:0:0:
365,131,110030,1,8,0:0:0:0:
365,131,110080,1,0,0:0:0:0:
365,131,110130,1,8,0:0:0:0:
365,131,110180,1,0,0:0:0:0:
319,91,110230,1,8,0:0:0:0:
319,91,110280,1,8,0:0:0:0:
319,91,110330,1,0,0:0:0:0:
299,106,110430,1,8,0:0:0:0:
297,105,110480,1,8,0:0:0:0:
297,105,110530,1,0,0:0:0:0:
297,105,110580,1,0,0:0:0:0:
240,76,110630,1,8,0:0:0:0:
362,137,110680,1,8,0:0:0:0:
362,137,110730,1,0,0:0:0:0:
362,137,110780,1,0,0:0:0:0:
350,127,110830,1,12,0:0:0:0:
350,127,111130,1,12,0:0:0:0:
348,128,111430,1,12,0:0:0:0:
313,100,111630,1,8,0:0:0:0:
313,100,111680,1,8,0:0:0:0:
138,147,111730,1,0,0:0:0:0:
138,147,111780,1,0,0:0:0:0:
138,147,111830,1,8,0:0:0:0:
132,120,111880,1,0,0:0:0:0:
132,120,111930,1,8,0:0:0:0:
132,120,111980,1,8,0:0:0:0:
132,120,112030,1,0,0:0:0:0:
132,120,112080,1,0,0:0:0:0:
132,120,112130,1,8,0:0:0:0:
132,120,112180,1,0,0:0:0:0:
132,120,112230,1,8,0:0:0:0:
132,120,112280,1,8,0:0:0:0:
329,64,112330,1,8,0:0:0:0:
329,64,112380,1,8,0:0:0:0:
329,64,112430,1,0,0:0:0:0:
365,111,112530,1,8,0:0:0:0:
365,111,112580,1,8,0:0:0:0:
365,111,112630,1,0,0:0:0:0:
315,154,112680,1,0,0:0:0:0:
365,111,112730,1,8,0:0:0:0:
354,106,112830,1,0,0:0:0:0:
352,105,112930,1,0,0:0:0:0:
352,105,113030,1,0,0:0:0:0:
352,105,113130,1,8,0:0:0:0:
350,105,113230,1,8,0:0:0:0:
350,105,113280,1,8,0:0:0:0:
350,105,113330,1,0,0:0:0:0:
225,84,113430,1,0,0:0:0:0:
272,104,113480,1,0,0:0:0:0:
350,105,113530,1,8,0:0:0:0:
350,105,113580,1,8,0:0:0:0:
225,84,113630,1,8,0:0:0:0:
225,84,113680,1,8,0:0:0:0:
225,84,113730,1,0,0:0:0:0:
225,84,113830,1,8,0:0:0:0:
225,84,113880,1,0,0:0:0:0:
205,89,113930,1,0,0:0:0:0:
201,69,113980,1,0,0:0:0:0:
225,84,114030,1,12,0:0:0:0:
288,57,114330,1,12,0:0:0:0:
288,57,114630,1,12,0:0:0:0:
225,113,114830,1,8,0:0:0:0:
225,113,114880,1,8,0:0:0:0:
219,101,114930,1,8,0:0:0:0:
225,99,114980,1,8,0:0:0:0:
225,98,115030,1,0,0:0:0:0:
225,98,115080,1,0,0:0:0:0:
226,98,115130,1,0,0:0:0:0:
226,98,115180,1,0,0:0:0:0:
221,82,115230,1,8,0:0:0:0:
221,82,115280,1,8,0:0:0:0:
221,82,115330,1,0,0:0:0:0:
221,82,115380,1,0,0:0:0:0:
221,82,115430,1,8,0:0:0:0:
221,82,115480,1,8,0:0:0:0:
221,82,115530,1,8,0:0:0:0:
221,82,115580,1,8,0:0:0:0:
221,82,115630,1,0,0:0:0:0:
222,82,115730,1,8,0:0:0:0:
219,42,115780,5,8,0:0:0:0:
219,42,115830,1,0,0:0:0:0:
219,42,115880,1,0,0:0:0:0:
219,42,115930,1,8,0:0:0:0:
219,42,115980,1,8,0:0:0:0:
219,42,116030,1,0,0:0:0:0:
345,209,116130,1,8,0:0:0:0:
345,209,116180,1,0,0:0:0:0:
345,209,116280,1,8,0:0:0:0:
345,209,116330,1,0,0:0:0:0:
230,136,116430,1,0,0:0:0:0:
230,136,116530,1,8,0:0:0:0:
230,136,116580,1,0,0:0:0:0:
230,136,116680,1,8,0:0:0:0:
230,136,116730,1,0,0:0:0:0:
201,151,116830,1,8,0:0:0:0:
325,220,116880,1,8,0:0:0:0:
201,151,116930,1,0,0:0:0:0:
325,220,116980,1,0,0:0:0:0:
201,151,117030,1,8,0:0:0:0:
325,220,117080,1,8,0:0:0:0:
201,151,117130,1,0,0:0:0:0:
201,151,117230,1,12,0:0:0:0:
280,108,117330,1,8,0:0:0:0:
470,242,117430,1,0,0:0:0:0:
470,242,117480,1,0,0:0:0:0:
269,66,117530,1,0,0:0:0:0:
269,66,117580,1,0,0:0:0:0:
269,66,117630,1,8,0:0:0:0:
226,63,117680,1,8,0:0:0:0:
226,63,117730,1,0,0:0:0:0:
217,44,117830,1,8,0:0:0:0:
217,44,117880,1,0,0:0:0:0:
217,44,117930,1,0,0:0:0:0:
217,44,118030,1,8,0:0:0:0:
217,44,118080,1,8,0:0:0:0:
217,44,118130,1,0,0:0:0:0:
206,106,118230,1,8,0:0:0:0:
228,129,118280,1,0,0:0:0:0:
228,129,118330,1,8,0:0:0:0:
228,129,118380,1,8,0:0:0:0:
206,106,118430,1,0,0:0:0:0:
206,106,118480,1,0,0:0:0:0:
206,106,118530,1,8,0:0:0:0:
156,57,118580,1,0,0:0:0:0:
156,57,118630,1,8,0:0:0:0:
156,57,118680,1,8,0:0:0:0:
156,57,118730,1,0,0:0:0:0:
199,69,118780,1,0,0:0:0:0:
257,93,118830,1,8,0:0:0:0:
257,93,118930,1,8,0:0:0:0:
257,93,119030,1,0,0:0:0:0:
257,93,119130,1,8,0:0:0:0:
257,93,119230,1,0,0:0:0:0:
257,93,119330,1,0,0:0:0:0:
257,93,119430,1,8,0:0:0:0:
257,93,119530,1,0,0:0:0:0:
220,102,119630,5,8,0:0:0:0:
220,102,119680,1,8,0:0:0:0:
201,64,119730,1,8,0:0:0:0:
201,64,119780,1,8,0:0:0:0:
201,64,119830,1,0,0:0:0:0:
201,64,119880,1,0,0:0:0:0:
201,64,119930,1,0,0:0:0:0:
201,64,119980,1,0,0:0:0:0:
201,64,120030,1,8,0:0:0:0:
132,177,120230,1,8,0:0:0:0:
206,142,120430,1,0,0:0:0:0:
197,28,120530,1,8,0:0:0:0:
183,98,120580,1,8,0:0:0:0:
183,98,120630,1,8,0:0:0:0:
166,68,120680,1,8,0:0:0:0:
183,98,120730,1,0,0:0:0:0:
197,28,120830,1,8,0:0:0:0:
197,28,120880,1,8,0:0:0:0:
197,28,120930,1,0,0:0:0:0:
197,28,120980,1,0,0:0:0:0:
197,28,121030,1,8,0:0:0:0:
314,113,121130,1,0,0:0:0:0:
314,113,121230,1,8,0:0:0:0:
314,113,121280,1,8,0:0:0:0:
305,98,121330,1,8,0:0:0:0:
305,98,121380,1,8,0:0:0:0:
305,98,121430,1,0,0:0:0:0:
305,98,121480,1,0,0:0:0:0:
305,98,121530,1,8,0:0:0:0:
305,98,121580,1,0,0:0:0:0:
305,98,121630,1,8,0:0:0:0:
305,98,121680,1,8,0:0:0:0:
305,98,121730,1,0,0:0:0:0:
305,98,121780,1,0,0:0:0:0:
356,181,121830,1,8,0:0:0:0:
356,181,121880,1,8,0:0:0:0:
356,181,121930,1,0,0:0:0:0:
305,98,121980,1,8,0:0:0:0:
305,98,122030,1,0,0:0:0:0:
450,245,122080,1,0,0:0:0:0:
450,245,122130,1,0,0:0:0:0:
450,245,122180,1,0,0:0:0:0:
176,68,122230,1,8,0:0:0:0:
176,68,122330,1,0,0:0:0:0:
307,151,122430,1,8,0:0:0:0:
307,151,122530,1,0,0:0:0:0:
232,142,122630,1,8,0:0:0:0:
223,136,122680,1,8,0:0:0:0:
246,126,122730,1,0,0:0:0:0:
203,108,122780,1,0,0:0:0:0:
203,108,122830,1,8,0:0:0:0:
288,153,122930,1,0,0:0:0:0:
286,153,122980,1,0,0:0:0:0:
286,153,123030,1,0,0:0:0:0:
154,76,123080,1,0,0:0:0:0:
308,48,123130,1,8,0:0:0:0:
277,141,123180,1,8,0:0:0:0:
277,141,123230,1,0,0:0:0:0:
206,49,123280,1,0,0:0:0:0:
265,114,123330,1,8,0:0:0:0:
265,118,123430,1,0,0:0:0:0:
265,118,123480,1,0,0:0:0:0:
285,57,123530,1,8,0:0:0:0:
285,57,123580,1,8,0:0:0:0:
285,57,123630,1,0,0:0:0:0:
352,45,123730,1,8,0:0:0:0:
320,45,123780,1,8,0:0:0:0:
352,45,123830,1,8,0:0:0:0:
306,182,123880,1,8,0:0:0:0:
320,45,123930,1,0,0:0:0:0:
234,171,124030,1,8,0:0:0:0:
234,171,124080,1,8,0:0:0:0:
214,123,124130,1,0,0:0:0:0:
306,182,124180,1,8,0:0:0:0:
234,171,124230,1,0,0:0:0:0:
234,171,124280,1,0,0:0:0:0:
234,171,124330,1,0,0:0:0:0:
234,171,124380,1,0,0:0:0:0:
234,171,124430,1,8,0:0:0:0:
174,135,124480,1,8,0:0:0:0:
174,135,124530,1,0,0:0:0:0:
174,135,124630,1,8,0:0:0:0:
174,135,124680,1,0,0:0:0:0:
174,135,124730,1,8,0:0:0:0:
174,135,124780,1,8,0:0:0:0:
174,135,124830,1,0,0:0:0:0:
174,135,124880,1,0,0:0:0:0:
174,135,124930,1,8,0:0:0:0:
174,135,124980,1,8,0:0:0:0:
174,135,125030,1,0,0:0:0:0:
181,139,125080,1,0,0:0:0:0:
181,139,125130,1,0,0:0:0:0:
181,139,125180,1,0,0:0:0:0:
181,139,125230,1,8,0:0:0:0:
180,139,125330,1,8,0:0:0:0:
180,139,125430,1,0,0:0:0:0:
176,143,125480,1,0,0:0:0:0:
178,142,125530,1,8,0:0:0:0:
176,143,125630,1,0,0:0:0:0:
181,144,125730,1,8,0:0:0:0:
181,144,125780,1,8,0:0:0:0:
181,144,125830,1,8,0:0:0:0:
181,144,125880,1,8,0:0:0:0:
181,139,125930,1,0,0:0:0:0:
181,139,125980,1,0,0:0:0:0:
181,139,126030,1,8,0:0:0:0:
249,199,126130,1,8,0:0:0:0:
249,199,126230,1,0,0:0:0:0:
249,199,126330,1,8,0:0:0:0:
249,199,126430,1,0,0:0:0:0:
249,199,126630,1,8,0:0:0:0:
274,157,126830,1,0,0:0:0:0:
249,146,126930,1,8,0:0:0:0:
248,146,126980,1,8,0:0:0:0:
366,129,127030,1,8,0:0:0:0:
347,131,127080,1,0,0:0:0:0:
366,129,127130,1,0,0:0:0:0:
366,129,127230,1,8,0:0:0:0:
358,129,127280,1,8,0:0:0:0:
356,129,127330,1,0,0:0:0:0:
347,131,127380,1,0,0:0:0:0:
356,129,127430,1,8,0:0:0:0:
344,133,127530,1,0,0:0:0:0:
170,144,127630,1,8,0:0:0:0:
185,35,127680,1,8,0:0:0:0:
179,134,127730,1,8,0:0:0:0:
179,134,127780,1,8,0:0:0:0:
179,133,127830,1,0,0:0:0:0:
179,133,127880,1,0,0:0:0:0:
179,133,127930,1,8,0:0:0:0:
178,133,127980,1,0,0:0:0:0:
177,133,128030,1,8,0:0:0:0:
177,133,128080,1,8,0:0:0:0:
177,133,128130,1,0,0:0:0:0:
177,133,128180,1,0,0:0:0:0:
177,133,128230,1,8,0:0:0:0:
177,133,128280,1,8,0:0:0:0:
177,133,128330,1,0,0:0:0:0:
177,133,128380,1,0,0:0:0:0:
179,134,128430,1,8,0:0:0:0:
179,134,128480,1,8,0:0:0:0:
179,134,128530,1,8,0:0:0:0:
179,133,128580,1,8,0:0:0:0:
322,151,128630,1,0,0:0:0:0:
250,263,128730,1,0,0:0:0:0:
250,263,128830,1,8,0:0:0:0:
250,105,128880,1,8,0:0:0:0:
250,105,128930,1,0,0:0:0:0:
179,62,128980,1,0,0:0:0:0:
179,62,129030,1,8,0:0:0:0:
175,64,129080,1,8,0:0:0:0:
175,64,129130,1,0,0:0:0:0:
309,128,129230,1,8,0:0:0:0:
309,128,129330,1,0,0:0:0:0:
309,128,129380,1,0,0:0:0:0:
309,128,129430,1,8,0:0:0:0:
286,119,129480,1,8,0:0:0:0:
286,119,129530,1,0,0:0:0:0:
224,129,129630,1,8,0:0:0:0:
224,129,129680,1,0,0:0:0:0:
224,129,129730,1,0,0:0:0:0:
224,129,129780,1,8,0:0:0:0:
224,129,129830,1,0,0:0:0:0:
224,129,129880,1,0,0:0:0:0:
224,129,129930,1,8,0:0:0:0:
224,129,129980,1,8,0:0:0:0:
224,129,130030,1,0,0:0:0:0:
224,129,130130,1,0,0:0:0:0:
189,79,130230,5,8,0:0:0:0:
189,79,130280,1,8,0:0:0:0:
189,79,130330,1,0,0:0:0:0:
256,51,130430,1,8,0:0:0:0:
242,146,130530,1,0,0:0:0:0:
218,45,130580,1,0,0:0:0:0:
256,51,130630,1,8,0:0:0:0:
189,79,130730,1,0,0:0:0:0:
189,79,130830,1,8,0:0:0:0:
189,79,130930,1,0,0:0:0:0:
189,79,131030,1,8,0:0:0:0:
189,79,131080,1,8,0:0:0:0:
189,79,131130,1,0,0:0:0:0:
189,79,131230,1,0,0:0:0:0:
189,79,131280,1,0,0:0:0:0:
219,79,131330,1,8,0:0:0:0:
217,78,131380,1,8,0:0:0:0:
217,78,131430,1,0,0:0:0:0:
215,78,131480,1,8,0:0:0:0:
215,78,131530,1,0,0:0:0:0:
215,78,131580,1,0,0:0:0:0:
215,78,131630,1,8,0:0:0:0:
384,120,131730,1,0,0:0:0:0:
347,98,131830,1,0,0:0:0:0:
384,120,131930,1,8,0:0:0:0:
384,120,132030,1,8,0:0:0:0:
384,120,132130,1,0,0:0:0:0:
347,98,132230,1,8,0:0:0:0:
347,98,132330,1,0,0:0:0:0:
347,98,132430,1,8,0:0:0:0:
300,76,132455,1,8,0:0:0:0:
139,147,132630,1,0,0:0:0:0:
300,76,132655,1,0,0:0:0:0:
277,152,132830,1,8,0:0:0:0:
277,152,132863,1,8,0:0:0:0:
277,152,132896,1,8,0:0:0:0:
277,152,132930,1,0,0:0:0:0:
366,81,132980,1,0,0:0:0:0:
366,82,133030,1,8,0:0:0:0:
342,92,133080,1,8,0:0:0:0:
342,92,133130,1,0,0:0:0:0:
342,92,133180,1,8,0:0:0:0:
420,175,133230,1,4,0:0:0:0:
390,211,133430,1,8,0:0:0:0:
223,162,133530,1,0,0:0:0:0:
390,211,133630,1,8,0:0:0:0:
390,211,133730,1,8,0:0:0:0:
390,211,133830,1,0,0:0:0:0:
390,211,133930,1,8,0:0:0:0:
390,211,134030,1,0,0:0:0:0:
390,211,134130,1,0,0:0:0:0:
390,211,134230,1,8,0:0:0:0:
390,211,134330,1,8,0:0:0:0:
390,211,134430,1,0,0:0:0:0:
320,182,134530,1,8,0:0:0:0:
341,191,134630,1,0,0:0:0:0:
365,150,134830,1,8,0:0:0:0:
365,150,134930,1,8,0:0:0:0:
310,109,135030,1,8,0:0:0:0:
365,150,135130,1,8,0:0:0:0:
310,109,135230,1,0,0:0:0:0:
310,109,135330,1,0,0:0:0:0:
310,109,135430,1,8,0:0:0:0:
310,109,135530,1,0,0:0:0:0:
310,109,135630,1,8,0:0:0:0:
310,109,135730,1,8,0:0:0:0:
310,109,135830,1,0,0:0:0:0:
310,109,135930,1,8,0:0:0:0:
310,109,136030,1,0,0:0:0:0:
218,54,136130,1,0,0:0:0:0:
312,186,136230,5,8,0:0:0:0:
223,127,136280,1,8,0:0:0:0:
218,54,136330,1,8,0:0:0:0:
223,127,136380,1,8,0:0:0:0:
266,77,136430,1,0,0:0:0:0:
165,158,136480,1,0,0:0:0:0:
165,158,136530,1,8,0:0:0:0:
165,158,136580,1,8,0:0:0:0:
165,158,136630,1,0,0:0:0:0:
165,158,136680,1,8,0:0:0:0:
165,158,136730,1,0,0:0:0:0:
165,158,136780,1,0,0:0:0:0:
266,77,136830,1,8,0:0:0:0:
266,77,136880,1,0,0:0:0:0:
254,57,136930,1,8,0:0:0:0:
254,57,136980,1,8,0:0:0:0:
254,57,137030,1,0,0:0:0:0:
254,57,137080,1,0,0:0:0:0:
254,57,137130,1,8,0:0:0:0:
254,57,137180,1,8,0:0:0:0:
254,57,137230,1,0,0:0:0:0:
254,57,137280,1,8,0:0:0:0:
254,57,137330,1,0,0:0:0:0:
254,57,137380,1,0,0:0:0:0:
254,57,137430,1,8,0:0:0:0:
254,57,137480,1,8,0:0:0:0:
254,57,137530,1,8,0:0:0:0:
254,57,137580,1,8,0:0:0:0:
254,57,137630,1,0,0:0:0:0:
165,38,137680,1,0,0:0:0:0:
254,57,137730,1,8,0:0:0:0:
165,38,137780,1,8,0:0:0:0:
165,38,137830,1,0,0:0:0:0:
165,38,137880,1,0,0:0:0:0:
165,38,137930,1,0,0:0:0:0:
165,38,137980,1,0,0:0:0:0:
196,62,138030,1,8,0:0:0:0:
196,62,138080,1,8,0:0:0:0:
197,54,138130,1,0,0:0:0:0:
195,53,138180,1,8,0:0:0:0:
194,53,138230,1,0,0:0:0:0:
194,53,138280,1,0,0:0:0:0:
194,53,138330,1,8,0:0:0:0:
194,52,138380,1,8,0:0:0:0:
194,52,138430,1,0,0:0:0:0:
194,52,138480,1,0,0:0:0:0:
194,52,138530,1,0,0:0:0:0:
194,52,138580,1,0,0:0:0:0:
194,52,138630,1,8,0:0:0:0:
194,52,138680,1,8,0:0:0:0:
194,52,138730,1,8,0:0:0:0:
194,52,138780,1,8,0:0:0:0:
399,222,138830,1,4,0:0:0:0:
399,222,139030,1,4,0:0:0:0:
399,222,139230,1,4,0:0:0:0:
277,224,139630,1,0,0:0:0:0:
287,149,139830,1,8,0:0:0:0:
277,224,140030,1,0,0:0:0:0:
146,57,140230,1,0,0:0:0:0:
221,57,140430,1,8,0:0:0:0:
221,57,140480,1,8,0:0:0:0:
221,57,140530,1,0,0:0:0:0:
221,57,140580,1,0,0:0:0:0:
221,57,140630,1,0,0:0:0:0:
221,57,140680,1,0,0:0:0:0:
221,57,140730,1,8,0:0:0:0:
192,23,140830,1,0,0:0:0:0:
139,112,140880,1,8,0:0:0:0:
214,99,140930,1,0,0:0:0:0:
146,125,140980,1,0,0:0:0:0:
214,99,141030,1,8,0:0:0:0:
190,171,141080,1,8,0:0:0:0:
135,144,141130,1,0,0:0:0:0:
309,184,141230,1,8,0:0:0:0:
309,184,141280,1,0,0:0:0:0:
309,184,141330,1,0,0:0:0:0:
309,184,141380,1,0,0:0:0:0:
309,184,141430,1,8,0:0:0:0:
309,184,141480,1,8,0:0:0:0:
309,184,141530,1,0,0:0:0:0:
309,184,141630,1,8,0:0:0:0:
309,184,141680,1,8,0:0:0:0:
309,184,141730,1,0,0:0:0:0:
309,184,141780,1,0,0:0:0:0:
309,184,141830,1,8,0:0:0:0:
240,126,141930,1,0,0:0:0:0:
240,126,141980,1,0,0:0:0:0:
213,66,142030,1,0,0:0:0:0:
236,85,142130,1,0,0:0:0:0:
236,85,142230,1,8,0:0:0:0:
236,85,142280,1,8,0:0:0:0:
236,85,142330,1,0,0:0:0:0:
230,79,142380,1,8,0:0:0:0:
230,79,142430,1,0,0:0:0:0:
225,77,142530,1,0,0:0:0:0:
225,77,142580,1,0,0:0:0:0:
213,66,142630,1,8,0:0:0:0:
213,66,142730,1,8,0:0:0:0:
217,46,142830,5,0,0:0:0:0:
428,232,143030,5,8,0:0:0:0:
283,51,143230,1,0,0:0:0:0:
283,51,143280,1,0,0:0:0:0:
283,51,143330,1,8,0:0:0:0:
283,51,143380,1,8,0:0:0:0:
283,51,143430,1,8,0:0:0:0:
235,48,143480,1,8,0:0:0:0:
283,51,143530,1,0,0:0:0:0:
235,48,143580,1,8,0:0:0:0:
235,48,143630,1,0,0:0:0:0:
235,48,143680,1,0,0:0:0:0:
235,48,143730,1,8,0:0:0:0:
235,48,143780,1,8,0:0:0:0:
235,48,143830,1,0,0:0:0:0:
251,179,143880,1,0,0:0:0:0:
235,48,143930,1,0,0:0:0:0:
251,179,143980,1,0,0:0:0:0:
235,48,144030,1,8,0:0:0:0:
235,48,144130,1,0,0:0:0:0:
235,48,144230,1,8,0:0:0:0:
235,48,144263,1,8,0:0:0:0:
114,166,144296,1,8,0:0:0:0:
235,48,144330,1,0,0:0:0:0:
235,48,144380,1,0,0:0:0:0:
235,48,144430,1,8,0:0:0:0:
334,148,144530,1,0,0:0:0:0:
334,148,144580,1,0,0:0:0:0:
334,148,144630,1,8,0:0:0:0:
334,148,144680,1,8,0:0:0:0:
334,148,144730,1,0,0:0:0:0:
317,154,144830,1,8,0:0:0:0:
317,154,144880,1,8,0:0:0:0:
317,154,144930,1,0,0:0:0:0:
317,154,144980,1,8,0:0:0:0:
317,154,145030,1,0,0:0:0:0:
317,154,145080,1,0,0:0:0:0:
323,153,145130,1,8,0:0:0:0:
430,229,145180,1,8,0:0:0:0:
429,238,145230,1,0,0:0:0:0:
330,137,145280,1,0,0:0:0:0:
328,135,145330,1,0,0:0:0:0:
328,135,145380,1,0,0:0:0:0:
328,135,145430,1,8,0:0:0:0:
338,213,145530,1,0,0:0:0:0:
338,213,145580,1,0,0:0:0:0:
394,81,145630,1,8,0:0:0:0:
394,81,145663,1,8,0:0:0:0:
394,81,145696,1,8,0:0:0:0:
394,81,145730,1,0,0:0:0:0:
394,81,145780,1,0,0:0:0:0:
394,81,145830,1,8,0:0:0:0:
375,73,145930,1,8,0:0:0:0:
375,74,146030,1,0,0:0:0:0:
413,254,146230,1,8,0:0:0:0:
413,254,146430,1,0,0:0:0:0:
242,215,146630,1,8,0:0:0:0:
236,202,146730,1,8,0:0:0:0:
360,88,146830,1,0,0:0:0:0:
360,88,146880,1,0,0:0:0:0:
202,43,146930,1,0,0:0:0:0:
202,43,146980,1,0,0:0:0:0:
202,43,147030,1,8,0:0:0:0:
202,43,147080,1,8,0:0:0:0:
226,60,147130,1,0,0:0:0:0:
360,88,147230,1,8,0:0:0:0:
360,88,147280,1,8,0:0:0:0:
209,48,147330,1,0,0:0:0:0:
174,36,147380,1,0,0:0:0:0:
174,39,147430,1,8,0:0:0:0:
209,48,147480,1,8,0:0:0:0:
368,89,147530,1,0,0:0:0:0:
353,211,147630,1,8,0:0:0:0:
353,211,147680,1,8,0:0:0:0:
353,211,147730,1,8,0:0:0:0:
270,122,147830,1,0,0:0:0:0:
212,55,147930,1,8,0:0:0:0:
121,133,147980,1,8,0:0:0:0:
321,57,148030,1,8,0:0:0:0:
321,57,148080,1,8,0:0:0:0:
321,57,148130,1,0,0:0:0:0:
320,67,148230,1,8,0:0:0:0:
321,69,148280,1,0,0:0:0:0:
321,69,148330,1,0,0:0:0:0:
321,69,148380,1,0,0:0:0:0:
195,38,148430,1,8,0:0:0:0:
129,58,148530,1,0,0:0:0:0:
295,162,148580,1,0,0:0:0:0:
295,162,148630,1,8,0:0:0:0:
145,55,148680,1,8,0:0:0:0:
145,55,148730,1,0,0:0:0:0:
145,55,148780,1,8,0:0:0:0:
145,55,148830,1,0,0:0:0:0:
143,38,148880,1,0,0:0:0:0:
143,38,148930,1,8,0:0:0:0:
143,38,148980,1,0,0:0:0:0:
143,38,149030,1,8,0:0:0:0:
148,49,149080,1,8,0:0:0:0:
150,49,149130,1,8,0:0:0:0:
268,82,149180,1,8,0:0:0:0:
434,151,149230,5,0,0:0:0:0:
434,151,149430,1,8,0:0:0:0:
373,96,149630,1,0,0:0:0:0:
373,96,149680,1,0,0:0:0:0:
373,96,149730,1,8,0:0:0:0:
373,96,149780,1,0,0:0:0:0:
373,96,149830,1,8,0:0:0:0:
373,96,149880,1,8,0:0:0:0:
373,96,149930,1,0,0:0:0:0:
373,96,149980,1,0,0:0:0:0:
373,96,150030,1,8,0:0:0:0:
373,96,150080,1,8,0:0:0:0:
373,96,150130,1,8,0:0:0:0:
373,96,150180,1,8,0:0:0:0:
373,96,150230,1,0,0:0:0:0:
394,69,150280,1,0,0:0:0:0:
394,69,150330,1,8,0:0:0:0:
406,35,150430,1,0,0:0:0:0:
396,44,150480,1,0,0:0:0:0:
326,96,150530,1,8,0:0:0:0:
326,96,150580,1,8,0:0:0:0:
326,96,150630,1,0,0:0:0:0:
295,71,150663,1,0,0:0:0:0:
295,71,150696,1,0,0:0:0:0:
472,64,150730,1,8,0:0:0:0:
472,64,150780,1,8,0:0:0:0:
178,89,150830,1,0,0:0:0:0:
230,67,150880,1,0,0:0:0:0:
293,86,150930,1,8,0:0:0:0:
210,50,150980,1,8,0:0:0:0:
293,86,151030,1,0,0:0:0:0:
244,136,151130,1,8,0:0:0:0:
244,136,151180,1,8,0:0:0:0:
244,136,151230,1,0,0:0:0:0:
244,136,151280,1,8,0:0:0:0:
252,104,151330,1,8,0:0:0:0:
252,103,151380,1,8,0:0:0:0:
252,103,151430,1,0,0:0:0:0:
243,98,151480,1,0,0:0:0:0:
243,98,151530,1,8,0:0:0:0:
243,98,151580,1,8,0:0:0:0:
243,98,151630,1,0,0:0:0:0:
243,98,151680,1,0,0:0:0:0:
243,98,151730,1,0,0:0:0:0:
243,98,151780,1,0,0:0:0:0:
243,98,151830,1,8,0:0:0:0:
178,60,151930,1,0,0:0:0:0:
162,56,151980,1,8,0:0:0:0:
162,56,152030,1,8,0:0:0:0:
162,56,152080,1,8,0:0:0:0:
162,56,152130,1,0,0:0:0:0:
162,56,152230,1,8,0:0:0:0:
162,56,152280,1,8,0:0:0:0:
167,56,152330,1,8,0:0:0:0:
218,170,152430,5,0,0:0:0:0:
126,110,152630,1,0,0:0:0:0:
219,154,152830,1,8,0:0:0:0:
183,169,153030,1,0,0:0:0:0:
137,251,153130,1,0,0:0:0:0:
168,108,153230,1,8,0:0:0:0:
390,259,153280,1,0,0:0:0:0:
390,259,153330,1,0,0:0:0:0:
390,259,153380,1,0,0:0:0:0:
390,259,153430,1,8,0:0:0:0:
192,39,153480,1,8,0:0:0:0:
205,115,153530,1,0,0:0:0:0:
395,333,153630,1,8,0:0:0:0:
405,340,153680,1,8,0:0:0:0:
400,307,153730,1,0,0:0:0:0:
146,153,153780,1,0,0:0:0:0:
383,324,153830,1,8,0:0:0:0:
159,62,153880,1,8,0:0:0:0:
322,276,153930,1,0,0:0:0:0:
372,323,154030,1,8,0:0:0:0:
361,321,154080,1,8,0:0:0:0:
197,67,154130,1,8,0:0:0:0:
330,77,154230,1,0,0:0:0:0:
330,77,154330,1,8,0:0:0:0:
330,77,154380,1,8,0:0:0:0:
330,77,154430,1,0,0:0:0:0:
216,64,154480,1,0,0:0:0:0:
216,64,154530,1,8,0:0:0:0:
350,278,154630,1,0,0:0:0:0:
215,53,154680,1,0,0:0:0:0:
215,53,154730,1,8,0:0:0:0:
215,53,154780,1,8,0:0:0:0:
215,53,154830,1,0,0:0:0:0:
249,73,154930,1,8,0:0:0:0:
249,73,154980,1,8,0:0:0:0:
249,73,155030,1,8,0:0:0:0:
249,73,155080,1,0,0:0:0:0:
249,73,155130,1,0,0:0:0:0:
332,108,155230,1,8,0:0:0:0:
332,108,155280,1,0,0:0:0:0:
332,108,155330,1,0,0:0:0:0:
228,263,155380,1,0,0:0:0:0:
293,226,155430,1,8,0:0:0:0:
277,228,155480,1,8,0:0:0:0:
278,231,155530,1,0,0:0:0:0:
279,234,155580,1,0,0:0:0:0:
336,209,155630,5,8,0:0:0:0:
301,135,155830,1,0,0:0:0:0:
145,40,156030,1,8,0:0:0:0:
125,148,156080,1,0,0:0:0:0:
125,148,156130,1,0,0:0:0:0:
125,148,156180,1,0,0:0:0:0:
125,148,156230,1,8,0:0:0:0:
125,148,156280,1,8,0:0:0:0:
145,40,156330,1,8,0:0:0:0:
145,40,156380,1,8,0:0:0:0:
145,40,156430,1,0,0:0:0:0:
145,40,156480,1,0,0:0:0:0:
125,148,156530,1,8,0:0:0:0:
145,40,156580,1,0,0:0:0:0:
143,141,156630,1,0,0:0:0:0:
143,141,156680,1,0,0:0:0:0:
143,141,156730,1,8,0:0:0:0:
231,89,156780,1,8,0:0:0:0:
383,2,156830,1,0,0:0:0:0:
371,11,156930,1,8,0:0:0:0:
357,71,157030,1,0,0:0:0:0:
357,71,157063,1,0,0:0:0:0:
357,71,157096,1,0,0:0:0:0:
357,71,157130,1,8,0:0:0:0:
376,91,157180,1,8,0:0:0:0:
376,91,157230,1,0,0:0:0:0:
376,91,157330,1,8,0:0:0:0:
421,194,157380,1,8,0:0:0:0:
376,91,157430,1,8,0:0:0:0:
421,194,157480,1,8,0:0:0:0:
376,91,157530,1,0,0:0:0:0:
342,209,157630,1,8,0:0:0:0:
342,209,157680,1,8,0:0:0:0:
342,209,157730,1,0,0:0:0:0:
348,44,157780,1,8,0:0:0:0:
342,209,157830,1,0,0:0:0:0:
206,33,157880,1,0,0:0:0:0:
206,33,157930,1,0,0:0:0:0:
173,28,157980,1,0,0:0:0:0:
206,33,158030,1,8,0:0:0:0:
390,75,158063,1,8,0:0:0:0:
390,75,158096,1,8,0:0:0:0:
345,93,158130,1,0,0:0:0:0:
176,140,158180,1,0,0:0:0:0:
176,140,158230,1,8,0:0:0:0:
250,70,158330,1,0,0:0:0:0:
383,58,158363,1,0,0:0:0:0:
386,56,158396,1,0,0:0:0:0:
161,72,158430,1,8,0:0:0:0:
170,118,158480,1,8,0:0:0:0:
161,72,158530,1,0,0:0:0:0:
163,100,158630,1,8,0:0:0:0:
412,158,158830,1,0,0:0:0:0:
195,162,158930,1,0,0:0:0:0:
274,62,159030,1,8,0:0:0:0:
274,62,159130,1,8,0:0:0:0:
276,62,159230,1,0,0:0:0:0:
276,62,159330,1,0,0:0:0:0:
114,86,159430,5,8,0:0:0:0:
114,86,159530,1,0,0:0:0:0:
230,89,159630,1,8,0:0:0:0:
230,89,159680,1,8,0:0:0:0:
230,89,159730,1,0,0:0:0:0:
230,89,159830,1,8,0:0:0:0:
230,89,159880,1,0,0:0:0:0:
240,90,159930,1,0,0:0:0:0:
241,90,160030,1,8,0:0:0:0:
250,98,160230,1,0,0:0:0:0:
424,216,160430,1,0,0:0:0:0:
412,201,160530,1,8,0:0:0:0:
412,201,160630,1,0,0:0:0:0:
412,201,160730,1,0,0:0:0:0:
413,200,160830,1,8,0:0:0:0:
413,200,160930,1,8,0:0:0:0:
415,200,161030,1,0,0:0:0:0:
415,200,161130,1,8,0:0:0:0:
415,200,161230,1,0,0:0:0:0:
412,201,161330,1,0,0:0:0:0:
412,201,161430,1,8,0:0:0:0:
412,201,161530,1,0,0:0:0:0:
413,200,161630,1,8,0:0:0:0:
450,142,162030,1,4,0:0:0:0:
260,122,162430,1,8,0:0:0:0:
260,122,162730,1,8,0:0:0:0:
260,122,163030,1,8,0:0:0:0:
260,122,163330,1,0,0:0:0:0:
260,122,163530,1,0,0:0:0:0:
318,231,163630,1,8,0:0:0:0:
318,231,163696,1,8,0:0:0:0:
278,193,163763,1,0,0:0:0:0:
278,193,163830,1,8,0:0:0:0:
278,193,163896,1,8,0:0:0:0:
278,193,163963,1,0,0:0:0:0:
278,193,164030,1,8,0:0:0:0:
278,193,164096,1,0,0:0:0:0:
278,193,164163,1,0,0:0:0:0:
278,193,164230,1,8,0:0:0:0:
278,193,164296,1,0,0:0:0:0:
278,193,164363,1,0,0:0:0:0:
261,55,164430,1,8,0:0:0:0:
306,115,164630,1,8,0:0:0:0:
306,115,164830,1,8,0:0:0:0:
306,115,165030,1,8,0:0:0:0:
306,115,165230,1,4,0:0:0:0:
256,192,165330,12,0,171630,0:0:0:0:
363,269,178030,5,0,0:0:0:0:
363,269,178130,1,8,0:0:0:0:
363,269,178330,1,0,0:0:0:0:
293,215,178630,1,8,0:0:0:0:
293,215,178730,1,8,0:0:0:0:
293,215,178830,1,0,0:0:0:0:
293,215,179030,1,8,0:0:0:0:
293,215,179230,1,8,0:0:0:0:
293,215,179430,1,0,0:0:0:0:
293,215,179530,1,8,0:0:0:0:
296,90,179580,1,8,0:0:0:0:
293,215,179630,1,0,0:0:0:0:
293,215,179730,1,8,0:0:0:0:
278,165,179930,1,0,0:0:0:0:
263,69,180230,1,0,0:0:0:0:
263,69,180330,1,8,0:0:0:0:
263,69,180430,1,0,0:0:0:0:
243,68,180630,1,0,0:0:0:0:
243,65,180730,1,8,0:0:0:0:
243,65,180780,1,8,0:0:0:0:
243,65,180830,1,0,0:0:0:0:
243,65,180930,1,8,0:0:0:0:
243,65,180980,1,0,0:0:0:0:
243,65,181030,1,0,0:0:0:0:
243,65,181130,1,8,0:0:0:0:
243,65,181180,1,8,0:0:0:0:
243,65,181230,1,0,0:0:0:0:
323,147,181330,1,8,0:0:0:0:
385,182,181530,1,0,0:0:0:0:
155,78,181830,1,8,0:0:0:0:
155,78,181930,1,8,0:0:0:0:
155,78,182030,1,0,0:0:0:0:
278,138,182230,1,8,0:0:0:0:
278,138,182430,1,0,0:0:0:0:
278,138,182630,1,8,0:0:0:0:
278,138,182680,1,8,0:0:0:0:
260,125,182730,1,8,0:0:0:0:
258,124,182780,1,8,0:0:0:0:
258,124,182830,1,0,0:0:0:0:
258,124,182930,1,0,0:0:0:0:
258,124,183130,1,8,0:0:0:0:
278,138,183430,1,0,0:0:0:0:
275,143,183530,1,8,0:0:0:0:
275,143,183630,1,0,0:0:0:0:
113,56,183830,5,0,0:0:0:0:
113,56,184030,1,8,0:0:0:0:
232,117,184096,1,8,0:0:0:0:
232,117,184163,1,8,0:0:0:0:
230,91,184230,1,0,0:0:0:0:
463,240,184430,1,8,0:0:0:0:
463,240,184530,1,8,0:0:0:0:
205,129,184730,1,0,0:0:0:0:
205,129,185030,1,8,0:0:0:0:
205,129,185130,1,0,0:0:0:0:
270,51,185230,1,0,0:0:0:0:
246,197,185430,1,0,0:0:0:0:
246,197,185630,1,8,0:0:0:0:
246,197,185830,1,8,0:0:0:0:
232,188,185930,1,8,0:0:0:0:
232,188,185980,1,8,0:0:0:0:
258,85,186030,1,0,0:0:0:0:
258,85,186130,1,8,0:0:0:0:
258,85,186330,1,0,0:0:0:0:
258,85,186630,1,8,0:0:0:0:
258,85,186730,1,8,0:0:0:0:
258,85,186830,1,8,0:0:0:0:
421,188,187030,1,8,0:0:0:0:
239,88,187130,1,0,0:0:0:0:
239,88,187180,1,0,0:0:0:0:
239,88,187230,1,8,0:0:0:0:
177,31,187330,1,0,0:0:0:0:
217,57,187380,1,8,0:0:0:0:
217,57,187430,1,8,0:0:0:0:
223,58,187530,1,0,0:0:0:0:
223,58,187580,1,0,0:0:0:0:
225,58,187630,1,8,0:0:0:0:
246,64,187730,1,0,0:0:0:0:
246,64,187930,1,8,0:0:0:0:
297,188,188230,1,0,0:0:0:0:
297,188,188330,1,0,0:0:0:0:
297,188,188430,1,8,0:0:0:0:
214,195,188530,1,0,0:0:0:0:
214,195,188730,1,8,0:0:0:0:
214,195,189030,1,0,0:0:0:0:
259,145,189130,1,8,0:0:0:0:
259,145,189230,1,8,0:0:0:0:
248,128,189330,1,0,0:0:0:0:
223,73,189530,1,8,0:0:0:0:
223,73,189730,1,8,0:0:0:0:
223,73,189830,1,0,0:0:0:0:
223,73,189930,1,0,0:0:0:0:
223,73,190030,1,8,0:0:0:0:
223,73,190330,1,0,0:0:0:0:
223,73,190630,1,8,0:0:0:0:
223,73,190730,1,8,0:0:0:0:
65,179,190830,1,0,0:0:0:0:
251,218,191230,1,0,0:0:0:0:
262,175,191430,1,0,0:0:0:0:
251,218,191630,1,8,0:0:0:0:
208,93,191830,1,0,0:0:0:0:
214,166,192030,1,8,0:0:0:0:
188,44,192430,1,0,0:0:0:0:
188,44,192730,1,0,0:0:0:0:
188,44,193030,1,0,0:0:0:0:
188,44,193230,1,8,0:0:0:0:
142,175,193630,1,8,0:0:0:0:
190,82,193830,1,8,0:0:0:0:
142,175,194030,1,0,0:0:0:0:
142,175,194430,1,0,0:0:0:0:
332,199,194630,1,0,0:0:0:0:
142,175,194830,1,8,0:0:0:0:
283,177,195030,1,0,0:0:0:0:
183,48,195230,1,8,0:0:0:0:
206,89,195630,1,0,0:0:0:0:
181,146,195930,1,0,0:0:0:0:
181,146,196230,1,0,0:0:0:0:
181,146,196430,1,8,0:0:0:0:
142,175,196830,1,8,0:0:0:0:
142,175,197230,1,0,0:0:0:0:
142,175,197630,1,0,0:0:0:0:
262,158,197830,1,0,0:0:0:0:
142,175,198030,1,8,0:0:0:0:
99,154,198230,1,0,0:0:0:0:
142,175,198430,1,8,0:0:0:0:
176,134,198830,1,0,0:0:0:0:
142,175,199130,1,0,0:0:0:0:
142,175,199430,1,0,0:0:0:0:
142,175,199630,1,8,0:0:0:0:
142,175,200030,1,8,0:0:0:0:
196,49,200230,1,8,0:0:0:0:
142,175,200430,1,0,0:0:0:0:
142,175,200830,1,0,0:0:0:0:
356,189,201030,1,0,0:0:0:0:
142,175,201230,1,8,0:0:0:0:
356,189,201430,1,0,0:0:0:0:
142,175,201630,1,8,0:0:0:0:
356,189,201830,1,8,0:0:0:0:
356,189,202030,1,0,0:0:0:0:
205,138,202230,1,8,0:0:0:0:
205,138,202430,1,0,0:0:0:0:
205,138,202630,1,8,0:0:0:0:
205,138,202830,1,0,0:0:0:0:
205,138,203030,1,0,0:0:0:0:
205,138,203230,1,8,0:0:0:0:
205,138,203430,1,8,0:0:0:0:
172,109,203630,5,0,0:0:0:0:
172,109,203755,1,0,0:0:0:0:
172,109,203880,1,0,0:0:0:0:
248,66,203992,5,0,0:0:0:0:
99,137,204096,1,8,0:0:0:0:
106,55,204196,1,8,0:0:0:0:
328,54,204296,1,0,0:0:0:0:
209,40,204396,1,0,0:0:0:0:
237,210,204480,1,8,0:0:0:0:
45,42,204563,1,8,0:0:0:0:
174,96,204646,1,0,0:0:0:0:
179,11,204713,1,0,0:0:0:0:
103,68,204780,1,8,0:0:0:0:
171,43,204842,1,8,0:0:0:0:
171,43,204905,1,0,0:0:0:0:
170,43,204967,1,0,0:0:0:0:
170,43,205030,1,8,0:0:0:0:
92,108,205087,1,8,0:0:0:0:
92,108,205144,1,0,0:0:0:0:
301,115,205201,1,0,0:0:0:0:
301,115,205255,1,8,0:0:0:0:
465,102,205305,1,8,0:0:0:0:
465,102,205355,1,0,0:0:0:0:
465,102,205405,1,0,0:0:0:0:
465,102,205452,1,8,0:0:0:0:
348,61,205496,1,8,0:0:0:0:
187,121,205541,1,0,0:0:0:0:
187,121,205585,1,0,0:0:0:0:
187,121,205630,1,8,0:0:0:0:
296,195,205670,1,8,0:0:0:0:
387,232,205710,1,0,0:0:0:0:
296,195,205750,1,0,0:0:0:0:
296,195,205790,1,8,0:0:0:0:
296,195,205830,1,8,0:0:0:0:
296,195,205870,1,0,0:0:0:0:
296,195,205910,1,0,0:0:0:0:
296,195,205950,1,8,0:0:0:0:
296,195,205990,1,8,0:0:0:0:
296,195,206030,1,0,0:0:0:0:
203,106,206130,1,8,0:0:0:0:
221,84,206180,1,8,0:0:0:0:
221,84,206230,1,0,0:0:0:0:
221,84,206280,1,0,0:0:0:0:
199,48,206330,1,8,0:0:0:0:
199,48,206430,1,0,0:0:0:0:
199,48,206480,1,0,0:0:0:0:
199,48,206530,1,8,0:0:0:0:
199,48,206580,1,8,0:0:0:0:
199,48,206630,1,0,0:0:0:0:
263,100,206730,1,8,0:0:0:0:
285,109,206830,1,0,0:0:0:0:
203,106,206930,1,0,0:0:0:0:
203,106,207130,1,8,0:0:0:0:
136,147,207430,1,0,0:0:0:0:
136,147,207530,1,8,0:0:0:0:
136,147,207630,1,0,0:0:0:0:
136,147,207830,1,8,0:0:0:0:
136,147,208030,1,0,0:0:0:0:
136,147,208130,1,0,0:0:0:0:
141,135,208230,1,8,0:0:0:0:
141,134,208280,1,8,0:0:0:0:
141,134,208330,1,8,0:0:0:0:
141,134,208380,1,8,0:0:0:0:
141,134,208430,1,0,0:0:0:0:
128,144,208530,1,8,0:0:0:0:
256,163,208730,1,0,0:0:0:0:
256,163,209030,1,8,0:0:0:0:
256,163,209130,1,8,0:0:0:0:
354,187,209230,1,0,0:0:0:0:
354,187,209430,1,0,0:0:0:0:
354,187,209630,1,8,0:0:0:0:
354,187,209830,1,8,0:0:0:0:
354,187,210030,1,0,0:0:0:0:
256,163,210130,1,8,0:0:0:0:
256,163,210330,1,0,0:0:0:0:
256,163,210630,1,8,0:0:0:0:
256,163,210730,1,8,0:0:0:0:
256,163,210830,1,8,0:0:0:0:
256,163,211030,1,8,0:0:0:0:
256,163,211230,1,0,0:0:0:0:
246,151,211430,1,8,0:0:0:0:
250,135,211480,1,8,0:0:0:0:
246,151,211530,1,0,0:0:0:0:
246,151,211580,1,0,0:0:0:0:
250,135,211630,1,8,0:0:0:0:
250,135,211730,1,0,0:0:0:0:
250,135,211930,1,8,0:0:0:0:
103,57,212230,1,8,0:0:0:0:
103,57,212330,1,8,0:0:0:0:
241,111,212430,1,0,0:0:0:0:
240,110,212630,1,0,0:0:0:0:
334,181,212830,1,8,0:0:0:0:
93,151,212896,1,0,0:0:0:0:
241,78,212963,1,0,0:0:0:0:
240,77,213030,1,8,0:0:0:0:
240,77,213096,1,0,0:0:0:0:
240,77,213163,1,0,0:0:0:0:
240,77,213230,1,8,0:0:0:0:
238,97,213330,1,0,0:0:0:0:
412,226,213530,1,8,0:0:0:0:
243,147,213830,1,0,0:0:0:0:
243,147,213930,1,0,0:0:0:0:
243,147,214030,1,8,0:0:0:0:
243,147,214230,1,8,0:0:0:0:
243,147,214430,1,0,0:0:0:0:
281,186,214630,1,0,0:0:0:0:
281,186,214680,1,0,0:0:0:0:
281,186,214730,1,0,0:0:0:0:
234,136,214780,1,0,0:0:0:0:
234,136,214830,1,8,0:0:0:0:
234,136,214930,1,8,0:0:0:0:
234,136,215130,1,0,0:0:0:0:
234,136,215430,1,8,0:0:0:0:
195,114,215530,1,8,0:0:0:0:
195,114,215630,1,0,0:0:0:0:
195,114,215830,1,0,0:0:0:0:
195,114,216030,1,8,0:0:0:0:
195,114,216230,1,8,0:0:0:0:
281,113,216430,1,0,0:0:0:0:
281,113,216530,1,8,0:0:0:0:
281,113,216730,1,0,0:0:0:0:
281,113,217030,1,8,0:0:0:0:
281,113,217130,1,8,0:0:0:0:
334,171,217180,1,8,0:0:0:0:
187,64,217230,1,0,0:0:0:0:
330,145,217330,1,0,0:0:0:0:
330,144,217530,1,8,0:0:0:0:
195,68,217830,1,0,0:0:0:0:
195,68,217930,1,0,0:0:0:0:
465,267,217980,1,0,0:0:0:0:
195,68,218030,1,8,0:0:0:0:
217,95,218130,1,0,0:0:0:0:
226,102,218330,1,0,0:0:0:0:
211,89,218430,1,8,0:0:0:0:
210,89,218530,1,8,0:0:0:0:
204,81,218630,1,0,0:0:0:0:
203,80,218730,1,0,0:0:0:0:
203,80,218830,1,8,0:0:0:0:
292,160,218930,1,0,0:0:0:0:
292,160,218980,1,0,0:0:0:0:
284,179,219030,1,8,0:0:0:0:
284,179,219080,1,8,0:0:0:0:
284,179,219130,1,0,0:0:0:0:
230,130,219230,1,8,0:0:0:0:
221,135,219280,1,0,0:0:0:0:
221,135,219330,1,0,0:0:0:0:
221,135,219380,1,0,0:0:0:0:
221,135,219430,1,8,0:0:0:0:
221,135,219530,1,8,0:0:0:0:
221,135,219630,1,0,0:0:0:0:
296,198,219730,1,0,0:0:0:0:
295,196,219830,1,8,0:0:0:0:
295,195,219930,1,0,0:0:0:0:
296,198,220030,1,8,0:0:0:0:
296,198,220130,1,8,0:0:0:0:
221,135,220230,1,0,0:0:0:0:
67,184,220330,1,0,0:0:0:0:
212,130,220430,1,8,0:0:0:0:
212,130,220530,1,8,0:0:0:0:
217,102,220630,1,0,0:0:0:0:
212,130,220730,1,8,0:0:0:0:
213,109,220830,1,0,0:0:0:0:
217,101,220930,1,0,0:0:0:0:
232,131,221030,1,8,0:0:0:0:
348,162,221230,1,0,0:0:0:0:
348,162,221330,1,8,0:0:0:0:
294,135,221430,1,0,0:0:0:0:
294,135,221480,1,0,0:0:0:0:
294,135,221530,1,0,0:0:0:0:
294,135,221580,1,0,0:0:0:0:
294,135,221630,1,8,0:0:0:0:
294,135,221730,1,8,0:0:0:0:
294,135,221830,1,0,0:0:0:0:
294,135,221880,1,0,0:0:0:0:
287,129,221930,1,8,0:0:0:0:
210,74,221980,1,8,0:0:0:0:
210,74,222030,1,0,0:0:0:0:
203,49,222130,1,8,0:0:0:0:
115,169,222180,1,8,0:0:0:0:
115,169,222230,1,0,0:0:0:0:
203,49,222330,1,0,0:0:0:0:
203,49,222380,1,0,0:0:0:0:
203,49,222430,1,8,0:0:0:0:
465,302,222530,1,0,0:0:0:0:
465,302,222630,1,8,0:0:0:0:
285,89,222830,1,0,0:0:0:0:
305,121,222930,1,8,0:0:0:0:
245,84,223030,1,0,0:0:0:0:
305,121,223130,1,0,0:0:0:0:
245,84,223230,1,0,0:0:0:0:
305,121,223330,1,8,0:0:0:0:
245,84,223430,1,0,0:0:0:0:
270,91,223530,1,0,0:0:0:0:
245,84,223630,1,8,0:0:0:0:
270,91,223730,1,8,0:0:0:0:
245,84,223830,1,0,0:0:0:0:
270,91,223930,1,0,0:0:0:0:
245,84,224030,1,8,0:0:0:0:
270,91,224130,1,8,0:0:0:0:
245,84,224230,1,8,0:0:0:0:
245,84,224430,1,0,0:0:0:0:
245,84,224480,1,0,0:0:0:0:
245,84,224530,1,0,0:0:0:0:
245,84,224630,1,0,0:0:0:0:
245,84,224730,1,8,0:0:0:0:
237,73,224780,1,8,0:0:0:0:
237,73,224830,1,0,0:0:0:0:
237,73,224930,1,0,0:0:0:0:
236,73,225030,1,8,0:0:0:0:
239,73,225080,1,8,0:0:0:0:
239,73,225130,1,8,0:0:0:0:
236,73,225180,1,0,0:0:0:0:
239,73,225230,1,8,0:0:0:0:
239,73,225330,1,0,0:0:0:0:
239,73,225380,1,0,0:0:0:0:
239,73,225430,1,8,0:0:0:0:
239,73,225530,1,0,0:0:0:0:
237,73,225580,1,0,0:0:0:0:
237,73,225630,1,0,0:0:0:0:
400,231,225730,1,8,0:0:0:0:
92,45,225830,1,0,0:0:0:0:
92,45,226030,1,8,0:0:0:0:
125,59,226230,1,8,0:0:0:0:
251,83,226430,1,8,0:0:0:0:
251,83,226630,1,8,0:0:0:0:
251,83,226830,1,8,0:0:0:0:
251,83,227030,1,8,0:0:0:0:
251,83,227230,1,8,0:0:0:0:
251,83,227330,1,4,0:0:0:0:
251,83,227630,1,8,0:0:0:0:
251,83,227830,1,8,0:0:0:0:
251,83,228030,1,8,0:0:0:0:
251,83,228230,1,8,0:0:0:0:
251,83,228430,1,8,0:0:0:0:
251,83,228630,1,8,0:0:0:0:
251,83,228830,1,8,0:0:0:0:
251,83,228930,1,4,0:0:0:0:
251,83,229230,1,8,0:0:0:0:
251,83,229330,1,8,0:0:0:0:
251,83,229430,1,0,0:0:0:0:
251,83,229530,1,0,0:0:0:0:
251,83,229630,1,8,0:0:0:0:
251,83,229730,1,0,0:0:0:0:
251,83,229830,1,8,0:0:0:0:
251,83,229930,1,8,0:0:0:0:
251,83,230030,1,0,0:0:0:0:
251,83,230130,1,0,0:0:0:0:
251,83,230230,1,8,0:0:0:0:
251,83,230330,1,8,0:0:0:0:
251,83,230430,1,0,0:0:0:0:
251,83,230530,1,0,0:0:0:0:
251,83,230630,1,0,0:0:0:0:
251,83,230730,1,0,0:0:0:0:
251,83,230830,1,8,0:0:0:0:
251,83,230930,1,8,0:0:0:0:
251,83,231030,1,0,0:0:0:0:
251,83,231130,1,0,0:0:0:0:
251,83,231230,1,8,0:0:0:0:
251,83,231330,1,0,0:0:0:0:
251,83,231430,1,8,0:0:0:0:
251,83,231530,1,8,0:0:0:0:
106,143,231630,5,0,0:0:0:0:
106,143,231680,1,0,0:0:0:0:
106,143,231730,1,0,0:0:0:0:
106,143,231780,1,0,0:0:0:0:
106,143,231830,1,8,0:0:0:0:
224,68,231880,1,8,0:0:0:0:
106,143,231930,1,0,0:0:0:0:
224,68,231980,1,0,0:0:0:0:
224,68,232030,1,8,0:0:0:0:
224,68,232080,1,8,0:0:0:0:
224,68,232130,1,8,0:0:0:0:
224,68,232180,1,8,0:0:0:0:
224,68,232230,1,0,0:0:0:0:
224,68,232280,1,0,0:0:0:0:
224,68,232330,1,8,0:0:0:0:
224,68,232380,1,8,0:0:0:0:
224,68,232430,1,4,0:0:0:0:
256,192,232530,12,0,235430,0:0:0:0:
357,206,235630,5,0,0:0:0:0:
357,206,235730,1,0,0:0:0:0:
357,206,235830,1,8,0:0:0:0:
357,206,235930,1,0,0:0:0:0:
357,206,236030,1,8,0:0:0:0:
357,206,236130,1,8,0:0:0:0:
357,206,236230,1,0,0:0:0:0:
357,206,236330,1,0,0:0:0:0:
357,206,236430,1,8,0:0:0:0:
182,173,236480,1,8,0:0:0:0:
357,206,236530,1,0,0:0:0:0:
182,173,236580,1,0,0:0:0:0:
191,109,236630,1,8,0:0:0:0:
191,109,236680,1,8,0:0:0:0:
291,64,236730,1,0,0:0:0:0:
291,64,236780,1,0,0:0:0:0:
240,110,236830,1,8,0:0:0:0:
240,110,236863,1,0,0:0:0:0:
240,110,236896,1,0,0:0:0:0:
240,110,236930,1,8,0:0:0:0:
322,146,236980,1,0,0:0:0:0:
369,69,237030,1,8,0:0:0:0:
369,69,237063,1,8,0:0:0:0:
369,69,237096,1,8,0:0:0:0:
369,69,237130,1,0,0:0:0:0:
351,107,237180,1,0,0:0:0:0:
159,133,238830,1,8,0:0:0:0:
159,133,238930,1,8,0:0:0:0:
159,133,239030,1,0,0:0:0:0:
253,202,239080,1,0,0:0:0:0:
159,133,239130,1,8,0:0:0:0:
219,137,239230,1,8,0:0:0:0:
170,122,239330,1,0,0:0:0:0:
170,122,239430,1,8,0:0:0:0:
170,122,239480,1,8,0:0:0:0:
170,122,239530,1,0,0:0:0:0:
170,122,239580,1,0,0:0:0:0:
170,122,239630,1,8,0:0:0:0:
395,254,239730,1,0,0:0:0:0:
395,254,239780,1,0,0:0:0:0:
395,254,239830,1,8,0:0:0:0:
395,254,239930,1,0,0:0:0:0:
401,261,240030,1,8,0:0:0:0:
170,122,240130,1,0,0:0:0:0:
157,46,240180,1,0,0:0:0:0:
170,122,240230,1,8,0:0:0:0:
286,151,240280,1,0,0:0:0:0:
157,46,240330,1,8,0:0:0:0:
186,37,240380,1,8,0:0:0:0:
186,37,240430,1,0,0:0:0:0:
183,78,240480,1,0,0:0:0:0:
183,78,240530,1,8,0:0:0:0:
183,78,240630,1,0,0:0:0:0:
218,82,240730,1,8,0:0:0:0:
218,82,240780,1,8,0:0:0:0:
218,82,240830,1,0,0:0:0:0:
218,82,240930,1,8,0:0:0:0:
249,97,241030,1,0,0:0:0:0:
249,97,241080,1,0,0:0:0:0:
165,55,241130,1,8,0:0:0:0:
165,55,241180,1,8,0:0:0:0:
165,55,241230,1,0,0:0:0:0:
249,97,241330,1,8,0:0:0:0:
249,97,241380,1,8,0:0:0:0:
249,97,241430,1,8,0:0:0:0:
165,55,241530,1,0,0:0:0:0:
165,55,241580,1,0,0:0:0:0:
165,55,241630,1,8,0:0:0:0:
165,55,241680,1,8,0:0:0:0:
165,55,241730,1,0,0:0:0:0:
165,55,241780,1,0,0:0:0:0:
165,55,241830,1,8,0:0:0:0:
175,57,241930,1,0,0:0:0:0:
119,16,241980,1,8,0:0:0:0:
119,16,242030,1,0,0:0:0:0:
119,16,242080,1,0,0:0:0:0:
119,16,242130,1,8,0:0:0:0:
252,128,242230,1,8,0:0:0:0:
223,54,242330,1,0,0:0:0:0:
293,110,242380,1,0,0:0:0:0:
223,54,242430,1,8,0:0:0:0:
223,54,242530,1,0,0:0:0:0:
265,74,242630,1,8,0:0:0:0:
265,74,242680,1,8,0:0:0:0:
265,74,242730,1,8,0:0:0:0:
265,74,242780,1,8,0:0:0:0:
265,74,242830,1,0,0:0:0:0:
150,67,242880,1,0,0:0:0:0:
265,74,242930,1,8,0:0:0:0:
212,45,243030,1,0,0:0:0:0:
210,45,243080,1,0,0:0:0:0:
209,45,243130,1,8,0:0:0:0:
209,45,243230,1,0,0:0:0:0:
212,28,243280,1,0,0:0:0:0:
248,178,243330,1,8,0:0:0:0:
212,28,243380,1,8,0:0:0:0:
248,178,243430,1,0,0:0:0:0:
224,111,243480,1,0,0:0:0:0:
224,111,243530,1,0,0:0:0:0:
224,111,243580,1,0,0:0:0:0:
205,133,243630,1,8,0:0:0:0:
237,145,243680,1,8,0:0:0:0:
237,145,243730,1,0,0:0:0:0:
401,240,243830,1,8,0:0:0:0:
401,240,243880,1,8,0:0:0:0:
401,240,243930,1,0,0:0:0:0:
207,122,244030,1,8,0:0:0:0:
208,122,244080,1,0,0:0:0:0:
208,122,244130,1,0,0:0:0:0:
208,122,244230,1,8,0:0:0:0:
208,122,244280,1,8,0:0:0:0:
208,122,244330,1,8,0:0:0:0:
208,122,244380,1,8,0:0:0:0:
208,122,244430,1,0,0:0:0:0:
303,80,244530,1,8,0:0:0:0:
303,80,244580,1,8,0:0:0:0:
303,80,244630,1,0,0:0:0:0:
303,80,244730,1,0,0:0:0:0:
217,50,244780,1,0,0:0:0:0:
207,122,244830,1,8,0:0:0:0:
222,91,244896,1,8,0:0:0:0:
221,89,244963,1,0,0:0:0:0:
219,88,245030,1,8,0:0:0:0:
372,37,245096,1,0,0:0:0:0:
372,37,245163,1,0,0:0:0:0:
372,37,245230,1,8,0:0:0:0:
269,108,245330,1,0,0:0:0:0:
280,110,245430,1,8,0:0:0:0:
219,112,245530,1,0,0:0:0:0:
280,110,245580,1,0,0:0:0:0:
218,112,245630,1,8,0:0:0:0:
185,58,245680,1,8,0:0:0:0:
185,58,245730,1,0,0:0:0:0:
184,65,245830,1,8,0:0:0:0:
185,66,245880,1,8,0:0:0:0:
185,58,245930,1,0,0:0:0:0:
185,58,245980,1,0,0:0:0:0:
185,58,246030,1,8,0:0:0:0:
185,58,246130,1,0,0:0:0:0:
185,58,246230,1,8,0:0:0:0:
229,101,246280,1,8,0:0:0:0:
185,58,246330,1,0,0:0:0:0:
167,49,246380,1,0,0:0:0:0:
185,58,246430,1,8,0:0:0:0:
234,42,246530,1,0,0:0:0:0:
234,42,246580,1,0,0:0:0:0:
234,42,246630,1,0,0:0:0:0:
154,64,246680,1,0,0:0:0:0:
232,62,246730,1,8,0:0:0:0:
154,64,246780,1,8,0:0:0:0:
154,64,246830,1,0,0:0:0:0:
161,69,246930,1,8,0:0:0:0:
161,69,247030,1,0,0:0:0:0:
161,69,247130,1,8,0:0:0:0:
226,80,247180,1,8,0:0:0:0:
214,90,247230,1,8,0:0:0:0:
219,78,247280,1,8,0:0:0:0:
214,90,247330,1,0,0:0:0:0:
263,108,247430,1,8,0:0:0:0:
263,108,247480,1,8,0:0:0:0:
235,99,247530,1,0,0:0:0:0:
235,99,247580,1,0,0:0:0:0:
235,99,247630,1,8,0:0:0:0:
234,99,247730,1,0,0:0:0:0:
234,99,247780,1,0,0:0:0:0:
234,99,247830,1,8,0:0:0:0:
233,99,247930,1,0,0:0:0:0:
233,99,247980,1,0,0:0:0:0:
233,99,248030,1,8,0:0:0:0:
233,99,248080,1,8,0:0:0:0:
233,99,248130,1,8,0:0:0:0:
233,99,248180,1,8,0:0:0:0:
233,99,248230,1,0,0:0:0:0:
233,99,248280,1,0,0:0:0:0:
235,99,248330,1,8,0:0:0:0:
235,99,248380,1,8,0:0:0:0:
287,168,248430,1,0,0:0:0:0:
287,168,248530,1,0,0:0:0:0:
357,209,248630,1,8,0:0:0:0:
446,260,248730,1,0,0:0:0:0:
241,142,248930,1,0,0:0:0:0:
241,142,248980,1,0,0:0:0:0:
241,142,249030,1,8,0:0:0:0:
241,142,249080,1,8,0:0:0:0:
241,142,249130,1,0,0:0:0:0:
241,142,249180,1,8,0:0:0:0:
241,142,249230,1,8,0:0:0:0:
241,142,249330,1,0,0:0:0:0:
442,282,249430,1,0,0:0:0:0:
442,282,249480,1,0,0:0:0:0:
241,142,249530,1,8,0:0:0:0:
203,89,249730,1,0,0:0:0:0:
203,89,249780,1,0,0:0:0:0:
203,89,249830,1,0,0:0:0:0:
203,89,249880,1,0,0:0:0:0:
203,89,249930,1,8,0:0:0:0:
203,89,249980,1,8,0:0:0:0:
203,89,250030,1,0,0:0:0:0:
203,89,250130,1,8,0:0:0:0:
192,78,250330,1,0,0:0:0:0:
416,237,250380,1,0,0:0:0:0:
192,78,250430,1,8,0:0:0:0:
416,237,250480,1,8,0:0:0:0:
192,78,250530,1,8,0:0:0:0:
290,143,250580,1,8,0:0:0:0:
192,78,250630,1,0,0:0:0:0:
290,143,250680,1,0,0:0:0:0:
290,143,250730,1,8,0:0:0:0:
290,143,250780,1,8,0:0:0:0:
285,170,250830,1,8,0:0:0:0:
290,143,250880,1,8,0:0:0:0:
192,78,250930,1,0,0:0:0:0:
288,169,251030,1,0,0:0:0:0:
192,78,251130,1,8,0:0:0:0:
192,78,251330,1,0,0:0:0:0:
192,78,251430,1,8,0:0:0:0:
192,78,251630,1,0,0:0:0:0:
228,133,251730,1,0,0:0:0:0:
228,133,251830,1,8,0:0:0:0:
228,133,251930,1,0,0:0:0:0:
267,122,251980,1,0,0:0:0:0:
252,146,252030,1,8,0:0:0:0:
252,146,252130,1,8,0:0:0:0:
317,166,252230,1,0,0:0:0:0:
317,166,252280,1,0,0:0:0:0:
317,166,252330,1,8,0:0:0:0:
317,166,252380,1,8,0:0:0:0:
317,166,252430,1,0,0:0:0:0:
317,166,252530,1,0,0:0:0:0:
301,149,252630,1,8,0:0:0:0:
301,148,252680,1,8,0:0:0:0:
301,148,252730,1,0,0:0:0:0:
286,93,252830,1,8,0:0:0:0:
286,93,252930,1,0,0:0:0:0:
286,93,253030,1,8,0:0:0:0:
286,93,253080,1,8,0:0:0:0:
286,93,253130,1,8,0:0:0:0:
120,122,253180,1,8,0:0:0:0:
120,122,253230,1,0,0:0:0:0:
281,139,253280,1,0,0:0:0:0:
281,139,253330,1,8,0:0:0:0:
281,139,253430,1,0,0:0:0:0:
281,139,253530,1,8,0:0:0:0:
281,139,253580,1,8,0:0:0:0:
281,139,253630,1,0,0:0:0:0:
165,149,253730,1,8,0:0:0:0:
165,149,253830,1,0,0:0:0:0:
179,145,253880,1,8,0:0:0:0:
219,39,253930,1,0,0:0:0:0:
219,39,253980,1,8,0:0:0:0:
187,52,254030,1,8,0:0:0:0:
165,149,254130,1,0,0:0:0:0:
171,156,254180,1,0,0:0:0:0:
165,149,254230,1,8,0:0:0:0:
165,149,254280,1,8,0:0:0:0:
165,149,254330,1,0,0:0:0:0:
165,149,254380,1,0,0:0:0:0:
165,149,254430,1,8,0:0:0:0:
165,149,254480,1,0,0:0:0:0:
165,149,254530,1,8,0:0:0:0:
165,149,254580,1,8,0:0:0:0:
161,151,254630,1,0,0:0:0:0:
165,149,254680,1,0,0:0:0:0:
165,149,254730,1,8,0:0:0:0:
165,149,254780,1,8,0:0:0:0:
165,149,254830,1,0,0:0:0:0:
394,278,254930,1,8,0:0:0:0:
450,291,255130,5,0,0:0:0:0:
450,291,255180,1,0,0:0:0:0:
450,291,255230,1,8,0:0:0:0:
450,291,255280,1,8,0:0:0:0:
450,291,255330,1,0,0:0:0:0:
450,291,255380,1,0,0:0:0:0:
450,291,255430,1,0,0:0:0:0:
450,291,255480,1,0,0:0:0:0:
450,291,255530,1,8,0:0:0:0:
213,83,255630,1,8,0:0:0:0:
213,83,255730,1,8,0:0:0:0:
213,83,255830,1,8,0:0:0:0:
213,83,255930,1,0,0:0:0:0:
257,139,256030,1,0,0:0:0:0:
257,139,256130,1,8,0:0:0:0:
330,129,256330,1,0,0:0:0:0:
330,129,256380,1,0,0:0:0:0:
330,129,256430,1,8,0:0:0:0:
203,25,256480,1,8,0:0:0:0:
203,25,256530,1,0,0:0:0:0:
243,80,256630,1,8,0:0:0:0:
243,78,256680,1,8,0:0:0:0:
243,78,256730,1,0,0:0:0:0:
243,80,256830,1,8,0:0:0:0:
184,35,256880,1,8,0:0:0:0:
243,80,256930,1,8,0:0:0:0:
184,34,257030,1,0,0:0:0:0:
303,95,257080,1,0,0:0:0:0:
303,95,257130,1,0,0:0:0:0:
390,269,257180,5,0,0:0:0:0:
390,269,257230,1,8,0:0:0:0:
348,219,257380,1,8,0:0:0:0:
348,219,257530,1,8,0:0:0:0:
348,219,257630,1,0,0:0:0:0:
348,219,257780,1,0,0:0:0:0:
348,219,257930,1,0,0:0:0:0:
232,146,258230,1,0,0:0:0:0:
231,79,258280,1,8,0:0:0:0:
232,146,258330,1,8,0:0:0:0:
231,79,258380,1,8,0:0:0:0:
231,79,258430,1,0,0:0:0:0:
231,79,258530,1,0,0:0:0:0:
231,79,258630,1,8,0:0:0:0:
231,79,258680,1,8,0:0:0:0:
231,79,258730,1,0,0:0:0:0:
231,79,258780,1,0,0:0:0:0:
231,79,258830,1,8,0:0:0:0:
231,79,258930,1,8,0:0:0:0:
231,79,259030,1,0,0:0:0:0:
231,79,259080,1,0,0:0:0:0:
171,24,259130,1,0,0:0:0:0:
231,79,259230,1,8,0:0:0:0:
216,95,259330,1,0,0:0:0:0:
296,111,259430,1,8,0:0:0:0:
296,111,259480,1,8,0:0:0:0:
296,111,259530,1,0,0:0:0:0:
296,111,259580,1,8,0:0:0:0:
296,111,259630,1,0,0:0:0:0:
296,111,259730,1,0,0:0:0:0:
296,111,259830,1,8,0:0:0:0:
250,206,259880,1,8,0:0:0:0:
296,111,259930,1,0,0:0:0:0:
228,163,259980,1,0,0:0:0:0:
285,100,260030,1,8,0:0:0:0:
285,100,260130,1,0,0:0:0:0:
277,60,260230,1,8,0:0:0:0:
183,133,260280,1,0,0:0:0:0:
183,133,260330,1,0,0:0:0:0:
183,133,260380,1,0,0:0:0:0:
183,133,260430,1,8,0:0:0:0:
219,54,260530,1,0,0:0:0:0:
219,54,260580,1,0,0:0:0:0:
219,54,260630,1,8,0:0:0:0:
202,49,260730,1,0,0:0:0:0:
228,163,260780,1,0,0:0:0:0:
228,163,260830,1,8,0:0:0:0:
228,163,260880,1,8,0:0:0:0:
219,54,260930,1,8,0:0:0:0:
219,54,260980,1,8,0:0:0:0:
219,54,261030,1,0,0:0:0:0:
219,54,261130,1,8,0:0:0:0:
394,197,261180,1,8,0:0:0:0:
219,54,261230,1,0,0:0:0:0:
408,246,261330,1,8,0:0:0:0:
408,246,261530,1,0,0:0:0:0:
290,175,261730,1,8,0:0:0:0:
290,175,261830,1,0,0:0:0:0:
290,175,261930,1,8,0:0:0:0:
339,183,261980,5,8,0:0:0:0:
339,183,262030,1,8,0:0:0:0:
290,175,262130,1,0,0:0:0:0:
256,145,262330,1,8,0:0:0:0:
272,167,262530,1,0,0:0:0:0:
396,210,262580,1,0,0:0:0:0:
272,167,262630,1,0,0:0:0:0:
386,195,262680,1,0,0:0:0:0:
386,195,262730,1,8,0:0:0:0:
386,195,262780,1,8,0:0:0:0:
386,195,262830,1,0,0:0:0:0:
372,220,263430,1,8,0:0:0:0:
372,220,263480,1,8,0:0:0:0:
372,220,263530,1,8,0:0:0:0:
372,220,263580,1,8,0:0:0:0:
277,174,263630,1,0,0:0:0:0:
277,174,263730,1,8,0:0:0:0:
277,174,263830,1,0,0:0:0:0:
219,138,263930,1,8,0:0:0:0:
174,176,264030,1,8,0:0:0:0:
210,80,264130,1,8,0:0:0:0:
212,120,264230,1,0,0:0:0:0:
210,80,264280,1,0,0:0:0:0:
292,71,264330,1,8,0:0:0:0:
408,121,264380,1,8,0:0:0:0:
210,80,264430,1,0,0:0:0:0:
259,70,264480,1,0,0:0:0:0:
259,70,264530,1,0,0:0:0:0:
259,70,264580,1,0,0:0:0:0:
259,70,264630,1,8,0:0:0:0:
259,70,264680,1,8,0:0:0:0:
259,70,264730,1,8,0:0:0:0:
259,70,264780,1,8,0:0:0:0:
259,70,264830,1,0,0:0:0:0:
259,70,264880,1,0,0:0:0:0:
259,70,264930,1,8,0:0:0:0:
259,70,264980,1,0,0:0:0:0:
259,70,265030,1,8,0:0:0:0:
259,70,265080,1,8,0:0:0:0:
259,70,265130,1,0,0:0:0:0:
259,70,265180,1,8,0:0:0:0:
302,113,265230,1,0,0:0:0:0:
302,113,265280,1,0,0:0:0:0:
302,113,265330,1,8,0:0:0:0:
235,46,265430,1,0,0:0:0:0:
235,46,265530,1,8,0:0:0:0:
235,46,265580,1,8,0:0:0:0:
235,46,265630,1,0,0:0:0:0:
235,46,265730,1,8,0:0:0:0:
235,46,265830,1,0,0:0:0:0:
235,46,265930,1,0,0:0:0:0:
403,181,266030,1,8,0:0:0:0:
340,133,266080,1,8,0:0:0:0:
340,133,266130,1,8,0:0:0:0:
340,133,266180,1,8,0:0:0:0:
340,133,266230,1,0,0:0:0:0:
340,133,266280,1,0,0:0:0:0:
340,133,266330,1,8,0:0:0:0:
340,133,266380,1,0,0:0:0:0:
340,133,266430,1,8,0:0:0:0:
340,133,266480,1,8,0:0:0:0:
340,133,266530,1,0,0:0:0:0:
340,133,266580,1,0,0:0:0:0:
340,133,266630,1,8,0:0:0:0:
340,133,266680,1,8,0:0:0:0:
340,133,266730,1,0,0:0:0:0:
368,183,266780,1,0,0:0:0:0:
368,82,266830,1,8,0:0:0:0:
368,82,266863,1,8,0:0:0:0:
368,82,266896,1,8,0:0:0:0:
297,43,266930,1,0,0:0:0:0:
297,43,266980,1,0,0:0:0:0:
321,55,267030,1,8,0:0:0:0:
321,55,267080,1,8,0:0:0:0:
321,55,267130,1,0,0:0:0:0:
321,55,267180,1,0,0:0:0:0:
321,55,267230,1,8,0:0:0:0:
437,312,267330,1,8,0:0:0:0:
437,312,267430,1,0,0:0:0:0:
314,115,267630,1,8,0:0:0:0:
314,115,267680,1,8,0:0:0:0:
314,115,267730,1,0,0:0:0:0:
314,115,267780,1,0,0:0:0:0:
281,111,268030,1,0,0:0:0:0:
281,111,268080,1,8,0:0:0:0:
281,111,268130,1,8,0:0:0:0:
281,111,268180,1,0,0:0:0:0:
281,111,268430,1,8,0:0:0:0:
281,111,268480,1,0,0:0:0:0:
281,111,268530,1,0,0:0:0:0:
281,111,268580,1,8,0:0:0:0:
281,111,268830,1,0,0:0:0:0:
281,111,268880,1,0,0:0:0:0:
281,111,268930,1,8,0:0:0:0:
180,48,268980,1,8,0:0:0:0:
401,207,269230,1,4,0:0:0:0:
216,86,270030,1,8,0:0:0:0:
410,216,270130,1,8,0:0:0:0:
410,216,270230,1,8,0:0:0:0:
410,216,270330,1,8,0:0:0:0:
262,142,270430,1,0,0:0:0:0:
262,142,270480,1,0,0:0:0:0:
310,180,270530,1,0,0:0:0:0:
310,180,270580,1,0,0:0:0:0:
261,123,270630,1,8,0:0:0:0:
261,123,270680,1,8,0:0:0:0:
310,180,270730,1,8,0:0:0:0:
310,180,270780,1,8,0:0:0:0:
310,180,270830,1,0,0:0:0:0:
286,110,270930,1,0,0:0:0:0:
286,110,271030,1,8,0:0:0:0:
336,161,271080,1,8,0:0:0:0:
286,110,271130,1,0,0:0:0:0:
197,138,271230,1,0,0:0:0:0:
175,24,271330,1,8,0:0:0:0:
145,80,271380,1,8,0:0:0:0:
175,24,271430,1,0,0:0:0:0:
175,24,271480,1,0,0:0:0:0:
145,80,271530,1,8,0:0:0:0:
201,40,271580,1,0,0:0:0:0:
145,80,271630,1,0,0:0:0:0:
200,39,271680,1,0,0:0:0:0:
200,39,271730,1,8,0:0:0:0:
178,65,271830,5,0,0:0:0:0:
184,54,271880,1,0,0:0:0:0:
184,54,271930,1,8,0:0:0:0:
194,46,272030,1,0,0:0:0:0:
194,46,272130,1,8,0:0:0:0:
268,69,272180,1,8,0:0:0:0:
194,46,272230,1,8,0:0:0:0:
204,118,272280,1,8,0:0:0:0:
430,291,272330,1,0,0:0:0:0:
350,176,272380,1,0,0:0:0:0:
399,220,272430,1,8,0:0:0:0:
334,139,272530,1,0,0:0:0:0:
334,139,272630,1,8,0:0:0:0:
353,186,272680,1,8,0:0:0:0:
240,82,272730,1,0,0:0:0:0:
353,186,272780,1,0,0:0:0:0:
240,82,272830,1,8,0:0:0:0:
240,82,272930,1,0,0:0:0:0:
218,64,273030,1,8,0:0:0:0:
160,175,273080,1,0,0:0:0:0:
222,64,273130,1,0,0:0:0:0:
222,64,273180,1,8,0:0:0:0:
222,64,273230,1,8,0:0:0:0:
222,64,273330,1,0,0:0:0:0:
194,137,273380,1,0,0:0:0:0:
222,64,273430,1,8,0:0:0:0:
306,85,273530,1,0,0:0:0:0:
199,38,273580,1,0,0:0:0:0:
199,38,273630,1,0,0:0:0:0:
199,38,273730,1,8,0:0:0:0:
130,157,273780,1,8,0:0:0:0:
223,197,273830,1,0,0:0:0:0:
215,189,273880,1,8,0:0:0:0:
347,179,273930,1,0,0:0:0:0:
214,189,273980,1,0,0:0:0:0:
347,179,274030,1,8,0:0:0:0:
347,179,274080,1,8,0:0:0:0:
243,192,274130,1,0,0:0:0:0:
243,192,274230,1,8,0:0:0:0:
347,179,274280,1,8,0:0:0:0:
243,192,274330,1,8,0:0:0:0:
347,179,274430,1,0,0:0:0:0:
253,106,274530,1,8,0:0:0:0:
259,156,274580,1,8,0:0:0:0:
253,106,274630,1,0,0:0:0:0:
253,106,274680,1,0,0:0:0:0:
234,183,274730,1,8,0:0:0:0:
146,106,274780,1,0,0:0:0:0:
146,106,274830,1,8,0:0:0:0:
103,162,274880,1,8,0:0:0:0:
186,189,274930,1,8,0:0:0:0:
103,162,274980,1,8,0:0:0:0:
252,118,275030,1,0,0:0:0:0:
233,183,275130,1,8,0:0:0:0:
252,118,275230,1,0,0:0:0:0:
434,193,275330,1,8,0:0:0:0:
434,193,275430,1,0,0:0:0:0:
295,129,275480,1,0,0:0:0:0:
304,126,275530,1,8,0:0:0:0:
246,66,275580,1,8,0:0:0:0:
296,130,275630,1,0,0:0:0:0:
296,130,275730,1,8,0:0:0:0:
276,136,275780,1,8,0:0:0:0:
224,216,275830,1,0,0:0:0:0:
225,216,275880,1,8,0:0:0:0:
235,50,275930,1,0,0:0:0:0:
252,118,275980,1,0,0:0:0:0:
225,41,276030,1,8,0:0:0:0:
225,41,276130,1,0,0:0:0:0:
252,118,276180,1,0,0:0:0:0:
192,50,276230,1,8,0:0:0:0:
192,50,276280,1,8,0:0:0:0:
192,50,276330,1,0,0:0:0:0:
95,12,276380,1,0,0:0:0:0:
95,12,276430,1,8,0:0:0:0:
219,164,276480,1,8,0:0:0:0:
401,117,276530,1,0,0:0:0:0:
402,138,276630,1,8,0:0:0:0:
214,111,276680,1,8,0:0:0:0:
196,72,276730,1,8,0:0:0:0:
374,255,276830,1,0,0:0:0:0:
190,69,276930,1,8,0:0:0:0:
134,33,276980,1,8,0:0:0:0:
134,33,277030,1,0,0:0:0:0:
187,66,277080,1,0,0:0:0:0:
188,67,277130,1,8,0:0:0:0:
188,66,277180,1,8,0:0:0:0:
188,68,277230,1,0,0:0:0:0:
352,178,277330,1,8,0:0:0:0:
220,104,277430,1,0,0:0:0:0:
198,202,277480,1,0,0:0:0:0:
220,104,277530,1,8,0:0:0:0:
220,104,277580,1,8,0:0:0:0:
220,104,277630,1,0,0:0:0:0:
220,104,277730,1,8,0:0:0:0:
220,104,277830,1,0,0:0:0:0:
199,53,277880,1,0,0:0:0:0:
199,53,277930,1,8,0:0:0:0:
232,74,277980,1,8,0:0:0:0:
267,84,278030,1,0,0:0:0:0:
267,84,278080,1,8,0:0:0:0:
188,72,278130,1,0,0:0:0:0:
225,66,278180,1,0,0:0:0:0:
188,72,278230,1,8,0:0:0:0:
206,62,278280,1,8,0:0:0:0:
225,66,278330,1,0,0:0:0:0:
188,72,278430,1,0,0:0:0:0:
332,73,278530,1,8,0:0:0:0:
226,147,278580,1,8,0:0:0:0:
118,188,278630,1,0,0:0:0:0:
398,236,278680,1,0,0:0:0:0:
199,62,278730,1,8,0:0:0:0:
332,73,278830,1,0,0:0:0:0:
197,62,278880,1,0,0:0:0:0:
332,73,278930,1,0,0:0:0:0:
332,73,279030,1,8,0:0:0:0:
197,61,279080,1,8,0:0:0:0:
231,124,279130,5,8,0:0:0:0:
235,131,279180,1,8,0:0:0:0:
231,124,279230,1,0,0:0:0:0:
332,73,279330,1,8,0:0:0:0:
177,34,279380,1,8,0:0:0:0:
332,73,279430,1,0,0:0:0:0:
332,73,279480,1,0,0:0:0:0:
332,73,279530,1,8,0:0:0:0:
332,73,279580,1,8,0:0:0:0:
332,73,279630,1,0,0:0:0:0:
229,71,279730,1,8,0:0:0:0:
229,71,279780,1,8,0:0:0:0:
229,71,279830,1,8,0:0:0:0:
229,71,279930,1,0,0:0:0:0:
229,71,279980,1,0,0:0:0:0:
229,71,280030,1,8,0:0:0:0:
229,71,280130,1,0,0:0:0:0:
229,71,280180,1,0,0:0:0:0:
229,71,280230,1,8,0:0:0:0:
229,71,280330,1,0,0:0:0:0:
290,64,280430,1,8,0:0:0:0:
290,64,280463,1,8,0:0:0:0:
290,64,280496,1,8,0:0:0:0:
290,64,280530,1,0,0:0:0:0:
416,23,280580,1,0,0:0:0:0:
416,23,280630,1,8,0:0:0:0:
381,32,280730,1,0,0:0:0:0:
381,32,280830,1,0,0:0:0:0:
425,249,280930,1,8,0:0:0:0:
160,117,280980,1,8,0:0:0:0:
160,117,281030,1,8,0:0:0:0:
142,113,281080,1,8,0:0:0:0:
370,40,281130,1,0,0:0:0:0:
219,86,281230,1,8,0:0:0:0:
389,178,281280,1,8,0:0:0:0:
134,61,281330,5,0,0:0:0:0:
134,61,281380,1,0,0:0:0:0:
370,40,281430,1,8,0:0:0:0:
370,40,281530,1,0,0:0:0:0:
134,61,281580,1,0,0:0:0:0:
370,40,281630,1,8,0:0:0:0:
370,40,281730,1,0,0:0:0:0:
370,40,281830,1,8,0:0:0:0:
370,40,281880,1,8,0:0:0:0:
370,40,281930,1,8,0:0:0:0:
370,40,281980,1,8,0:0:0:0:
370,40,282030,1,0,0:0:0:0:
256,192,282230,12,0,282730,0:0:0:0:
417,245,282830,5,4,0:0:0:0:
417,245,283030,1,4,0:0:0:0:
417,245,283230,1,4,0:0:0:0:
417,245,283430,1,4,0:0:0:0:
353,160,283630,5,8,0:0:0:0:
353,160,283680,1,8,0:0:0:0:
353,160,283730,1,0,0:0:0:0:
353,160,283780,1,0,0:0:0:0:
353,160,283830,1,8,0:0:0:0:
353,160,283880,1,0,0:0:0:0:
353,160,283930,1,8,0:0:0:0:
353,160,283980,1,8,0:0:0:0:
353,160,284030,1,0,0:0:0:0:
353,160,284080,1,0,0:0:0:0:
353,160,284130,1,0,0:0:0:0:
353,160,284180,1,0,0:0:0:0:
353,160,284230,1,8,0:0:0:0:
353,160,284280,1,8,0:0:0:0:
353,160,284330,1,0,0:0:0:0:
353,160,284380,1,0,0:0:0:0:
353,160,284430,1,8,0:0:0:0:
372,215,284480,1,8,0:0:0:0:
372,215,284530,1,0,0:0:0:0:
201,51,284630,1,0,0:0:0:0:
201,51,284730,1,8,0:0:0:0:
201,51,284830,1,0,0:0:0:0:
372,215,284880,1,0,0:0:0:0:
201,51,284930,1,0,0:0:0:0:
372,215,284980,1,0,0:0:0:0:
201,51,285030,1,8,0:0:0:0:
435,272,285130,1,0,0:0:0:0:
266,108,285230,1,8,0:0:0:0:
225,92,285280,1,8,0:0:0:0:
224,91,285330,1,8,0:0:0:0:
225,92,285380,1,8,0:0:0:0:
215,88,285430,1,0,0:0:0:0:
215,88,285480,1,0,0:0:0:0:
215,88,285530,1,8,0:0:0:0:
215,88,285580,1,0,0:0:0:0:
215,87,285630,1,8,0:0:0:0:
215,87,285680,1,8,0:0:0:0:
214,87,285730,1,0,0:0:0:0:
214,87,285780,1,0,0:0:0:0:
214,87,285830,1,8,0:0:0:0:
214,87,285880,1,8,0:0:0:0:
214,87,285930,1,8,0:0:0:0:
214,87,285980,1,8,0:0:0:0:
214,87,286030,1,0,0:0:0:0:
310,176,286130,1,0,0:0:0:0:
310,176,286180,1,0,0:0:0:0:
310,176,286230,1,8,0:0:0:0:
206,47,286330,1,0,0:0:0:0:
206,47,286380,1,0,0:0:0:0:
206,47,286430,1,0,0:0:0:0:
206,47,286530,1,8,0:0:0:0:
206,47,286580,1,8,0:0:0:0:
206,47,286630,1,0,0:0:0:0:
206,47,286730,1,0,0:0:0:0:
206,47,286830,1,8,0:0:0:0:
387,139,286880,1,8,0:0:0:0:
234,201,286930,1,0,0:0:0:0:
234,201,286980,1,0,0:0:0:0:
234,201,287030,1,0,0:0:0:0:
214,120,287080,1,0,0:0:0:0:
234,201,287130,1,8,0:0:0:0:
214,120,287180,1,8,0:0:0:0:
214,120,287230,1,0,0:0:0:0:
214,120,287280,1,0,0:0:0:0:
214,120,287330,1,8,0:0:0:0:
214,120,287380,1,8,0:0:0:0:
214,120,287430,1,0,0:0:0:0:
124,124,287530,1,8,0:0:0:0:
124,124,287580,1,8,0:0:0:0:
124,124,287630,1,0,0:0:0:0:
135,124,287730,1,8,0:0:0:0:
135,124,287780,1,8,0:0:0:0:
135,124,287830,1,8,0:0:0:0:
135,124,287930,1,0,0:0:0:0:
135,124,287980,1,0,0:0:0:0:
135,124,288030,1,0,0:0:0:0:
466,344,288130,1,8,0:0:0:0:
135,124,288180,1,8,0:0:0:0:
279,120,288230,1,0,0:0:0:0:
404,257,288280,1,0,0:0:0:0:
404,257,288330,1,8,0:0:0:0:
404,257,288430,1,0,0:0:0:0:
290,97,288530,1,0,0:0:0:0:
290,97,288630,1,8,0:0:0:0:
317,195,288680,1,8,0:0:0:0:
285,93,288730,1,0,0:0:0:0:
285,93,288780,1,0,0:0:0:0:
311,88,288830,1,8,0:0:0:0:
311,88,288930,1,8,0:0:0:0:
299,84,289030,1,0,0:0:0:0:
299,84,289080,1,0,0:0:0:0:
299,84,289130,1,0,0:0:0:0:
299,84,289180,1,0,0:0:0:0:
299,84,289230,1,8,0:0:0:0:
298,83,289280,1,8,0:0:0:0:
298,83,289330,1,8,0:0:0:0:
298,83,289380,1,8,0:0:0:0:
298,83,289430,1,0,0:0:0:0:
298,83,289530,1,0,0:0:0:0:
298,83,289630,1,8,0:0:0:0:
293,76,289680,1,8,0:0:0:0:
293,76,289730,1,8,0:0:0:0:
252,148,289830,1,0,0:0:0:0:
252,148,289930,1,8,0:0:0:0:
354,129,290030,1,0,0:0:0:0:
354,129,290080,1,0,0:0:0:0:
354,129,290130,1,8,0:0:0:0:
354,129,290180,1,0,0:0:0:0:
354,129,290230,1,8,0:0:0:0:
354,129,290280,1,8,0:0:0:0:
354,129,290330,1,0,0:0:0:0:
354,129,290380,1,0,0:0:0:0:
354,129,290430,1,8,0:0:0:0:
354,129,290480,1,8,0:0:0:0:
354,129,290530,1,8,0:0:0:0:
354,129,290580,1,8,0:0:0:0:
212,84,290630,1,0,0:0:0:0:
212,84,290680,1,0,0:0:0:0:
212,84,290730,1,8,0:0:0:0:
212,84,290780,1,8,0:0:0:0:
212,84,290830,1,0,0:0:0:0:
212,84,290880,1,8,0:0:0:0:
212,84,290930,1,0,0:0:0:0:
212,84,290980,1,0,0:0:0:0:
212,84,291030,1,8,0:0:0:0:
212,84,291080,1,8,0:0:0:0:
212,84,291130,1,8,0:0:0:0:
212,84,291180,1,8,0:0:0:0:
217,44,291230,1,0,0:0:0:0:
165,23,291280,1,0,0:0:0:0:
165,23,291330,1,8,0:0:0:0:
165,23,291380,1,8,0:0:0:0:
165,23,291430,1,0,0:0:0:0:
175,79,291480,1,0,0:0:0:0:
188,82,291530,1,8,0:0:0:0:
288,149,291630,1,0,0:0:0:0:
279,144,291730,1,8,0:0:0:0:
279,144,291780,1,8,0:0:0:0:
189,43,291830,1,0,0:0:0:0:
200,54,291930,1,8,0:0:0:0:
200,68,291980,1,8,0:0:0:0:
293,88,292030,1,8,0:0:0:0:
196,57,292130,1,0,0:0:0:0:
235,82,292230,1,8,0:0:0:0:
235,82,292280,1,0,0:0:0:0:
235,82,292330,1,8,0:0:0:0:
223,13,292380,1,8,0:0:0:0:
223,13,292430,1,0,0:0:0:0:
223,13,292480,1,0,0:0:0:0:
223,13,292530,1,8,0:0:0:0:
223,13,292580,1,8,0:0:0:0:
232,58,292630,1,0,0:0:0:0:
232,58,292680,1,0,0:0:0:0:
232,58,292730,1,0,0:0:0:0:
232,58,292780,1,0,0:0:0:0:
232,58,292830,1,8,0:0:0:0:
232,58,292880,1,8,0:0:0:0:
232,58,292930,1,0,0:0:0:0:
232,58,292980,1,0,0:0:0:0:
212,111,293030,1,8,0:0:0:0:
212,111,293130,1,8,0:0:0:0:
212,111,293230,1,0,0:0:0:0:
226,118,293280,1,0,0:0:0:0:
226,118,293330,1,8,0:0:0:0:
226,118,293380,1,8,0:0:0:0:
226,118,293430,1,8,0:0:0:0:
226,118,293480,1,8,0:0:0:0:
226,118,293530,1,0,0:0:0:0:
221,115,293580,1,0,0:0:0:0:
221,115,293630,1,8,0:0:0:0:
221,115,293680,1,0,0:0:0:0:
221,115,293730,1,8,0:0:0:0:
221,115,293780,1,8,0:0:0:0:
221,115,293830,1,0,0:0:0:0:
221,115,293880,1,0,0:0:0:0:
221,115,293930,1,8,0:0:0:0:
221,115,293980,1,8,0:0:0:0:
221,115,294030,1,0,0:0:0:0:
226,118,294080,1,0,0:0:0:0:
226,118,294130,1,0,0:0:0:0:
226,118,294180,1,0,0:0:0:0:
226,118,294230,1,8,0:0:0:0:
226,118,294280,1,8,0:0:0:0:
165,69,294330,1,0,0:0:0:0:
221,115,294380,1,8,0:0:0:0:
221,115,294430,1,0,0:0:0:0:
165,69,294480,1,0,0:0:0:0:
165,69,294530,1,8,0:0:0:0:
165,69,294580,1,0,0:0:0:0:
165,69,294630,1,8,0:0:0:0:
165,69,294680,1,8,0:0:0:0:
165,69,294730,1,0,0:0:0:0:
205,73,294780,1,0,0:0:0:0:
205,73,294830,1,8,0:0:0:0:
237,190,295630,1,4,0:0:0:0:
237,190,295730,1,8,0:0:0:0:
237,190,295830,1,8,0:0:0:0:
237,190,295930,1,8,0:0:0:0:
237,190,296030,1,4,0:0:0:0:
237,190,296130,1,8,0:0:0:0:
237,190,296230,1,8,0:0:0:0:
237,190,296330,1,8,0:0:0:0:
237,190,296430,1,4,0:0:0:0:
256,192,296530,12,0,302830,0:0:0:0:
289,168,309230,5,8,0:0:0:0:
289,168,309330,1,0,0:0:0:0:
289,168,309530,1,8,0:0:0:0:
301,187,309830,1,0,0:0:0:0:
301,187,310130,1,0,0:0:0:0:
301,187,310430,1,0,0:0:0:0:
256,114,310730,1,8,0:0:0:0:
119,166,310830,1,8,0:0:0:0:
119,166,311130,1,8,0:0:0:0:
119,166,311430,1,0,0:0:0:0:
119,166,311730,1,0,0:0:0:0:
119,166,312030,1,0,0:0:0:0:
77,170,312230,1,8,0:0:0:0:
77,170,312330,1,8,0:0:0:0:
77,170,312430,1,0,0:0:0:0:
155,185,312730,1,8,0:0:0:0:
236,75,313030,1,0,0:0:0:0:
236,75,313330,1,0,0:0:0:0:
236,75,313630,1,0,0:0:0:0:
263,113,313930,1,8,0:0:0:0:
263,113,314030,1,0,0:0:0:0:
263,113,314330,1,8,0:0:0:0:
263,113,314630,1,0,0:0:0:0:
131,190,314830,1,8,0:0:0:0:
263,113,314930,1,0,0:0:0:0:
263,113,315230,1,0,0:0:0:0:
263,113,315430,1,8,0:0:0:0:
263,113,315530,1,8,0:0:0:0:
263,113,315630,1,0,0:0:0:0:
263,113,315930,1,8,0:0:0:0:
263,113,316230,1,0,0:0:0:0:
263,113,316530,1,0,0:0:0:0:
263,113,316830,1,0,0:0:0:0:
263,113,317030,1,8,0:0:0:0:
214,82,317130,1,0,0:0:0:0:
263,113,317230,1,8,0:0:0:0:
250,191,317530,1,8,0:0:0:0:
250,191,317830,1,0,0:0:0:0:
250,191,318130,1,0,0:0:0:0:
131,140,318430,1,0,0:0:0:0:
131,140,318630,1,8,0:0:0:0:
131,140,318730,1,8,0:0:0:0:
131,140,318830,1,8,0:0:0:0:
131,140,319130,1,8,0:0:0:0:
131,140,319430,1,0,0:0:0:0:
131,140,319730,1,0,0:0:0:0:
131,140,320030,1,8,0:0:0:0:
134,131,320230,1,0,0:0:0:0:
134,131,320330,1,0,0:0:0:0:
134,131,320430,1,8,0:0:0:0:
134,131,320730,1,8,0:0:0:0:
134,131,321030,1,0,0:0:0:0:
134,131,321330,1,0,0:0:0:0:
134,131,321630,1,8,0:0:0:0:
134,131,321830,1,0,0:0:0:0:
134,131,321930,1,8,0:0:0:0:
275,184,322030,1,0,0:0:0:0:
256,192,322130,12,0,328230,0:0:0:0:
