osu file format v14

[General]
AudioFilename: audio.mp3
AudioLeadIn: 0
PreviewTime: 238824
Countdown: 1
SampleSet: Normal
StackLeniency: 0.7
Mode: 1
LetterboxInBreaks: 0
WidescreenStoryboard: 0

[Editor]
Bookmarks: 82024,107624,133224,171424,283624,302824,322024
DistanceSpacing: 0.8
BeatDivisor: 4
GridSize: 32
TimelineZoom: 3.899998

[Metadata]
Title:POWA OF DA WILDANES
TitleUnicode:POWA OF DA WILDANES
Artist:Camellia
ArtistUnicode:かめりあ
Creator:MMzz
Version:Tatsujin
Source:
Tags:INVAIDAS FROM DA JUNGLE
BeatmapID:1466883
BeatmapSetID:693222

[Difficulty]
HPDrainRate:3.5
CircleSize:5
OverallDifficulty:8
ApproachRate:5
SliderMultiplier:1.4
SliderTickRate:1

[Events]
//Background and Video events
0,0,"fastbg.jpg",0,0
//Break Periods
//Storyboard Layer 0 (Background)
//Storyboard Layer 1 (Fail)
//Storyboard Layer 2 (Pass)
//Storyboard Layer 3 (Foreground)
//Storyboard Sound Samples

[TimingPoints]
8430,200,4,2,0,5,1,0
8430,-200,4,2,0,5,0,0
14780,-200,4,1,0,80,0,0
56430,-181.818181818182,4,1,0,90,0,0
58830,-166.666666666667,4,1,0,90,0,0
62830,-153.846153846154,4,1,0,90,0,0
65230,-142.857142857143,4,1,0,90,0,0
72430,-133.333333333333,4,1,0,90,0,0
74030,-125,4,1,0,90,0,0
75630,-117.647058823529,4,1,0,90,0,0
76430,-111.111111111111,4,1,0,90,0,0
77230,-105.263157894737,4,1,0,90,0,0
78030,-100,4,1,0,90,0,0
82030,-100,4,1,0,90,0,0
133230,-125,4,1,0,90,0,0
136430,-111.111111111111,4,1,0,90,0,0
139630,-100,4,1,0,90,0,0
143230,-125,4,1,0,90,0,0
146030,-100,4,1,0,90,0,0
149630,-125,4,1,0,90,0,0
152430,-100,4,1,0,90,0,0
156030,-125,4,1,0,90,0,0
158630,-111.111111111111,4,1,0,90,0,0
158830,-100,4,1,0,90,0,0
165330,-100,4,2,0,5,0,0
171630,-200,4,1,0,80,0,0
190830,-181.818181818182,4,1,0,80,0,0
203630,-166.666666666667,4,1,0,80,0,0
206830,-153.846153846154,4,1,0,80,0,0
219630,-142.857142857143,4,1,0,80,0,0
226030,-133.333333333333,4,1,0,90,0,0
227630,-125,4,1,0,90,0,0
229230,-117.647058823529,4,1,0,90,0,0
230030,-111.111111111111,4,1,0,90,0,0
230830,-105.263157894737,4,1,0,90,0,0
231630,-100,4,1,0,90,0,0
238830,-100,4,1,0,90,0,1
261230,-100,4,1,0,90,0,0
270830,-100,4,1,0,90,0,1
294830,-100,4,1,0,90,0,0
296530,-100,4,2,0,5,0,0
302830,-166.666666666667,4,1,0,80,0,0
322130,-166.666666666667,4,2,0,5,0,0

[HitObjects]
256,192,8430,12,0,10830,0:0:0:0:
256,192,11630,12,0,14030,0:0:0:0:
256,192,14830,5,0,0:0:0:0:
256,192,15130,1,0,0:0:0:0:
256,192,15430,1,8,0:0:0:0:
192,160,15730,1,8,0:0:0:0:
192,160,16030,1,0,0:0:0:0:
128,160,16430,1,0,0:0:0:0:
128,160,16730,1,0,0:0:0:0:
128,160,17030,1,8,0:0:0:0:
128,160,17330,1,8,0:0:0:0:
160,160,17630,1,8,0:0:0:0:
160,160,18030,1,0,0:0:0:0:
160,160,18330,1,0,0:0:0:0:
160,160,18630,1,8,0:0:0:0:
160,160,18930,1,8,0:0:0:0:
160,160,19230,1,0,0:0:0:0:
160,160,19630,1,0,0:0:0:0:
160,160,19930,1,0,0:0:0:0:
160,160,20230,1,8,0:0:0:0:
160,160,20530,1,8,0:0:0:0:
160,160,20830,1,8,0:0:0:0:
160,160,21230,1,0,0:0:0:0:
160,160,21530,1,0,0:0:0:0:
160,160,21830,1,8,0:0:0:0:
160,160,22130,1,8,0:0:0:0:
160,160,22430,1,0,0:0:0:0:
160,160,22830,1,0,0:0:0:0:
160,160,23130,1,0,0:0:0:0:
160,160,23430,1,8,0:0:0:0:
160,160,23730,1,8,0:0:0:0:
160,160,24030,1,8,0:0:0:0:
160,160,24430,1,0,0:0:0:0:
160,160,24730,1,0,0:0:0:0:
160,160,25030,1,8,0:0:0:0:
160,160,25330,1,8,0:0:0:0:
160,160,25630,1,0,0:0:0:0:
160,160,26030,1,0,0:0:0:0:
160,160,26330,1,0,0:0:0:0:
160,160,26630,1,8,0:0:0:0:
160,160,26930,1,8,0:0:0:0:
160,160,27230,1,8,0:0:0:0:
288,192,27630,5,0,0:0:0:0:
256,192,28230,1,0,0:0:0:0:
256,192,28330,1,0,0:0:0:0:
256,192,28430,1,0,0:0:0:0:
256,192,29630,1,0,0:0:0:0:
256,192,30030,1,0,0:0:0:0:
256,192,30430,1,8,0:0:0:0:
256,192,30830,1,8,0:0:0:0:
96,128,31430,1,0,0:0:0:0:
96,128,31530,1,0,0:0:0:0:
96,128,31630,1,0,0:0:0:0:
224,160,32830,1,8,0:0:0:0:
224,192,33230,1,8,0:0:0:0:
224,192,33630,1,8,0:0:0:0:
192,192,34030,1,0,0:0:0:0:
192,128,34630,1,0,0:0:0:0:
192,128,34730,1,0,0:0:0:0:
192,128,34830,1,0,0:0:0:0:
192,128,36030,1,0,0:0:0:0:
192,128,36430,1,0,0:0:0:0:
192,128,36830,1,8,0:0:0:0:
192,128,37230,1,8,0:0:0:0:
192,128,37830,1,0,0:0:0:0:
192,128,37930,1,0,0:0:0:0:
192,128,38030,1,0,0:0:0:0:
192,128,39230,5,0,0:0:0:0:
192,128,39630,1,8,0:0:0:0:
192,128,40030,1,8,0:0:0:0:
141,192,40430,5,4,0:0:0:0:
141,192,40830,1,0,0:0:0:0:
141,192,41230,1,8,0:0:0:0:
171,172,41630,1,0,0:0:0:0:
171,172,41830,1,0,0:0:0:0:
171,172,42030,1,0,0:0:0:0:
171,172,42330,1,0,0:0:0:0:
178,171,42630,1,0,0:0:0:0:
178,171,42830,1,8,0:0:0:0:
178,171,43430,1,0,0:0:0:0:
178,171,43630,1,0,0:0:0:0:
172,147,44030,1,0,0:0:0:0:
178,171,44230,1,0,0:0:0:0:
178,171,44430,1,8,0:0:0:0:
178,171,44630,1,0,0:0:0:0:
165,128,44830,1,0,0:0:0:0:
178,171,45030,1,8,0:0:0:0:
178,171,45230,1,0,0:0:0:0:
158,161,45530,1,0,0:0:0:0:
158,161,45830,1,0,0:0:0:0:
158,161,46030,1,8,0:0:0:0:
144,149,46830,1,0,0:0:0:0:
144,149,47230,1,0,0:0:0:0:
144,149,47430,1,0,0:0:0:0:
144,149,47630,1,8,0:0:0:0:
148,136,47830,1,0,0:0:0:0:
144,149,48030,1,0,0:0:0:0:
144,149,48230,1,8,0:0:0:0:
121,153,48430,1,0,0:0:0:0:
121,153,48730,1,0,0:0:0:0:
121,153,49030,1,0,0:0:0:0:
121,153,49230,1,8,0:0:0:0:
121,153,49830,1,0,0:0:0:0:
219,170,50030,1,0,0:0:0:0:
157,145,50430,1,0,0:0:0:0:
157,145,50630,1,0,0:0:0:0:
157,145,50830,1,8,0:0:0:0:
157,145,51030,1,0,0:0:0:0:
157,145,51230,1,0,0:0:0:0:
157,145,51430,1,8,0:0:0:0:
256,192,51630,12,0,53030,0:0:0:0:
169,164,53230,5,4,0:0:0:0:
192,192,56430,1,4,0:0:0:0:
192,224,58830,1,12,0:0:0:0:
192,224,59030,1,12,0:0:0:0:
128,224,59230,1,4,0:0:0:0:
128,224,59430,1,4,0:0:0:0:
128,224,59630,1,4,0:0:0:0:
256,192,62830,1,4,0:0:0:0:
256,192,65230,1,12,0:0:0:0:
256,192,65430,1,12,0:0:0:0:
256,192,65630,1,4,0:0:0:0:
256,192,65830,1,4,0:0:0:0:
256,192,66030,1,4,0:0:0:0:
224,128,66230,1,0,0:0:0:0:
224,128,66330,1,0,0:0:0:0:
224,128,66430,1,8,0:0:0:0:
192,96,66530,1,8,0:0:0:0:
224,128,66630,1,0,0:0:0:0:
224,128,66830,1,0,0:0:0:0:
224,128,67030,1,8,0:0:0:0:
224,128,67130,1,0,0:0:0:0:
224,128,67230,1,8,0:0:0:0:
224,128,67330,1,8,0:0:0:0:
224,128,67430,1,0,0:0:0:0:
96,160,67630,1,0,0:0:0:0:
256,128,67830,1,8,0:0:0:0:
256,128,67880,1,8,0:0:0:0:
256,128,67930,1,8,0:0:0:0:
256,128,67980,1,8,0:0:0:0:
256,128,68030,1,0,0:0:0:0:
256,128,68230,1,8,0:0:0:0:
256,128,68280,1,8,0:0:0:0:
256,128,68330,1,8,0:0:0:0:
256,128,68380,1,8,0:0:0:0:
256,128,68430,1,0,0:0:0:0:
192,128,68530,1,8,0:0:0:0:
192,128,68630,1,0,0:0:0:0:
192,128,68730,1,8,0:0:0:0:
192,128,68780,1,8,0:0:0:0:
192,128,68830,1,0,0:0:0:0:
192,96,69230,1,4,0:0:0:0:
224,160,69430,1,0,0:0:0:0:
224,160,69530,1,0,0:0:0:0:
224,160,69630,1,8,0:0:0:0:
224,160,69730,1,8,0:0:0:0:
224,160,69830,1,0,0:0:0:0:
224,160,70030,1,0,0:0:0:0:
224,160,70230,1,8,0:0:0:0:
224,160,70330,1,0,0:0:0:0:
224,160,70430,1,8,0:0:0:0:
224,160,70530,1,8,0:0:0:0:
224,160,70630,1,0,0:0:0:0:
224,160,70830,1,0,0:0:0:0:
224,96,70880,1,0,0:0:0:0:
224,160,70930,1,0,0:0:0:0:
224,160,71030,1,8,0:0:0:0:
224,160,71130,1,8,0:0:0:0:
224,160,71230,1,0,0:0:0:0:
160,96,71280,1,0,0:0:0:0:
224,160,71330,1,0,0:0:0:0:
224,160,71430,1,8,0:0:0:0:
224,160,71530,1,8,0:0:0:0:
224,160,71630,1,0,0:0:0:0:
224,160,71730,1,8,0:0:0:0:
224,160,71780,1,8,0:0:0:0:
224,160,71830,1,0,0:0:0:0:
224,160,71930,1,8,0:0:0:0:
224,160,71980,1,8,0:0:0:0:
224,160,72030,1,0,0:0:0:0:
192,160,72430,1,4,0:0:0:0:
192,160,72630,1,8,0:0:0:0:
192,160,72830,1,8,0:0:0:0:
192,160,73030,1,8,0:0:0:0:
192,160,73230,1,8,0:0:0:0:
192,160,73430,1,8,0:0:0:0:
128,128,73630,1,0,0:0:0:0:
128,128,73730,1,12,0:0:0:0:
128,128,74030,1,4,0:0:0:0:
128,128,74230,1,8,0:0:0:0:
128,128,74430,1,8,0:0:0:0:
128,128,74630,1,8,0:0:0:0:
128,128,74830,1,8,0:0:0:0:
128,128,75030,1,8,0:0:0:0:
128,128,75230,1,0,0:0:0:0:
128,128,75330,1,12,0:0:0:0:
128,128,75630,1,8,0:0:0:0:
128,128,75730,1,0,0:0:0:0:
128,128,75830,1,0,0:0:0:0:
128,128,75930,1,0,0:0:0:0:
224,160,76030,1,8,0:0:0:0:
224,160,76130,1,8,0:0:0:0:
224,160,76230,1,0,0:0:0:0:
96,160,76330,1,0,0:0:0:0:
128,160,76430,1,8,0:0:0:0:
128,160,76530,1,8,0:0:0:0:
128,160,76630,1,8,0:0:0:0:
128,160,76730,1,0,0:0:0:0:
128,160,76830,1,8,0:0:0:0:
128,160,76930,1,8,0:0:0:0:
128,160,77030,1,0,0:0:0:0:
128,160,77130,1,0,0:0:0:0:
160,128,77230,1,8,0:0:0:0:
160,128,77330,1,0,0:0:0:0:
160,128,77430,1,8,0:0:0:0:
160,128,77530,1,0,0:0:0:0:
160,128,77630,1,8,0:0:0:0:
160,128,77730,1,0,0:0:0:0:
160,128,77830,1,8,0:0:0:0:
160,128,77930,1,0,0:0:0:0:
160,128,78030,1,8,0:0:0:0:
160,128,78080,1,8,0:0:0:0:
160,128,78130,1,0,0:0:0:0:
160,128,78180,1,0,0:0:0:0:
160,128,78230,1,0,0:0:0:0:
160,128,78280,1,0,0:0:0:0:
160,128,78330,1,0,0:0:0:0:
160,128,78380,1,0,0:0:0:0:
160,128,78430,1,8,0:0:0:0:
160,128,78480,1,8,0:0:0:0:
160,128,78530,1,8,0:0:0:0:
160,128,78580,1,8,0:0:0:0:
160,128,78630,1,8,0:0:0:0:
160,128,78680,1,8,0:0:0:0:
160,128,78730,1,8,0:0:0:0:
160,128,78780,1,8,0:0:0:0:
160,96,78830,1,4,0:0:0:0:
256,192,78930,12,0,81830,0:0:0:0:
230,195,82030,5,4,0:0:0:0:
230,195,82130,1,8,0:0:0:0:
257,209,82230,1,0,0:0:0:0:
257,209,82330,1,0,0:0:0:0:
211,142,82380,1,0,0:0:0:0:
257,209,82430,1,8,0:0:0:0:
257,209,82530,1,0,0:0:0:0:
257,209,82630,1,8,0:0:0:0:
257,209,82680,1,8,0:0:0:0:
257,209,82730,1,8,0:0:0:0:
257,209,82780,1,8,0:0:0:0:
257,209,82830,1,0,0:0:0:0:
219,139,82930,1,8,0:0:0:0:
219,139,83030,1,0,0:0:0:0:
219,139,83130,1,0,0:0:0:0:
219,139,83230,1,8,0:0:0:0:
219,139,83330,1,8,0:0:0:0:
219,139,83430,1,0,0:0:0:0:
198,109,83630,1,8,0:0:0:0:
198,109,83730,1,8,0:0:0:0:
198,109,83830,1,0,0:0:0:0:
198,109,83930,1,8,0:0:0:0:
192,110,83980,1,8,0:0:0:0:
192,110,84030,1,0,0:0:0:0:
192,110,84130,1,0,0:0:0:0:
167,138,84230,1,8,0:0:0:0:
167,138,84280,1,8,0:0:0:0:
167,138,84330,1,8,0:0:0:0:
167,138,84380,1,8,0:0:0:0:
167,138,84430,1,0,0:0:0:0:
167,138,84530,1,8,0:0:0:0:
167,138,84580,1,0,0:0:0:0:
167,138,84630,1,0,0:0:0:0:
167,138,84730,1,8,0:0:0:0:
167,138,84780,1,8,0:0:0:0:
167,138,84830,1,0,0:0:0:0:
187,153,84930,1,8,0:0:0:0:
187,153,84980,1,0,0:0:0:0:
187,153,85030,1,0,0:0:0:0:
187,153,85130,1,8,0:0:0:0:
119,202,85230,1,0,0:0:0:0:
119,202,85330,1,8,0:0:0:0:
119,202,85430,1,0,0:0:0:0:
119,202,85530,1,0,0:0:0:0:
179,99,85580,1,0,0:0:0:0:
119,202,85630,1,8,0:0:0:0:
119,202,85730,1,0,0:0:0:0:
193,115,85830,1,8,0:0:0:0:
193,115,85880,1,8,0:0:0:0:
193,115,85930,1,8,0:0:0:0:
193,115,85980,1,8,0:0:0:0:
193,115,86030,1,0,0:0:0:0:
150,126,86130,1,8,0:0:0:0:
150,126,86230,1,0,0:0:0:0:
150,126,86330,1,0,0:0:0:0:
150,126,86430,1,8,0:0:0:0:
150,126,86530,1,8,0:0:0:0:
150,126,86630,1,0,0:0:0:0:
207,93,86830,1,8,0:0:0:0:
207,93,86930,1,8,0:0:0:0:
207,93,87030,1,0,0:0:0:0:
207,93,87130,1,8,0:0:0:0:
207,93,87180,1,8,0:0:0:0:
207,93,87230,1,0,0:0:0:0:
207,93,87330,1,0,0:0:0:0:
221,113,87430,1,8,0:0:0:0:
221,113,87480,1,8,0:0:0:0:
221,113,87530,1,8,0:0:0:0:
158,162,87580,1,8,0:0:0:0:
221,113,87630,1,4,0:0:0:0:
188,121,87830,1,4,0:0:0:0:
170,137,88030,1,12,0:0:0:0:
170,137,88230,1,12,0:0:0:0:
197,114,88430,1,4,0:0:0:0:
197,114,88530,1,8,0:0:0:0:
180,101,88630,1,0,0:0:0:0:
180,101,88730,1,0,0:0:0:0:
166,101,88780,1,0,0:0:0:0:
166,101,88830,1,8,0:0:0:0:
166,101,88930,1,0,0:0:0:0:
166,101,89030,1,8,0:0:0:0:
166,101,89080,1,8,0:0:0:0:
166,101,89130,1,8,0:0:0:0:
166,101,89180,1,8,0:0:0:0:
166,101,89230,1,0,0:0:0:0:
208,140,89330,1,8,0:0:0:0:
208,140,89430,1,0,0:0:0:0:
208,140,89530,1,0,0:0:0:0:
208,140,89630,1,8,0:0:0:0:
208,140,89730,1,8,0:0:0:0:
208,140,89830,1,0,0:0:0:0:
208,140,90030,1,8,0:0:0:0:
208,140,90130,1,0,0:0:0:0:
208,140,90230,1,0,0:0:0:0:
208,140,90330,1,8,0:0:0:0:
131,138,90380,1,8,0:0:0:0:
208,140,90430,1,0,0:0:0:0:
208,140,90530,1,0,0:0:0:0:
208,140,90630,1,8,0:0:0:0:
208,140,90680,1,8,0:0:0:0:
208,140,90730,1,8,0:0:0:0:
200,131,90780,1,8,0:0:0:0:
200,131,90830,1,0,0:0:0:0:
172,101,90930,1,8,0:0:0:0:
172,101,90980,1,0,0:0:0:0:
172,101,91030,1,0,0:0:0:0:
172,101,91130,1,8,0:0:0:0:
172,101,91180,1,8,0:0:0:0:
172,101,91230,1,0,0:0:0:0:
87,153,91330,1,8,0:0:0:0:
87,153,91380,1,0,0:0:0:0:
87,153,91430,1,0,0:0:0:0:
87,153,91530,1,8,0:0:0:0:
250,147,91630,1,0,0:0:0:0:
243,147,91680,1,0,0:0:0:0:
134,183,91730,1,0,0:0:0:0:
170,158,91780,1,0,0:0:0:0:
239,110,91830,1,8,0:0:0:0:
225,108,91930,1,0,0:0:0:0:
225,108,92030,1,8,0:0:0:0:
225,108,92130,1,0,0:0:0:0:
226,108,92330,1,12,0:0:0:0:
198,153,92530,1,12,0:0:0:0:
198,153,92730,1,12,0:0:0:0:
191,153,92830,1,12,0:0:0:0:
191,153,93030,1,12,0:0:0:0:
256,192,93230,12,0,93830,0:0:0:0:
179,150,94030,5,4,0:0:0:0:
154,208,94230,1,4,0:0:0:0:
154,208,94430,1,12,0:0:0:0:
153,208,94630,1,12,0:0:0:0:
198,110,94830,1,4,0:0:0:0:
198,110,94930,1,0,0:0:0:0:
198,110,95030,1,8,0:0:0:0:
189,108,95080,1,8,0:0:0:0:
189,108,95130,1,8,0:0:0:0:
189,108,95230,1,0,0:0:0:0:
141,154,95330,1,0,0:0:0:0:
141,154,95430,1,8,0:0:0:0:
141,154,95480,1,8,0:0:0:0:
141,154,95530,1,8,0:0:0:0:
141,154,95580,1,8,0:0:0:0:
141,154,95630,1,0,0:0:0:0:
166,140,95730,1,0,0:0:0:0:
131,177,95830,1,8,0:0:0:0:
131,177,95930,1,0,0:0:0:0:
131,177,95980,1,0,0:0:0:0:
131,177,96030,1,0,0:0:0:0:
135,83,96130,1,0,0:0:0:0:
131,177,96230,1,8,0:0:0:0:
344,187,96430,1,0,0:0:0:0:
255,199,96530,1,0,0:0:0:0:
252,175,96630,1,8,0:0:0:0:
252,175,96680,1,8,0:0:0:0:
252,175,96730,1,8,0:0:0:0:
252,175,96830,1,0,0:0:0:0:
242,175,96930,1,0,0:0:0:0:
242,175,97030,1,8,0:0:0:0:
242,175,97080,1,8,0:0:0:0:
242,175,97130,1,8,0:0:0:0:
242,175,97180,1,8,0:0:0:0:
242,175,97230,1,0,0:0:0:0:
174,118,97330,1,8,0:0:0:0:
174,118,97380,1,0,0:0:0:0:
174,118,97430,1,0,0:0:0:0:
174,118,97530,1,8,0:0:0:0:
174,118,97580,1,8,0:0:0:0:
174,118,97630,1,0,0:0:0:0:
174,118,97730,1,8,0:0:0:0:
174,118,97780,1,0,0:0:0:0:
174,118,97830,1,0,0:0:0:0:
174,118,97930,1,8,0:0:0:0:
180,84,98030,1,0,0:0:0:0:
180,84,98080,1,0,0:0:0:0:
180,84,98130,1,0,0:0:0:0:
180,84,98180,1,0,0:0:0:0:
180,84,98230,1,8,0:0:0:0:
202,84,98280,1,8,0:0:0:0:
202,84,98330,1,0,0:0:0:0:
202,84,98380,1,0,0:0:0:0:
202,84,98430,1,8,0:0:0:0:
192,85,98530,1,8,0:0:0:0:
192,85,98630,1,8,0:0:0:0:
192,85,98730,1,4,0:0:0:0:
208,153,98930,1,8,0:0:0:0:
208,153,99030,1,8,0:0:0:0:
208,153,99130,1,8,0:0:0:0:
208,153,99230,1,0,0:0:0:0:
208,153,99330,1,0,0:0:0:0:
208,153,99430,1,8,0:0:0:0:
227,230,99630,1,0,0:0:0:0:
227,230,99730,1,8,0:0:0:0:
227,230,99780,1,8,0:0:0:0:
227,230,99830,1,8,0:0:0:0:
227,230,99880,1,8,0:0:0:0:
227,230,99930,1,0,0:0:0:0:
227,230,100030,1,8,0:0:0:0:
163,159,100080,1,8,0:0:0:0:
163,159,100130,1,0,0:0:0:0:
163,159,100180,1,0,0:0:0:0:
105,123,100230,1,8,0:0:0:0:
109,132,100280,1,8,0:0:0:0:
75,204,100330,1,0,0:0:0:0:
55,131,100430,1,0,0:0:0:0:
66,131,100530,1,8,0:0:0:0:
203,150,100630,1,8,0:0:0:0:
203,150,100730,1,0,0:0:0:0:
203,150,100830,1,8,0:0:0:0:
203,150,100930,1,0,0:0:0:0:
195,148,101030,1,0,0:0:0:0:
195,148,101130,1,8,0:0:0:0:
195,148,101230,1,4,0:0:0:0:
152,149,101430,1,8,0:0:0:0:
152,149,101630,1,8,0:0:0:0:
152,149,101830,1,8,0:0:0:0:
152,149,102030,1,8,0:0:0:0:
138,131,102230,1,8,0:0:0:0:
138,131,102430,1,0,0:0:0:0:
138,131,102530,1,12,0:0:0:0:
138,131,102830,1,4,0:0:0:0:
150,101,103030,1,8,0:0:0:0:
150,101,103230,1,8,0:0:0:0:
150,101,103430,1,8,0:0:0:0:
150,101,103630,1,8,0:0:0:0:
150,101,103830,1,8,0:0:0:0:
150,101,104030,1,0,0:0:0:0:
150,101,104130,1,12,0:0:0:0:
167,176,104430,1,8,0:0:0:0:
167,176,104480,1,8,0:0:0:0:
167,176,104530,1,0,0:0:0:0:
167,176,104580,1,0,0:0:0:0:
167,176,104630,1,0,0:0:0:0:
198,97,104680,1,0,0:0:0:0:
198,97,104730,1,0,0:0:0:0:
198,97,104780,1,0,0:0:0:0:
167,176,104830,1,8,0:0:0:0:
167,176,104880,1,8,0:0:0:0:
198,97,104930,1,0,0:0:0:0:
198,97,104980,1,0,0:0:0:0:
198,97,105030,1,0,0:0:0:0:
198,97,105080,1,0,0:0:0:0:
198,97,105130,1,0,0:0:0:0:
198,97,105180,1,0,0:0:0:0:
145,149,105230,1,8,0:0:0:0:
145,149,105280,1,8,0:0:0:0:
198,97,105330,1,0,0:0:0:0:
198,97,105380,1,0,0:0:0:0:
198,97,105430,1,8,0:0:0:0:
198,97,105480,1,8,0:0:0:0:
198,97,105530,1,0,0:0:0:0:
198,97,105580,1,0,0:0:0:0:
228,160,105630,1,8,0:0:0:0:
228,160,105680,1,0,0:0:0:0:
228,160,105730,1,8,0:0:0:0:
228,160,105780,1,0,0:0:0:0:
228,160,105830,1,8,0:0:0:0:
228,160,105880,1,0,0:0:0:0:
228,160,105930,1,8,0:0:0:0:
228,160,106030,1,4,0:0:0:0:
230,117,106430,1,8,0:0:0:0:
230,117,106530,1,8,0:0:0:0:
230,117,106630,1,0,0:0:0:0:
230,117,106730,1,8,0:0:0:0:
230,117,106830,1,8,0:0:0:0:
230,117,106930,1,8,0:0:0:0:
222,116,107030,1,0,0:0:0:0:
222,116,107130,1,0,0:0:0:0:
222,116,107230,1,12,0:0:0:0:
229,133,107630,1,4,0:0:0:0:
229,133,107930,1,4,0:0:0:0:
229,133,108230,1,4,0:0:0:0:
156,129,108430,1,8,0:0:0:0:
156,129,108480,1,8,0:0:0:0:
220,114,108530,1,0,0:0:0:0:
220,114,108580,1,8,0:0:0:0:
220,114,108630,1,0,0:0:0:0:
220,114,108680,1,0,0:0:0:0:
220,114,108730,1,8,0:0:0:0:
220,114,108780,1,8,0:0:0:0:
150,144,108830,1,0,0:0:0:0:
150,144,108880,1,8,0:0:0:0:
150,144,108930,1,0,0:0:0:0:
150,144,108980,1,0,0:0:0:0:
150,144,109030,1,8,0:0:0:0:
150,144,109080,1,8,0:0:0:0:
150,144,109130,1,8,0:0:0:0:
164,74,109180,1,8,0:0:0:0:
164,74,109230,1,0,0:0:0:0:
253,155,109280,1,0,0:0:0:0:
253,155,109330,1,0,0:0:0:0:
253,155,109380,1,0,0:0:0:0:
253,155,109430,1,8,0:0:0:0:
273,229,109530,1,0,0:0:0:0:
231,129,109630,1,8,0:0:0:0:
231,129,109680,1,8,0:0:0:0:
230,129,109730,1,8,0:0:0:0:
230,129,109780,1,8,0:0:0:0:
231,129,109830,1,8,0:0:0:0:
231,129,109880,1,8,0:0:0:0:
231,129,109930,1,0,0:0:0:0:
231,129,109980,1,0,0:0:0:0:
231,129,110030,1,8,0:0:0:0:
231,129,110080,1,8,0:0:0:0:
231,129,110130,1,8,0:0:0:0:
231,129,110180,1,8,0:0:0:0:
231,129,110230,1,8,0:0:0:0:
231,129,110280,1,8,0:0:0:0:
231,129,110330,1,0,0:0:0:0:
231,129,110380,1,0,0:0:0:0:
231,129,110430,1,8,0:0:0:0:
231,129,110480,1,8,0:0:0:0:
231,129,110530,1,0,0:0:0:0:
231,129,110580,1,0,0:0:0:0:
231,129,110630,1,8,0:0:0:0:
231,129,110680,1,0,0:0:0:0:
231,129,110730,1,8,0:0:0:0:
231,129,110830,1,4,0:0:0:0:
193,136,111130,1,4,0:0:0:0:
193,136,111430,1,4,0:0:0:0:
179,133,111530,1,4,0:0:0:0:
175,131,111630,1,8,0:0:0:0:
175,131,111680,1,8,0:0:0:0:
176,130,111730,1,0,0:0:0:0:
176,130,111780,1,8,0:0:0:0:
176,130,111830,1,0,0:0:0:0:
176,130,111880,1,0,0:0:0:0:
176,130,111930,1,8,0:0:0:0:
176,130,111980,1,8,0:0:0:0:
176,130,112030,1,0,0:0:0:0:
176,130,112080,1,8,0:0:0:0:
176,130,112130,1,0,0:0:0:0:
176,130,112180,1,0,0:0:0:0:
171,124,112230,1,8,0:0:0:0:
171,124,112280,1,8,0:0:0:0:
171,124,112330,1,8,0:0:0:0:
171,124,112380,1,8,0:0:0:0:
201,106,112430,1,0,0:0:0:0:
157,91,112530,1,8,0:0:0:0:
160,128,112580,1,8,0:0:0:0:
160,86,112630,1,8,0:0:0:0:
128,128,112680,1,0,0:0:0:0:
160,86,112730,1,0,0:0:0:0:
128,160,112780,1,0,0:0:0:0:
160,86,112830,1,8,0:0:0:0:
166,83,112930,1,0,0:0:0:0:
224,224,112980,1,0,0:0:0:0:
89,170,113030,1,8,0:0:0:0:
128,160,113130,1,8,0:0:0:0:
128,160,113230,1,0,0:0:0:0:
192,128,113280,1,0,0:0:0:0:
128,160,113330,1,0,0:0:0:0:
203,156,113430,1,0,0:0:0:0:
160,192,113480,1,0,0:0:0:0:
214,155,113530,1,8,0:0:0:0:
214,155,113580,1,8,0:0:0:0:
214,155,113630,1,8,0:0:0:0:
214,155,113680,1,8,0:0:0:0:
214,155,113730,1,0,0:0:0:0:
221,167,113830,1,8,0:0:0:0:
221,167,113880,1,8,0:0:0:0:
221,167,113930,1,8,0:0:0:0:
209,147,114030,1,4,0:0:0:0:
209,147,114330,1,4,0:0:0:0:
209,147,114630,1,4,0:0:0:0:
186,129,114830,1,8,0:0:0:0:
186,129,114880,1,8,0:0:0:0:
186,129,114930,1,0,0:0:0:0:
186,129,114980,1,8,0:0:0:0:
186,129,115030,1,0,0:0:0:0:
186,129,115080,1,0,0:0:0:0:
186,129,115130,1,8,0:0:0:0:
186,129,115180,1,8,0:0:0:0:
186,129,115230,1,0,0:0:0:0:
186,129,115280,1,8,0:0:0:0:
186,129,115330,1,0,0:0:0:0:
186,129,115380,1,0,0:0:0:0:
186,129,115430,1,8,0:0:0:0:
186,129,115480,1,8,0:0:0:0:
186,129,115530,1,8,0:0:0:0:
186,129,115580,1,8,0:0:0:0:
186,129,115630,1,0,0:0:0:0:
186,129,115680,1,0,0:0:0:0:
186,129,115730,1,8,0:0:0:0:
186,129,115780,1,0,0:0:0:0:
177,93,115830,1,8,0:0:0:0:
177,93,115880,1,8,0:0:0:0:
177,93,115930,1,0,0:0:0:0:
177,93,115980,1,0,0:0:0:0:
177,93,116030,1,8,0:0:0:0:
184,158,116080,1,0,0:0:0:0:
184,158,116130,1,0,0:0:0:0:
184,158,116180,1,8,0:0:0:0:
184,158,116230,1,0,0:0:0:0:
184,158,116280,1,0,0:0:0:0:
184,158,116330,1,8,0:0:0:0:
184,158,116430,1,8,0:0:0:0:
184,158,116480,1,8,0:0:0:0:
184,158,116530,1,0,0:0:0:0:
184,158,116580,1,8,0:0:0:0:
218,119,116630,1,8,0:0:0:0:
218,119,116680,1,0,0:0:0:0:
218,119,116730,1,8,0:0:0:0:
218,119,116830,1,8,0:0:0:0:
218,119,116880,1,0,0:0:0:0:
213,123,116930,1,8,0:0:0:0:
213,123,116980,1,8,0:0:0:0:
213,123,117030,1,8,0:0:0:0:
213,123,117080,1,8,0:0:0:0:
213,123,117130,1,8,0:0:0:0:
213,123,117180,1,8,0:0:0:0:
213,123,117230,1,4,0:0:0:0:
218,119,117430,1,8,0:0:0:0:
218,119,117480,1,8,0:0:0:0:
218,119,117530,1,8,0:0:0:0:
218,119,117580,1,8,0:0:0:0:
218,119,117630,1,4,0:0:0:0:
219,130,117730,1,4,0:0:0:0:
179,144,117930,1,4,0:0:0:0:
215,110,118030,1,8,0:0:0:0:
215,110,118080,1,8,0:0:0:0:
215,110,118130,1,0,0:0:0:0:
215,110,118230,1,8,0:0:0:0:
215,110,118280,1,8,0:0:0:0:
215,110,118330,1,0,0:0:0:0:
214,127,118430,1,8,0:0:0:0:
214,127,118480,5,0,0:0:0:0:
214,127,118530,1,8,0:0:0:0:
214,127,118580,1,0,0:0:0:0:
214,127,118630,1,8,0:0:0:0:
214,127,118680,1,0,0:0:0:0:
214,127,118730,1,8,0:0:0:0:
214,127,118780,1,8,0:0:0:0:
214,127,118830,1,0,0:0:0:0:
213,132,118930,1,8,0:0:0:0:
213,132,119030,1,0,0:0:0:0:
213,132,119130,1,0,0:0:0:0:
205,139,119180,1,0,0:0:0:0:
213,132,119230,1,8,0:0:0:0:
213,132,119330,1,0,0:0:0:0:
213,132,119430,1,8,0:0:0:0:
213,132,119530,1,8,0:0:0:0:
238,192,119630,5,0,0:0:0:0:
238,192,119680,1,0,0:0:0:0:
238,192,119730,1,0,0:0:0:0:
238,192,119780,1,0,0:0:0:0:
238,192,119830,1,0,0:0:0:0:
212,178,119880,1,0,0:0:0:0:
212,178,119930,1,0,0:0:0:0:
212,178,119980,1,0,0:0:0:0:
212,178,120030,1,8,0:0:0:0:
212,178,120130,1,0,0:0:0:0:
212,178,120230,1,8,0:0:0:0:
179,139,120430,1,4,0:0:0:0:
179,139,120530,1,0,0:0:0:0:
179,139,120630,1,8,0:0:0:0:
179,139,120680,1,8,0:0:0:0:
179,139,120730,1,0,0:0:0:0:
179,139,120830,1,0,0:0:0:0:
169,138,120930,1,8,0:0:0:0:
169,138,120980,1,8,0:0:0:0:
169,138,121030,1,0,0:0:0:0:
145,132,121130,1,0,0:0:0:0:
161,117,121230,1,8,0:0:0:0:
161,117,121280,1,8,0:0:0:0:
161,117,121330,1,0,0:0:0:0:
161,116,121380,1,8,0:0:0:0:
161,116,121430,1,0,0:0:0:0:
161,116,121480,1,0,0:0:0:0:
161,116,121530,1,8,0:0:0:0:
161,116,121580,1,8,0:0:0:0:
161,116,121630,1,0,0:0:0:0:
161,116,121680,1,8,0:0:0:0:
161,116,121730,1,0,0:0:0:0:
161,116,121780,1,0,0:0:0:0:
161,116,121830,1,8,0:0:0:0:
161,116,121880,1,8,0:0:0:0:
161,116,121930,1,8,0:0:0:0:
161,116,121980,1,8,0:0:0:0:
216,141,122030,1,0,0:0:0:0:
222,150,122130,1,0,0:0:0:0:
225,149,122180,1,0,0:0:0:0:
225,149,122230,1,8,0:0:0:0:
216,141,122330,1,0,0:0:0:0:
216,141,122530,1,0,0:0:0:0:
250,123,122630,1,8,0:0:0:0:
205,132,122730,1,0,0:0:0:0:
205,132,122780,1,0,0:0:0:0:
205,132,122830,1,8,0:0:0:0:
205,132,122930,1,8,0:0:0:0:
131,97,123030,1,0,0:0:0:0:
183,119,123080,1,8,0:0:0:0:
131,97,123130,1,0,0:0:0:0:
131,97,123180,1,0,0:0:0:0:
131,97,123230,1,8,0:0:0:0:
131,97,123280,1,8,0:0:0:0:
131,97,123330,1,8,0:0:0:0:
197,158,123380,1,8,0:0:0:0:
131,97,123430,1,0,0:0:0:0:
131,97,123530,1,8,0:0:0:0:
243,158,123630,1,0,0:0:0:0:
243,158,123680,1,0,0:0:0:0:
243,158,123730,1,0,0:0:0:0:
243,158,123830,1,8,0:0:0:0:
136,142,123930,1,0,0:0:0:0:
136,142,123980,1,0,0:0:0:0:
136,142,124030,1,0,0:0:0:0:
136,142,124130,1,8,0:0:0:0:
116,142,124230,1,0,0:0:0:0:
116,142,124330,1,0,0:0:0:0:
116,142,124380,1,0,0:0:0:0:
116,142,124430,1,8,0:0:0:0:
108,142,124530,1,8,0:0:0:0:
108,142,124630,1,0,0:0:0:0:
109,142,124730,1,8,0:0:0:0:
191,128,124830,1,8,0:0:0:0:
191,128,124880,1,8,0:0:0:0:
191,128,124930,1,0,0:0:0:0:
191,128,124980,1,0,0:0:0:0:
191,128,125030,1,8,0:0:0:0:
191,128,125080,1,0,0:0:0:0:
191,128,125130,1,8,0:0:0:0:
191,128,125180,1,8,0:0:0:0:
191,128,125230,1,0,0:0:0:0:
177,124,125280,1,0,0:0:0:0:
185,128,125330,1,0,0:0:0:0:
184,128,125430,1,8,0:0:0:0:
184,128,125530,1,0,0:0:0:0:
192,151,125580,1,0,0:0:0:0:
184,128,125630,1,0,0:0:0:0:
174,184,125730,1,8,0:0:0:0:
174,184,125830,1,0,0:0:0:0:
169,131,125880,1,0,0:0:0:0:
174,184,125930,1,8,0:0:0:0:
185,65,125980,1,0,0:0:0:0:
164,161,126030,5,8,0:0:0:0:
166,167,126130,1,8,0:0:0:0:
171,161,126230,1,0,0:0:0:0:
192,142,126330,1,0,0:0:0:0:
171,161,126430,1,8,0:0:0:0:
171,161,126630,1,8,0:0:0:0:
171,161,126830,1,4,0:0:0:0:
139,153,126930,1,0,0:0:0:0:
139,153,127030,1,8,0:0:0:0:
139,153,127080,1,8,0:0:0:0:
132,150,127130,1,0,0:0:0:0:
131,146,127230,1,0,0:0:0:0:
136,141,127330,1,8,0:0:0:0:
136,141,127380,1,8,0:0:0:0:
136,141,127430,1,0,0:0:0:0:
188,91,127530,1,0,0:0:0:0:
203,178,127630,1,8,0:0:0:0:
203,178,127680,1,8,0:0:0:0:
197,178,127730,1,0,0:0:0:0:
197,178,127780,1,8,0:0:0:0:
192,141,127830,1,0,0:0:0:0:
192,141,127880,1,0,0:0:0:0:
192,141,127930,1,8,0:0:0:0:
192,141,127980,1,8,0:0:0:0:
192,141,128030,1,0,0:0:0:0:
192,141,128080,1,8,0:0:0:0:
192,141,128130,1,0,0:0:0:0:
192,141,128180,1,0,0:0:0:0:
192,141,128230,1,8,0:0:0:0:
192,141,128280,1,8,0:0:0:0:
192,141,128330,1,8,0:0:0:0:
192,141,128380,1,8,0:0:0:0:
192,141,128430,1,0,0:0:0:0:
181,123,128480,1,0,0:0:0:0:
181,123,128530,1,0,0:0:0:0:
181,123,128580,1,0,0:0:0:0:
181,123,128630,1,8,0:0:0:0:
181,123,128730,1,0,0:0:0:0:
250,158,128830,1,8,0:0:0:0:
250,158,128880,1,8,0:0:0:0:
250,158,128930,1,8,0:0:0:0:
250,158,128980,1,8,0:0:0:0:
250,158,129030,1,8,0:0:0:0:
250,158,129080,1,8,0:0:0:0:
215,138,129130,1,0,0:0:0:0:
180,157,129180,1,0,0:0:0:0:
101,153,129230,1,8,0:0:0:0:
101,150,129280,1,8,0:0:0:0:
100,150,129330,1,8,0:0:0:0:
100,150,129380,1,8,0:0:0:0:
100,150,129430,1,8,0:0:0:0:
100,150,129480,1,8,0:0:0:0:
178,123,129530,1,0,0:0:0:0:
207,91,129580,1,0,0:0:0:0:
207,91,129630,1,8,0:0:0:0:
207,91,129680,1,8,0:0:0:0:
207,91,129730,1,0,0:0:0:0:
207,91,129780,1,8,0:0:0:0:
207,91,129830,1,8,0:0:0:0:
207,91,129880,1,0,0:0:0:0:
207,91,129930,1,8,0:0:0:0:
152,154,129980,1,8,0:0:0:0:
178,123,130030,1,0,0:0:0:0:
249,112,130130,1,0,0:0:0:0:
249,112,130230,1,8,0:0:0:0:
108,153,130330,1,0,0:0:0:0:
108,153,130380,1,0,0:0:0:0:
108,153,130430,1,0,0:0:0:0:
108,153,130530,1,8,0:0:0:0:
108,153,130630,1,0,0:0:0:0:
108,153,130680,1,0,0:0:0:0:
189,90,130730,1,0,0:0:0:0:
72,147,130780,1,0,0:0:0:0:
236,105,130830,1,8,0:0:0:0:
236,104,130930,1,8,0:0:0:0:
236,104,131030,1,0,0:0:0:0:
236,105,131130,1,8,0:0:0:0:
236,105,131180,1,8,0:0:0:0:
236,105,131230,1,8,0:0:0:0:
236,105,131330,1,0,0:0:0:0:
236,105,131430,1,8,0:0:0:0:
142,117,131480,1,8,0:0:0:0:
236,105,131530,1,8,0:0:0:0:
160,69,131580,1,8,0:0:0:0:
236,105,131630,1,0,0:0:0:0:
254,115,131730,1,8,0:0:0:0:
254,115,131780,1,8,0:0:0:0:
254,115,131830,1,0,0:0:0:0:
254,115,131930,1,8,0:0:0:0:
254,115,131980,1,0,0:0:0:0:
254,115,132030,1,0,0:0:0:0:
254,115,132130,1,8,0:0:0:0:
254,115,132180,1,8,0:0:0:0:
254,115,132230,1,0,0:0:0:0:
254,115,132330,1,8,0:0:0:0:
256,192,132430,12,0,133030,0:0:0:0:
240,190,133230,5,4,0:0:0:0:
192,160,133630,1,0,0:0:0:0:
192,160,134030,1,0,0:0:0:0:
192,160,134430,1,0,0:0:0:0:
192,160,134830,1,0,0:0:0:0:
192,160,135230,1,0,0:0:0:0:
192,160,135630,1,0,0:0:0:0:
192,160,136030,1,0,0:0:0:0:
256,192,136430,5,0,0:0:0:0:
256,192,136630,1,0,0:0:0:0:
256,192,136730,1,0,0:0:0:0:
256,192,136830,1,8,0:0:0:0:
192,160,136930,1,0,0:0:0:0:
192,160,137030,1,0,0:0:0:0:
192,160,137230,1,0,0:0:0:0:
192,160,137430,1,0,0:0:0:0:
192,96,137530,5,0,0:0:0:0:
192,96,137630,1,8,0:0:0:0:
192,96,137730,1,8,0:0:0:0:
192,96,137830,1,0,0:0:0:0:
128,160,138030,1,8,0:0:0:0:
128,160,138130,1,0,0:0:0:0:
128,160,138230,1,0,0:0:0:0:
128,160,138330,1,0,0:0:0:0:
160,160,138430,5,8,0:0:0:0:
160,160,138480,1,8,0:0:0:0:
160,160,138530,1,0,0:0:0:0:
160,160,138580,1,0,0:0:0:0:
160,160,138630,1,0,0:0:0:0:
160,160,138680,1,0,0:0:0:0:
160,160,138730,1,0,0:0:0:0:
160,160,138780,1,0,0:0:0:0:
256,192,138830,5,12,0:0:0:0:
256,192,139030,1,12,0:0:0:0:
256,192,139230,1,4,0:0:0:0:
256,192,139630,1,4,0:0:0:0:
160,192,139830,1,8,0:0:0:0:
160,192,140030,1,0,0:0:0:0:
160,192,140130,1,0,0:0:0:0:
160,192,140230,1,8,0:0:0:0:
160,192,140330,1,0,0:0:0:0:
256,224,140380,1,0,0:0:0:0:
160,192,140430,1,0,0:0:0:0:
160,192,140530,1,0,0:0:0:0:
160,192,140630,1,8,0:0:0:0:
160,192,140730,1,8,0:0:0:0:
160,192,140830,1,0,0:0:0:0:
160,192,140930,1,0,0:0:0:0:
160,192,140980,1,0,0:0:0:0:
160,192,141030,1,8,0:0:0:0:
160,192,141130,1,8,0:0:0:0:
160,192,141230,1,0,0:0:0:0:
96,160,141430,1,8,0:0:0:0:
96,160,141630,1,0,0:0:0:0:
96,160,141730,1,0,0:0:0:0:
96,160,141830,1,8,0:0:0:0:
96,160,141930,1,0,0:0:0:0:
288,192,141980,1,0,0:0:0:0:
96,160,142030,1,0,0:0:0:0:
128,160,142130,1,0,0:0:0:0:
128,160,142230,1,8,0:0:0:0:
128,160,142280,1,8,0:0:0:0:
128,160,142330,1,0,0:0:0:0:
96,128,142430,1,8,0:0:0:0:
96,128,142530,1,0,0:0:0:0:
96,128,142630,1,8,0:0:0:0:
192,160,142680,1,8,0:0:0:0:
96,128,142730,1,8,0:0:0:0:
192,160,142830,1,4,0:0:0:0:
192,160,143230,1,8,0:0:0:0:
160,160,143430,1,0,0:0:0:0:
160,160,143530,1,0,0:0:0:0:
160,160,143630,1,8,0:0:0:0:
160,160,143680,1,8,0:0:0:0:
192,160,143730,1,0,0:0:0:0:
160,160,143830,1,8,0:0:0:0:
160,160,143880,1,8,0:0:0:0:
192,160,143930,1,0,0:0:0:0:
160,128,144030,1,8,0:0:0:0:
160,96,144130,1,8,0:0:0:0:
160,96,144230,1,0,0:0:0:0:
160,96,144330,1,0,0:0:0:0:
160,160,144430,1,8,0:0:0:0:
160,160,144480,1,8,0:0:0:0:
160,160,144530,1,0,0:0:0:0:
160,160,144580,1,0,0:0:0:0:
160,160,144630,1,0,0:0:0:0:
160,96,144680,1,0,0:0:0:0:
128,160,144730,1,0,0:0:0:0:
160,128,144780,1,0,0:0:0:0:
128,160,144830,1,8,0:0:0:0:
128,160,144930,1,8,0:0:0:0:
128,160,145030,1,0,0:0:0:0:
128,160,145130,1,0,0:0:0:0:
128,160,145230,1,8,0:0:0:0:
160,128,145280,1,8,0:0:0:0:
224,96,145330,1,0,0:0:0:0:
128,160,145430,1,8,0:0:0:0:
160,128,145480,1,8,0:0:0:0:
224,96,145530,1,0,0:0:0:0:
192,128,145630,1,8,0:0:0:0:
192,128,145830,1,8,0:0:0:0:
192,128,146030,1,4,0:0:0:0:
192,128,146230,1,8,0:0:0:0:
192,128,146430,1,0,0:0:0:0:
192,128,146530,1,0,0:0:0:0:
192,128,146630,1,8,0:0:0:0:
192,128,146730,1,0,0:0:0:0:
224,128,146780,1,0,0:0:0:0:
192,128,146830,1,0,0:0:0:0:
192,128,146930,1,0,0:0:0:0:
192,128,147030,1,8,0:0:0:0:
192,128,147130,1,0,0:0:0:0:
224,128,147180,1,0,0:0:0:0:
192,128,147230,1,8,0:0:0:0:
192,128,147330,1,0,0:0:0:0:
192,128,147430,1,8,0:0:0:0:
192,128,147530,1,8,0:0:0:0:
192,128,147630,1,0,0:0:0:0:
192,128,147830,1,8,0:0:0:0:
96,160,148030,1,0,0:0:0:0:
96,160,148130,1,0,0:0:0:0:
96,160,148230,1,8,0:0:0:0:
96,160,148330,1,0,0:0:0:0:
192,128,148380,1,0,0:0:0:0:
96,160,148430,1,0,0:0:0:0:
128,160,148530,1,0,0:0:0:0:
128,160,148630,1,8,0:0:0:0:
128,160,148680,1,8,0:0:0:0:
128,160,148730,1,0,0:0:0:0:
96,128,148830,1,8,0:0:0:0:
96,128,148880,1,0,0:0:0:0:
192,160,148930,1,0,0:0:0:0:
192,160,148980,1,0,0:0:0:0:
224,128,149030,1,8,0:0:0:0:
96,128,149130,1,8,0:0:0:0:
192,160,149230,1,4,0:0:0:0:
160,160,149630,1,8,0:0:0:0:
160,160,149830,1,0,0:0:0:0:
160,160,149930,1,0,0:0:0:0:
160,128,150030,1,8,0:0:0:0:
160,128,150080,1,8,0:0:0:0:
160,128,150130,1,0,0:0:0:0:
160,128,150230,1,8,0:0:0:0:
160,128,150280,1,8,0:0:0:0:
160,128,150330,1,0,0:0:0:0:
160,128,150430,1,8,0:0:0:0:
160,128,150530,1,8,0:0:0:0:
160,128,150630,1,0,0:0:0:0:
160,128,150730,1,0,0:0:0:0:
160,128,150830,1,8,0:0:0:0:
160,96,150880,1,8,0:0:0:0:
160,128,150930,1,8,0:0:0:0:
160,128,151030,1,0,0:0:0:0:
160,128,151130,1,8,0:0:0:0:
160,96,151180,1,8,0:0:0:0:
160,128,151230,1,8,0:0:0:0:
160,128,151330,1,0,0:0:0:0:
160,128,151430,1,8,0:0:0:0:
192,128,151530,1,0,0:0:0:0:
192,128,151630,1,8,0:0:0:0:
160,32,151680,1,8,0:0:0:0:
192,128,151730,1,0,0:0:0:0:
192,128,151830,1,0,0:0:0:0:
192,128,151930,1,8,0:0:0:0:
160,32,151980,1,8,0:0:0:0:
192,128,152030,1,0,0:0:0:0:
192,128,152130,1,0,0:0:0:0:
192,128,152230,1,8,0:0:0:0:
192,96,152430,1,4,0:0:0:0:
192,128,152630,1,8,0:0:0:0:
192,128,152830,1,0,0:0:0:0:
192,128,152930,1,0,0:0:0:0:
192,128,153030,1,8,0:0:0:0:
192,128,153130,1,0,0:0:0:0:
192,128,153180,1,0,0:0:0:0:
192,128,153230,1,0,0:0:0:0:
192,128,153330,1,0,0:0:0:0:
192,128,153430,1,8,0:0:0:0:
192,128,153530,1,8,0:0:0:0:
192,128,153630,1,0,0:0:0:0:
192,128,153730,1,0,0:0:0:0:
192,96,153780,1,0,0:0:0:0:
192,128,153830,1,8,0:0:0:0:
192,128,153930,1,8,0:0:0:0:
192,128,154030,1,0,0:0:0:0:
192,128,154230,1,8,0:0:0:0:
96,160,154430,1,0,0:0:0:0:
96,160,154530,1,0,0:0:0:0:
96,160,154630,1,8,0:0:0:0:
96,160,154730,1,0,0:0:0:0:
224,128,154780,1,0,0:0:0:0:
96,160,154830,1,0,0:0:0:0:
128,160,154930,1,0,0:0:0:0:
128,160,155030,1,8,0:0:0:0:
128,160,155080,1,8,0:0:0:0:
128,160,155130,1,0,0:0:0:0:
96,128,155230,1,8,0:0:0:0:
96,128,155330,1,0,0:0:0:0:
96,128,155430,1,8,0:0:0:0:
192,160,155480,1,8,0:0:0:0:
96,128,155530,1,8,0:0:0:0:
192,160,155630,1,4,0:0:0:0:
96,128,156030,1,8,0:0:0:0:
96,128,156230,1,0,0:0:0:0:
96,128,156330,1,0,0:0:0:0:
96,128,156430,1,8,0:0:0:0:
96,128,156480,1,8,0:0:0:0:
96,128,156530,1,0,0:0:0:0:
96,128,156630,1,8,0:0:0:0:
96,128,156680,1,8,0:0:0:0:
96,128,156730,1,0,0:0:0:0:
96,128,156830,1,8,0:0:0:0:
96,128,156930,1,8,0:0:0:0:
96,128,157030,1,0,0:0:0:0:
96,128,157130,1,0,0:0:0:0:
96,128,157230,1,8,0:0:0:0:
96,128,157280,1,8,0:0:0:0:
96,128,157330,1,0,0:0:0:0:
96,128,157380,1,0,0:0:0:0:
96,128,157430,1,0,0:0:0:0:
96,128,157480,1,0,0:0:0:0:
96,128,157530,1,0,0:0:0:0:
96,128,157580,1,0,0:0:0:0:
96,128,157630,1,8,0:0:0:0:
96,128,157730,1,8,0:0:0:0:
96,128,157830,1,0,0:0:0:0:
96,128,157930,1,0,0:0:0:0:
96,128,158030,1,8,0:0:0:0:
64,128,158080,1,8,0:0:0:0:
64,128,158130,1,0,0:0:0:0:
64,128,158230,1,8,0:0:0:0:
64,128,158280,1,8,0:0:0:0:
64,128,158330,1,0,0:0:0:0:
96,128,158430,1,8,0:0:0:0:
64,128,158630,1,8,0:0:0:0:
64,128,158830,1,0,0:0:0:0:
160,128,158930,1,0,0:0:0:0:
160,128,159030,1,8,0:0:0:0:
160,128,159130,1,0,0:0:0:0:
160,128,159230,1,0,0:0:0:0:
160,128,159280,1,0,0:0:0:0:
160,128,159330,1,0,0:0:0:0:
192,64,159380,1,0,0:0:0:0:
160,128,159430,1,8,0:0:0:0:
160,128,159530,1,0,0:0:0:0:
160,128,159630,1,8,0:0:0:0:
160,128,159680,1,8,0:0:0:0:
160,128,159730,1,0,0:0:0:0:
160,64,159780,1,0,0:0:0:0:
160,128,159830,1,8,0:0:0:0:
160,128,159930,1,8,0:0:0:0:
160,128,160030,1,4,0:0:0:0:
64,160,160430,1,8,0:0:0:0:
64,160,160530,1,0,0:0:0:0:
64,160,160630,1,0,0:0:0:0:
64,160,160730,1,0,0:0:0:0:
160,160,160830,1,8,0:0:0:0:
160,160,160880,1,8,0:0:0:0:
160,160,160930,1,8,0:0:0:0:
160,160,160980,1,8,0:0:0:0:
160,160,161030,1,0,0:0:0:0:
160,160,161130,1,0,0:0:0:0:
160,160,161230,1,8,0:0:0:0:
160,160,161280,1,8,0:0:0:0:
160,160,161330,1,0,0:0:0:0:
160,160,161380,1,0,0:0:0:0:
160,160,161430,1,8,0:0:0:0:
160,160,161530,1,0,0:0:0:0:
160,160,161630,1,12,0:0:0:0:
128,160,162030,1,4,0:0:0:0:
128,160,162430,1,8,0:0:0:0:
128,160,162730,1,8,0:0:0:0:
128,160,163030,1,8,0:0:0:0:
192,160,163230,1,8,0:0:0:0:
192,160,163330,1,0,0:0:0:0:
192,160,163430,1,8,0:0:0:0:
192,160,163530,1,8,0:0:0:0:
192,160,163630,1,0,0:0:0:0:
192,160,163730,1,0,0:0:0:0:
192,160,163830,1,8,0:0:0:0:
192,160,163930,1,0,0:0:0:0:
192,160,164030,1,0,0:0:0:0:
192,160,164130,1,0,0:0:0:0:
192,160,164230,1,8,0:0:0:0:
192,160,164330,1,8,0:0:0:0:
160,128,164430,1,0,0:0:0:0:
160,128,164480,1,0,0:0:0:0:
160,128,164530,1,0,0:0:0:0:
160,128,164630,1,8,0:0:0:0:
160,128,164730,1,0,0:0:0:0:
160,128,164830,1,8,0:0:0:0:
160,128,164930,1,0,0:0:0:0:
160,128,164980,1,0,0:0:0:0:
128,128,165030,1,8,0:0:0:0:
128,128,165130,1,8,0:0:0:0:
160,160,165230,5,4,0:0:0:0:
256,192,165330,12,0,171430,0:0:0:0:
192,192,171630,5,0,0:0:0:0:
160,192,171930,1,0,0:0:0:0:
160,192,172230,1,0,0:0:0:0:
160,192,172430,1,8,0:0:0:0:
192,224,173230,1,0,0:0:0:0:
192,224,173530,1,0,0:0:0:0:
192,224,173830,1,0,0:0:0:0:
192,224,174030,1,0,0:0:0:0:
128,192,174830,1,0,0:0:0:0:
128,192,175130,1,0,0:0:0:0:
128,192,175430,1,0,0:0:0:0:
128,192,175630,1,8,0:0:0:0:
128,192,176430,1,0,0:0:0:0:
128,192,176730,1,8,0:0:0:0:
128,192,177030,1,8,0:0:0:0:
128,192,177230,1,8,0:0:0:0:
128,192,178030,1,0,0:0:0:0:
224,160,178130,1,0,0:0:0:0:
128,192,178330,1,0,0:0:0:0:
128,192,178530,1,0,0:0:0:0:
128,192,178630,1,0,0:0:0:0:
128,192,178830,1,8,0:0:0:0:
192,160,179030,1,0,0:0:0:0:
192,160,179230,1,8,0:0:0:0:
192,160,179430,1,8,0:0:0:0:
192,160,179630,1,0,0:0:0:0:
192,160,179730,1,0,0:0:0:0:
192,160,179930,1,8,0:0:0:0:
192,160,180130,1,0,0:0:0:0:
192,160,180230,1,0,0:0:0:0:
192,160,180430,1,8,0:0:0:0:
192,160,181230,1,8,0:0:0:0:
192,160,181330,1,0,0:0:0:0:
192,160,181530,1,8,0:0:0:0:
192,160,181730,1,0,0:0:0:0:
192,160,181830,1,0,0:0:0:0:
192,160,182030,1,8,0:0:0:0:
192,160,182230,1,0,0:0:0:0:
192,160,182430,1,8,0:0:0:0:
192,160,182630,1,0,0:0:0:0:
192,160,182730,1,0,0:0:0:0:
192,160,182830,1,8,0:0:0:0:
192,160,182930,1,0,0:0:0:0:
192,160,183130,1,8,0:0:0:0:
192,160,183330,1,8,0:0:0:0:
192,160,183430,1,8,0:0:0:0:
192,160,183630,1,0,0:0:0:0:
320,192,184430,1,0,0:0:0:0:
288,192,184530,1,0,0:0:0:0:
256,160,184730,1,0,0:0:0:0:
256,160,184930,1,0,0:0:0:0:
256,160,185030,1,0,0:0:0:0:
256,160,185230,1,8,0:0:0:0:
256,160,185430,1,0,0:0:0:0:
256,160,185630,1,8,0:0:0:0:
192,128,185830,1,8,0:0:0:0:
192,128,185930,1,8,0:0:0:0:
192,128,186030,1,0,0:0:0:0:
192,128,186130,1,0,0:0:0:0:
192,128,186330,1,8,0:0:0:0:
192,128,186530,1,0,0:0:0:0:
192,128,186630,1,0,0:0:0:0:
192,128,186830,1,8,0:0:0:0:
192,160,187630,1,0,0:0:0:0:
192,160,187730,1,0,0:0:0:0:
192,160,187930,1,8,0:0:0:0:
192,160,188130,1,0,0:0:0:0:
192,160,188230,1,0,0:0:0:0:
192,160,188430,1,8,0:0:0:0:
192,160,188630,1,0,0:0:0:0:
192,160,188730,1,8,0:0:0:0:
96,160,188930,1,8,0:0:0:0:
192,160,189030,1,0,0:0:0:0:
192,160,189230,1,0,0:0:0:0:
192,160,189330,1,0,0:0:0:0:
192,160,189430,1,0,0:0:0:0:
192,160,189530,1,8,0:0:0:0:
192,160,189730,5,0,0:0:0:0:
192,160,189830,1,0,0:0:0:0:
192,160,189930,1,8,0:0:0:0:
192,160,190030,1,8,0:0:0:0:
160,160,190230,1,0,0:0:0:0:
160,160,190330,1,8,0:0:0:0:
160,64,190530,1,8,0:0:0:0:
160,160,190630,1,0,0:0:0:0:
160,224,190830,5,0,0:0:0:0:
192,224,191030,1,0,0:0:0:0:
192,224,191130,1,0,0:0:0:0:
192,224,191230,1,8,0:0:0:0:
128,192,191430,1,0,0:0:0:0:
128,192,191630,1,8,0:0:0:0:
128,128,191830,1,0,0:0:0:0:
160,160,191930,1,0,0:0:0:0:
128,128,192030,1,0,0:0:0:0:
224,192,192230,1,8,0:0:0:0:
224,160,192430,1,0,0:0:0:0:
192,160,192630,1,0,0:0:0:0:
192,160,192730,1,8,0:0:0:0:
160,64,192930,1,8,0:0:0:0:
160,160,193030,1,0,0:0:0:0:
160,160,193230,1,8,0:0:0:0:
192,128,193830,1,0,0:0:0:0:
224,128,194030,1,0,0:0:0:0:
224,128,194230,1,0,0:0:0:0:
224,128,194330,1,0,0:0:0:0:
224,128,194430,1,8,0:0:0:0:
224,128,194630,1,0,0:0:0:0:
224,128,194830,1,8,0:0:0:0:
224,128,195030,1,0,0:0:0:0:
128,160,195130,1,0,0:0:0:0:
224,128,195230,1,0,0:0:0:0:
224,128,195430,1,8,0:0:0:0:
192,128,195630,1,0,0:0:0:0:
192,128,195830,1,0,0:0:0:0:
192,128,195930,1,8,0:0:0:0:
192,128,196130,1,8,0:0:0:0:
192,128,196230,1,8,0:0:0:0:
192,128,196430,1,8,0:0:0:0:
192,128,197230,1,0,0:0:0:0:
192,128,197430,1,0,0:0:0:0:
192,128,197530,1,0,0:0:0:0:
192,128,197630,1,8,0:0:0:0:
192,128,197830,1,0,0:0:0:0:
192,128,198030,1,8,0:0:0:0:
192,128,198230,1,0,0:0:0:0:
160,128,198330,1,0,0:0:0:0:
192,128,198430,1,0,0:0:0:0:
192,128,198630,1,8,0:0:0:0:
192,128,198830,1,0,0:0:0:0:
192,128,199030,1,0,0:0:0:0:
192,128,199130,1,8,0:0:0:0:
192,128,199330,1,8,0:0:0:0:
192,128,199430,1,0,0:0:0:0:
192,128,199630,1,8,0:0:0:0:
192,128,199930,1,0,0:0:0:0:
192,128,200030,1,0,0:0:0:0:
192,128,200230,1,8,0:0:0:0:
192,128,200430,1,0,0:0:0:0:
192,128,200630,1,0,0:0:0:0:
192,128,200730,1,0,0:0:0:0:
192,128,200830,1,8,0:0:0:0:
192,128,201030,1,0,0:0:0:0:
192,128,201230,1,8,0:0:0:0:
192,128,201430,1,0,0:0:0:0:
192,128,201530,1,0,0:0:0:0:
192,128,201630,1,0,0:0:0:0:
192,128,201830,1,8,0:0:0:0:
192,128,202030,1,0,0:0:0:0:
192,128,202230,1,8,0:0:0:0:
192,128,202330,1,8,0:0:0:0:
192,128,202430,1,0,0:0:0:0:
192,128,202630,1,8,0:0:0:0:
192,128,202830,1,8,0:0:0:0:
192,128,203030,1,0,0:0:0:0:
192,128,203230,1,8,0:0:0:0:
192,128,203330,1,0,0:0:0:0:
192,128,203430,1,8,0:0:0:0:
96,160,203630,1,0,0:0:0:0:
288,96,203763,1,0,0:0:0:0:
288,96,203896,1,0,0:0:0:0:
224,96,204030,1,8,0:0:0:0:
224,96,204130,1,8,0:0:0:0:
224,96,204230,1,8,0:0:0:0:
224,96,204330,1,8,0:0:0:0:
224,96,204430,1,0,0:0:0:0:
96,128,204496,1,0,0:0:0:0:
96,128,204563,1,0,0:0:0:0:
128,128,204630,1,0,0:0:0:0:
128,128,204696,1,0,0:0:0:0:
128,128,204763,1,0,0:0:0:0:
160,128,204830,1,8,0:0:0:0:
160,128,204896,1,8,0:0:0:0:
160,128,204963,1,8,0:0:0:0:
160,128,205030,1,8,0:0:0:0:
160,128,205096,1,8,0:0:0:0:
160,128,205163,1,8,0:0:0:0:
256,192,205230,12,0,205830,0:0:0:0:
256,96,206030,5,8,0:0:0:0:
256,96,206230,1,8,0:0:0:0:
256,96,206330,1,8,0:0:0:0:
256,96,206530,1,8,0:0:0:0:
256,96,206630,1,8,0:0:0:0:
256,96,206830,1,0,0:0:0:0:
96,160,206930,1,8,0:0:0:0:
160,192,207130,1,8,0:0:0:0:
160,192,207330,1,0,0:0:0:0:
160,192,207430,1,0,0:0:0:0:
160,192,207530,1,0,0:0:0:0:
160,192,207630,1,8,0:0:0:0:
160,192,207830,1,8,0:0:0:0:
160,192,208030,1,0,0:0:0:0:
160,192,208230,1,8,0:0:0:0:
160,192,208330,1,0,0:0:0:0:
160,192,208430,1,8,0:0:0:0:
160,192,208530,1,0,0:0:0:0:
160,192,208630,1,0,0:0:0:0:
160,192,208730,1,8,0:0:0:0:
160,192,208930,1,0,0:0:0:0:
160,192,209030,1,8,0:0:0:0:
160,192,209130,1,8,0:0:0:0:
160,192,209230,1,0,0:0:0:0:
160,192,209430,1,0,0:0:0:0:
224,224,209630,1,8,0:0:0:0:
224,224,209830,1,8,0:0:0:0:
224,224,210030,1,8,0:0:0:0:
160,64,210130,1,0,0:0:0:0:
224,224,210330,1,8,0:0:0:0:
224,224,210530,1,0,0:0:0:0:
224,224,210630,1,0,0:0:0:0:
224,224,210730,1,0,0:0:0:0:
224,224,210830,1,8,0:0:0:0:
192,192,211030,1,8,0:0:0:0:
160,192,211230,1,0,0:0:0:0:
160,192,211430,1,8,0:0:0:0:
160,192,211530,1,8,0:0:0:0:
160,192,211630,1,0,0:0:0:0:
160,192,211730,1,0,0:0:0:0:
160,192,211930,1,8,0:0:0:0:
256,192,212130,1,8,0:0:0:0:
256,192,212230,1,8,0:0:0:0:
256,192,212330,1,8,0:0:0:0:
256,192,212430,1,4,0:0:0:0:
160,160,212630,1,4,0:0:0:0:
160,160,212830,1,12,0:0:0:0:
160,160,213030,1,12,0:0:0:0:
160,160,213230,1,0,0:0:0:0:
128,160,213330,1,8,0:0:0:0:
160,160,213530,1,8,0:0:0:0:
160,160,213730,1,0,0:0:0:0:
160,160,213830,1,0,0:0:0:0:
160,160,213930,1,0,0:0:0:0:
160,160,214030,1,8,0:0:0:0:
160,160,214230,1,8,0:0:0:0:
160,160,214430,1,0,0:0:0:0:
160,160,214630,1,8,0:0:0:0:
160,160,214730,1,0,0:0:0:0:
160,160,214830,1,8,0:0:0:0:
160,160,214930,1,0,0:0:0:0:
160,64,215030,1,0,0:0:0:0:
160,160,215130,1,8,0:0:0:0:
160,160,215330,1,0,0:0:0:0:
160,64,215430,1,8,0:0:0:0:
160,64,215530,1,8,0:0:0:0:
160,64,215630,1,0,0:0:0:0:
192,160,215830,1,0,0:0:0:0:
192,160,216030,1,8,0:0:0:0:
192,160,216230,1,8,0:0:0:0:
192,160,216430,1,0,0:0:0:0:
160,128,216530,1,8,0:0:0:0:
192,128,216730,1,8,0:0:0:0:
192,128,217030,1,0,0:0:0:0:
128,128,217130,1,0,0:0:0:0:
192,128,217230,1,8,0:0:0:0:
192,128,217330,1,0,0:0:0:0:
160,128,217530,1,8,0:0:0:0:
256,96,217830,1,0,0:0:0:0:
256,96,217896,1,0,0:0:0:0:
256,96,217963,1,0,0:0:0:0:
256,96,218030,1,8,0:0:0:0:
256,128,218130,1,8,0:0:0:0:
224,128,218330,1,8,0:0:0:0:
192,96,218430,1,0,0:0:0:0:
192,96,218530,1,0,0:0:0:0:
192,96,218630,1,8,0:0:0:0:
192,96,218730,1,8,0:0:0:0:
192,128,218830,1,0,0:0:0:0:
192,128,218930,1,8,0:0:0:0:
192,128,218980,1,8,0:0:0:0:
192,128,219030,1,8,0:0:0:0:
192,128,219130,1,0,0:0:0:0:
192,96,219230,1,8,0:0:0:0:
192,96,219280,1,8,0:0:0:0:
192,96,219330,1,8,0:0:0:0:
192,96,219430,1,0,0:0:0:0:
256,192,219630,1,4,0:0:0:0:
224,128,219830,1,0,0:0:0:0:
224,128,219930,1,0,0:0:0:0:
224,128,220030,1,8,0:0:0:0:
192,96,220130,1,8,0:0:0:0:
224,128,220230,1,0,0:0:0:0:
224,128,220430,1,0,0:0:0:0:
224,128,220630,1,8,0:0:0:0:
224,128,220730,1,0,0:0:0:0:
224,128,220830,1,8,0:0:0:0:
224,128,220930,1,8,0:0:0:0:
224,128,221030,1,0,0:0:0:0:
96,160,221230,1,0,0:0:0:0:
256,128,221430,1,8,0:0:0:0:
256,128,221480,1,8,0:0:0:0:
256,128,221530,1,8,0:0:0:0:
256,128,221580,1,8,0:0:0:0:
256,128,221630,1,0,0:0:0:0:
256,128,221830,1,8,0:0:0:0:
256,128,221880,1,8,0:0:0:0:
256,128,221930,1,8,0:0:0:0:
256,128,221980,1,8,0:0:0:0:
256,128,222030,1,0,0:0:0:0:
192,128,222130,1,8,0:0:0:0:
192,128,222230,1,0,0:0:0:0:
192,128,222330,1,8,0:0:0:0:
192,128,222380,1,8,0:0:0:0:
192,128,222430,1,0,0:0:0:0:
192,96,222830,1,4,0:0:0:0:
224,160,223030,1,0,0:0:0:0:
224,160,223130,1,0,0:0:0:0:
224,160,223230,1,8,0:0:0:0:
224,160,223330,1,8,0:0:0:0:
224,160,223430,1,0,0:0:0:0:
224,160,223630,1,0,0:0:0:0:
224,160,223830,1,8,0:0:0:0:
224,160,223930,1,0,0:0:0:0:
224,160,224030,1,8,0:0:0:0:
224,160,224130,1,8,0:0:0:0:
224,160,224230,1,0,0:0:0:0:
224,160,224430,1,0,0:0:0:0:
224,96,224480,1,0,0:0:0:0:
224,160,224530,1,0,0:0:0:0:
224,160,224630,1,8,0:0:0:0:
224,160,224730,1,8,0:0:0:0:
224,160,224830,1,0,0:0:0:0:
160,96,224880,1,0,0:0:0:0:
224,160,224930,1,0,0:0:0:0:
224,160,225030,1,8,0:0:0:0:
224,160,225130,1,8,0:0:0:0:
224,160,225230,1,0,0:0:0:0:
224,160,225330,1,8,0:0:0:0:
224,160,225380,1,8,0:0:0:0:
224,160,225430,1,0,0:0:0:0:
224,160,225530,1,8,0:0:0:0:
224,160,225580,1,8,0:0:0:0:
224,160,225630,1,0,0:0:0:0:
192,160,226030,1,4,0:0:0:0:
192,160,226230,1,8,0:0:0:0:
192,160,226430,1,8,0:0:0:0:
192,160,226630,1,8,0:0:0:0:
192,160,226830,1,8,0:0:0:0:
192,160,227030,1,8,0:0:0:0:
128,128,227230,1,0,0:0:0:0:
128,128,227330,1,12,0:0:0:0:
128,128,227630,1,4,0:0:0:0:
128,128,227830,1,8,0:0:0:0:
128,128,228030,1,8,0:0:0:0:
128,128,228230,1,8,0:0:0:0:
128,128,228430,1,8,0:0:0:0:
128,128,228630,1,8,0:0:0:0:
128,128,228830,1,0,0:0:0:0:
128,128,228930,1,12,0:0:0:0:
128,128,229230,1,8,0:0:0:0:
128,128,229330,1,0,0:0:0:0:
128,128,229430,1,0,0:0:0:0:
128,128,229530,1,0,0:0:0:0:
224,160,229630,1,8,0:0:0:0:
224,160,229730,1,8,0:0:0:0:
224,160,229830,1,0,0:0:0:0:
96,160,229930,1,0,0:0:0:0:
128,160,230030,1,8,0:0:0:0:
128,160,230130,1,8,0:0:0:0:
128,160,230230,1,8,0:0:0:0:
128,160,230330,1,0,0:0:0:0:
128,160,230430,1,8,0:0:0:0:
128,160,230530,1,8,0:0:0:0:
128,160,230630,1,0,0:0:0:0:
128,160,230730,1,0,0:0:0:0:
160,128,230830,1,8,0:0:0:0:
160,128,230930,1,0,0:0:0:0:
160,128,231030,1,8,0:0:0:0:
160,128,231130,1,0,0:0:0:0:
160,128,231230,1,8,0:0:0:0:
160,128,231330,1,0,0:0:0:0:
160,128,231430,1,8,0:0:0:0:
160,128,231530,1,0,0:0:0:0:
160,128,231630,1,8,0:0:0:0:
160,128,231680,1,8,0:0:0:0:
160,128,231730,1,0,0:0:0:0:
160,128,231780,1,0,0:0:0:0:
160,128,231830,1,0,0:0:0:0:
160,128,231880,1,0,0:0:0:0:
160,128,231930,1,0,0:0:0:0:
160,128,231980,1,0,0:0:0:0:
160,128,232030,1,8,0:0:0:0:
160,128,232080,1,8,0:0:0:0:
160,128,232130,1,8,0:0:0:0:
160,128,232180,1,8,0:0:0:0:
160,128,232230,1,8,0:0:0:0:
160,128,232280,1,8,0:0:0:0:
160,128,232330,1,8,0:0:0:0:
160,128,232380,1,8,0:0:0:0:
160,96,232430,1,4,0:0:0:0:
256,192,232530,12,0,235430,0:0:0:0:
256,160,235630,5,0,0:0:0:0:
256,160,235730,1,0,0:0:0:0:
256,160,235830,1,0,0:0:0:0:
256,160,235930,1,0,0:0:0:0:
256,160,236030,1,8,0:0:0:0:
256,160,236130,1,8,0:0:0:0:
256,160,236230,1,0,0:0:0:0:
256,160,236330,1,0,0:0:0:0:
256,160,236430,1,8,0:0:0:0:
256,160,236496,1,0,0:0:0:0:
256,160,236563,1,0,0:0:0:0:
256,160,236630,1,8,0:0:0:0:
256,160,236696,1,0,0:0:0:0:
256,160,236763,1,0,0:0:0:0:
256,160,236830,1,8,0:0:0:0:
256,160,236880,1,8,0:0:0:0:
256,160,236930,1,8,0:0:0:0:
256,160,236980,1,8,0:0:0:0:
256,160,237030,1,8,0:0:0:0:
256,160,237080,1,8,0:0:0:0:
256,160,237130,1,8,0:0:0:0:
256,160,237180,1,8,0:0:0:0:
256,160,237230,1,0,0:0:0:0:
256,128,238430,1,12,0:0:0:0:
256,128,238830,1,4,0:0:0:0:
160,224,238930,1,0,0:0:0:0:
160,224,239030,1,8,0:0:0:0:
160,224,239130,1,0,0:0:0:0:
128,224,239180,1,0,0:0:0:0:
128,224,239230,1,8,0:0:0:0:
128,224,239330,1,0,0:0:0:0:
224,128,239430,1,8,0:0:0:0:
224,128,239480,1,8,0:0:0:0:
224,128,239530,1,8,0:0:0:0:
224,128,239580,1,8,0:0:0:0:
224,128,239630,1,0,0:0:0:0:
128,128,239730,1,0,0:0:0:0:
128,128,239780,1,0,0:0:0:0:
128,128,239830,1,8,0:0:0:0:
160,128,239880,1,8,0:0:0:0:
128,128,239930,1,0,0:0:0:0:
128,128,240030,1,8,0:0:0:0:
224,128,240130,1,0,0:0:0:0:
224,128,240180,1,0,0:0:0:0:
224,128,240230,1,8,0:0:0:0:
224,128,240330,1,8,0:0:0:0:
224,128,240380,1,8,0:0:0:0:
224,128,240430,1,0,0:0:0:0:
256,160,240530,1,0,0:0:0:0:
256,160,240630,1,8,0:0:0:0:
192,128,240730,1,0,0:0:0:0:
192,128,240780,1,0,0:0:0:0:
192,128,240830,1,8,0:0:0:0:
192,128,240930,1,0,0:0:0:0:
224,128,241030,1,8,0:0:0:0:
224,128,241080,1,8,0:0:0:0:
224,128,241130,1,8,0:0:0:0:
224,128,241180,1,8,0:0:0:0:
224,128,241230,1,0,0:0:0:0:
224,128,241330,1,8,0:0:0:0:
224,128,241380,1,0,0:0:0:0:
224,128,241430,1,0,0:0:0:0:
224,128,241530,1,8,0:0:0:0:
224,128,241580,1,8,0:0:0:0:
224,128,241630,1,0,0:0:0:0:
224,128,241730,1,8,0:0:0:0:
224,128,241780,1,0,0:0:0:0:
224,128,241830,1,0,0:0:0:0:
192,128,241930,1,8,0:0:0:0:
192,128,242030,1,0,0:0:0:0:
192,128,242080,1,0,0:0:0:0:
192,128,242130,1,0,0:0:0:0:
160,96,242230,1,8,0:0:0:0:
160,96,242330,1,0,0:0:0:0:
160,96,242380,1,0,0:0:0:0:
160,96,242430,1,8,0:0:0:0:
192,128,242530,1,0,0:0:0:0:
192,128,242630,1,8,0:0:0:0:
192,128,242680,1,8,0:0:0:0:
192,128,242730,1,8,0:0:0:0:
192,128,242780,1,8,0:0:0:0:
192,128,242830,1,0,0:0:0:0:
128,128,242930,1,0,0:0:0:0:
128,128,242980,1,0,0:0:0:0:
128,128,243030,1,8,0:0:0:0:
192,96,243080,1,8,0:0:0:0:
128,128,243130,1,0,0:0:0:0:
128,128,243230,1,8,0:0:0:0:
192,128,243330,1,0,0:0:0:0:
192,128,243380,1,0,0:0:0:0:
192,128,243430,1,8,0:0:0:0:
192,128,243530,1,8,0:0:0:0:
224,160,243580,1,8,0:0:0:0:
192,128,243630,1,0,0:0:0:0:
128,128,243680,1,0,0:0:0:0:
128,128,243730,1,0,0:0:0:0:
128,128,243830,1,8,0:0:0:0:
128,128,243930,1,0,0:0:0:0:
128,128,243980,1,0,0:0:0:0:
128,128,244030,1,0,0:0:0:0:
160,128,244130,1,8,0:0:0:0:
160,128,244230,1,0,0:0:0:0:
160,128,244280,1,0,0:0:0:0:
192,96,244330,1,0,0:0:0:0:
192,96,244380,1,0,0:0:0:0:
192,96,244430,1,8,0:0:0:0:
192,96,244530,1,8,0:0:0:0:
160,96,244580,1,0,0:0:0:0:
128,96,244630,1,8,0:0:0:0:
128,96,244730,1,8,0:0:0:0:
256,128,244830,1,0,0:0:0:0:
256,128,244896,1,0,0:0:0:0:
256,128,244963,1,0,0:0:0:0:
256,128,245030,1,8,0:0:0:0:
256,128,245096,1,8,0:0:0:0:
256,128,245163,1,8,0:0:0:0:
256,128,245230,1,4,0:0:0:0:
256,192,245330,1,0,0:0:0:0:
256,192,245430,1,8,0:0:0:0:
256,192,245530,1,0,0:0:0:0:
160,128,245580,1,0,0:0:0:0:
160,128,245630,1,8,0:0:0:0:
160,128,245730,1,0,0:0:0:0:
160,128,245830,1,8,0:0:0:0:
160,128,245880,1,8,0:0:0:0:
160,128,245930,1,8,0:0:0:0:
160,128,245980,1,8,0:0:0:0:
160,128,246030,1,0,0:0:0:0:
160,128,246130,1,0,0:0:0:0:
160,128,246180,1,0,0:0:0:0:
160,128,246230,1,8,0:0:0:0:
160,128,246280,1,8,0:0:0:0:
160,128,246330,1,0,0:0:0:0:
160,128,246430,1,8,0:0:0:0:
128,128,246530,1,0,0:0:0:0:
128,128,246580,1,0,0:0:0:0:
128,128,246630,1,8,0:0:0:0:
128,128,246730,1,8,0:0:0:0:
128,128,246780,1,8,0:0:0:0:
128,128,246830,1,0,0:0:0:0:
128,128,246930,1,0,0:0:0:0:
128,128,247030,1,8,0:0:0:0:
128,160,247130,1,0,0:0:0:0:
128,160,247180,1,0,0:0:0:0:
128,160,247230,1,8,0:0:0:0:
128,160,247330,1,0,0:0:0:0:
128,128,247430,1,8,0:0:0:0:
128,128,247480,1,8,0:0:0:0:
128,128,247530,1,8,0:0:0:0:
128,128,247580,1,8,0:0:0:0:
128,128,247630,1,0,0:0:0:0:
128,128,247730,1,8,0:0:0:0:
128,128,247780,1,0,0:0:0:0:
128,128,247830,1,0,0:0:0:0:
128,128,247930,1,8,0:0:0:0:
128,128,247980,1,8,0:0:0:0:
128,128,248030,1,0,0:0:0:0:
128,128,248130,1,8,0:0:0:0:
128,128,248180,1,0,0:0:0:0:
128,128,248230,1,0,0:0:0:0:
128,128,248330,1,8,0:0:0:0:
128,96,248430,1,4,0:0:0:0:
128,96,248530,1,4,0:0:0:0:
128,96,248730,1,4,0:0:0:0:
192,160,248930,1,0,0:0:0:0:
224,160,248980,1,0,0:0:0:0:
160,192,249030,1,0,0:0:0:0:
160,192,249080,1,0,0:0:0:0:
160,192,249130,1,0,0:0:0:0:
160,192,249180,1,0,0:0:0:0:
160,192,249230,1,12,0:0:0:0:
160,192,249330,1,12,0:0:0:0:
224,128,249530,1,12,0:0:0:0:
224,128,249730,1,0,0:0:0:0:
224,128,249780,1,0,0:0:0:0:
224,128,249830,1,8,0:0:0:0:
224,128,249880,1,8,0:0:0:0:
224,128,249930,1,8,0:0:0:0:
224,128,249980,1,8,0:0:0:0:
224,128,250030,1,0,0:0:0:0:
96,160,250130,1,0,0:0:0:0:
96,160,250230,1,8,0:0:0:0:
96,160,250330,1,0,0:0:0:0:
96,160,250430,1,8,0:0:0:0:
96,160,250530,1,8,0:0:0:0:
96,160,250630,1,0,0:0:0:0:
96,160,250730,1,8,0:0:0:0:
224,128,250830,1,0,0:0:0:0:
224,128,250880,1,0,0:0:0:0:
224,128,250930,1,0,0:0:0:0:
224,128,251030,1,8,0:0:0:0:
224,128,251130,1,0,0:0:0:0:
224,128,251230,1,8,0:0:0:0:
224,128,251280,1,8,0:0:0:0:
224,128,251330,1,0,0:0:0:0:
224,128,251380,1,0,0:0:0:0:
224,128,251430,1,8,0:0:0:0:
224,192,251530,1,8,0:0:0:0:
192,160,251630,1,4,0:0:0:0:
192,160,251730,1,0,0:0:0:0:
192,160,251830,1,8,0:0:0:0:
192,160,251930,1,0,0:0:0:0:
192,128,251980,1,0,0:0:0:0:
192,160,252030,1,0,0:0:0:0:
192,160,252130,1,0,0:0:0:0:
224,192,252230,1,8,0:0:0:0:
224,192,252280,1,8,0:0:0:0:
224,192,252330,1,8,0:0:0:0:
224,192,252380,1,8,0:0:0:0:
224,192,252430,1,0,0:0:0:0:
160,160,252530,1,0,0:0:0:0:
160,160,252630,1,8,0:0:0:0:
160,160,252730,1,0,0:0:0:0:
192,128,252780,1,0,0:0:0:0:
160,160,252830,1,0,0:0:0:0:
224,192,252930,1,0,0:0:0:0:
224,192,252980,1,0,0:0:0:0:
224,192,253030,1,8,0:0:0:0:
224,192,253130,1,8,0:0:0:0:
224,192,253180,1,8,0:0:0:0:
224,192,253230,1,0,0:0:0:0:
96,192,253330,1,0,0:0:0:0:
96,192,253430,1,8,0:0:0:0:
96,192,253530,1,0,0:0:0:0:
192,128,253580,1,0,0:0:0:0:
96,192,253630,1,0,0:0:0:0:
96,192,253730,1,0,0:0:0:0:
224,192,253830,1,8,0:0:0:0:
224,192,253880,1,8,0:0:0:0:
224,192,253930,1,8,0:0:0:0:
224,192,253980,1,8,0:0:0:0:
224,192,254030,1,0,0:0:0:0:
160,160,254130,1,8,0:0:0:0:
160,160,254180,1,0,0:0:0:0:
160,160,254230,1,0,0:0:0:0:
160,160,254330,1,8,0:0:0:0:
160,160,254380,1,8,0:0:0:0:
160,160,254430,1,0,0:0:0:0:
160,160,254530,1,8,0:0:0:0:
160,160,254580,1,0,0:0:0:0:
160,160,254630,1,0,0:0:0:0:
160,160,254730,1,8,0:0:0:0:
160,160,254830,1,4,0:0:0:0:
160,160,255130,1,8,0:0:0:0:
96,160,255180,1,8,0:0:0:0:
96,160,255230,1,8,0:0:0:0:
96,160,255280,1,8,0:0:0:0:
96,160,255330,1,8,0:0:0:0:
96,160,255380,1,8,0:0:0:0:
96,160,255430,1,0,0:0:0:0:
96,160,255480,1,0,0:0:0:0:
160,160,255530,1,0,0:0:0:0:
192,160,255580,1,0,0:0:0:0:
160,160,255630,1,12,0:0:0:0:
160,160,255730,1,12,0:0:0:0:
160,160,255830,1,4,0:0:0:0:
160,160,255930,1,4,0:0:0:0:
160,160,256030,1,12,0:0:0:0:
160,160,256130,1,12,0:0:0:0:
128,224,256330,1,0,0:0:0:0:
128,224,256380,1,0,0:0:0:0:
128,224,256430,1,8,0:0:0:0:
128,224,256480,1,8,0:0:0:0:
128,224,256530,1,0,0:0:0:0:
160,192,256630,1,8,0:0:0:0:
160,192,256680,1,0,0:0:0:0:
160,192,256730,1,0,0:0:0:0:
160,192,256830,1,8,0:0:0:0:
160,192,256880,1,8,0:0:0:0:
160,192,256930,1,0,0:0:0:0:
160,192,257030,1,8,0:0:0:0:
160,192,257080,1,8,0:0:0:0:
160,192,257130,1,8,0:0:0:0:
160,192,257230,1,4,0:0:0:0:
160,192,257380,1,4,0:0:0:0:
160,192,257530,1,4,0:0:0:0:
160,192,257630,1,12,0:0:0:0:
160,192,257780,1,12,0:0:0:0:
160,192,257930,1,12,0:0:0:0:
192,160,258230,1,8,0:0:0:0:
192,160,258280,1,8,0:0:0:0:
192,160,258330,1,8,0:0:0:0:
192,160,258380,1,8,0:0:0:0:
192,160,258430,1,0,0:0:0:0:
192,160,258530,1,0,0:0:0:0:
192,160,258630,1,8,0:0:0:0:
192,160,258680,1,8,0:0:0:0:
192,160,258730,1,8,0:0:0:0:
192,160,258780,1,8,0:0:0:0:
192,160,258830,1,0,0:0:0:0:
192,128,258930,1,0,0:0:0:0:
192,128,259030,1,8,0:0:0:0:
192,128,259130,1,0,0:0:0:0:
192,128,259180,1,0,0:0:0:0:
192,128,259230,1,0,0:0:0:0:
192,128,259330,1,0,0:0:0:0:
160,128,259380,1,0,0:0:0:0:
192,128,259430,1,8,0:0:0:0:
160,128,259530,1,8,0:0:0:0:
160,128,259580,1,8,0:0:0:0:
160,128,259630,1,0,0:0:0:0:
160,128,259730,1,0,0:0:0:0:
160,128,259830,1,8,0:0:0:0:
160,128,259930,1,0,0:0:0:0:
160,128,259980,1,0,0:0:0:0:
160,128,260030,1,0,0:0:0:0:
160,128,260130,5,0,0:0:0:0:
160,128,260230,1,8,0:0:0:0:
160,128,260280,1,8,0:0:0:0:
160,128,260330,1,8,0:0:0:0:
160,128,260380,1,8,0:0:0:0:
160,128,260430,1,0,0:0:0:0:
224,160,260530,1,8,0:0:0:0:
224,160,260580,1,0,0:0:0:0:
224,160,260630,1,0,0:0:0:0:
224,160,260730,1,8,0:0:0:0:
224,160,260780,1,8,0:0:0:0:
224,160,260830,1,0,0:0:0:0:
224,160,260930,1,8,0:0:0:0:
224,160,260980,1,0,0:0:0:0:
224,160,261030,1,0,0:0:0:0:
224,160,261130,1,8,0:0:0:0:
224,192,261230,5,4,0:0:0:0:
192,192,261530,1,0,0:0:0:0:
192,192,261830,1,0,0:0:0:0:
192,192,261930,1,0,0:0:0:0:
192,192,262030,1,12,0:0:0:0:
192,192,262330,1,8,0:0:0:0:
192,192,262630,1,8,0:0:0:0:
192,192,262730,1,8,0:0:0:0:
192,192,262830,1,4,0:0:0:0:
192,192,263230,1,0,0:0:0:0:
192,192,263280,1,0,0:0:0:0:
192,192,263330,1,0,0:0:0:0:
192,192,263380,1,0,0:0:0:0:
192,192,263430,1,8,0:0:0:0:
192,192,263480,1,8,0:0:0:0:
192,192,263530,1,0,0:0:0:0:
192,192,263580,1,0,0:0:0:0:
192,192,263630,1,8,0:0:0:0:
192,192,263730,1,8,0:0:0:0:
192,192,263830,1,0,0:0:0:0:
192,192,263930,1,0,0:0:0:0:
192,192,264030,1,8,0:0:0:0:
192,192,264130,1,0,0:0:0:0:
192,192,264230,1,0,0:0:0:0:
192,192,264330,1,8,0:0:0:0:
192,192,264430,1,4,0:0:0:0:
96,160,264630,1,0,0:0:0:0:
96,160,264830,1,8,0:0:0:0:
96,160,264930,1,8,0:0:0:0:
96,160,265030,1,0,0:0:0:0:
96,160,265130,1,0,0:0:0:0:
128,160,265230,1,8,0:0:0:0:
128,160,265280,1,8,0:0:0:0:
128,160,265330,1,0,0:0:0:0:
128,160,265430,1,0,0:0:0:0:
128,160,265530,1,8,0:0:0:0:
128,160,265580,1,8,0:0:0:0:
128,160,265630,1,0,0:0:0:0:
128,160,265730,1,0,0:0:0:0:
128,160,265830,1,8,0:0:0:0:
128,160,265930,1,8,0:0:0:0:
128,160,266030,1,4,0:0:0:0:
128,160,266230,1,0,0:0:0:0:
128,160,266430,1,8,0:0:0:0:
128,160,266530,1,8,0:0:0:0:
128,160,266630,1,0,0:0:0:0:
128,160,266730,1,0,0:0:0:0:
128,160,266830,1,8,0:0:0:0:
128,160,266880,1,8,0:0:0:0:
128,160,266930,1,8,0:0:0:0:
128,160,266980,1,8,0:0:0:0:
128,160,267030,1,0,0:0:0:0:
128,160,267080,1,0,0:0:0:0:
128,160,267130,1,0,0:0:0:0:
128,160,267180,1,0,0:0:0:0:
128,160,267230,1,8,0:0:0:0:
128,160,267330,1,8,0:0:0:0:
128,160,267430,1,0,0:0:0:0:
128,160,267630,1,0,0:0:0:0:
128,160,267680,1,0,0:0:0:0:
96,160,267730,1,0,0:0:0:0:
160,128,267830,1,8,0:0:0:0:
160,128,267930,1,8,0:0:0:0:
160,128,268030,1,0,0:0:0:0:
160,128,268080,1,0,0:0:0:0:
160,128,268130,1,0,0:0:0:0:
160,128,268230,1,8,0:0:0:0:
160,128,268330,1,8,0:0:0:0:
160,160,268430,1,0,0:0:0:0:
160,160,268480,1,0,0:0:0:0:
160,160,268530,1,8,0:0:0:0:
160,160,268630,1,8,0:0:0:0:
160,160,268730,1,8,0:0:0:0:
160,160,268830,1,0,0:0:0:0:
160,160,268880,1,0,0:0:0:0:
160,160,268930,1,8,0:0:0:0:
160,160,269030,1,8,0:0:0:0:
160,160,269130,1,8,0:0:0:0:
160,160,269230,1,4,0:0:0:0:
160,128,270030,1,8,0:0:0:0:
160,128,270130,1,8,0:0:0:0:
160,128,270230,1,0,0:0:0:0:
160,128,270330,1,0,0:0:0:0:
192,128,270430,1,8,0:0:0:0:
192,128,270480,1,8,0:0:0:0:
192,128,270530,1,8,0:0:0:0:
192,128,270580,1,8,0:0:0:0:
192,128,270630,1,8,0:0:0:0:
192,128,270680,1,8,0:0:0:0:
192,128,270730,1,8,0:0:0:0:
192,128,270780,1,8,0:0:0:0:
192,128,270830,1,4,0:0:0:0:
160,224,270930,1,0,0:0:0:0:
160,64,270980,1,0,0:0:0:0:
160,224,271030,1,8,0:0:0:0:
160,224,271130,1,0,0:0:0:0:
128,224,271180,1,0,0:0:0:0:
128,224,271230,1,8,0:0:0:0:
128,224,271330,1,0,0:0:0:0:
224,128,271430,1,8,0:0:0:0:
224,128,271480,1,8,0:0:0:0:
224,128,271530,1,8,0:0:0:0:
224,128,271580,1,8,0:0:0:0:
224,128,271630,1,0,0:0:0:0:
128,128,271730,1,0,0:0:0:0:
128,128,271780,1,0,0:0:0:0:
128,128,271830,1,8,0:0:0:0:
160,128,271880,1,8,0:0:0:0:
128,128,271930,1,0,0:0:0:0:
128,128,272030,1,8,0:0:0:0:
224,128,272130,1,0,0:0:0:0:
224,128,272180,1,0,0:0:0:0:
224,128,272230,1,8,0:0:0:0:
160,160,272280,1,0,0:0:0:0:
224,128,272330,1,8,0:0:0:0:
224,128,272380,1,8,0:0:0:0:
224,128,272430,1,0,0:0:0:0:
256,160,272530,1,0,0:0:0:0:
160,64,272580,1,0,0:0:0:0:
256,160,272630,1,8,0:0:0:0:
192,128,272730,1,0,0:0:0:0:
192,128,272780,1,0,0:0:0:0:
192,128,272830,1,8,0:0:0:0:
192,128,272930,1,0,0:0:0:0:
224,128,273030,1,8,0:0:0:0:
224,128,273080,1,8,0:0:0:0:
224,128,273130,1,8,0:0:0:0:
224,128,273180,1,8,0:0:0:0:
224,128,273230,1,0,0:0:0:0:
224,128,273330,1,8,0:0:0:0:
224,128,273380,1,0,0:0:0:0:
224,128,273430,1,0,0:0:0:0:
224,128,273530,1,8,0:0:0:0:
224,128,273580,1,8,0:0:0:0:
224,128,273630,1,0,0:0:0:0:
224,128,273730,1,8,0:0:0:0:
224,128,273780,1,0,0:0:0:0:
224,128,273830,1,0,0:0:0:0:
192,96,273880,1,0,0:0:0:0:
192,128,273930,1,8,0:0:0:0:
192,96,273980,1,8,0:0:0:0:
192,96,274030,1,0,0:0:0:0:
160,224,274130,1,0,0:0:0:0:
160,64,274180,1,0,0:0:0:0:
160,224,274230,1,8,0:0:0:0:
160,224,274330,1,0,0:0:0:0:
128,224,274380,1,0,0:0:0:0:
128,224,274430,1,8,0:0:0:0:
128,224,274530,1,0,0:0:0:0:
224,128,274630,1,8,0:0:0:0:
224,128,274680,1,8,0:0:0:0:
224,128,274730,1,8,0:0:0:0:
224,128,274780,1,8,0:0:0:0:
224,128,274830,1,0,0:0:0:0:
128,128,274930,1,0,0:0:0:0:
128,128,274980,1,0,0:0:0:0:
128,128,275030,1,8,0:0:0:0:
160,128,275080,1,8,0:0:0:0:
128,128,275130,1,0,0:0:0:0:
128,128,275230,1,8,0:0:0:0:
224,128,275330,1,0,0:0:0:0:
224,128,275380,1,0,0:0:0:0:
224,128,275430,1,8,0:0:0:0:
160,160,275480,1,0,0:0:0:0:
224,128,275530,1,8,0:0:0:0:
224,128,275580,1,8,0:0:0:0:
224,128,275630,1,0,0:0:0:0:
256,160,275730,1,0,0:0:0:0:
160,64,275780,1,0,0:0:0:0:
256,160,275830,1,8,0:0:0:0:
192,128,275930,1,0,0:0:0:0:
192,128,275980,1,0,0:0:0:0:
192,128,276030,1,8,0:0:0:0:
192,128,276130,1,0,0:0:0:0:
224,128,276230,1,8,0:0:0:0:
224,128,276280,1,8,0:0:0:0:
224,128,276330,1,8,0:0:0:0:
224,128,276380,1,8,0:0:0:0:
224,128,276430,1,0,0:0:0:0:
192,64,276530,1,8,0:0:0:0:
192,64,276580,1,8,0:0:0:0:
192,64,276630,1,0,0:0:0:0:
160,128,276730,1,8,0:0:0:0:
128,96,276780,1,0,0:0:0:0:
160,128,276830,1,8,0:0:0:0:
160,128,276880,1,8,0:0:0:0:
160,128,276930,1,0,0:0:0:0:
160,128,276980,1,0,0:0:0:0:
160,128,277030,1,8,0:0:0:0:
160,128,277130,1,8,0:0:0:0:
192,128,277230,1,4,0:0:0:0:
160,224,277330,1,0,0:0:0:0:
160,64,277380,1,0,0:0:0:0:
160,224,277430,1,8,0:0:0:0:
160,224,277530,1,0,0:0:0:0:
128,224,277580,1,0,0:0:0:0:
128,224,277630,1,8,0:0:0:0:
128,224,277730,1,0,0:0:0:0:
224,128,277830,1,8,0:0:0:0:
224,128,277880,1,8,0:0:0:0:
224,128,277930,1,8,0:0:0:0:
224,128,277980,1,8,0:0:0:0:
224,128,278030,1,0,0:0:0:0:
128,128,278130,1,0,0:0:0:0:
128,128,278180,1,0,0:0:0:0:
128,128,278230,1,8,0:0:0:0:
160,128,278280,1,8,0:0:0:0:
128,128,278330,1,0,0:0:0:0:
128,128,278430,1,8,0:0:0:0:
160,96,278530,1,0,0:0:0:0:
128,128,278580,1,0,0:0:0:0:
160,96,278630,1,8,0:0:0:0:
192,160,278680,1,0,0:0:0:0:
160,160,278730,1,8,0:0:0:0:
160,160,278780,1,8,0:0:0:0:
192,128,278830,1,0,0:0:0:0:
160,224,278930,1,0,0:0:0:0:
160,64,278980,1,0,0:0:0:0:
160,224,279030,1,8,0:0:0:0:
160,224,279130,1,0,0:0:0:0:
128,224,279180,1,0,0:0:0:0:
128,224,279230,1,8,0:0:0:0:
128,224,279330,1,0,0:0:0:0:
224,128,279430,1,8,0:0:0:0:
224,128,279480,1,8,0:0:0:0:
224,128,279530,1,8,0:0:0:0:
224,128,279580,1,8,0:0:0:0:
224,128,279630,1,0,0:0:0:0:
224,160,279730,1,8,0:0:0:0:
224,160,279780,1,0,0:0:0:0:
224,160,279830,1,0,0:0:0:0:
224,160,279930,1,8,0:0:0:0:
224,160,279980,1,8,0:0:0:0:
224,160,280030,1,0,0:0:0:0:
224,160,280130,1,8,0:0:0:0:
224,160,280180,1,0,0:0:0:0:
224,160,280230,1,0,0:0:0:0:
224,160,280330,1,8,0:0:0:0:
224,160,280380,1,8,0:0:0:0:
224,160,280430,1,0,0:0:0:0:
192,128,280480,1,0,0:0:0:0:
192,128,280530,1,0,0:0:0:0:
192,128,280580,1,0,0:0:0:0:
192,128,280630,1,8,0:0:0:0:
160,128,280730,1,0,0:0:0:0:
160,128,280830,1,0,0:0:0:0:
160,128,280930,1,12,0:0:0:0:
160,128,281130,1,4,0:0:0:0:
160,128,281330,1,12,0:0:0:0:
160,128,281530,1,4,0:0:0:0:
160,128,281630,1,4,0:0:0:0:
160,128,281830,1,12,0:0:0:0:
256,192,282030,12,0,282730,0:0:0:0:
128,128,282830,5,12,0:0:0:0:
128,128,283030,1,12,0:0:0:0:
128,128,283230,1,4,0:0:0:0:
128,128,283430,1,4,0:0:0:0:
192,128,283630,1,0,0:0:0:0:
192,128,283680,1,0,0:0:0:0:
192,128,283730,1,8,0:0:0:0:
192,128,283780,1,0,0:0:0:0:
192,128,283830,1,8,0:0:0:0:
192,128,283880,1,8,0:0:0:0:
192,128,283930,1,0,0:0:0:0:
192,128,283980,1,8,0:0:0:0:
192,128,284030,1,0,0:0:0:0:
192,128,284080,1,0,0:0:0:0:
192,128,284130,1,8,0:0:0:0:
192,128,284180,1,0,0:0:0:0:
192,128,284230,1,8,0:0:0:0:
192,128,284280,1,8,0:0:0:0:
192,128,284330,1,8,0:0:0:0:
192,128,284380,1,8,0:0:0:0:
192,128,284430,1,0,0:0:0:0:
96,160,284530,1,0,0:0:0:0:
96,128,284630,1,8,0:0:0:0:
96,128,284730,1,0,0:0:0:0:
96,128,284830,1,8,0:0:0:0:
96,128,284880,1,0,0:0:0:0:
96,128,284930,1,8,0:0:0:0:
96,128,284980,1,8,0:0:0:0:
96,128,285030,1,0,0:0:0:0:
192,96,285230,1,8,0:0:0:0:
192,96,285280,1,8,0:0:0:0:
128,160,285330,1,0,0:0:0:0:
128,160,285380,1,0,0:0:0:0:
128,160,285430,1,8,0:0:0:0:
128,160,285480,1,0,0:0:0:0:
128,160,285530,1,8,0:0:0:0:
128,160,285580,1,8,0:0:0:0:
128,160,285630,1,0,0:0:0:0:
128,160,285680,1,0,0:0:0:0:
128,160,285730,1,8,0:0:0:0:
128,160,285780,1,0,0:0:0:0:
128,160,285830,1,8,0:0:0:0:
128,160,285880,1,8,0:0:0:0:
128,160,285930,1,8,0:0:0:0:
128,160,285980,1,8,0:0:0:0:
192,160,286030,1,0,0:0:0:0:
192,160,286130,1,8,0:0:0:0:
192,160,286180,1,8,0:0:0:0:
192,160,286230,1,0,0:0:0:0:
192,160,286330,1,8,0:0:0:0:
192,160,286380,1,0,0:0:0:0:
192,160,286430,1,0,0:0:0:0:
192,160,286530,1,8,0:0:0:0:
192,160,286580,1,8,0:0:0:0:
192,160,286630,1,0,0:0:0:0:
192,160,286730,1,8,0:0:0:0:
192,128,286830,1,0,0:0:0:0:
96,160,286880,1,0,0:0:0:0:
96,160,286930,1,8,0:0:0:0:
128,160,286980,1,0,0:0:0:0:
128,160,287030,1,8,0:0:0:0:
128,160,287080,1,8,0:0:0:0:
128,160,287130,1,0,0:0:0:0:
128,160,287180,1,8,0:0:0:0:
128,160,287230,1,0,0:0:0:0:
160,96,287280,1,0,0:0:0:0:
160,96,287330,1,8,0:0:0:0:
160,96,287380,1,0,0:0:0:0:
160,96,287430,1,8,0:0:0:0:
160,96,287480,1,8,0:0:0:0:
160,128,287530,1,8,0:0:0:0:
128,160,287580,1,8,0:0:0:0:
160,96,287630,1,0,0:0:0:0:
160,128,287730,1,8,0:0:0:0:
160,128,287780,1,0,0:0:0:0:
160,128,287830,1,0,0:0:0:0:
160,128,287930,1,8,0:0:0:0:
160,128,287980,1,8,0:0:0:0:
160,128,288030,1,0,0:0:0:0:
160,128,288130,1,8,0:0:0:0:
160,128,288180,1,0,0:0:0:0:
160,128,288230,1,0,0:0:0:0:
160,128,288280,1,0,0:0:0:0:
160,128,288330,1,8,0:0:0:0:
160,128,288380,1,8,0:0:0:0:
160,128,288430,1,0,0:0:0:0:
192,96,288530,1,0,0:0:0:0:
192,96,288630,1,8,0:0:0:0:
192,96,288730,1,8,0:0:0:0:
192,96,288830,1,0,0:0:0:0:
192,96,288930,1,8,0:0:0:0:
192,96,289030,1,0,0:0:0:0:
192,96,289080,1,0,0:0:0:0:
192,96,289130,1,8,0:0:0:0:
192,96,289180,1,8,0:0:0:0:
192,96,289230,1,0,0:0:0:0:
192,96,289330,1,8,0:0:0:0:
192,96,289430,1,0,0:0:0:0:
192,96,289530,1,0,0:0:0:0:
192,96,289630,1,8,0:0:0:0:
192,96,289730,1,0,0:0:0:0:
192,96,289830,1,0,0:0:0:0:
160,128,290030,1,0,0:0:0:0:
160,128,290080,1,0,0:0:0:0:
160,128,290130,1,8,0:0:0:0:
160,128,290180,1,0,0:0:0:0:
160,128,290230,1,8,0:0:0:0:
160,96,290280,1,8,0:0:0:0:
160,96,290330,1,0,0:0:0:0:
160,96,290380,1,8,0:0:0:0:
160,96,290430,1,0,0:0:0:0:
160,96,290480,1,0,0:0:0:0:
160,96,290530,1,8,0:0:0:0:
160,96,290580,1,0,0:0:0:0:
160,128,290630,1,8,0:0:0:0:
160,128,290680,1,8,0:0:0:0:
160,128,290730,1,8,0:0:0:0:
160,128,290780,1,8,0:0:0:0:
160,128,290830,1,0,0:0:0:0:
160,128,290930,1,8,0:0:0:0:
160,128,290980,1,8,0:0:0:0:
160,128,291030,1,0,0:0:0:0:
160,128,291130,1,0,0:0:0:0:
160,96,291230,1,8,0:0:0:0:
160,96,291280,1,0,0:0:0:0:
160,96,291330,1,8,0:0:0:0:
160,96,291380,1,8,0:0:0:0:
160,96,291430,1,0,0:0:0:0:
128,96,291630,1,8,0:0:0:0:
128,96,291730,1,0,0:0:0:0:
128,96,291780,1,0,0:0:0:0:
128,96,291830,1,8,0:0:0:0:
128,96,291930,1,0,0:0:0:0:
128,96,291980,1,0,0:0:0:0:
128,96,292030,1,8,0:0:0:0:
128,96,292130,1,0,0:0:0:0:
128,96,292180,1,0,0:0:0:0:
128,96,292230,1,8,0:0:0:0:
128,160,292280,1,0,0:0:0:0:
128,96,292330,1,8,0:0:0:0:
128,192,292430,1,0,0:0:0:0:
160,160,292480,1,0,0:0:0:0:
160,128,292530,1,8,0:0:0:0:
160,128,292580,1,8,0:0:0:0:
160,128,292630,1,0,0:0:0:0:
160,128,292730,1,8,0:0:0:0:
160,128,292780,1,0,0:0:0:0:
160,128,292830,1,0,0:0:0:0:
160,128,292930,1,8,0:0:0:0:
96,160,292980,1,8,0:0:0:0:
160,128,293030,1,0,0:0:0:0:
224,160,293130,1,0,0:0:0:0:
160,96,293230,1,8,0:0:0:0:
160,96,293280,1,8,0:0:0:0:
160,96,293330,1,0,0:0:0:0:
160,96,293380,1,0,0:0:0:0:
160,96,293430,1,0,0:0:0:0:
160,96,293480,1,0,0:0:0:0:
160,96,293530,1,8,0:0:0:0:
160,96,293580,1,8,0:0:0:0:
160,96,293630,1,0,0:0:0:0:
160,96,293680,1,0,0:0:0:0:
160,96,293730,1,0,0:0:0:0:
160,96,293780,1,0,0:0:0:0:
160,96,293830,1,8,0:0:0:0:
160,96,293880,1,8,0:0:0:0:
160,96,293930,1,0,0:0:0:0:
160,96,293980,1,0,0:0:0:0:
192,96,294030,1,8,0:0:0:0:
192,96,294080,1,0,0:0:0:0:
192,96,294130,1,8,0:0:0:0:
192,96,294180,1,8,0:0:0:0:
192,96,294230,1,0,0:0:0:0:
192,96,294280,1,0,0:0:0:0:
160,160,294330,1,8,0:0:0:0:
160,160,294380,1,0,0:0:0:0:
160,128,294430,1,8,0:0:0:0:
160,128,294480,1,8,0:0:0:0:
160,128,294530,1,0,0:0:0:0:
160,128,294580,1,0,0:0:0:0:
160,128,294630,1,8,0:0:0:0:
160,128,294680,1,8,0:0:0:0:
160,128,294730,1,8,0:0:0:0:
160,128,294780,1,8,0:0:0:0:
160,128,294830,1,4,0:0:0:0:
160,160,295630,1,4,0:0:0:0:
160,160,295830,1,4,0:0:0:0:
160,160,296030,1,12,0:0:0:0:
160,160,296230,1,12,0:0:0:0:
160,160,296430,1,4,0:0:0:0:
256,192,296530,12,0,302030,0:0:0:0:
256,192,302830,5,0,0:0:0:0:
256,192,303130,1,0,0:0:0:0:
256,192,303430,1,0,0:0:0:0:
256,192,303630,1,8,0:0:0:0:
256,192,304430,1,0,0:0:0:0:
256,192,304730,1,0,0:0:0:0:
224,192,305030,1,0,0:0:0:0:
224,192,305230,1,0,0:0:0:0:
224,192,306030,1,0,0:0:0:0:
224,192,306330,1,0,0:0:0:0:
224,192,306630,1,0,0:0:0:0:
224,192,306830,1,8,0:0:0:0:
224,192,307630,1,0,0:0:0:0:
224,192,307930,1,0,0:0:0:0:
224,192,308230,1,0,0:0:0:0:
224,192,308430,1,0,0:0:0:0:
256,192,309230,5,0,0:0:0:0:
256,192,309530,1,0,0:0:0:0:
256,192,309830,1,8,0:0:0:0:
192,160,310130,1,8,0:0:0:0:
192,160,310430,1,0,0:0:0:0:
128,160,310830,1,0,0:0:0:0:
128,160,311130,1,0,0:0:0:0:
128,160,311430,1,8,0:0:0:0:
128,160,311730,1,8,0:0:0:0:
160,160,312030,1,8,0:0:0:0:
160,160,312430,1,0,0:0:0:0:
160,160,312730,1,0,0:0:0:0:
160,160,313030,1,8,0:0:0:0:
160,160,313330,1,8,0:0:0:0:
160,160,313630,1,0,0:0:0:0:
160,160,314030,1,0,0:0:0:0:
160,160,314330,1,0,0:0:0:0:
160,160,314630,1,8,0:0:0:0:
160,160,314930,1,8,0:0:0:0:
160,160,315230,1,8,0:0:0:0:
160,160,315630,1,0,0:0:0:0:
160,160,315930,1,0,0:0:0:0:
160,160,316230,1,8,0:0:0:0:
160,160,316530,1,8,0:0:0:0:
160,160,316830,1,0,0:0:0:0:
160,160,317230,1,0,0:0:0:0:
160,160,317530,1,0,0:0:0:0:
160,160,317830,1,8,0:0:0:0:
160,160,318130,1,8,0:0:0:0:
160,160,318430,1,8,0:0:0:0:
160,160,318830,1,0,0:0:0:0:
160,160,319130,1,0,0:0:0:0:
160,160,319430,1,8,0:0:0:0:
160,160,319730,1,8,0:0:0:0:
160,160,320030,1,0,0:0:0:0:
160,160,320430,1,0,0:0:0:0:
160,160,320730,1,0,0:0:0:0:
160,160,321030,1,8,0:0:0:0:
160,160,321330,1,8,0:0:0:0:
160,160,321630,1,8,0:0:0:0:
128,160,322030,1,4,0:0:0:0:
256,192,322130,12,0,328430,0:0:0:0:
