osu file format v14

[General]
AudioFilename: audio.mp3
AudioLeadIn: 0
PreviewTime: 80233
Countdown: 0
SampleSet: None
StackLeniency: 0.7
Mode: 3
LetterboxInBreaks: 0
SpecialStyle: 0
WidescreenStoryboard: 1

[Editor]
DistanceSpacing: 0.8
BeatDivisor: 4
GridSize: 8
TimelineZoom: 1.6

[Metadata]
Title:POWA OF DA WILDANES
TitleUnicode:POWA OF DA WILDANES
Artist:Camellia
ArtistUnicode:かめりあ
Creator:LastExceed
Version:LastEdit2
Source:
Tags:INVAIDAS FROM DA JUNGLE Hardcore
BeatmapID:1548113
BeatmapSetID:733551

[Difficulty]
HPDrainRate:8.7
CircleSize:4
OverallDifficulty:8.2
ApproachRate:5
SliderMultiplier:1.4
SliderTickRate:1

[Events]
//Background and Video events
0,0,"XotJKs9.jpg",0,0
//Break Periods
2,165433,176833
//Storyboard Layer 0 (Background)
//Storyboard Layer 1 (Fail)
//Storyboard Layer 2 (Pass)
//Storyboard Layer 3 (Foreground)
//Storyboard Sound Samples

[TimingPoints]
0,200,4,2,1,45,1,0
0,-1000,4,2,1,45,0,0
8433,200,4,2,1,45,1,0
8433,-100,4,2,1,45,0,0
8633,-111.111111111111,4,2,1,45,0,0
8833,-125,4,2,1,45,0,0
9033,-142.857142857143,4,2,1,45,0,0
9233,-166.666666666667,4,2,1,45,0,0
9433,-200,4,2,1,45,0,0
9633,-250,4,2,1,45,0,0
9833,-333.333333333333,4,2,1,45,0,0
10033,-500,4,2,1,45,0,0
10233,-1000,4,2,1,45,0,0
11633,-100,4,2,1,45,0,0
11833,-111.111111111111,4,2,1,45,0,0
12033,-125,4,2,1,45,0,0
12233,-142.857142857143,4,2,1,45,0,0
12433,-166.666666666667,4,2,1,45,0,0
12633,-200,4,2,1,45,0,0
12833,-250,4,2,1,45,0,0
13033,-333.333333333333,4,2,1,45,0,0
13233,-500,4,2,1,45,0,0
13433,-1000,4,2,1,45,0,0
14833,-500,4,2,1,45,0,0
18033,-333.333333333333,4,2,1,45,0,0
21233,-250,4,2,1,45,0,0
24433,-200,4,2,1,45,0,0
40033,-166.666666666667,4,2,1,45,0,0
40083,-142.857142857143,4,2,1,45,0,0
40133,-125,4,2,1,45,0,0
40183,-111.111111111111,4,2,1,45,0,0
40233,-100,4,2,1,45,0,0
40283,-90.9090909090909,4,2,1,45,0,0
40333,-83.3333333333333,4,2,1,45,0,0
40383,-76.9230769230769,4,2,1,45,0,0
40433,-10,4,2,1,45,0,0
40483,-200,4,2,1,45,0,0
46833,-181.818181818182,4,2,1,45,0,0
47633,-166.666666666667,4,2,1,45,0,0
48433,-153.846153846154,4,2,1,45,0,0
49233,-142.857142857143,4,2,1,45,0,0
50033,-133.333333333333,4,2,1,45,0,0
50833,-125,4,2,1,45,0,0
51633,-10,4,2,1,45,0,0
52433,-1000,4,2,1,45,0,0
53033,-100,4,2,1,45,0,0
165233,-200,4,2,1,45,0,0
178033,-133.333333333333,4,2,1,45,0,0
190833,-100,4,2,1,45,0,0

[HitObjects]
192,192,53233,5,0,0:0:0:70:bell.wav
64,192,53233,1,0,0:0:0:70:crash.wav
320,192,53233,128,8,53333:0:0:0:0:
448,192,53333,128,0,53433:0:0:0:0:
64,192,53433,128,0,53533:0:0:0:0:
320,192,53533,128,0,53733:0:0:0:0:
192,192,53733,128,0,53833:0:0:0:0:
320,192,53833,128,0,54033:0:0:0:0:
64,192,54033,128,0,54133:0:0:0:0:
448,192,54133,128,0,54233:0:0:0:0:
192,192,54233,128,0,54333:0:0:0:0:
320,192,54333,128,0,54533:0:0:0:0:
192,192,54533,128,0,54633:0:0:0:0:
448,192,54633,128,0,54733:0:0:0:0:
64,192,54733,128,0,54833:0:0:0:0:
320,192,54833,128,0,54933:0:0:0:0:
448,192,54933,128,0,55033:0:0:0:0:
192,192,55033,128,0,55133:0:0:0:0:
64,192,55133,128,0,55333:0:0:0:0:
320,192,55333,128,0,55433:0:0:0:0:
192,192,55433,128,0,55533:0:0:0:0:
64,192,55533,128,0,55633:0:0:0:0:
448,192,55633,1,0,0:0:0:0:
320,192,55733,1,0,0:0:0:0:
64,192,55833,1,0,0:0:0:0:
192,192,55933,1,0,0:0:0:0:
448,192,56033,1,0,0:0:0:0:
64,192,56133,1,0,0:0:0:0:
320,192,56233,1,0,0:0:0:0:
192,192,56333,1,0,0:0:0:0:
320,192,56433,1,0,0:0:0:70:crash.wav
448,192,56433,1,8,0:0:0:0:
64,192,56433,128,0,56533:0:0:0:70:bell.wav
192,192,56533,128,0,56633:0:0:0:0:
320,192,56633,128,0,56733:0:0:0:0:
448,192,56733,128,0,56933:0:0:0:0:
64,192,56933,128,0,57033:0:0:0:0:
448,192,57033,128,0,57133:0:0:0:0:
320,192,57133,128,0,57233:0:0:0:0:
192,192,57233,128,0,57333:0:0:0:0:
448,192,57333,128,0,57433:0:0:0:0:
64,192,57433,128,0,57533:0:0:0:0:
320,192,57533,128,0,57733:0:0:0:0:
192,192,57733,128,0,57833:0:0:0:0:
320,192,57833,128,0,57933:0:0:0:0:
64,192,57933,128,0,58033:0:0:0:0:
448,192,58033,128,0,58133:0:0:0:0:
192,192,58133,128,0,58233:0:0:0:0:
320,192,58233,128,0,58333:0:0:0:0:
64,192,58333,128,0,58533:0:0:0:0:
448,192,58533,128,0,58633:0:0:0:0:
320,192,58633,128,0,58733:0:0:0:0:
192,192,58733,128,0,58833:0:0:0:0:
64,192,58833,1,0,0:0:0:0:
320,192,58833,1,8,0:0:0:0:
448,192,58833,128,0,58933:0:0:0:0:
320,192,59033,1,8,0:0:0:0:
448,192,59033,1,0,0:0:0:0:
64,192,59033,128,0,59133:0:0:0:0:
320,192,59133,128,0,59233:0:0:0:0:
192,192,59233,1,8,0:0:0:0:
448,192,59233,1,0,0:0:0:0:
64,192,59233,128,0,59333:0:0:0:0:
448,192,59333,128,0,59433:0:0:0:0:
320,192,59433,1,0,0:0:0:0:
64,192,59433,1,8,0:0:0:0:
192,192,59433,128,0,59533:0:0:0:0:
320,192,59533,128,0,59633:0:0:0:0:
192,192,59633,1,0,0:0:0:70:crash.wav
64,192,59633,1,8,0:0:0:0:
448,192,59633,128,0,59733:0:0:0:70:bell.wav
320,192,59733,128,0,59833:0:0:0:0:
192,192,59833,128,0,59933:0:0:0:0:
64,192,59933,128,0,60133:0:0:0:0:
448,192,60133,128,0,60233:0:0:0:0:
64,192,60233,128,0,60333:0:0:0:0:
192,192,60333,128,0,60433:0:0:0:0:
320,192,60433,128,0,60533:0:0:0:0:
64,192,60533,128,0,60633:0:0:0:0:
448,192,60633,128,0,60733:0:0:0:0:
192,192,60733,1,0,0:0:0:0:
192,192,60833,128,0,60933:0:0:0:0:
320,192,60933,128,0,61033:0:0:0:0:
192,192,61033,128,0,61133:0:0:0:0:
448,192,61133,128,0,61233:0:0:0:0:
64,192,61233,128,0,61333:0:0:0:0:
320,192,61333,128,0,61433:0:0:0:0:
192,192,61433,128,0,61533:0:0:0:0:
448,192,61533,128,0,61733:0:0:0:0:
64,192,61733,128,0,61833:0:0:0:0:
192,192,61833,128,0,61933:0:0:0:0:
320,192,61933,128,0,62033:0:0:0:0:
64,192,62033,128,0,62133:0:0:0:0:
448,192,62133,128,0,62233:0:0:0:0:
64,192,62233,1,0,0:0:0:0:
320,192,62233,1,0,0:0:0:0:
448,192,62333,1,0,0:0:0:0:
192,192,62333,1,0,0:0:0:0:
320,192,62433,128,0,62533:0:0:0:0:
64,192,62533,128,0,62633:0:0:0:0:
448,192,62633,128,0,62733:0:0:0:0:
320,192,62733,128,0,62833:0:0:0:0:
192,192,62833,1,0,0:0:0:70:crash.wav
64,192,62833,1,0,0:0:0:70:bell.wav
448,192,62833,128,8,62933:0:0:0:0:
320,192,62933,128,0,63033:0:0:0:0:
192,192,63033,128,0,63133:0:0:0:0:
64,192,63133,128,0,63333:0:0:0:0:
448,192,63333,128,0,63433:0:0:0:0:
64,192,63433,128,0,63533:0:0:0:0:
192,192,63533,128,0,63633:0:0:0:0:
320,192,63633,128,0,63733:0:0:0:0:
64,192,63733,128,0,63833:0:0:0:0:
448,192,63833,128,0,63933:0:0:0:0:
192,192,63933,1,0,0:0:0:0:
192,192,64033,128,0,64133:0:0:0:0:
320,192,64133,128,0,64233:0:0:0:0:
192,192,64233,128,0,64333:0:0:0:0:
448,192,64333,128,0,64433:0:0:0:0:
64,192,64433,128,0,64533:0:0:0:0:
320,192,64533,128,0,64633:0:0:0:0:
192,192,64633,128,0,64733:0:0:0:0:
448,192,64733,128,0,64933:0:0:0:0:
64,192,64933,128,0,65033:0:0:0:0:
192,192,65033,128,0,65133:0:0:0:0:
320,192,65133,128,0,65233:0:0:0:0:
448,192,65233,1,8,0:0:0:0:
192,192,65233,1,0,0:0:0:0:
64,192,65233,128,0,65333:0:0:0:0:
192,192,65433,1,8,0:0:0:0:
64,192,65433,1,0,0:0:0:0:
448,192,65433,128,0,65533:0:0:0:0:
192,192,65533,128,0,65633:0:0:0:0:
320,192,65633,1,8,0:0:0:0:
64,192,65633,1,0,0:0:0:0:
448,192,65633,128,0,65733:0:0:0:0:
64,192,65733,128,0,65833:0:0:0:0:
192,192,65833,1,8,0:0:0:0:
448,192,65833,1,0,0:0:0:0:
320,192,65833,128,0,65933:0:0:0:0:
192,192,65933,128,0,66033:0:0:0:0:
320,192,66033,1,0,0:0:0:0:
448,192,66033,1,8,0:0:0:0:
64,192,66033,1,0,0:0:0:70:crash.wav
320,192,66133,1,0,0:0:0:0:
64,192,66233,1,0,0:0:0:0:
448,192,66233,1,8,0:0:0:0:
192,192,66233,1,0,0:0:0:0:
192,192,66333,1,0,0:0:0:0:
320,192,66433,1,0,0:0:0:0:
448,192,66433,1,8,0:0:0:0:
64,192,66433,1,0,0:0:0:0:
320,192,66533,1,0,0:0:0:0:
64,192,66633,1,0,0:0:0:0:
192,192,66633,1,0,0:0:0:0:
448,192,66633,1,8,0:0:0:0:
192,192,66733,1,0,0:0:0:0:
64,192,66833,1,0,0:0:0:0:
320,192,66833,1,0,0:0:0:0:
448,192,66833,1,8,0:0:0:0:
448,192,66933,1,0,0:0:0:0:
320,192,67033,1,0,0:0:0:0:
192,192,67033,1,0,0:0:0:0:
64,192,67033,1,8,0:0:0:0:
64,192,67133,1,0,0:0:0:0:
192,192,67233,1,8,0:0:0:0:
448,192,67233,1,0,0:0:0:0:
320,192,67233,1,0,0:0:0:0:
192,192,67333,1,0,0:0:0:0:
64,192,67433,1,0,0:0:0:0:
320,192,67433,1,8,0:0:0:0:
448,192,67433,1,0,0:0:0:0:
320,192,67533,1,0,0:0:0:0:
192,192,67633,1,0,0:0:0:0:
448,192,67633,1,8,0:0:0:0:
64,192,67633,1,0,0:0:0:0:
320,192,67833,1,0,0:0:0:0:
448,192,67833,1,0,0:0:0:0:
192,192,67883,1,0,0:0:0:0:
64,192,67883,1,0,0:0:0:0:
320,192,67933,1,0,0:0:0:0:
448,192,67933,1,0,0:0:0:0:
64,192,67983,1,0,0:0:0:0:
192,192,67983,1,0,0:0:0:0:
320,192,68033,1,0,0:0:0:0:
448,192,68033,1,0,0:0:0:0:
192,192,68233,1,0,0:0:0:0:
64,192,68233,1,0,0:0:0:0:
320,192,68283,1,0,0:0:0:0:
448,192,68283,1,0,0:0:0:0:
192,192,68333,1,0,0:0:0:0:
64,192,68333,1,0,0:0:0:0:
320,192,68383,1,0,0:0:0:0:
448,192,68383,1,0,0:0:0:0:
192,192,68433,1,0,0:0:0:0:
64,192,68433,1,0,0:0:0:0:
320,192,68533,1,0,0:0:0:0:
448,192,68533,1,0,0:0:0:0:
192,192,68583,1,0,0:0:0:0:
64,192,68583,1,0,0:0:0:0:
448,192,68633,1,0,0:0:0:0:
320,192,68633,1,0,0:0:0:0:
320,192,68733,1,0,0:0:0:0:
192,192,68733,1,0,0:0:0:0:
192,192,68783,1,0,0:0:0:0:
64,192,68783,1,0,0:0:0:0:
320,192,68833,1,0,0:0:0:0:
448,192,68833,1,8,0:0:0:0:
64,192,68933,1,0,0:0:0:0:
192,192,69033,1,0,0:0:0:0:
320,192,69133,1,0,0:0:0:0:
192,192,69233,1,0,0:0:0:0:
64,192,69233,1,0,0:0:0:0:
448,192,69233,1,8,0:0:0:0:
192,192,69333,1,0,0:0:0:0:
64,192,69433,1,0,0:0:0:0:
320,192,69433,1,0,0:0:0:0:
448,192,69433,1,8,0:0:0:0:
320,192,69533,1,0,0:0:0:0:
192,192,69633,1,0,0:0:0:0:
64,192,69633,1,0,0:0:0:0:
448,192,69633,1,8,0:0:0:0:
192,192,69733,1,0,0:0:0:0:
448,192,69833,1,8,0:0:0:0:
320,192,69833,1,0,0:0:0:0:
64,192,69833,1,0,0:0:0:0:
320,192,69933,1,0,0:0:0:0:
448,192,70033,1,8,0:0:0:0:
192,192,70033,1,0,0:0:0:0:
64,192,70033,1,0,0:0:0:0:
64,192,70133,1,0,0:0:0:0:
192,192,70233,1,0,0:0:0:0:
320,192,70233,1,8,0:0:0:0:
448,192,70233,1,0,0:0:0:0:
448,192,70333,1,0,0:0:0:0:
320,192,70433,1,0,0:0:0:0:
64,192,70433,1,0,0:0:0:0:
192,192,70433,1,8,0:0:0:0:
320,192,70533,1,0,0:0:0:0:
448,192,70633,1,0,0:0:0:0:
192,192,70633,1,8,0:0:0:0:
64,192,70633,1,0,0:0:0:0:
192,192,70733,1,0,0:0:0:0:
320,192,70833,1,0,0:0:0:0:
448,192,70833,1,0,0:0:0:0:
64,192,70883,1,0,0:0:0:0:
192,192,70883,1,0,0:0:0:0:
320,192,70933,1,0,0:0:0:0:
448,192,70933,1,0,0:0:0:0:
192,192,71033,1,8,0:0:0:0:
320,192,71033,1,0,0:0:0:0:
64,192,71133,1,0,0:0:0:0:
192,192,71133,1,0,0:0:0:0:
320,192,71183,1,0,0:0:0:0:
448,192,71183,1,0,0:0:0:0:
192,192,71233,1,0,0:0:0:0:
64,192,71233,1,0,0:0:0:0:
64,192,71333,1,0,0:0:0:0:
448,192,71333,1,8,0:0:0:0:
320,192,71433,1,0,0:0:0:0:
448,192,71433,1,0,0:0:0:0:
192,192,71483,1,0,0:0:0:0:
64,192,71483,1,0,0:0:0:0:
448,192,71533,1,0,0:0:0:0:
320,192,71533,1,0,0:0:0:0:
192,192,71583,1,0,0:0:0:0:
64,192,71583,1,0,0:0:0:0:
320,192,71633,1,0,0:0:0:0:
448,192,71633,1,0,0:0:0:0:
64,192,71733,1,0,0:0:0:0:
192,192,71783,1,0,0:0:0:0:
64,192,71833,1,0,0:0:0:0:
320,192,71833,1,0,0:0:0:0:
448,192,71833,1,8,0:0:0:0:
320,192,71933,1,0,0:0:0:0:
192,192,71983,1,0,0:0:0:0:
64,192,72033,1,0,0:0:0:0:
448,192,72033,1,8,0:0:0:0:
320,192,72033,1,0,0:0:0:0:
192,192,72133,1,0,0:0:0:0:
448,192,72233,1,0,0:0:0:0:
64,192,72333,1,0,0:0:0:0:
320,192,72433,1,8,0:0:0:0:
448,192,72433,1,4,0:0:0:0:
192,192,72433,1,0,0:0:0:0:
320,192,72633,1,0,0:0:0:0:
448,192,72633,1,4,0:0:0:0:
320,192,72833,1,0,0:0:0:0:
448,192,72833,1,4,0:0:0:0:
320,192,73033,1,0,0:0:0:0:
448,192,73033,1,4,0:0:0:0:
448,192,73233,1,4,0:0:0:0:
320,192,73233,1,0,0:0:0:0:
320,192,73433,1,0,0:0:0:0:
448,192,73433,1,4,0:0:0:0:
320,192,73633,1,0,0:0:0:0:
448,192,73633,1,4,0:0:0:0:
320,192,73733,1,4,0:0:0:0:
192,192,73733,1,8,0:0:0:0:
64,192,73733,1,0,0:0:0:0:
64,192,74033,1,4,0:0:0:0:
192,192,74033,1,8,0:0:0:0:
448,192,74033,1,0,0:0:0:0:
192,192,74233,1,0,0:0:0:0:
64,192,74233,1,4,0:0:0:0:
64,192,74433,1,4,0:0:0:0:
192,192,74433,1,0,0:0:0:0:
192,192,74633,1,0,0:0:0:0:
64,192,74633,1,4,0:0:0:0:
192,192,74833,1,0,0:0:0:0:
64,192,74833,1,4,0:0:0:0:
64,192,75033,1,4,0:0:0:0:
192,192,75033,1,0,0:0:0:0:
64,192,75233,1,4,0:0:0:0:
192,192,75233,1,0,0:0:0:0:
192,192,75333,1,4,0:0:0:0:
320,192,75333,1,8,0:0:0:0:
448,192,75333,1,0,0:0:0:0:
64,192,75633,1,4,0:0:0:0:
448,192,75633,1,8,0:0:0:0:
320,192,75633,1,0,0:0:0:0:
192,192,75733,1,4,0:0:0:0:
320,192,75833,1,4,0:0:0:0:
448,192,75933,1,4,0:0:0:0:
320,192,76033,1,8,0:0:0:0:
192,192,76033,1,4,0:0:0:0:
64,192,76033,1,0,0:0:0:0:
448,192,76133,1,4,0:0:0:0:
320,192,76233,1,4,0:0:0:0:
192,192,76333,1,4,0:0:0:0:
64,192,76433,1,4,0:0:0:0:
448,192,76433,1,0,0:0:0:0:
320,192,76433,1,8,0:0:0:0:
192,192,76533,1,4,0:0:0:0:
320,192,76633,1,4,0:0:0:0:
448,192,76733,1,4,0:0:0:0:
64,192,76833,1,0,0:0:0:0:
192,192,76833,1,8,0:0:0:0:
320,192,76833,1,4,0:0:0:0:
448,192,76933,1,4,0:0:0:0:
320,192,77033,1,4,0:0:0:0:
192,192,77133,1,4,0:0:0:0:
64,192,77233,1,0,0:0:0:0:
320,192,77233,1,0,0:0:0:0:
448,192,77233,1,8,0:0:0:0:
320,192,77333,1,0,0:0:0:0:
448,192,77333,1,8,0:0:0:0:
192,192,77433,1,0,0:0:0:0:
64,192,77433,1,8,0:0:0:0:
64,192,77533,1,8,0:0:0:0:
192,192,77533,1,0,0:0:0:0:
320,192,77633,1,0,0:0:0:0:
448,192,77633,1,8,0:0:0:0:
64,192,77733,1,0,0:0:0:0:
320,192,77733,1,8,0:0:0:0:
64,192,77833,1,0,0:0:0:0:
448,192,77833,1,8,0:0:0:0:
448,192,77933,1,0,0:0:0:0:
320,192,77933,1,8,0:0:0:0:
64,192,78033,1,0,0:0:0:0:
192,192,78033,1,0,0:0:0:0:
320,192,78083,1,0,0:0:0:0:
448,192,78083,1,0,0:0:0:0:
192,192,78133,1,0,0:0:0:0:
64,192,78133,1,0,0:0:0:0:
320,192,78183,1,0,0:0:0:0:
448,192,78183,1,0,0:0:0:0:
192,192,78233,1,0,0:0:0:0:
64,192,78233,1,0,0:0:0:0:
320,192,78283,1,0,0:0:0:0:
448,192,78283,1,0,0:0:0:0:
192,192,78333,1,0,0:0:0:0:
64,192,78333,1,0,0:0:0:0:
320,192,78383,1,0,0:0:0:0:
448,192,78383,1,0,0:0:0:0:
64,192,78433,1,0,0:0:0:0:
192,192,78458,1,0,0:0:0:0:
320,192,78483,1,0,0:0:0:0:
448,192,78508,1,0,0:0:0:0:
64,192,78533,1,0,0:0:0:0:
192,192,78558,1,0,0:0:0:0:
320,192,78583,1,0,0:0:0:0:
448,192,78608,1,0,0:0:0:0:
64,192,78633,1,0,0:0:0:0:
192,192,78658,1,0,0:0:0:0:
320,192,78683,1,0,0:0:0:0:
448,192,78708,1,0,0:0:0:0:
64,192,78733,1,0,0:0:0:0:
192,192,78758,1,0,0:0:0:0:
320,192,78783,1,0,0:0:0:0:
448,192,78808,1,0,0:0:0:0:
192,192,78833,1,0,0:0:0:0:
64,192,78833,1,8,0:0:0:0:
448,192,79233,1,0,0:0:0:0:
320,192,79299,1,0,0:0:0:0:
192,192,79366,1,0,0:0:0:0:
448,192,79433,1,0,0:0:0:0:
320,192,79483,1,0,0:0:0:0:
192,192,79533,1,0,0:0:0:0:
64,192,79583,1,0,0:0:0:0:
448,192,79633,1,0,0:0:0:0:
320,192,79683,1,0,0:0:0:0:
192,192,79733,1,0,0:0:0:0:
64,192,79783,1,0,0:0:0:0:
448,192,79833,1,0,0:0:0:0:
320,192,79899,1,0,0:0:0:0:
192,192,79966,1,0,0:0:0:0:
448,192,80033,1,0,0:0:0:0:
320,192,80099,1,0,0:0:0:0:
192,192,80166,1,0,0:0:0:0:
448,192,80233,1,0,0:0:0:0:
320,192,80299,1,0,0:0:0:0:
64,192,80366,1,0,0:0:0:0:
448,192,80433,1,0,0:0:0:0:
320,192,80499,1,0,0:0:0:0:
192,192,80566,1,0,0:0:0:0:
448,192,80633,1,0,0:0:0:0:
192,192,80699,1,0,0:0:0:0:
64,192,80766,1,0,0:0:0:0:
448,192,80833,1,0,0:0:0:0:
320,192,80899,1,0,0:0:0:0:
64,192,80966,1,0,0:0:0:0:
192,192,81033,1,0,0:0:0:0:
320,192,81099,1,0,0:0:0:0:
448,192,81166,1,0,0:0:0:0:
64,192,81233,128,0,82033:0:0:0:0:
192,192,82033,1,0,0:0:0:70:bell.wav
320,192,82033,1,0,0:0:0:70:crash.wav
448,192,82033,1,8,0:0:0:0:
320,192,82133,1,0,0:0:0:0:
448,192,82133,1,8,0:0:0:0:
192,192,82233,1,0,0:0:0:0:
64,192,82233,1,8,0:0:0:0:
64,192,82333,1,8,0:0:0:0:
320,192,82333,1,0,0:0:0:0:
320,192,82433,1,8,0:0:0:0:
448,192,82433,1,0,0:0:0:0:
192,192,82533,1,8,0:0:0:0:
64,192,82533,1,0,0:0:0:0:
320,192,82633,1,0,0:0:0:0:
448,192,82633,1,0,0:0:0:0:
192,192,82683,1,0,0:0:0:0:
64,192,82683,1,0,0:0:0:0:
320,192,82733,1,0,0:0:0:0:
448,192,82733,1,0,0:0:0:0:
192,192,82783,1,0,0:0:0:0:
64,192,82783,1,0,0:0:0:0:
320,192,82833,1,8,0:0:0:0:
448,192,82833,1,0,0:0:0:0:
64,192,82933,1,0,0:0:0:0:
192,192,82933,1,8,0:0:0:0:
64,192,83033,1,0,0:0:0:0:
320,192,83033,1,8,0:0:0:0:
192,192,83133,1,0,0:0:0:0:
448,192,83133,1,8,0:0:0:0:
320,192,83233,1,8,0:0:0:0:
448,192,83233,1,0,0:0:0:0:
64,192,83333,1,0,0:0:0:0:
192,192,83333,1,8,0:0:0:0:
192,192,83433,1,8,0:0:0:0:
448,192,83433,1,0,0:0:0:0:
320,192,83533,1,8,0:0:0:0:
64,192,83633,1,0,0:0:0:0:
192,192,83633,1,8,0:0:0:0:
448,192,83633,1,0,0:0:0:0:
192,192,83733,1,8,0:0:0:0:
64,192,83733,1,0,0:0:0:0:
320,192,83833,1,0,0:0:0:0:
448,192,83833,1,8,0:0:0:0:
448,192,83933,1,8,0:0:0:0:
192,192,83933,1,0,0:0:0:0:
192,192,84033,1,8,0:0:0:0:
64,192,84033,1,0,0:0:0:0:
320,192,84133,1,8,0:0:0:0:
448,192,84133,1,0,0:0:0:0:
192,192,84233,1,0,0:0:0:0:
64,192,84233,1,0,0:0:0:0:
320,192,84283,1,0,0:0:0:0:
448,192,84283,1,0,0:0:0:0:
192,192,84333,1,0,0:0:0:0:
64,192,84333,1,0,0:0:0:0:
320,192,84383,1,0,0:0:0:0:
448,192,84383,1,0,0:0:0:0:
192,192,84433,1,8,0:0:0:0:
64,192,84433,1,0,0:0:0:0:
448,192,84533,1,0,0:0:0:0:
320,192,84533,1,0,0:0:0:0:
192,192,84583,1,0,0:0:0:0:
64,192,84583,1,0,0:0:0:0:
448,192,84633,1,0,0:0:0:0:
320,192,84633,1,0,0:0:0:0:
320,192,84733,1,0,0:0:0:0:
192,192,84733,1,0,0:0:0:0:
448,192,84783,1,0,0:0:0:0:
64,192,84783,1,0,0:0:0:0:
320,192,84833,1,0,0:0:0:0:
192,192,84833,1,0,0:0:0:0:
192,192,84933,1,0,0:0:0:0:
64,192,84933,1,0,0:0:0:0:
320,192,84983,1,0,0:0:0:0:
448,192,84983,1,0,0:0:0:0:
64,192,85033,1,8,0:0:0:0:
192,192,85033,1,0,0:0:0:0:
64,192,85133,1,8,0:0:0:0:
192,192,85133,1,0,0:0:0:0:
192,192,85233,1,0,0:0:0:0:
320,192,85233,1,0,0:0:0:0:
448,192,85233,1,8,0:0:0:0:
320,192,85333,1,0,0:0:0:0:
448,192,85333,1,8,0:0:0:0:
192,192,85433,1,0,0:0:0:0:
64,192,85433,1,8,0:0:0:0:
64,192,85533,1,8,0:0:0:0:
448,192,85533,1,0,0:0:0:0:
320,192,85633,1,0,0:0:0:0:
448,192,85633,1,8,0:0:0:0:
192,192,85733,1,8,0:0:0:0:
64,192,85733,1,0,0:0:0:0:
448,192,85833,1,0,0:0:0:0:
320,192,85833,1,0,0:0:0:0:
192,192,85883,1,0,0:0:0:0:
64,192,85883,1,0,0:0:0:0:
448,192,85933,1,0,0:0:0:0:
320,192,85933,1,0,0:0:0:0:
192,192,85983,1,0,0:0:0:0:
64,192,85983,1,0,0:0:0:0:
448,192,86033,1,0,0:0:0:0:
320,192,86033,1,8,0:0:0:0:
64,192,86133,1,8,0:0:0:0:
192,192,86133,1,0,0:0:0:0:
64,192,86233,1,8,0:0:0:0:
448,192,86233,1,0,0:0:0:0:
192,192,86333,1,8,0:0:0:0:
320,192,86333,1,0,0:0:0:0:
320,192,86433,1,8,0:0:0:0:
448,192,86433,1,0,0:0:0:0:
192,192,86533,1,8,0:0:0:0:
64,192,86533,1,0,0:0:0:0:
448,192,86633,1,0,0:0:0:0:
192,192,86633,1,8,0:0:0:0:
320,192,86733,1,8,0:0:0:0:
64,192,86833,1,8,0:0:0:0:
192,192,86833,1,0,0:0:0:0:
448,192,86833,1,0,0:0:0:0:
192,192,86933,1,0,0:0:0:0:
64,192,86933,1,8,0:0:0:0:
320,192,87033,1,0,0:0:0:0:
448,192,87033,1,8,0:0:0:0:
448,192,87133,1,8,0:0:0:0:
192,192,87133,1,0,0:0:0:0:
192,192,87233,1,8,0:0:0:0:
64,192,87233,1,0,0:0:0:0:
320,192,87333,1,8,0:0:0:0:
448,192,87333,1,0,0:0:0:0:
64,192,87433,1,0,0:0:0:0:
192,192,87433,1,0,0:0:0:0:
320,192,87483,1,0,0:0:0:0:
448,192,87483,1,0,0:0:0:0:
64,192,87533,1,0,0:0:0:0:
192,192,87533,1,0,0:0:0:0:
320,192,87583,1,0,0:0:0:0:
448,192,87583,1,0,0:0:0:0:
192,192,87633,1,8,0:0:0:0:
64,192,87633,128,0,87833:0:0:0:0:
320,192,87833,1,8,0:0:0:0:
448,192,87833,128,0,88033:0:0:0:0:
192,192,87833,1,0,0:0:0:0:
320,192,88033,1,0,0:0:0:0:
64,192,88033,128,0,88133:0:0:0:0:
192,192,88033,1,8,0:0:0:0:
448,192,88133,128,0,88233:0:0:0:0:
192,192,88233,128,0,88333:0:0:0:0:
64,192,88233,1,0,0:0:0:0:
320,192,88233,1,8,0:0:0:0:
320,192,88333,128,0,88433:0:0:0:0:
192,192,88433,1,0,0:0:0:0:
64,192,88433,1,8,0:0:0:0:
448,192,88433,1,0,0:0:0:70:crash.wav
192,192,88533,1,0,0:0:0:0:
64,192,88533,1,8,0:0:0:0:
320,192,88633,1,0,0:0:0:0:
448,192,88633,1,8,0:0:0:0:
64,192,88733,1,0,0:0:0:0:
448,192,88733,1,8,0:0:0:0:
192,192,88833,1,8,0:0:0:0:
64,192,88833,1,0,0:0:0:0:
192,192,88933,1,8,0:0:0:0:
448,192,88933,1,0,0:0:0:0:
320,192,89033,1,0,0:0:0:0:
448,192,89033,1,0,0:0:0:0:
192,192,89083,1,0,0:0:0:0:
64,192,89083,1,0,0:0:0:0:
448,192,89133,1,0,0:0:0:0:
320,192,89133,1,0,0:0:0:0:
192,192,89183,1,0,0:0:0:0:
64,192,89183,1,0,0:0:0:0:
320,192,89233,1,8,0:0:0:0:
448,192,89233,1,0,0:0:0:0:
192,192,89333,1,8,0:0:0:0:
64,192,89333,1,0,0:0:0:0:
192,192,89433,1,8,0:0:0:0:
320,192,89433,1,0,0:0:0:0:
320,192,89533,1,8,0:0:0:0:
448,192,89533,1,0,0:0:0:0:
64,192,89633,1,0,0:0:0:0:
192,192,89633,1,8,0:0:0:0:
64,192,89733,1,0,0:0:0:0:
448,192,89733,1,8,0:0:0:0:
320,192,89833,1,0,0:0:0:0:
448,192,89833,1,8,0:0:0:0:
192,192,89933,1,8,0:0:0:0:
64,192,90033,1,0,0:0:0:0:
320,192,90033,1,0,0:0:0:0:
448,192,90033,1,8,0:0:0:0:
320,192,90133,1,0,0:0:0:0:
448,192,90133,1,8,0:0:0:0:
192,192,90233,1,0,0:0:0:0:
64,192,90233,1,8,0:0:0:0:
448,192,90333,1,0,0:0:0:0:
64,192,90333,1,8,0:0:0:0:
320,192,90433,1,8,0:0:0:0:
448,192,90433,1,0,0:0:0:0:
320,192,90533,1,8,0:0:0:0:
64,192,90533,1,0,0:0:0:0:
192,192,90633,1,0,0:0:0:0:
64,192,90633,1,0,0:0:0:0:
320,192,90683,1,0,0:0:0:0:
448,192,90683,1,0,0:0:0:0:
64,192,90733,1,0,0:0:0:0:
192,192,90733,1,0,0:0:0:0:
320,192,90783,1,0,0:0:0:0:
448,192,90783,1,0,0:0:0:0:
192,192,90833,1,8,0:0:0:0:
64,192,90833,1,0,0:0:0:0:
320,192,90933,1,0,0:0:0:0:
448,192,90933,1,0,0:0:0:0:
64,192,90983,1,0,0:0:0:0:
192,192,90983,1,0,0:0:0:0:
320,192,91033,1,0,0:0:0:0:
448,192,91033,1,0,0:0:0:0:
64,192,91133,1,0,0:0:0:0:
448,192,91133,1,0,0:0:0:0:
192,192,91183,1,0,0:0:0:0:
320,192,91183,1,0,0:0:0:0:
64,192,91233,1,0,0:0:0:0:
448,192,91233,1,0,0:0:0:0:
192,192,91333,1,0,0:0:0:0:
64,192,91333,1,0,0:0:0:0:
320,192,91383,1,0,0:0:0:0:
448,192,91383,1,0,0:0:0:0:
64,192,91433,1,0,0:0:0:0:
192,192,91433,1,0,0:0:0:0:
320,192,91533,1,0,0:0:0:0:
448,192,91533,1,0,0:0:0:0:
64,192,91633,1,0,0:0:0:0:
192,192,91658,1,0,0:0:0:0:
320,192,91683,1,0,0:0:0:0:
448,192,91708,1,0,0:0:0:0:
64,192,91733,1,0,0:0:0:0:
192,192,91783,1,0,0:0:0:0:
320,192,91833,1,8,0:0:0:0:
448,192,91833,1,0,0:0:0:0:
64,192,91933,1,0,0:0:0:0:
320,192,91933,1,8,0:0:0:0:
192,192,92033,1,8,0:0:0:0:
64,192,92033,1,0,0:0:0:0:
192,192,92133,1,8,0:0:0:0:
320,192,92133,1,0,0:0:0:0:
448,192,92133,1,0,0:0:0:70:crash.wav
320,192,92333,1,0,0:0:0:0:
448,192,92333,1,0,0:0:0:70:crash.wav
192,192,92333,1,8,0:0:0:0:
192,192,92533,1,8,0:0:0:0:
320,192,92533,1,0,0:0:0:0:
448,192,92533,1,0,0:0:0:70:crash.wav
192,192,92733,1,0,0:0:0:0:
64,192,92733,1,0,0:0:0:0:
448,192,92733,1,8,0:0:0:0:
320,192,92833,1,0,0:0:0:70:crash.wav
448,192,92833,1,8,0:0:0:0:
64,192,92833,1,0,0:0:0:0:
192,192,92933,1,0,0:0:0:0:
64,192,93033,1,0,0:0:0:0:
448,192,93033,1,0,0:0:0:70:crash.wav
320,192,93033,1,8,0:0:0:0:
320,192,93133,1,0,0:0:0:0:
64,192,93233,1,0,0:0:0:0:
192,192,93233,1,8,0:0:0:0:
448,192,93233,1,0,0:0:0:0:
64,192,93333,128,0,93933:0:0:0:0:
448,192,93333,128,0,93933:0:0:0:0:
64,192,94033,1,0,0:0:0:0:
320,192,94033,1,0,0:0:0:0:
448,192,94033,1,8,0:0:0:0:
320,192,94233,1,0,0:0:0:0:
448,192,94233,1,8,0:0:0:0:
64,192,94233,1,0,0:0:0:0:
192,192,94433,1,0,0:0:0:0:
64,192,94433,1,8,0:0:0:0:
448,192,94433,1,0,0:0:0:0:
448,192,94633,1,0,0:0:0:0:
192,192,94633,1,0,0:0:0:0:
64,192,94633,1,8,0:0:0:0:
64,192,94833,1,0,0:0:0:70:bell.wav
192,192,94833,1,0,0:0:0:70:crash.wav
448,192,94833,1,8,0:0:0:0:
448,192,94933,1,8,0:0:0:0:
192,192,94933,1,0,0:0:0:0:
64,192,94933,1,0,0:0:0:0:
320,192,95033,1,0,0:0:0:0:
448,192,95033,1,8,0:0:0:0:
64,192,95133,1,0,0:0:0:0:
192,192,95133,1,8,0:0:0:0:
64,192,95233,1,8,0:0:0:0:
448,192,95233,1,0,0:0:0:0:
448,192,95333,1,0,0:0:0:0:
320,192,95333,1,8,0:0:0:0:
64,192,95433,1,0,0:0:0:0:
192,192,95433,1,0,0:0:0:0:
320,192,95483,1,0,0:0:0:0:
448,192,95483,1,0,0:0:0:0:
192,192,95533,1,0,0:0:0:0:
64,192,95533,1,0,0:0:0:0:
448,192,95583,1,0,0:0:0:0:
320,192,95583,1,0,0:0:0:0:
192,192,95633,1,8,0:0:0:0:
64,192,95633,1,0,0:0:0:0:
320,192,95733,1,8,0:0:0:0:
448,192,95733,1,0,0:0:0:0:
192,192,95833,1,0,0:0:0:0:
320,192,95833,1,8,0:0:0:0:
192,192,95933,1,8,0:0:0:0:
64,192,95933,1,0,0:0:0:0:
320,192,96033,1,8,0:0:0:0:
448,192,96033,1,0,0:0:0:0:
192,192,96133,1,0,0:0:0:0:
64,192,96133,1,8,0:0:0:0:
64,192,96233,1,8,0:0:0:0:
320,192,96233,128,0,96333:0:0:0:0:
192,192,96333,128,0,96433:0:0:0:0:
64,192,96433,1,0,0:0:0:0:
320,192,96433,1,0,0:0:0:0:
448,192,96433,1,8,0:0:0:0:
448,192,96533,1,8,0:0:0:0:
320,192,96533,1,0,0:0:0:0:
64,192,96533,1,0,0:0:0:0:
192,192,96633,1,8,0:0:0:0:
64,192,96633,1,0,0:0:0:0:
320,192,96733,1,0,0:0:0:0:
448,192,96733,1,8,0:0:0:0:
448,192,96833,1,8,0:0:0:0:
64,192,96833,1,0,0:0:0:0:
192,192,96933,1,8,0:0:0:0:
64,192,96933,1,0,0:0:0:0:
320,192,97033,1,0,0:0:0:0:
448,192,97033,1,0,0:0:0:0:
192,192,97083,1,0,0:0:0:0:
64,192,97083,1,0,0:0:0:0:
448,192,97133,1,0,0:0:0:0:
320,192,97133,1,0,0:0:0:0:
192,192,97183,1,0,0:0:0:0:
64,192,97183,1,0,0:0:0:0:
448,192,97233,1,0,0:0:0:0:
320,192,97233,1,8,0:0:0:0:
64,192,97333,1,0,0:0:0:0:
320,192,97333,1,0,0:0:0:0:
192,192,97383,1,0,0:0:0:0:
448,192,97383,1,0,0:0:0:0:
320,192,97433,1,0,0:0:0:0:
64,192,97433,1,0,0:0:0:0:
448,192,97533,1,0,0:0:0:0:
192,192,97533,1,0,0:0:0:0:
320,192,97583,1,0,0:0:0:0:
64,192,97583,1,0,0:0:0:0:
192,192,97633,1,0,0:0:0:0:
448,192,97633,1,0,0:0:0:0:
320,192,97733,1,0,0:0:0:0:
448,192,97733,1,0,0:0:0:0:
192,192,97783,1,0,0:0:0:0:
64,192,97783,1,0,0:0:0:0:
448,192,97833,1,0,0:0:0:0:
320,192,97833,1,8,0:0:0:0:
192,192,97933,1,8,0:0:0:0:
64,192,97933,1,0,0:0:0:0:
320,192,98033,1,0,0:0:0:0:
448,192,98033,1,0,0:0:0:0:
192,192,98083,1,0,0:0:0:0:
64,192,98083,1,0,0:0:0:0:
320,192,98133,1,0,0:0:0:0:
448,192,98133,1,0,0:0:0:0:
192,192,98183,1,0,0:0:0:0:
64,192,98183,1,0,0:0:0:0:
320,192,98233,1,0,0:0:0:0:
448,192,98233,1,0,0:0:0:0:
192,192,98283,1,0,0:0:0:0:
64,192,98283,1,0,0:0:0:0:
448,192,98333,1,0,0:0:0:0:
320,192,98333,1,0,0:0:0:0:
64,192,98383,1,0,0:0:0:0:
192,192,98433,1,0,0:0:0:0:
320,192,98433,1,0,0:0:0:0:
448,192,98433,1,4,0:0:0:0:
192,192,98533,1,0,0:0:0:0:
320,192,98533,1,0,0:0:0:0:
448,192,98533,1,4,0:0:0:0:
320,192,98633,1,0,0:0:0:0:
192,192,98633,1,0,0:0:0:0:
448,192,98633,1,4,0:0:0:0:
192,192,98733,1,0,0:0:0:0:
320,192,98733,1,0,0:0:0:0:
448,192,98733,1,4,0:0:0:0:
64,192,98933,1,4,0:0:0:0:
192,192,98933,1,0,0:0:0:0:
320,192,98933,1,0,0:0:0:0:
320,192,99033,1,0,0:0:0:0:
192,192,99033,1,0,0:0:0:0:
64,192,99033,1,4,0:0:0:0:
64,192,99133,1,4,0:0:0:0:
192,192,99133,1,0,0:0:0:0:
320,192,99133,1,0,0:0:0:0:
192,192,99233,1,0,0:0:0:0:
64,192,99233,1,4,0:0:0:0:
448,192,99233,1,0,0:0:0:0:
320,192,99333,1,0,0:0:0:0:
192,192,99333,1,0,0:0:0:0:
64,192,99333,1,4,0:0:0:0:
192,192,99433,1,0,0:0:0:0:
320,192,99433,1,0,0:0:0:0:
64,192,99433,1,4,0:0:0:0:
64,192,99633,1,0,0:0:0:0:
320,192,99633,1,8,0:0:0:0:
192,192,99733,1,0,0:0:0:0:
448,192,99733,1,0,0:0:0:0:
320,192,99783,1,0,0:0:0:0:
64,192,99783,1,0,0:0:0:0:
192,192,99833,1,0,0:0:0:0:
448,192,99833,1,0,0:0:0:0:
64,192,99933,1,0,0:0:0:0:
320,192,99933,1,0,0:0:0:0:
192,192,99983,1,0,0:0:0:0:
448,192,99983,1,0,0:0:0:0:
320,192,100033,1,0,0:0:0:0:
64,192,100033,1,0,0:0:0:0:
192,192,100133,1,8,0:0:0:0:
64,192,100133,1,0,0:0:0:0:
320,192,100183,1,0,0:0:0:0:
448,192,100233,1,0,0:0:0:0:
64,192,100233,1,0,0:0:0:0:
192,192,100283,1,0,0:0:0:0:
320,192,100283,1,0,0:0:0:0:
64,192,100333,1,0,0:0:0:0:
448,192,100333,1,0,0:0:0:0:
192,192,100383,1,0,0:0:0:0:
320,192,100433,128,0,100633:0:0:0:0:
448,192,100433,128,0,100633:0:0:0:0:
64,192,100533,1,0,0:0:0:0:
192,192,100633,1,0,0:0:0:0:
64,192,100733,1,0,0:0:0:0:
448,192,100833,1,0,0:0:0:0:
320,192,100933,1,0,0:0:0:0:
448,192,101033,1,0,0:0:0:0:
64,192,101133,1,0,0:0:0:0:
192,192,101233,1,0,0:0:0:70:crash.wav
320,192,101233,1,8,0:0:0:0:
448,192,101233,1,4,0:0:0:0:
320,192,101433,1,0,0:0:0:0:
448,192,101433,1,4,0:0:0:0:
320,192,101633,1,0,0:0:0:0:
448,192,101633,1,4,0:0:0:0:
320,192,101833,1,0,0:0:0:0:
448,192,101833,1,4,0:0:0:0:
320,192,102033,1,0,0:0:0:0:
448,192,102033,1,4,0:0:0:0:
320,192,102233,1,0,0:0:0:0:
448,192,102233,1,4,0:0:0:0:
320,192,102433,1,0,0:0:0:0:
448,192,102433,1,4,0:0:0:0:
320,192,102533,1,4,0:0:0:0:
192,192,102533,1,8,0:0:0:0:
64,192,102533,1,0,0:0:0:0:
320,192,102833,1,8,0:0:0:0:
192,192,102833,1,0,0:0:0:0:
64,192,102833,1,4,0:0:0:0:
192,192,103033,1,0,0:0:0:0:
64,192,103033,1,4,0:0:0:0:
64,192,103233,1,4,0:0:0:0:
192,192,103233,1,0,0:0:0:0:
192,192,103433,1,0,0:0:0:0:
64,192,103433,1,4,0:0:0:0:
64,192,103633,1,4,0:0:0:0:
192,192,103633,1,0,0:0:0:0:
192,192,103833,1,0,0:0:0:0:
64,192,103833,1,4,0:0:0:0:
192,192,104033,1,0,0:0:0:0:
64,192,104033,1,4,0:0:0:0:
320,192,104133,1,8,0:0:0:0:
192,192,104133,1,4,0:0:0:0:
448,192,104133,1,0,0:0:0:0:
64,192,104433,1,0,0:0:0:0:
320,192,104433,1,0,0:0:0:0:
448,192,104433,1,8,0:0:0:0:
192,192,104483,1,0,0:0:0:0:
320,192,104533,1,0,0:0:0:0:
448,192,104583,1,0,0:0:0:0:
64,192,104633,1,0,0:0:0:0:
192,192,104683,1,0,0:0:0:0:
320,192,104733,1,0,0:0:0:0:
448,192,104783,1,0,0:0:0:0:
192,192,104833,1,8,0:0:0:0:
64,192,104833,1,0,0:0:0:0:
448,192,104883,1,0,0:0:0:0:
320,192,104933,1,0,0:0:0:0:
192,192,104983,1,0,0:0:0:0:
64,192,105033,1,0,0:0:0:0:
448,192,105083,1,0,0:0:0:0:
320,192,105133,1,0,0:0:0:0:
192,192,105183,1,0,0:0:0:0:
64,192,105233,1,0,0:0:0:0:
448,192,105233,1,8,0:0:0:0:
320,192,105283,1,0,0:0:0:0:
64,192,105333,1,0,0:0:0:0:
192,192,105383,1,0,0:0:0:0:
448,192,105433,1,0,0:0:0:0:
320,192,105483,1,0,0:0:0:0:
64,192,105533,1,0,0:0:0:0:
192,192,105583,1,0,0:0:0:0:
320,192,105633,1,8,0:0:0:0:
448,192,105633,1,0,0:0:0:0:
320,192,105733,1,8,0:0:0:0:
448,192,105733,1,0,0:0:0:0:
192,192,105833,1,0,0:0:0:0:
64,192,105833,1,0,0:0:0:0:
320,192,105883,1,0,0:0:0:0:
448,192,105883,1,0,0:0:0:0:
192,192,105933,1,0,0:0:0:0:
64,192,105933,1,0,0:0:0:0:
320,192,105983,1,0,0:0:0:0:
448,192,105983,1,0,0:0:0:0:
192,192,106033,1,8,0:0:0:0:
64,192,106033,1,0,0:0:0:0:
192,192,106433,1,0,0:0:0:0:
320,192,106533,1,0,0:0:0:0:
192,192,106583,1,0,0:0:0:0:
320,192,106633,1,0,0:0:0:0:
448,192,106733,1,0,0:0:0:0:
192,192,106783,1,0,0:0:0:0:
320,192,106833,1,0,0:0:0:0:
192,192,106933,1,0,0:0:0:0:
320,192,107033,1,0,0:0:0:0:
192,192,107133,1,0,0:0:0:0:
320,192,107183,1,0,0:0:0:0:
64,192,107233,1,0,0:0:0:0:
192,192,107258,1,0,0:0:0:0:
320,192,107283,1,0,0:0:0:0:
448,192,107308,1,0,0:0:0:0:
64,192,107333,1,0,0:0:0:0:
192,192,107358,1,0,0:0:0:0:
320,192,107383,1,0,0:0:0:0:
448,192,107408,1,0,0:0:0:0:
64,192,107433,128,0,107633:0:0:0:0:
192,192,107433,1,0,0:0:0:0:
320,192,107483,1,0,0:0:0:0:
448,192,107533,1,0,0:0:0:0:
192,192,107633,1,0,0:0:0:0:
320,192,107633,1,0,0:0:0:0:
448,192,107633,1,8,0:0:0:0:
192,192,107933,1,0,0:0:0:0:
320,192,107933,1,0,0:0:0:0:
448,192,107933,1,8,0:0:0:0:
192,192,108233,1,0,0:0:0:0:
320,192,108233,1,0,0:0:0:0:
448,192,108233,1,8,0:0:0:0:
64,192,108433,1,0,0:0:0:0:
192,192,108483,1,0,0:0:0:0:
448,192,108533,1,0,0:0:0:0:
320,192,108583,1,0,0:0:0:0:
64,192,108633,1,0,0:0:0:0:
192,192,108633,1,8,0:0:0:0:
320,192,108683,1,8,0:0:0:0:
448,192,108683,1,0,0:0:0:0:
64,192,108733,1,0,0:0:0:0:
192,192,108783,1,0,0:0:0:0:
448,192,108833,1,0,0:0:0:0:
320,192,108883,1,0,0:0:0:0:
192,192,108933,1,8,0:0:0:0:
64,192,108933,1,0,0:0:0:0:
448,192,108983,1,0,0:0:0:0:
320,192,108983,1,8,0:0:0:0:
64,192,109033,1,0,0:0:0:0:
192,192,109083,1,0,0:0:0:0:
448,192,109133,1,0,0:0:0:0:
320,192,109183,1,0,0:0:0:0:
192,192,109233,1,0,0:0:0:0:
64,192,109233,1,0,0:0:0:0:
320,192,109283,1,0,0:0:0:0:
448,192,109283,1,0,0:0:0:0:
192,192,109333,1,0,0:0:0:0:
64,192,109333,1,0,0:0:0:0:
320,192,109383,1,0,0:0:0:0:
448,192,109383,1,0,0:0:0:0:
192,192,109433,1,0,0:0:0:0:
64,192,109433,1,8,0:0:0:0:
64,192,109533,1,8,0:0:0:0:
320,192,109533,1,0,0:0:0:0:
448,192,109633,1,0,0:0:0:0:
320,192,109683,1,0,0:0:0:0:
64,192,109733,1,0,0:0:0:0:
192,192,109783,1,0,0:0:0:0:
448,192,109833,1,0,0:0:0:0:
320,192,109883,1,0,0:0:0:0:
192,192,109933,1,0,0:0:0:0:
64,192,109933,1,8,0:0:0:0:
448,192,110033,1,0,0:0:0:0:
320,192,110083,1,0,0:0:0:0:
64,192,110133,1,0,0:0:0:0:
192,192,110183,1,0,0:0:0:0:
448,192,110233,1,0,0:0:0:0:
320,192,110283,1,0,0:0:0:0:
192,192,110333,1,8,0:0:0:0:
64,192,110333,1,0,0:0:0:0:
448,192,110433,1,0,0:0:0:0:
320,192,110483,1,0,0:0:0:0:
64,192,110533,1,0,0:0:0:0:
192,192,110583,1,0,0:0:0:0:
448,192,110633,1,0,0:0:0:0:
320,192,110683,1,0,0:0:0:0:
448,192,110733,1,0,0:0:0:0:
320,192,110783,1,0,0:0:0:0:
192,192,110833,1,0,0:0:0:0:
64,192,110833,1,0,0:0:0:0:
448,192,110833,1,8,0:0:0:0:
192,192,111133,1,0,0:0:0:0:
64,192,111133,1,0,0:0:0:0:
448,192,111133,1,8,0:0:0:0:
64,192,111433,1,0,0:0:0:0:
192,192,111433,1,0,0:0:0:0:
448,192,111433,1,8,0:0:0:0:
192,192,111533,1,0,0:0:0:0:
64,192,111533,1,0,0:0:0:0:
448,192,111533,1,8,0:0:0:0:
320,192,111633,1,0,0:0:0:0:
448,192,111683,1,0,0:0:0:0:
192,192,111733,1,0,0:0:0:0:
64,192,111783,1,0,0:0:0:0:
320,192,111833,1,8,0:0:0:0:
448,192,111833,1,0,0:0:0:0:
192,192,111883,1,8,0:0:0:0:
64,192,111883,1,0,0:0:0:0:
320,192,111933,1,0,0:0:0:0:
448,192,111983,1,0,0:0:0:0:
192,192,112033,1,0,0:0:0:0:
64,192,112083,1,0,0:0:0:0:
320,192,112133,1,8,0:0:0:0:
448,192,112133,1,0,0:0:0:0:
192,192,112183,1,8,0:0:0:0:
64,192,112183,1,0,0:0:0:0:
448,192,112233,1,0,0:0:0:0:
320,192,112283,1,0,0:0:0:0:
448,192,112333,1,0,0:0:0:0:
320,192,112383,1,0,0:0:0:0:
448,192,112433,1,0,0:0:0:0:
192,192,112483,1,0,0:0:0:0:
64,192,112533,1,0,0:0:0:0:
320,192,112533,1,0,0:0:0:0:
448,192,112583,1,0,0:0:0:0:
192,192,112633,1,0,0:0:0:0:
64,192,112683,1,0,0:0:0:0:
448,192,112733,1,0,0:0:0:0:
192,192,112833,128,0,112983:0:0:0:0:
64,192,112833,128,0,112983:0:0:0:0:
320,192,112933,128,0,113083:0:0:0:0:
448,192,112933,128,0,113083:0:0:0:0:
64,192,113033,128,0,113133:0:0:0:0:
192,192,113033,128,0,113133:0:0:0:0:
448,192,113133,128,0,113233:0:0:0:0:
320,192,113133,128,0,113233:0:0:0:0:
192,192,113233,1,0,0:0:0:0:
320,192,113283,1,0,0:0:0:0:
64,192,113333,1,0,0:0:0:0:
448,192,113333,1,0,0:0:0:0:
64,192,113433,1,0,0:0:0:0:
192,192,113483,1,0,0:0:0:0:
448,192,113533,1,0,0:0:0:0:
320,192,113583,1,0,0:0:0:0:
448,192,113633,1,0,0:0:0:0:
320,192,113683,1,0,0:0:0:0:
64,192,113733,1,8,0:0:0:0:
192,192,113733,1,0,0:0:0:0:
448,192,113833,1,0,0:0:0:0:
448,192,113933,1,0,0:0:0:0:
64,192,114033,1,8,0:0:0:0:
320,192,114033,1,0,0:0:0:0:
192,192,114033,1,0,0:0:0:0:
320,192,114333,1,0,0:0:0:0:
192,192,114333,1,0,0:0:0:0:
64,192,114333,1,8,0:0:0:0:
64,192,114633,1,8,0:0:0:0:
192,192,114633,1,0,0:0:0:0:
320,192,114633,1,0,0:0:0:0:
448,192,114833,1,0,0:0:0:0:
320,192,114883,1,0,0:0:0:0:
64,192,114933,1,0,0:0:0:0:
192,192,114983,1,0,0:0:0:0:
448,192,115033,1,0,0:0:0:0:
320,192,115033,1,8,0:0:0:0:
192,192,115083,1,8,0:0:0:0:
64,192,115083,1,0,0:0:0:0:
448,192,115133,1,0,0:0:0:0:
320,192,115183,1,0,0:0:0:0:
64,192,115233,1,0,0:0:0:0:
192,192,115283,1,0,0:0:0:0:
320,192,115333,1,8,0:0:0:0:
448,192,115333,1,0,0:0:0:0:
64,192,115383,1,0,0:0:0:0:
192,192,115383,1,8,0:0:0:0:
448,192,115433,1,0,0:0:0:0:
320,192,115483,1,0,0:0:0:0:
64,192,115533,1,0,0:0:0:0:
192,192,115583,1,0,0:0:0:0:
320,192,115633,1,0,0:0:0:0:
192,192,115733,1,0,0:0:0:0:
64,192,115783,1,0,0:0:0:0:
320,192,115833,1,0,0:0:0:0:
192,192,115883,1,0,0:0:0:0:
448,192,115933,1,0,0:0:0:0:
320,192,115983,1,0,0:0:0:0:
192,192,116033,1,0,0:0:0:0:
64,192,116033,1,0,0:0:0:0:
448,192,116033,1,8,0:0:0:0:
192,192,116183,1,0,0:0:0:0:
64,192,116183,1,0,0:0:0:0:
448,192,116183,1,8,0:0:0:0:
192,192,116333,1,0,0:0:0:0:
64,192,116333,1,0,0:0:0:0:
448,192,116333,1,8,0:0:0:0:
320,192,116433,1,0,0:0:0:0:
448,192,116433,1,8,0:0:0:0:
192,192,116433,1,0,0:0:0:0:
320,192,116583,1,0,0:0:0:0:
448,192,116583,1,8,0:0:0:0:
192,192,116583,1,0,0:0:0:0:
320,192,116733,1,0,0:0:0:0:
448,192,116733,1,8,0:0:0:0:
192,192,116733,1,0,0:0:0:0:
64,192,116833,1,0,0:0:0:0:
192,192,116866,1,0,0:0:0:0:
320,192,116899,1,0,0:0:0:0:
448,192,116933,1,0,0:0:0:0:
64,192,116966,1,0,0:0:0:0:
192,192,116999,1,0,0:0:0:0:
320,192,117033,1,0,0:0:0:0:
448,192,117066,1,0,0:0:0:0:
64,192,117099,1,0,0:0:0:0:
192,192,117133,1,0,0:0:0:0:
320,192,117166,1,0,0:0:0:0:
448,192,117199,1,0,0:0:0:0:
192,192,117233,1,0,0:0:0:0:
64,192,117233,1,8,0:0:0:0:
64,192,117433,1,0,0:0:0:0:
448,192,117433,1,0,0:0:0:0:
192,192,117483,1,0,0:0:0:0:
320,192,117483,1,0,0:0:0:0:
64,192,117533,1,0,0:0:0:0:
448,192,117533,1,0,0:0:0:0:
192,192,117583,1,0,0:0:0:0:
320,192,117583,1,0,0:0:0:0:
64,192,117633,1,0,0:0:0:0:
448,192,117633,1,0,0:0:0:0:
192,192,117733,1,0,0:0:0:0:
320,192,117733,1,8,0:0:0:0:
64,192,117833,1,0,0:0:0:0:
192,192,117933,1,8,0:0:0:0:
320,192,117933,1,0,0:0:0:0:
448,192,118033,1,0,0:0:0:0:
192,192,118133,1,8,0:0:0:0:
64,192,118133,1,0,0:0:0:0:
320,192,118233,1,0,0:0:0:0:
448,192,118333,1,8,0:0:0:0:
192,192,118333,1,0,0:0:0:0:
320,192,118383,1,0,0:0:0:0:
64,192,118433,1,0,0:0:0:0:
192,192,118483,1,0,0:0:0:0:
320,192,118533,1,0,0:0:0:0:
448,192,118583,1,0,0:0:0:0:
64,192,118633,1,0,0:0:0:0:
192,192,118683,1,0,0:0:0:0:
448,192,118733,1,0,0:0:0:0:
320,192,118783,1,0,0:0:0:0:
192,192,118833,1,8,0:0:0:0:
64,192,118833,1,0,0:0:0:0:
64,192,118933,1,0,0:0:0:0:
320,192,118933,1,8,0:0:0:0:
192,192,119033,1,0,0:0:0:0:
448,192,119033,1,8,0:0:0:0:
320,192,119133,1,0,0:0:0:0:
448,192,119133,1,8,0:0:0:0:
64,192,119233,1,0,0:0:0:0:
192,192,119233,1,8,0:0:0:0:
320,192,119333,1,8,0:0:0:0:
448,192,119333,1,0,0:0:0:0:
192,192,119433,1,8,0:0:0:0:
448,192,119433,1,0,0:0:0:0:
320,192,119533,1,0,0:0:0:0:
64,192,119533,1,8,0:0:0:0:
64,192,119633,1,0,0:0:0:0:
192,192,119633,1,0,0:0:0:0:
320,192,119683,1,0,0:0:0:0:
448,192,119683,1,0,0:0:0:0:
192,192,119733,1,0,0:0:0:0:
64,192,119733,1,0,0:0:0:0:
320,192,119783,1,0,0:0:0:0:
448,192,119783,1,0,0:0:0:0:
192,192,119833,1,0,0:0:0:0:
64,192,119833,1,0,0:0:0:0:
320,192,119883,1,0,0:0:0:0:
448,192,119883,1,0,0:0:0:0:
192,192,119933,1,0,0:0:0:0:
64,192,119933,1,0,0:0:0:0:
320,192,119983,1,0,0:0:0:0:
448,192,119983,1,0,0:0:0:0:
64,192,120033,128,0,120133:0:0:0:0:
448,192,120233,128,0,120333:0:0:0:0:
64,192,120433,1,8,0:0:0:0:
192,192,120433,1,0,0:0:0:0:
320,192,120433,1,0,0:0:0:70:crash.wav
448,192,120433,1,0,0:0:0:0:
448,192,120633,128,0,120733:0:0:0:0:
320,192,120733,1,0,0:0:0:0:
192,192,120733,1,0,0:0:0:0:
64,192,120733,1,8,0:0:0:0:
448,192,120933,128,0,121033:0:0:0:0:
320,192,121033,1,0,0:0:0:0:
64,192,121033,1,8,0:0:0:0:
192,192,121033,1,0,0:0:0:0:
64,192,121233,1,0,0:0:0:0:
192,192,121283,1,0,0:0:0:0:
448,192,121333,1,0,0:0:0:0:
320,192,121383,1,0,0:0:0:0:
64,192,121433,1,0,0:0:0:0:
192,192,121433,1,8,0:0:0:0:
320,192,121483,1,8,0:0:0:0:
448,192,121483,1,0,0:0:0:0:
64,192,121533,1,0,0:0:0:0:
192,192,121583,1,0,0:0:0:0:
448,192,121633,1,0,0:0:0:0:
320,192,121683,1,0,0:0:0:0:
192,192,121733,1,8,0:0:0:0:
64,192,121733,1,0,0:0:0:0:
448,192,121783,1,0,0:0:0:0:
320,192,121783,1,8,0:0:0:0:
64,192,121833,1,0,0:0:0:0:
192,192,121883,1,0,0:0:0:0:
448,192,121933,1,0,0:0:0:0:
320,192,121983,1,0,0:0:0:0:
192,192,122033,1,0,0:0:0:0:
64,192,122033,1,0,0:0:0:0:
320,192,122083,1,0,0:0:0:0:
448,192,122083,1,0,0:0:0:0:
192,192,122133,1,0,0:0:0:0:
64,192,122133,1,0,0:0:0:0:
320,192,122183,1,0,0:0:0:0:
448,192,122183,1,0,0:0:0:0:
192,192,122233,1,8,0:0:0:0:
64,192,122233,1,0,0:0:0:0:
320,192,122333,1,8,0:0:0:0:
448,192,122333,1,0,0:0:0:0:
64,192,122433,1,0,0:0:0:0:
192,192,122533,1,8,0:0:0:0:
320,192,122533,1,0,0:0:0:0:
448,192,122633,1,0,0:0:0:0:
320,192,122683,1,0,0:0:0:0:
64,192,122733,1,0,0:0:0:0:
192,192,122783,1,0,0:0:0:0:
320,192,122833,1,8,0:0:0:0:
448,192,122833,1,0,0:0:0:0:
64,192,122933,1,0,0:0:0:0:
448,192,122933,1,8,0:0:0:0:
192,192,122983,1,0,0:0:0:0:
320,192,123033,1,0,0:0:0:0:
64,192,123083,1,0,0:0:0:0:
320,192,123133,1,0,0:0:0:0:
448,192,123133,1,0,0:0:0:0:
192,192,123183,1,0,0:0:0:0:
64,192,123183,1,0,0:0:0:0:
320,192,123233,1,0,0:0:0:0:
448,192,123233,1,0,0:0:0:0:
192,192,123283,1,0,0:0:0:0:
64,192,123283,1,0,0:0:0:0:
320,192,123333,1,8,0:0:0:0:
448,192,123333,1,0,0:0:0:0:
192,192,123433,1,0,0:0:0:0:
64,192,123533,1,0,0:0:0:0:
448,192,123533,1,8,0:0:0:0:
192,192,123633,1,0,0:0:0:0:
320,192,123633,1,0,0:0:0:0:
448,192,123633,1,8,0:0:0:0:
64,192,123733,1,0,0:0:0:0:
64,192,123833,1,0,0:0:0:0:
192,192,123933,1,0,0:0:0:0:
320,192,123933,1,0,0:0:0:0:
448,192,123933,1,8,0:0:0:0:
320,192,124133,1,0,0:0:0:0:
64,192,124183,1,0,0:0:0:0:
192,192,124233,1,0,0:0:0:0:
320,192,124233,1,0,0:0:0:0:
448,192,124233,1,8,0:0:0:0:
64,192,124333,1,0,0:0:0:0:
192,192,124383,1,0,0:0:0:0:
448,192,124433,1,0,0:0:0:0:
320,192,124483,1,0,0:0:0:0:
192,192,124533,1,0,0:0:0:0:
64,192,124533,1,8,0:0:0:0:
192,192,124633,1,0,0:0:0:0:
64,192,124633,1,8,0:0:0:0:
320,192,124733,1,0,0:0:0:0:
64,192,124833,1,0,0:0:0:0:
192,192,124833,1,0,0:0:0:0:
320,192,124883,1,0,0:0:0:0:
448,192,124883,1,0,0:0:0:0:
192,192,124933,1,0,0:0:0:0:
64,192,124933,1,0,0:0:0:0:
320,192,124983,1,0,0:0:0:0:
448,192,124983,1,0,0:0:0:0:
64,192,125033,1,0,0:0:0:0:
192,192,125083,1,0,0:0:0:0:
320,192,125133,1,0,0:0:0:0:
448,192,125183,1,0,0:0:0:0:
192,192,125233,1,0,0:0:0:0:
64,192,125233,1,8,0:0:0:0:
64,192,125333,1,8,0:0:0:0:
320,192,125333,1,0,0:0:0:0:
448,192,125433,1,0,0:0:0:0:
320,192,125433,1,8,0:0:0:0:
192,192,125533,1,8,0:0:0:0:
64,192,125533,1,0,0:0:0:0:
320,192,125633,1,8,0:0:0:0:
448,192,125633,1,0,0:0:0:0:
64,192,125733,1,0,0:0:0:0:
320,192,125733,1,8,0:0:0:0:
448,192,125783,1,0,0:0:0:0:
192,192,125833,1,0,0:0:0:0:
64,192,125833,1,0,0:0:0:0:
320,192,125883,1,0,0:0:0:0:
448,192,125883,1,0,0:0:0:0:
192,192,125933,1,0,0:0:0:0:
64,192,125933,1,0,0:0:0:0:
320,192,125983,1,0,0:0:0:0:
448,192,125983,1,0,0:0:0:0:
64,192,126033,1,0,0:0:0:0:
192,192,126033,128,0,126133:0:0:0:0:
320,192,126133,1,0,0:0:0:0:
192,192,126233,128,0,126333:0:0:0:0:
448,192,126333,1,0,0:0:0:0:
320,192,126433,128,0,126533:0:0:0:0:
64,192,126533,1,0,0:0:0:0:
192,192,126633,128,0,126733:0:0:0:0:
320,192,126733,1,0,0:0:0:0:
192,192,126833,1,0,0:0:0:0:
64,192,126833,1,8,0:0:0:0:
448,192,126833,1,0,0:0:0:70:crash.wav
320,192,126983,1,0,0:0:0:0:
64,192,127033,1,0,0:0:0:0:
320,192,127083,1,0,0:0:0:0:
192,192,127133,1,0,0:0:0:0:
64,192,127133,1,8,0:0:0:0:
448,192,127133,1,0,0:0:0:0:
192,192,127283,1,0,0:0:0:0:
448,192,127333,1,0,0:0:0:0:
192,192,127383,1,0,0:0:0:0:
64,192,127433,1,8,0:0:0:0:
320,192,127433,1,0,0:0:0:0:
448,192,127433,1,0,0:0:0:0:
192,192,127533,1,0,0:0:0:0:
320,192,127633,1,0,0:0:0:0:
448,192,127633,1,0,0:0:0:0:
64,192,127683,1,0,0:0:0:0:
192,192,127733,1,0,0:0:0:0:
320,192,127783,1,0,0:0:0:0:
64,192,127833,1,0,0:0:0:0:
192,192,127833,1,8,0:0:0:0:
320,192,127883,1,8,0:0:0:0:
448,192,127883,1,0,0:0:0:0:
64,192,127933,1,0,0:0:0:0:
192,192,127983,1,0,0:0:0:0:
320,192,128033,1,0,0:0:0:0:
448,192,128083,1,0,0:0:0:0:
192,192,128133,1,8,0:0:0:0:
64,192,128133,1,0,0:0:0:0:
320,192,128183,1,8,0:0:0:0:
448,192,128183,1,0,0:0:0:0:
64,192,128233,1,0,0:0:0:0:
192,192,128283,1,0,0:0:0:0:
448,192,128333,1,0,0:0:0:0:
320,192,128383,1,0,0:0:0:0:
64,192,128433,1,0,0:0:0:0:
192,192,128433,1,0,0:0:0:0:
320,192,128483,1,0,0:0:0:0:
448,192,128483,1,0,0:0:0:0:
192,192,128533,1,0,0:0:0:0:
64,192,128533,1,0,0:0:0:0:
320,192,128583,1,0,0:0:0:0:
448,192,128583,1,0,0:0:0:0:
192,192,128633,1,0,0:0:0:0:
64,192,128633,1,8,0:0:0:0:
64,192,128733,1,8,0:0:0:0:
192,192,128733,1,0,0:0:0:0:
448,192,128833,1,0,0:0:0:0:
320,192,128883,1,0,0:0:0:0:
64,192,128933,1,0,0:0:0:0:
192,192,128983,1,0,0:0:0:0:
448,192,129033,1,0,0:0:0:0:
320,192,129083,1,0,0:0:0:0:
192,192,129133,1,8,0:0:0:0:
64,192,129133,1,0,0:0:0:0:
320,192,129233,1,0,0:0:0:0:
448,192,129283,1,0,0:0:0:0:
192,192,129333,1,0,0:0:0:0:
64,192,129383,1,0,0:0:0:0:
320,192,129433,1,0,0:0:0:0:
448,192,129483,1,0,0:0:0:0:
192,192,129533,1,8,0:0:0:0:
64,192,129533,1,0,0:0:0:0:
320,192,129633,1,0,0:0:0:0:
448,192,129683,1,0,0:0:0:0:
192,192,129733,1,0,0:0:0:0:
320,192,129783,1,0,0:0:0:0:
64,192,129833,1,0,0:0:0:0:
192,192,129883,1,0,0:0:0:0:
448,192,129933,1,0,0:0:0:0:
320,192,129983,1,0,0:0:0:0:
192,192,130033,1,8,0:0:0:0:
64,192,130033,1,0,0:0:0:0:
448,192,130033,1,0,0:0:0:0:
320,192,130133,1,0,0:0:0:0:
192,192,130233,1,0,0:0:0:0:
64,192,130333,1,0,0:0:0:0:
448,192,130333,1,0,0:0:0:0:
320,192,130333,1,8,0:0:0:0:
192,192,130433,1,0,0:0:0:0:
320,192,130533,1,0,0:0:0:0:
192,192,130633,1,0,0:0:0:0:
64,192,130633,1,8,0:0:0:0:
448,192,130633,1,0,0:0:0:0:
192,192,130733,1,0,0:0:0:0:
64,192,130733,1,8,0:0:0:0:
320,192,130833,1,8,0:0:0:0:
448,192,130833,1,0,0:0:0:0:
192,192,130933,1,0,0:0:0:0:
64,192,131033,1,0,0:0:0:0:
192,192,131083,1,0,0:0:0:0:
320,192,131133,1,0,0:0:0:0:
448,192,131133,1,8,0:0:0:0:
192,192,131233,1,0,0:0:0:0:
64,192,131283,1,0,0:0:0:0:
448,192,131333,1,0,0:0:0:0:
320,192,131383,1,0,0:0:0:0:
192,192,131433,1,0,0:0:0:0:
64,192,131433,1,8,0:0:0:0:
64,192,131533,1,0,0:0:0:0:
320,192,131533,1,8,0:0:0:0:
320,192,131633,1,8,0:0:0:0:
448,192,131633,1,0,0:0:0:0:
192,192,131633,128,0,131783:0:0:0:0:
448,192,131733,1,4,0:0:0:0:
192,192,131833,1,0,0:0:0:0:
64,192,131833,128,0,131983:0:0:0:0:
320,192,131833,1,8,0:0:0:0:
320,192,131933,1,4,0:0:0:0:
192,192,132033,1,8,0:0:0:0:
64,192,132033,1,0,0:0:0:0:
448,192,132033,128,0,132183:0:0:0:0:
192,192,132133,1,4,0:0:0:0:
64,192,132233,1,8,0:0:0:0:
320,192,132233,1,0,0:0:0:0:
448,192,132233,128,0,132383:0:0:0:0:
64,192,132333,1,4,0:0:0:0:
192,192,132433,1,0,0:0:0:0:
320,192,132433,128,0,132583:0:0:0:0:
64,192,132433,128,0,133133:0:0:0:0:
320,192,132633,128,0,133133:0:0:0:0:
448,192,132833,128,0,133133:0:0:0:0:
64,192,133233,1,0,0:0:0:0:
192,192,133233,1,8,0:0:0:0:
320,192,133233,1,0,0:0:0:0:
448,192,133233,1,8,0:0:0:70:crash.wav
192,192,133333,1,0,0:0:0:0:
448,192,133733,1,0,0:0:0:0:
64,192,133833,1,0,0:0:0:0:
192,192,133933,1,0,0:0:0:0:
320,192,134033,1,0,0:0:0:0:
192,192,134133,1,0,0:0:0:0:
320,192,134233,1,0,0:0:0:0:
192,192,134333,1,0,0:0:0:0:
448,192,134433,1,0,0:0:0:0:
320,192,134533,1,0,0:0:0:0:
192,192,134633,1,0,0:0:0:0:
448,192,134833,1,0,0:0:0:0:
320,192,134933,1,0,0:0:0:0:
448,192,135033,1,0,0:0:0:0:
320,192,135133,1,0,0:0:0:0:
64,192,135233,1,0,0:0:0:0:
192,192,135333,1,0,0:0:0:0:
320,192,135433,1,0,0:0:0:0:
192,192,135533,1,0,0:0:0:0:
448,192,135633,1,0,0:0:0:0:
320,192,135733,1,0,0:0:0:0:
192,192,135833,1,0,0:0:0:0:
64,192,135933,1,0,0:0:0:0:
448,192,136033,1,0,0:0:0:0:
320,192,136133,1,0,0:0:0:0:
192,192,136233,1,0,0:0:0:0:
64,192,136433,1,0,0:0:0:0:
192,192,136533,1,0,0:0:0:0:
448,192,136633,1,0,0:0:0:0:
320,192,136733,1,0,0:0:0:0:
64,192,136833,1,0,0:0:0:0:
192,192,136933,1,0,0:0:0:0:
320,192,137033,1,0,0:0:0:0:
448,192,137133,1,0,0:0:0:0:
192,192,137233,1,0,0:0:0:0:
64,192,137333,1,0,0:0:0:0:
320,192,137433,1,0,0:0:0:0:
448,192,137533,1,0,0:0:0:0:
64,192,137633,1,0,0:0:0:0:
192,192,137733,1,0,0:0:0:0:
320,192,137833,1,0,0:0:0:0:
320,192,137933,1,0,0:0:0:0:
64,192,138033,1,0,0:0:0:0:
64,192,138133,1,0,0:0:0:0:
448,192,138233,1,0,0:0:0:0:
448,192,138333,1,0,0:0:0:0:
64,192,138433,1,0,0:0:0:0:
192,192,138433,1,0,0:0:0:0:
320,192,138483,1,0,0:0:0:0:
64,192,138533,1,0,0:0:0:0:
448,192,138533,1,0,0:0:0:0:
192,192,138583,1,0,0:0:0:0:
320,192,138633,1,0,0:0:0:0:
448,192,138633,1,0,0:0:0:0:
64,192,138683,1,0,0:0:0:0:
448,192,138733,1,0,0:0:0:0:
320,192,138733,1,0,0:0:0:0:
192,192,138783,1,0,0:0:0:0:
64,192,138833,1,8,0:0:0:0:
448,192,138833,1,0,0:0:0:0:
320,192,138833,1,0,0:0:0:0:
192,192,139033,1,0,0:0:0:0:
64,192,139033,1,8,0:0:0:0:
448,192,139033,1,0,0:0:0:0:
320,192,139233,128,0,139333:0:0:0:0:
192,192,139233,128,8,139333:0:0:0:0:
64,192,139233,128,0,139333:0:0:0:0:
64,192,139633,128,8,139783:0:0:0:0:
192,192,139633,128,0,139783:0:0:0:70:bell.wav
320,192,139633,128,0,139783:0:0:0:70:crash.wav
448,192,139633,128,0,139783:0:0:0:0:
64,192,139833,128,8,139983:0:0:0:0:
320,192,139833,128,0,139983:0:0:0:0:
448,192,139833,128,0,139983:0:0:0:0:
192,192,140033,128,0,140183:0:0:0:0:
64,192,140033,128,8,140183:0:0:0:0:
448,192,140033,128,0,140183:0:0:0:0:
192,192,140233,128,0,140383:0:0:0:0:
320,192,140233,128,0,140383:0:0:0:0:
448,192,140233,128,8,140383:0:0:0:0:
64,192,140433,128,0,140583:0:0:0:0:
192,192,140433,128,0,140583:0:0:0:0:
448,192,140433,128,8,140583:0:0:0:0:
320,192,140633,128,0,140783:0:0:0:0:
448,192,140633,128,8,140783:0:0:0:0:
64,192,140633,128,0,140783:0:0:0:0:
64,192,140833,1,0,0:0:0:0:
320,192,140833,1,0,0:0:0:0:
448,192,140833,1,8,0:0:0:0:
320,192,140933,1,0,0:0:0:0:
448,192,140933,1,8,0:0:0:0:
192,192,141033,1,8,0:0:0:0:
64,192,141033,1,0,0:0:0:0:
64,192,141133,1,0,0:0:0:0:
192,192,141133,1,8,0:0:0:0:
192,192,141233,128,0,141383:0:0:0:0:
320,192,141233,128,0,141383:0:0:0:0:
448,192,141233,128,8,141383:0:0:0:0:
64,192,141433,128,0,141583:0:0:0:0:
192,192,141433,128,0,141583:0:0:0:0:
448,192,141433,128,8,141583:0:0:0:0:
64,192,141633,128,8,141783:0:0:0:0:
192,192,141633,128,0,141783:0:0:0:0:
320,192,141633,128,0,141783:0:0:0:0:
320,192,141833,128,0,141983:0:0:0:0:
448,192,141833,128,0,141983:0:0:0:0:
64,192,141833,128,8,141983:0:0:0:0:
64,192,142033,128,8,142183:0:0:0:0:
192,192,142033,128,0,142183:0:0:0:0:
320,192,142033,128,0,142183:0:0:0:0:
192,192,142233,1,0,0:0:0:0:
64,192,142233,1,8,0:0:0:0:
448,192,142233,1,0,0:0:0:0:
192,192,142333,1,0,0:0:0:0:
64,192,142333,1,8,0:0:0:0:
320,192,142433,128,0,142583:0:0:0:0:
448,192,142433,128,8,142583:0:0:0:0:
192,192,142433,128,0,142583:0:0:0:0:
320,192,142633,1,0,0:0:0:0:
448,192,142633,1,8,0:0:0:0:
64,192,142633,1,0,0:0:0:0:
320,192,142733,1,0,0:0:0:0:
448,192,142733,1,8,0:0:0:0:
192,192,142833,1,8,0:0:0:0:
64,192,142833,128,0,143133:0:0:0:0:
320,192,142933,1,0,0:0:0:0:
448,192,143033,1,0,0:0:0:0:
192,192,143133,1,0,0:0:0:0:
64,192,143233,1,0,0:0:0:0:
448,192,143233,128,8,143533:0:0:0:0:
192,192,143283,1,0,0:0:0:0:
320,192,143333,1,0,0:0:0:0:
64,192,143383,1,0,0:0:0:0:
192,192,143433,1,0,0:0:0:0:
320,192,143483,1,0,0:0:0:0:
64,192,143533,1,0,0:0:0:0:
192,192,143583,1,0,0:0:0:0:
320,192,143633,1,0,0:0:0:0:
448,192,143633,1,8,0:0:0:0:
64,192,143683,1,0,0:0:0:0:
192,192,143733,1,0,0:0:0:0:
320,192,143783,1,0,0:0:0:0:
448,192,143833,1,0,0:0:0:0:
192,192,143883,1,0,0:0:0:0:
64,192,143933,1,0,0:0:0:0:
448,192,143983,1,0,0:0:0:0:
320,192,144033,1,0,0:0:0:0:
192,192,144083,1,0,0:0:0:0:
64,192,144133,1,0,0:0:0:0:
448,192,144233,1,0,0:0:0:0:
320,192,144258,1,0,0:0:0:0:
192,192,144283,1,0,0:0:0:0:
64,192,144308,1,0,0:0:0:0:
448,192,144333,1,0,0:0:0:0:
320,192,144358,1,0,0:0:0:0:
192,192,144383,1,0,0:0:0:0:
64,192,144408,1,0,0:0:0:0:
448,192,144433,1,0,0:0:0:0:
320,192,144433,1,8,0:0:0:0:
192,192,144533,1,0,0:0:0:0:
64,192,144633,1,0,0:0:0:0:
192,192,144733,1,0,0:0:0:0:
320,192,144833,1,0,0:0:0:0:
448,192,144883,1,0,0:0:0:0:
64,192,144933,1,0,0:0:0:0:
192,192,144983,1,0,0:0:0:0:
320,192,145033,1,8,0:0:0:0:
448,192,145033,1,0,0:0:0:0:
64,192,145083,1,0,0:0:0:0:
192,192,145133,1,0,0:0:0:0:
320,192,145183,1,0,0:0:0:0:
64,192,145233,1,0,0:0:0:0:
192,192,145233,1,8,0:0:0:0:
448,192,145233,1,0,0:0:0:0:
320,192,145333,1,0,0:0:0:0:
192,192,145433,1,0,0:0:0:0:
64,192,145533,1,0,0:0:0:0:
192,192,145558,1,0,0:0:0:0:
448,192,145583,1,0,0:0:0:0:
320,192,145608,1,0,0:0:0:0:
64,192,145633,128,0,145833:0:0:0:0:
192,192,145633,128,0,145833:0:0:0:0:
448,192,145833,1,0,0:0:0:0:
320,192,145933,1,0,0:0:0:0:
64,192,146033,128,0,146183:0:0:0:0:
192,192,146033,128,0,146183:0:0:0:0:
448,192,146033,128,8,146183:0:0:0:0:
320,192,146233,128,0,146383:0:0:0:0:
448,192,146233,128,8,146383:0:0:0:0:
64,192,146233,128,0,146383:0:0:0:0:
64,192,146433,128,0,146583:0:0:0:0:
192,192,146433,128,0,146583:0:0:0:0:
320,192,146433,128,8,146583:0:0:0:0:
192,192,146633,128,0,146783:0:0:0:0:
320,192,146633,128,8,146783:0:0:0:0:
448,192,146633,128,0,146783:0:0:0:0:
64,192,146833,128,0,146983:0:0:0:0:
192,192,146833,128,0,146983:0:0:0:0:
448,192,146833,128,8,146983:0:0:0:0:
64,192,147033,128,0,147183:0:0:0:0:
320,192,147033,128,0,147183:0:0:0:0:
448,192,147033,128,8,147183:0:0:0:0:
64,192,147233,1,0,0:0:0:0:
320,192,147233,1,0,0:0:0:0:
448,192,147233,1,8,0:0:0:0:
320,192,147333,1,0,0:0:0:0:
448,192,147333,1,8,0:0:0:0:
192,192,147433,1,8,0:0:0:0:
64,192,147433,1,0,0:0:0:0:
64,192,147533,1,0,0:0:0:0:
192,192,147533,1,8,0:0:0:0:
192,192,147633,128,0,147783:0:0:0:0:
320,192,147633,128,0,147783:0:0:0:0:
448,192,147633,128,8,147783:0:0:0:0:
64,192,147833,128,0,147983:0:0:0:0:
192,192,147833,128,0,147983:0:0:0:0:
320,192,147833,128,8,147983:0:0:0:0:
192,192,148033,128,0,148183:0:0:0:0:
64,192,148033,128,0,148183:0:0:0:0:
448,192,148033,128,8,148183:0:0:0:0:
320,192,148233,128,0,148383:0:0:0:0:
448,192,148233,128,8,148383:0:0:0:0:
64,192,148233,128,0,148383:0:0:0:0:
192,192,148433,128,0,148583:0:0:0:0:
320,192,148433,128,0,148583:0:0:0:0:
448,192,148433,128,8,148583:0:0:0:0:
64,192,148633,1,0,0:0:0:0:
320,192,148633,1,0,0:0:0:0:
448,192,148633,1,8,0:0:0:0:
320,192,148733,1,0,0:0:0:0:
448,192,148733,1,8,0:0:0:0:
192,192,148833,128,0,148983:0:0:0:0:
64,192,148833,128,8,148983:0:0:0:0:
320,192,148833,128,0,148983:0:0:0:0:
192,192,149033,1,0,0:0:0:0:
64,192,149033,1,8,0:0:0:0:
448,192,149033,1,0,0:0:0:0:
192,192,149133,1,0,0:0:0:0:
64,192,149133,1,8,0:0:0:0:
320,192,149233,1,8,0:0:0:0:
448,192,149233,128,0,149533:0:0:0:0:
192,192,149333,1,0,0:0:0:0:
64,192,149433,1,0,0:0:0:0:
320,192,149533,1,0,0:0:0:0:
448,192,149633,1,0,0:0:0:0:
64,192,149633,128,8,149933:0:0:0:0:
320,192,149683,1,0,0:0:0:0:
192,192,149733,1,0,0:0:0:0:
448,192,149783,1,0,0:0:0:0:
320,192,149833,1,0,0:0:0:0:
192,192,149883,1,0,0:0:0:0:
448,192,149933,1,0,0:0:0:0:
320,192,149983,1,0,0:0:0:0:
192,192,150033,1,0,0:0:0:0:
64,192,150033,1,8,0:0:0:0:
448,192,150083,1,0,0:0:0:0:
320,192,150133,1,0,0:0:0:0:
192,192,150183,1,0,0:0:0:0:
64,192,150233,1,0,0:0:0:0:
320,192,150283,1,0,0:0:0:0:
448,192,150333,1,0,0:0:0:0:
64,192,150383,1,0,0:0:0:0:
192,192,150433,1,0,0:0:0:0:
320,192,150483,1,0,0:0:0:0:
448,192,150533,1,0,0:0:0:0:
64,192,150633,1,0,0:0:0:0:
192,192,150658,1,0,0:0:0:0:
320,192,150683,1,0,0:0:0:0:
448,192,150708,1,0,0:0:0:0:
64,192,150733,1,0,0:0:0:0:
192,192,150758,1,0,0:0:0:0:
320,192,150783,1,0,0:0:0:0:
448,192,150808,1,0,0:0:0:0:
64,192,150833,128,8,151033:0:0:0:0:
192,192,150833,128,0,151033:0:0:0:0:
448,192,150933,1,0,0:0:0:0:
320,192,151033,1,0,0:0:0:0:
448,192,151133,1,0,0:0:0:0:
64,192,151133,128,8,151333:0:0:0:0:
192,192,151133,128,0,151333:0:0:0:0:
320,192,151233,1,0,0:0:0:0:
448,192,151333,1,0,0:0:0:0:
320,192,151433,1,0,0:0:0:0:
192,192,151433,128,0,151533:0:0:0:0:
64,192,151433,128,8,151533:0:0:0:0:
448,192,151533,1,0,0:0:0:0:
320,192,151583,1,0,0:0:0:0:
192,192,151633,1,0,0:0:0:0:
448,192,151633,128,8,151833:0:0:0:0:
64,192,151633,128,0,151833:0:0:0:0:
320,192,151733,1,0,0:0:0:0:
192,192,151833,1,0,0:0:0:0:
320,192,151933,1,0,0:0:0:0:
64,192,151933,128,0,152133:0:0:0:0:
448,192,151933,128,8,152133:0:0:0:0:
192,192,152033,1,0,0:0:0:0:
320,192,152133,1,0,0:0:0:0:
64,192,152233,128,0,152333:0:0:0:0:
448,192,152233,128,8,152333:0:0:0:0:
192,192,152233,1,0,0:0:0:0:
320,192,152333,1,0,0:0:0:0:
64,192,152433,128,8,152583:0:0:0:0:
192,192,152433,128,0,152583:0:0:0:70:bell.wav
448,192,152433,128,0,152583:0:0:0:70:crash.wav
320,192,152633,128,0,152783:0:0:0:0:
448,192,152633,128,0,152783:0:0:0:0:
64,192,152633,128,8,152783:0:0:0:0:
64,192,152833,128,8,152983:0:0:0:0:
192,192,152833,128,0,152983:0:0:0:0:
320,192,152833,128,0,152983:0:0:0:0:
192,192,153033,128,0,153183:0:0:0:0:
320,192,153033,128,0,153183:0:0:0:0:
448,192,153033,128,8,153183:0:0:0:0:
64,192,153233,128,0,153383:0:0:0:0:
192,192,153233,128,0,153383:0:0:0:0:
448,192,153233,128,8,153383:0:0:0:0:
64,192,153433,128,0,153583:0:0:0:0:
320,192,153433,128,0,153583:0:0:0:0:
448,192,153433,128,8,153583:0:0:0:0:
64,192,153633,1,0,0:0:0:0:
320,192,153633,1,0,0:0:0:0:
448,192,153633,1,8,0:0:0:0:
320,192,153733,1,0,0:0:0:0:
448,192,153733,1,8,0:0:0:0:
192,192,153833,1,0,0:0:0:0:
64,192,153833,1,8,0:0:0:0:
64,192,153933,1,8,0:0:0:0:
192,192,153933,1,0,0:0:0:0:
192,192,154033,128,8,154183:0:0:0:0:
320,192,154033,128,0,154183:0:0:0:0:
448,192,154033,128,0,154183:0:0:0:0:
64,192,154233,128,0,154383:0:0:0:0:
192,192,154233,128,8,154383:0:0:0:0:
320,192,154233,128,0,154383:0:0:0:0:
192,192,154433,128,8,154583:0:0:0:0:
64,192,154433,128,0,154583:0:0:0:0:
448,192,154433,128,0,154583:0:0:0:0:
320,192,154633,128,0,154783:0:0:0:0:
448,192,154633,128,8,154783:0:0:0:0:
64,192,154633,128,0,154783:0:0:0:0:
192,192,154833,128,0,154983:0:0:0:0:
320,192,154833,128,0,154983:0:0:0:0:
448,192,154833,128,8,154983:0:0:0:0:
64,192,155033,1,0,0:0:0:0:
320,192,155033,1,0,0:0:0:0:
448,192,155033,1,8,0:0:0:0:
320,192,155133,1,0,0:0:0:0:
448,192,155133,1,8,0:0:0:0:
192,192,155233,128,0,155383:0:0:0:0:
64,192,155233,128,8,155383:0:0:0:0:
320,192,155233,128,0,155383:0:0:0:0:
192,192,155433,1,0,0:0:0:0:
64,192,155433,1,8,0:0:0:0:
448,192,155433,1,0,0:0:0:0:
192,192,155533,1,0,0:0:0:0:
64,192,155533,1,8,0:0:0:0:
448,192,155633,128,0,156433:0:0:0:0:
320,192,155633,128,8,155733:0:0:0:0:
64,192,155833,128,0,155933:0:0:0:0:
192,192,156033,128,0,156133:0:0:0:0:
64,192,156033,1,8,0:0:0:0:
320,192,156233,128,0,156333:0:0:0:0:
64,192,156433,1,0,0:0:0:0:
192,192,156433,1,8,0:0:0:0:
320,192,156433,1,0,0:0:0:0:
448,192,156533,1,0,0:0:0:0:
192,192,156633,1,0,0:0:0:0:
64,192,156833,1,0,0:0:0:0:
448,192,156833,1,0,0:0:0:0:
320,192,156933,1,0,0:0:0:0:
64,192,157033,1,0,0:0:0:0:
192,192,157058,1,0,0:0:0:0:
320,192,157083,1,0,0:0:0:0:
448,192,157108,1,0,0:0:0:0:
64,192,157133,1,0,0:0:0:0:
192,192,157158,1,0,0:0:0:0:
320,192,157183,1,0,0:0:0:0:
448,192,157208,1,0,0:0:0:0:
192,192,157233,1,0,0:0:0:0:
64,192,157233,1,8,0:0:0:0:
320,192,157433,1,0,0:0:0:0:
192,192,157533,1,0,0:0:0:0:
64,192,157633,1,0,0:0:0:0:
448,192,157633,1,0,0:0:0:0:
320,192,157733,1,0,0:0:0:0:
192,192,157833,1,8,0:0:0:0:
64,192,157833,1,0,0:0:0:0:
448,192,157883,1,0,0:0:0:0:
320,192,157933,1,0,0:0:0:0:
192,192,157983,1,0,0:0:0:0:
64,192,158033,1,0,0:0:0:0:
448,192,158033,1,8,0:0:0:0:
320,192,158033,1,0,0:0:0:0:
192,192,158233,1,0,0:0:0:0:
320,192,158333,1,0,0:0:0:0:
448,192,158433,1,0,0:0:0:0:
320,192,158458,1,0,0:0:0:0:
192,192,158483,1,0,0:0:0:0:
64,192,158508,1,0,0:0:0:0:
448,192,158533,1,0,0:0:0:0:
320,192,158633,1,0,0:0:0:0:
192,192,158733,1,0,0:0:0:0:
64,192,158833,1,0,0:0:0:70:crash.wav
320,192,158833,1,0,0:0:0:0:
448,192,158833,1,8,0:0:0:0:
448,192,158933,1,8,0:0:0:0:
192,192,158933,1,0,0:0:0:0:
64,192,159033,1,8,0:0:0:0:
192,192,159033,1,0,0:0:0:0:
320,192,159133,1,8,0:0:0:0:
448,192,159133,1,0,0:0:0:0:
64,192,159233,1,0,0:0:0:0:
320,192,159233,1,8,0:0:0:0:
192,192,159333,1,0,0:0:0:0:
448,192,159333,1,8,0:0:0:0:
64,192,159433,1,0,0:0:0:0:
192,192,159433,1,8,0:0:0:0:
64,192,159533,1,0,0:0:0:0:
448,192,159533,1,8,0:0:0:0:
320,192,159633,1,8,0:0:0:0:
448,192,159633,1,0,0:0:0:0:
64,192,159733,1,0,0:0:0:0:
192,192,159733,1,8,0:0:0:0:
64,192,159833,1,0,0:0:0:0:
320,192,159833,1,8,0:0:0:0:
192,192,159933,1,0,0:0:0:0:
448,192,159933,1,8,0:0:0:0:
64,192,160033,1,4,0:0:0:0:
320,192,160033,128,8,160183:0:0:0:0:
448,192,160033,128,0,160183:0:0:0:0:
320,192,160233,1,0,0:0:0:0:
448,192,160233,1,8,0:0:0:0:
192,192,160233,1,0,0:0:0:0:
448,192,160433,1,0,0:0:0:0:
192,192,160433,1,0,0:0:0:0:
64,192,160433,1,8,0:0:0:0:
64,192,160533,1,8,0:0:0:0:
320,192,160533,1,0,0:0:0:0:
448,192,160633,1,8,0:0:0:0:
320,192,160633,1,0,0:0:0:0:
192,192,160733,1,8,0:0:0:0:
64,192,160733,1,0,0:0:0:0:
448,192,160833,1,0,0:0:0:0:
192,192,160833,1,8,0:0:0:0:
320,192,160933,1,8,0:0:0:0:
64,192,160933,1,0,0:0:0:0:
448,192,161033,1,0,0:0:0:0:
320,192,161033,1,8,0:0:0:0:
448,192,161133,1,0,0:0:0:0:
64,192,161133,1,8,0:0:0:0:
192,192,161233,1,8,0:0:0:0:
64,192,161233,1,0,0:0:0:0:
448,192,161333,1,0,0:0:0:0:
320,192,161333,1,8,0:0:0:0:
448,192,161433,1,0,0:0:0:0:
192,192,161433,1,8,0:0:0:0:
320,192,161533,1,8,0:0:0:0:
64,192,161533,1,0,0:0:0:0:
448,192,161633,1,4,0:0:0:0:
64,192,161633,128,8,161933:0:0:0:0:
192,192,161633,128,0,161933:0:0:0:0:
64,192,162033,128,0,162333:0:0:0:70:crash.wav
320,192,162033,128,0,162633:0:0:0:0:
192,192,162033,128,8,162333:0:0:0:0:
448,192,162033,128,0,162933:0:0:0:0:
192,192,162433,128,0,162633:0:0:0:0:
64,192,162433,128,0,163383:0:0:0:0:
320,192,162733,128,0,162933:0:0:0:0:
192,192,162733,128,0,163983:0:0:0:0:
320,192,163033,128,0,163683:0:0:0:0:
448,192,163033,128,0,163383:0:0:0:0:
64,192,163433,128,0,163683:0:0:0:0:
448,192,163433,128,0,164283:0:0:0:0:
320,192,163733,128,0,164283:0:0:0:0:
64,192,163733,128,0,163983:0:0:0:0:
64,192,164033,128,0,164283:0:0:0:0:
192,192,164033,128,0,164283:0:0:0:0:
64,192,164333,1,0,0:0:0:0:
448,192,164333,1,0,0:0:0:0:
192,192,164533,128,0,164583:0:0:0:0:
320,192,164633,128,0,164733:0:0:0:0:
448,192,164833,128,0,165183:0:0:0:0:
320,192,165233,1,0,0:0:0:70:bell.wav
192,192,165233,1,0,0:0:0:70:crash.wav
448,192,165233,1,0,0:0:0:0:
64,192,165233,1,0,0:0:0:0:
64,192,178033,5,0,0:0:0:0:
448,192,178033,1,0,0:0:0:0:
192,192,178133,1,0,0:0:0:0:
320,192,178233,1,0,0:0:0:0:
448,192,178333,1,0,0:0:0:0:
192,192,178533,1,0,0:0:0:0:
64,192,178633,1,0,0:0:0:0:
320,192,178833,1,0,0:0:0:0:
448,192,179033,1,0,0:0:0:0:
192,192,179233,1,0,0:0:0:0:
64,192,179433,1,0,0:0:0:0:
192,192,179533,1,0,0:0:0:0:
320,192,179583,1,0,0:0:0:0:
448,192,179633,1,0,0:0:0:0:
64,192,179733,1,0,0:0:0:0:
192,192,179933,1,0,0:0:0:0:
320,192,180233,1,0,0:0:0:0:
192,192,180333,1,0,0:0:0:0:
64,192,180433,1,0,0:0:0:0:
448,192,180533,1,0,0:0:0:0:
320,192,180583,1,0,0:0:0:0:
192,192,180633,1,0,0:0:0:0:
64,192,180733,1,0,0:0:0:0:
192,192,180783,1,0,0:0:0:0:
320,192,180833,1,0,0:0:0:0:
192,192,180933,1,0,0:0:0:0:
320,192,180983,1,0,0:0:0:0:
448,192,181033,1,0,0:0:0:0:
64,192,181133,1,0,0:0:0:0:
320,192,181183,1,0,0:0:0:0:
448,192,181233,1,0,0:0:0:0:
192,192,181333,1,0,0:0:0:0:
320,192,181433,1,0,0:0:0:0:
64,192,181533,1,0,0:0:0:0:
448,192,181633,1,0,0:0:0:0:
320,192,181733,1,0,0:0:0:0:
192,192,181833,1,0,0:0:0:0:
64,192,181933,1,0,0:0:0:0:
320,192,182033,1,0,0:0:0:0:
192,192,182233,1,0,0:0:0:0:
64,192,182433,1,0,0:0:0:0:
448,192,182633,1,0,0:0:0:0:
320,192,182683,1,0,0:0:0:0:
192,192,182733,1,0,0:0:0:0:
64,192,182783,1,0,0:0:0:0:
448,192,182833,1,0,0:0:0:0:
320,192,182933,1,0,0:0:0:0:
64,192,183033,1,0,0:0:0:0:
448,192,183133,1,0,0:0:0:0:
192,192,183233,1,0,0:0:0:0:
320,192,183333,1,0,0:0:0:0:
64,192,183433,1,0,0:0:0:0:
448,192,183533,1,0,0:0:0:0:
320,192,183633,1,0,0:0:0:0:
192,192,183733,1,0,0:0:0:0:
320,192,183783,1,0,0:0:0:0:
448,192,183833,1,0,0:0:0:0:
64,192,183933,1,0,0:0:0:0:
320,192,184033,1,0,0:0:0:0:
448,192,184083,1,0,0:0:0:0:
64,192,184133,1,0,0:0:0:0:
192,192,184166,1,0,0:0:0:0:
320,192,184199,1,0,0:0:0:0:
448,192,184233,1,0,0:0:0:0:
192,192,184333,1,0,0:0:0:0:
64,192,184433,1,0,0:0:0:0:
192,192,184533,1,0,0:0:0:0:
320,192,184633,1,0,0:0:0:0:
448,192,184733,1,0,0:0:0:0:
192,192,184933,1,0,0:0:0:0:
64,192,185033,1,0,0:0:0:0:
320,192,185233,1,0,0:0:0:0:
448,192,185433,1,0,0:0:0:0:
192,192,185633,1,0,0:0:0:0:
64,192,185833,1,0,0:0:0:0:
192,192,185933,1,0,0:0:0:0:
320,192,185983,1,0,0:0:0:0:
448,192,186033,1,0,0:0:0:0:
64,192,186133,1,0,0:0:0:0:
192,192,186333,1,0,0:0:0:0:
320,192,186633,1,0,0:0:0:0:
192,192,186733,1,0,0:0:0:0:
64,192,186833,1,0,0:0:0:0:
448,192,186933,1,0,0:0:0:0:
320,192,186983,1,0,0:0:0:0:
192,192,187033,1,0,0:0:0:0:
64,192,187133,1,0,0:0:0:0:
192,192,187183,1,0,0:0:0:0:
320,192,187233,1,0,0:0:0:0:
192,192,187333,1,0,0:0:0:0:
320,192,187383,1,0,0:0:0:0:
448,192,187433,1,0,0:0:0:0:
64,192,187533,1,0,0:0:0:0:
192,192,187583,1,0,0:0:0:0:
448,192,187633,1,0,0:0:0:0:
320,192,187733,1,0,0:0:0:0:
64,192,187833,1,0,0:0:0:0:
192,192,187933,1,0,0:0:0:0:
448,192,188033,1,0,0:0:0:0:
320,192,188133,1,0,0:0:0:0:
192,192,188233,1,0,0:0:0:0:
64,192,188333,1,0,0:0:0:0:
320,192,188433,1,0,0:0:0:0:
192,192,188633,1,0,0:0:0:0:
448,192,188733,1,0,0:0:0:0:
64,192,188833,1,0,0:0:0:0:
192,192,188933,1,0,0:0:0:0:
448,192,189033,1,0,0:0:0:0:
320,192,189133,1,0,0:0:0:0:
192,192,189233,1,0,0:0:0:0:
320,192,189333,1,0,0:0:0:0:
64,192,189433,1,0,0:0:0:0:
448,192,189533,1,0,0:0:0:0:
64,192,189633,1,0,0:0:0:0:
320,192,189733,1,0,0:0:0:0:
64,192,189833,1,0,0:0:0:0:
192,192,189933,1,0,0:0:0:0:
320,192,190033,1,0,0:0:0:0:
64,192,190133,1,0,0:0:0:0:
448,192,190233,1,0,0:0:0:0:
320,192,190283,1,0,0:0:0:0:
192,192,190333,1,0,0:0:0:0:
448,192,190433,1,0,0:0:0:0:
64,192,190533,1,0,0:0:0:0:
192,192,190583,1,0,0:0:0:0:
320,192,190633,1,0,0:0:0:0:
448,192,190733,1,0,0:0:0:0:
64,192,190833,1,0,0:0:0:0:
192,192,190833,1,8,0:0:0:0:
320,192,190833,1,0,0:0:0:0:
192,192,191633,1,8,0:0:0:0:
64,192,191633,1,0,0:0:0:0:
448,192,191633,1,0,0:0:0:0:
64,192,192433,1,0,0:0:0:0:
320,192,192433,1,0,0:0:0:0:
448,192,192433,1,8,0:0:0:0:
192,192,193233,1,0,0:0:0:0:
448,192,193233,1,8,0:0:0:0:
320,192,193233,1,0,0:0:0:0:
448,192,193833,1,0,0:0:0:0:
64,192,193833,1,8,0:0:0:0:
192,192,194033,1,0,0:0:0:0:
64,192,194033,1,0,0:0:0:0:
320,192,194033,1,8,0:0:0:0:
64,192,194633,1,0,0:0:0:0:
192,192,194633,1,8,0:0:0:0:
448,192,194833,1,0,0:0:0:0:
192,192,194833,1,8,0:0:0:0:
320,192,194833,1,0,0:0:0:0:
448,192,195033,1,0,0:0:0:0:
64,192,195033,1,8,0:0:0:0:
192,192,195233,1,0,0:0:0:0:
320,192,195233,1,8,0:0:0:0:
320,192,195633,1,0,0:0:0:0:
64,192,195633,1,0,0:0:0:0:
448,192,195633,1,8,0:0:0:0:
448,192,196433,1,8,0:0:0:0:
192,192,196433,1,0,0:0:0:0:
320,192,196433,1,0,0:0:0:0:
448,192,197233,1,8,0:0:0:0:
64,192,197233,1,0,0:0:0:0:
192,192,197233,1,0,0:0:0:0:
192,192,197833,1,0,0:0:0:0:
64,192,197833,1,8,0:0:0:0:
64,192,198033,1,8,0:0:0:0:
448,192,198033,1,0,0:0:0:0:
320,192,198033,1,0,0:0:0:0:
192,192,198233,1,8,0:0:0:0:
320,192,198233,1,0,0:0:0:0:
64,192,198433,1,0,0:0:0:0:
192,192,198433,1,8,0:0:0:0:
64,192,198833,1,0,0:0:0:0:
448,192,198833,1,8,0:0:0:0:
320,192,198833,1,0,0:0:0:0:
192,192,199633,1,0,0:0:0:0:
320,192,199633,1,0,0:0:0:0:
448,192,199633,1,8,0:0:0:0:
448,192,200233,1,0,0:0:0:0:
192,192,200233,1,8,0:0:0:0:
64,192,200433,1,0,0:0:0:0:
192,192,200433,1,0,0:0:0:0:
320,192,200433,1,8,0:0:0:0:
64,192,201033,1,0,0:0:0:0:
320,192,201033,1,8,0:0:0:0:
448,192,201233,1,8,0:0:0:0:
320,192,201233,1,0,0:0:0:0:
192,192,201233,1,0,0:0:0:0:
192,192,201433,1,8,0:0:0:0:
64,192,201433,1,0,0:0:0:0:
448,192,201633,1,0,0:0:0:0:
320,192,201633,1,8,0:0:0:0:
64,192,202033,1,0,0:0:0:0:
448,192,202033,1,8,0:0:0:0:
320,192,202033,1,0,0:0:0:0:
64,192,202833,1,0,0:0:0:0:
192,192,202833,1,0,0:0:0:0:
320,192,202833,1,0,0:0:0:0:
192,192,203633,1,0,0:0:0:0:
64,192,203633,1,8,0:0:0:0:
448,192,203633,128,0,203733:0:0:0:0:
320,192,203733,128,0,203833:0:0:0:0:
64,192,204033,128,0,204133:0:0:0:0:
448,192,204133,128,0,204233:0:0:0:0:
320,192,204233,128,0,204333:0:0:0:0:
64,192,204333,128,0,204433:0:0:0:0:
192,192,204433,128,0,204533:0:0:0:0:
64,192,204533,128,0,204633:0:0:0:0:
320,192,204633,128,0,204733:0:0:0:0:
448,192,204733,128,0,204833:0:0:0:0:
192,192,205033,128,0,205133:0:0:0:0:
320,192,205133,128,0,205233:0:0:0:0:
448,192,205233,128,0,205333:0:0:0:0:
64,192,205333,128,0,205433:0:0:0:0:
320,192,205433,128,0,205533:0:0:0:0:
192,192,205533,128,0,205733:0:0:0:0:
320,192,205733,128,0,205833:0:0:0:0:
192,192,205833,128,0,205933:0:0:0:0:
64,192,205933,128,0,206033:0:0:0:0:
448,192,206033,1,0,0:0:0:0:
320,192,206133,1,0,0:0:0:0:
64,192,206183,1,0,0:0:0:0:
192,192,206233,1,0,0:0:0:0:
320,192,206283,1,0,0:0:0:0:
448,192,206333,1,0,0:0:0:0:
192,192,206433,1,0,0:0:0:0:
320,192,206483,1,0,0:0:0:0:
64,192,206533,1,0,0:0:0:0:
192,192,206583,1,0,0:0:0:0:
320,192,206633,1,0,0:0:0:0:
192,192,206733,1,0,0:0:0:0:
64,192,206833,128,8,209133:0:0:0:0:
320,192,206833,128,0,209133:0:0:0:70:bell.wav
448,192,206833,128,0,209133:0:0:0:0:
192,192,206833,128,0,209133:0:0:0:0:
64,192,209233,1,8,0:0:0:0:
192,192,209433,1,0,0:0:0:0:
320,192,209633,1,0,0:0:0:0:
448,192,209833,1,0,0:0:0:0:
448,192,210033,128,0,212333:0:0:0:0:
192,192,210033,128,0,212333:0:0:0:0:
320,192,210033,128,0,212333:0:0:0:70:bell.wav
64,192,210033,128,8,212333:0:0:0:0:
64,192,212433,1,0,0:0:0:0:
192,192,212433,1,0,0:0:0:0:
320,192,212433,1,0,0:0:0:0:
448,192,212433,1,0,0:0:0:0:
64,192,212633,1,0,0:0:0:0:
192,192,212633,1,0,0:0:0:0:
320,192,212633,1,0,0:0:0:0:
448,192,212633,1,0,0:0:0:0:
64,192,212833,1,0,0:0:0:0:
192,192,212833,1,0,0:0:0:0:
320,192,212833,1,0,0:0:0:0:
448,192,212833,1,0,0:0:0:0:
64,192,213033,1,0,0:0:0:0:
192,192,213033,1,0,0:0:0:0:
320,192,213033,1,0,0:0:0:0:
448,192,213033,1,0,0:0:0:0:
320,192,213233,128,0,215533:0:0:0:70:bell.wav
64,192,213233,128,8,215533:0:0:0:0:
448,192,213233,128,0,215533:0:0:0:0:
192,192,213233,128,0,215533:0:0:0:0:
64,192,215633,1,0,0:0:0:0:
192,192,215833,1,0,0:0:0:0:
320,192,216033,1,0,0:0:0:0:
448,192,216233,1,0,0:0:0:0:
448,192,216433,128,0,217133:0:0:0:0:
192,192,216433,128,0,217133:0:0:0:0:
320,192,216433,128,0,217133:0:0:0:70:bell.wav
64,192,216433,128,8,217133:0:0:0:0:
64,192,217233,128,8,217933:0:0:0:0:
320,192,217233,128,0,217933:0:0:0:70:bell.wav
192,192,217233,128,0,217933:0:0:0:0:
448,192,217233,128,0,217933:0:0:0:0:
192,192,218033,128,0,218733:0:0:0:0:
448,192,218033,128,0,218733:0:0:0:0:
64,192,218033,128,8,218733:0:0:0:0:
320,192,218033,128,0,218733:0:0:0:70:bell.wav
64,192,218833,1,8,0:0:0:0:
192,192,218833,1,0,0:0:0:0:
448,192,218833,1,0,0:0:0:0:
320,192,218833,1,0,0:0:0:70:bell.wav
64,192,218933,1,8,0:0:0:0:
192,192,218933,1,0,0:0:0:0:
320,192,218983,1,0,0:0:0:0:
64,192,219033,1,8,0:0:0:0:
448,192,219033,1,0,0:0:0:0:
192,192,219083,1,0,0:0:0:0:
320,192,219133,1,0,0:0:0:0:
448,192,219133,1,8,0:0:0:0:
320,192,219233,1,0,0:0:0:0:
448,192,219233,1,8,0:0:0:0:
192,192,219283,1,0,0:0:0:0:
64,192,219333,1,0,0:0:0:0:
448,192,219333,1,8,0:0:0:0:
320,192,219383,1,0,0:0:0:0:
192,192,219433,1,8,0:0:0:0:
64,192,219433,1,0,0:0:0:0:
320,192,219533,1,0,0:0:0:0:
64,192,219633,1,0,0:0:0:70:crash.wav
192,192,219633,1,8,0:0:0:0:
448,192,219633,1,0,0:0:0:70:bell.wav
192,192,219733,1,0,0:0:0:0:
320,192,219833,1,0,0:0:0:0:
64,192,219833,1,0,0:0:0:0:
448,192,219833,1,8,0:0:0:0:
320,192,219933,1,0,0:0:0:0:
448,192,220033,1,8,0:0:0:0:
64,192,220033,1,0,0:0:0:0:
192,192,220033,1,0,0:0:0:0:
192,192,220133,1,0,0:0:0:0:
64,192,220233,1,0,0:0:0:0:
320,192,220233,1,0,0:0:0:0:
448,192,220233,1,8,0:0:0:0:
320,192,220333,1,0,0:0:0:0:
64,192,220433,1,0,0:0:0:0:
192,192,220433,1,0,0:0:0:0:
448,192,220433,1,8,0:0:0:0:
64,192,220533,1,0,0:0:0:0:
448,192,220633,1,8,0:0:0:0:
320,192,220633,1,0,0:0:0:0:
192,192,220633,1,0,0:0:0:0:
448,192,220733,1,0,0:0:0:0:
192,192,220833,1,0,0:0:0:0:
64,192,220833,1,8,0:0:0:0:
320,192,220833,1,0,0:0:0:0:
320,192,220933,1,0,0:0:0:0:
64,192,221033,1,8,0:0:0:0:
192,192,221033,1,0,0:0:0:0:
448,192,221033,1,0,0:0:0:0:
192,192,221133,1,0,0:0:0:0:
64,192,221233,1,8,0:0:0:0:
448,192,221233,1,0,0:0:0:0:
320,192,221233,1,0,0:0:0:0:
64,192,221433,1,0,0:0:0:0:
192,192,221433,1,0,0:0:0:0:
448,192,221483,1,0,0:0:0:0:
320,192,221483,1,0,0:0:0:0:
64,192,221533,1,0,0:0:0:0:
192,192,221533,1,0,0:0:0:0:
320,192,221583,1,0,0:0:0:0:
448,192,221583,1,0,0:0:0:0:
64,192,221633,1,0,0:0:0:0:
192,192,221633,1,8,0:0:0:0:
448,192,221833,1,0,0:0:0:0:
320,192,221833,1,0,0:0:0:0:
64,192,221883,1,0,0:0:0:0:
192,192,221883,1,0,0:0:0:0:
448,192,221933,1,0,0:0:0:0:
320,192,221933,1,0,0:0:0:0:
64,192,221983,1,0,0:0:0:0:
192,192,221983,1,0,0:0:0:0:
448,192,222033,1,0,0:0:0:0:
320,192,222033,1,8,0:0:0:0:
192,192,222133,1,0,0:0:0:0:
64,192,222133,1,0,0:0:0:0:
320,192,222183,1,0,0:0:0:0:
448,192,222183,1,0,0:0:0:0:
64,192,222233,1,0,0:0:0:0:
192,192,222233,1,0,0:0:0:0:
192,192,222333,1,0,0:0:0:0:
320,192,222333,1,0,0:0:0:0:
320,192,222383,1,0,0:0:0:0:
448,192,222383,1,0,0:0:0:0:
64,192,222433,1,0,0:0:0:0:
192,192,222433,1,8,0:0:0:0:
448,192,222533,1,0,0:0:0:0:
192,192,222633,1,0,0:0:0:0:
320,192,222733,1,0,0:0:0:0:
448,192,222833,1,8,0:0:0:0:
64,192,222833,1,0,0:0:0:0:
192,192,222833,1,0,0:0:0:0:
192,192,222933,1,0,0:0:0:0:
448,192,223033,1,8,0:0:0:0:
320,192,223033,1,0,0:0:0:0:
64,192,223033,1,0,0:0:0:0:
320,192,223133,1,0,0:0:0:0:
448,192,223233,1,8,0:0:0:0:
64,192,223233,1,0,0:0:0:0:
192,192,223233,1,0,0:0:0:0:
192,192,223333,1,0,0:0:0:0:
64,192,223433,1,0,0:0:0:0:
320,192,223433,1,0,0:0:0:0:
448,192,223433,1,8,0:0:0:0:
320,192,223533,1,0,0:0:0:0:
64,192,223633,1,0,0:0:0:0:
192,192,223633,1,0,0:0:0:0:
448,192,223633,1,8,0:0:0:0:
64,192,223733,1,0,0:0:0:0:
448,192,223833,1,8,0:0:0:0:
320,192,223833,1,0,0:0:0:0:
192,192,223833,1,0,0:0:0:0:
448,192,223933,1,0,0:0:0:0:
192,192,224033,1,0,0:0:0:0:
64,192,224033,1,8,0:0:0:0:
320,192,224033,1,0,0:0:0:0:
320,192,224133,1,0,0:0:0:0:
64,192,224233,1,8,0:0:0:0:
192,192,224233,1,0,0:0:0:0:
448,192,224233,1,0,0:0:0:0:
192,192,224333,1,0,0:0:0:0:
448,192,224433,1,0,0:0:0:0:
320,192,224433,1,0,0:0:0:0:
192,192,224483,1,0,0:0:0:0:
64,192,224483,1,0,0:0:0:0:
448,192,224533,1,0,0:0:0:0:
320,192,224533,1,0,0:0:0:0:
320,192,224633,1,8,0:0:0:0:
192,192,224633,1,0,0:0:0:0:
192,192,224733,1,0,0:0:0:0:
64,192,224733,1,0,0:0:0:0:
448,192,224783,1,0,0:0:0:0:
320,192,224783,1,0,0:0:0:0:
64,192,224833,1,0,0:0:0:0:
192,192,224833,1,0,0:0:0:0:
448,192,224933,1,0,0:0:0:0:
64,192,224933,1,8,0:0:0:0:
448,192,225033,1,0,0:0:0:0:
320,192,225033,1,0,0:0:0:0:
64,192,225083,1,0,0:0:0:0:
192,192,225083,1,0,0:0:0:0:
320,192,225133,1,0,0:0:0:0:
448,192,225133,1,0,0:0:0:0:
64,192,225183,1,0,0:0:0:0:
192,192,225183,1,0,0:0:0:0:
448,192,225233,1,0,0:0:0:0:
320,192,225233,1,8,0:0:0:0:
64,192,225333,1,0,0:0:0:0:
192,192,225383,1,0,0:0:0:0:
448,192,225433,1,8,0:0:0:0:
320,192,225433,1,0,0:0:0:0:
64,192,225433,1,0,0:0:0:0:
320,192,225533,1,0,0:0:0:0:
192,192,225583,1,0,0:0:0:0:
448,192,225633,1,8,0:0:0:0:
64,192,225633,1,0,0:0:0:0:
320,192,225633,1,0,0:0:0:0:
192,192,225733,1,0,0:0:0:0:
448,192,225833,1,0,0:0:0:0:
192,192,225933,1,0,0:0:0:0:
448,192,226033,1,4,0:0:0:0:
320,192,226033,1,8,0:0:0:0:
64,192,226033,1,0,0:0:0:0:
448,192,226233,1,4,0:0:0:0:
320,192,226233,1,0,0:0:0:0:
448,192,226433,1,4,0:0:0:0:
320,192,226433,1,0,0:0:0:0:
448,192,226633,1,4,0:0:0:0:
320,192,226633,1,0,0:0:0:0:
320,192,226833,1,0,0:0:0:0:
448,192,226833,1,4,0:0:0:0:
448,192,227033,1,4,0:0:0:0:
320,192,227033,1,0,0:0:0:0:
448,192,227233,1,4,0:0:0:0:
320,192,227233,1,0,0:0:0:0:
64,192,227333,1,0,0:0:0:0:
192,192,227333,1,8,0:0:0:0:
320,192,227333,1,4,0:0:0:0:
448,192,227633,1,0,0:0:0:0:
192,192,227633,1,4,0:0:0:0:
64,192,227633,1,8,0:0:0:0:
64,192,227833,1,4,0:0:0:0:
192,192,227833,1,0,0:0:0:0:
192,192,228033,1,0,0:0:0:0:
64,192,228033,1,4,0:0:0:0:
64,192,228233,1,4,0:0:0:0:
192,192,228233,1,0,0:0:0:0:
64,192,228433,1,4,0:0:0:0:
192,192,228433,1,0,0:0:0:0:
192,192,228633,1,0,0:0:0:0:
64,192,228633,1,4,0:0:0:0:
192,192,228833,1,0,0:0:0:0:
64,192,228833,1,4,0:0:0:0:
448,192,228933,1,0,0:0:0:0:
320,192,228933,1,8,0:0:0:0:
192,192,228933,1,4,0:0:0:0:
320,192,229233,1,0,0:0:0:0:
448,192,229233,1,8,0:0:0:0:
64,192,229233,1,4,0:0:0:0:
192,192,229333,1,4,0:0:0:0:
320,192,229433,1,4,0:0:0:0:
448,192,229533,1,4,0:0:0:0:
64,192,229633,1,0,0:0:0:0:
192,192,229633,1,4,0:0:0:0:
320,192,229633,1,8,0:0:0:0:
448,192,229733,1,4,0:0:0:0:
320,192,229833,1,4,0:0:0:0:
192,192,229933,1,4,0:0:0:0:
320,192,230033,1,8,0:0:0:0:
448,192,230033,1,0,0:0:0:0:
64,192,230033,1,4,0:0:0:0:
192,192,230133,1,4,0:0:0:0:
320,192,230233,1,4,0:0:0:0:
448,192,230333,1,4,0:0:0:0:
320,192,230433,1,8,0:0:0:0:
192,192,230433,1,4,0:0:0:0:
64,192,230433,1,0,0:0:0:0:
448,192,230533,1,4,0:0:0:0:
320,192,230633,1,4,0:0:0:0:
192,192,230733,1,4,0:0:0:0:
448,192,230833,1,8,0:0:0:0:
320,192,230833,1,0,0:0:0:0:
64,192,230833,1,0,0:0:0:0:
448,192,230933,1,8,0:0:0:0:
320,192,230933,1,0,0:0:0:0:
64,192,231033,1,0,0:0:0:0:
192,192,231033,1,0,0:0:0:0:
192,192,231133,1,0,0:0:0:0:
64,192,231133,1,0,0:0:0:0:
448,192,231233,1,0,0:0:0:0:
320,192,231233,1,0,0:0:0:0:
320,192,231333,1,0,0:0:0:0:
64,192,231333,1,0,0:0:0:0:
448,192,231433,1,0,0:0:0:0:
64,192,231433,1,0,0:0:0:0:
320,192,231533,1,0,0:0:0:0:
448,192,231533,1,0,0:0:0:0:
192,192,231633,1,0,0:0:0:0:
64,192,231633,1,0,0:0:0:0:
448,192,231683,1,0,0:0:0:0:
320,192,231683,1,0,0:0:0:0:
64,192,231733,1,0,0:0:0:0:
192,192,231733,1,0,0:0:0:0:
448,192,231783,1,0,0:0:0:0:
320,192,231783,1,0,0:0:0:0:
64,192,231833,1,0,0:0:0:0:
192,192,231833,1,0,0:0:0:0:
448,192,231883,1,0,0:0:0:0:
320,192,231883,1,0,0:0:0:0:
64,192,231933,1,0,0:0:0:0:
192,192,231933,1,0,0:0:0:0:
320,192,231983,1,0,0:0:0:0:
448,192,231983,1,0,0:0:0:0:
64,192,232033,1,0,0:0:0:0:
192,192,232058,1,0,0:0:0:0:
320,192,232083,1,0,0:0:0:0:
448,192,232108,1,0,0:0:0:0:
64,192,232133,1,0,0:0:0:0:
192,192,232158,1,0,0:0:0:0:
320,192,232183,1,0,0:0:0:0:
448,192,232208,1,0,0:0:0:0:
64,192,232233,1,0,0:0:0:0:
192,192,232258,1,0,0:0:0:0:
320,192,232283,1,0,0:0:0:0:
448,192,232308,1,0,0:0:0:0:
64,192,232333,1,0,0:0:0:0:
192,192,232358,1,0,0:0:0:0:
320,192,232383,1,0,0:0:0:0:
448,192,232408,1,0,0:0:0:0:
64,192,232433,1,8,0:0:0:0:
192,192,232433,1,0,0:0:0:0:
448,192,232833,1,0,0:0:0:0:
320,192,232899,1,0,0:0:0:0:
192,192,232966,1,0,0:0:0:0:
448,192,233033,1,0,0:0:0:0:
320,192,233083,1,0,0:0:0:0:
192,192,233133,1,0,0:0:0:0:
64,192,233183,1,0,0:0:0:0:
448,192,233233,1,0,0:0:0:0:
320,192,233283,1,0,0:0:0:0:
192,192,233333,1,0,0:0:0:0:
64,192,233383,1,0,0:0:0:0:
448,192,233433,1,0,0:0:0:0:
320,192,233499,1,0,0:0:0:0:
192,192,233566,1,0,0:0:0:0:
448,192,233633,1,0,0:0:0:0:
320,192,233699,1,0,0:0:0:0:
192,192,233766,1,0,0:0:0:0:
448,192,233833,1,0,0:0:0:0:
320,192,233899,1,0,0:0:0:0:
64,192,233966,1,0,0:0:0:0:
448,192,234033,1,0,0:0:0:0:
320,192,234099,1,0,0:0:0:0:
192,192,234166,1,0,0:0:0:0:
448,192,234233,1,0,0:0:0:0:
192,192,234299,1,0,0:0:0:0:
64,192,234366,1,0,0:0:0:0:
448,192,234433,1,0,0:0:0:0:
320,192,234499,1,0,0:0:0:0:
64,192,234566,1,0,0:0:0:0:
192,192,234633,1,0,0:0:0:0:
320,192,234699,1,0,0:0:0:0:
448,192,234766,1,0,0:0:0:0:
64,192,234833,1,0,0:0:0:0:
192,192,234899,1,0,0:0:0:0:
448,192,234966,1,0,0:0:0:0:
320,192,235033,1,0,0:0:0:0:
192,192,235099,1,0,0:0:0:0:
64,192,235166,1,0,0:0:0:0:
448,192,235233,1,0,0:0:0:0:
320,192,235299,1,0,0:0:0:0:
64,192,235366,1,0,0:0:0:0:
192,192,235433,1,0,0:0:0:0:
320,192,235499,1,0,0:0:0:0:
448,192,235566,1,0,0:0:0:0:
64,192,235633,1,8,0:0:0:0:
192,192,235633,1,0,0:0:0:0:
64,192,235733,1,8,0:0:0:0:
192,192,235733,1,0,0:0:0:0:
192,192,235833,1,0,0:0:0:0:
64,192,235833,1,8,0:0:0:0:
64,192,235933,1,8,0:0:0:0:
192,192,235933,1,0,0:0:0:0:
320,192,236033,1,0,0:0:0:0:
448,192,236033,1,8,0:0:0:0:
320,192,236133,1,0,0:0:0:0:
448,192,236133,1,8,0:0:0:0:
320,192,236233,1,0,0:0:0:0:
448,192,236233,1,8,0:0:0:0:
320,192,236333,1,0,0:0:0:0:
448,192,236333,1,8,0:0:0:0:
64,192,236433,1,0,0:0:0:0:
192,192,236483,1,0,0:0:0:0:
320,192,236533,1,0,0:0:0:0:
448,192,236583,1,0,0:0:0:0:
64,192,236633,1,0,0:0:0:0:
192,192,236683,1,0,0:0:0:0:
320,192,236733,1,0,0:0:0:0:
448,192,236783,1,0,0:0:0:0:
64,192,236833,1,0,0:0:0:0:
192,192,236858,1,0,0:0:0:0:
320,192,236883,1,0,0:0:0:0:
448,192,236908,1,0,0:0:0:0:
64,192,236933,1,0,0:0:0:0:
192,192,236958,1,0,0:0:0:0:
320,192,236983,1,0,0:0:0:0:
448,192,237008,1,0,0:0:0:0:
64,192,237033,1,0,0:0:0:0:
192,192,237058,1,0,0:0:0:0:
320,192,237083,1,0,0:0:0:0:
448,192,237108,1,0,0:0:0:0:
64,192,237133,1,0,0:0:0:0:
192,192,237158,1,0,0:0:0:0:
320,192,237183,1,0,0:0:0:0:
448,192,237208,1,0,0:0:0:0:
64,192,237233,128,0,238133:0:0:0:0:
64,192,238233,1,0,0:0:0:0:
64,192,238383,128,0,238633:0:0:0:0:
320,192,238383,128,0,238633:0:0:0:0:
448,192,238383,128,0,238633:0:0:0:0:
64,192,238833,1,0,0:0:0:70:bell.wav
192,192,238833,1,0,0:0:0:70:crash.wav
448,192,238833,1,8,0:0:0:0:
64,192,238933,1,0,0:0:0:0:
320,192,238933,1,8,0:0:0:0:
448,192,239033,1,8,0:0:0:0:
192,192,239033,1,0,0:0:0:0:
320,192,239033,1,0,0:0:0:0:
64,192,239133,1,0,0:0:0:0:
448,192,239133,1,8,0:0:0:0:
64,192,239233,1,0,0:0:0:0:
192,192,239233,1,0,0:0:0:0:
320,192,239233,1,8,0:0:0:0:
192,192,239333,1,0,0:0:0:0:
448,192,239333,1,8,0:0:0:0:
320,192,239433,1,0,0:0:0:0:
448,192,239433,1,0,0:0:0:0:
192,192,239483,1,0,0:0:0:0:
64,192,239483,1,0,0:0:0:0:
320,192,239533,1,0,0:0:0:0:
448,192,239533,1,0,0:0:0:0:
192,192,239583,1,0,0:0:0:0:
64,192,239583,1,0,0:0:0:0:
320,192,239633,1,8,0:0:0:0:
448,192,239633,1,0,0:0:0:0:
192,192,239733,1,8,0:0:0:0:
64,192,239733,1,0,0:0:0:0:
64,192,239833,1,0,0:0:0:0:
320,192,239833,1,8,0:0:0:0:
448,192,239833,1,0,0:0:0:0:
192,192,239933,1,8,0:0:0:0:
448,192,239933,1,0,0:0:0:0:
64,192,240033,1,0,0:0:0:0:
192,192,240033,1,0,0:0:0:0:
320,192,240033,1,8,0:0:0:0:
64,192,240133,1,0,0:0:0:0:
448,192,240133,1,0,0:0:0:0:
192,192,240183,1,0,0:0:0:0:
320,192,240183,1,0,0:0:0:0:
64,192,240233,1,0,0:0:0:0:
448,192,240233,1,0,0:0:0:0:
64,192,240333,1,0,0:0:0:0:
192,192,240333,1,0,0:0:0:0:
320,192,240383,1,0,0:0:0:0:
448,192,240383,1,0,0:0:0:0:
192,192,240433,1,8,0:0:0:0:
64,192,240433,1,0,0:0:0:0:
320,192,240533,1,8,0:0:0:0:
448,192,240533,1,0,0:0:0:0:
64,192,240633,1,0,0:0:0:0:
192,192,240633,1,8,0:0:0:0:
320,192,240633,1,0,0:0:0:0:
192,192,240733,1,8,0:0:0:0:
64,192,240733,1,0,0:0:0:0:
64,192,240833,1,0,0:0:0:0:
320,192,240833,1,8,0:0:0:0:
448,192,240833,1,0,0:0:0:0:
192,192,240933,1,8,0:0:0:0:
448,192,240933,1,0,0:0:0:0:
192,192,241033,1,0,0:0:0:0:
64,192,241033,1,0,0:0:0:0:
320,192,241083,1,0,0:0:0:0:
448,192,241083,1,0,0:0:0:0:
192,192,241133,1,0,0:0:0:0:
64,192,241133,1,0,0:0:0:0:
320,192,241183,1,0,0:0:0:0:
448,192,241183,1,0,0:0:0:0:
192,192,241233,1,8,0:0:0:0:
64,192,241233,1,0,0:0:0:0:
320,192,241333,1,0,0:0:0:0:
448,192,241333,1,0,0:0:0:0:
192,192,241383,1,0,0:0:0:0:
64,192,241383,1,0,0:0:0:0:
320,192,241433,1,8,0:0:0:0:
448,192,241433,1,0,0:0:0:0:
64,192,241533,1,0,0:0:0:0:
192,192,241533,1,0,0:0:0:0:
320,192,241583,1,0,0:0:0:0:
448,192,241583,1,0,0:0:0:0:
64,192,241633,1,0,0:0:0:0:
192,192,241633,1,0,0:0:0:0:
320,192,241683,1,0,0:0:0:0:
448,192,241683,1,0,0:0:0:0:
192,192,241733,1,0,0:0:0:0:
64,192,241733,1,0,0:0:0:0:
320,192,241783,1,0,0:0:0:0:
448,192,241783,1,0,0:0:0:0:
192,192,241833,1,8,0:0:0:0:
64,192,241833,1,0,0:0:0:0:
320,192,241933,1,0,0:0:0:0:
64,192,242033,1,0,0:0:0:0:
448,192,242033,1,0,0:0:0:0:
320,192,242083,1,0,0:0:0:0:
192,192,242083,1,0,0:0:0:0:
64,192,242133,1,0,0:0:0:0:
448,192,242133,1,0,0:0:0:0:
320,192,242233,1,8,0:0:0:0:
192,192,242233,1,0,0:0:0:0:
64,192,242333,1,0,0:0:0:0:
448,192,242333,1,8,0:0:0:0:
192,192,242433,1,0,0:0:0:0:
320,192,242433,1,0,0:0:0:0:
448,192,242433,1,8,0:0:0:0:
192,192,242533,1,8,0:0:0:0:
64,192,242533,1,0,0:0:0:0:
320,192,242633,1,0,0:0:0:0:
448,192,242633,1,0,0:0:0:0:
64,192,242683,1,0,0:0:0:0:
192,192,242683,1,0,0:0:0:0:
320,192,242733,1,0,0:0:0:0:
448,192,242733,1,0,0:0:0:0:
192,192,242783,1,0,0:0:0:0:
64,192,242783,1,0,0:0:0:0:
320,192,242833,1,8,0:0:0:0:
448,192,242833,1,0,0:0:0:0:
192,192,242933,1,8,0:0:0:0:
320,192,242933,1,0,0:0:0:0:
192,192,243033,1,8,0:0:0:0:
64,192,243033,1,0,0:0:0:0:
448,192,243033,1,0,0:0:0:0:
64,192,243133,1,0,0:0:0:0:
320,192,243133,1,8,0:0:0:0:
192,192,243233,1,8,0:0:0:0:
448,192,243233,1,0,0:0:0:0:
320,192,243233,1,0,0:0:0:0:
64,192,243333,1,0,0:0:0:0:
448,192,243333,1,0,0:0:0:0:
192,192,243383,1,0,0:0:0:0:
320,192,243383,1,0,0:0:0:0:
64,192,243433,1,8,0:0:0:0:
448,192,243433,1,0,0:0:0:0:
192,192,243483,1,8,0:0:0:0:
320,192,243533,1,8,0:0:0:0:
448,192,243583,1,8,0:0:0:0:
64,192,243633,1,0,0:0:0:0:
192,192,243633,1,0,0:0:0:0:
320,192,243683,1,0,0:0:0:0:
448,192,243683,1,0,0:0:0:0:
192,192,243733,1,0,0:0:0:0:
64,192,243733,1,0,0:0:0:0:
320,192,243833,1,0,0:0:0:0:
448,192,243833,1,0,0:0:0:0:
64,192,243883,1,0,0:0:0:0:
192,192,243883,1,0,0:0:0:0:
320,192,243933,1,0,0:0:0:0:
448,192,243933,1,0,0:0:0:0:
320,192,244033,1,0,0:0:0:0:
192,192,244033,1,0,0:0:0:0:
64,192,244083,1,0,0:0:0:0:
448,192,244083,1,0,0:0:0:0:
320,192,244133,1,0,0:0:0:0:
192,192,244133,1,0,0:0:0:0:
448,192,244233,1,0,0:0:0:0:
320,192,244233,1,0,0:0:0:0:
64,192,244283,1,0,0:0:0:0:
192,192,244283,1,0,0:0:0:0:
448,192,244333,1,0,0:0:0:0:
320,192,244333,1,0,0:0:0:0:
192,192,244383,1,0,0:0:0:0:
64,192,244383,1,0,0:0:0:0:
320,192,244433,1,8,0:0:0:0:
448,192,244433,1,0,0:0:0:0:
64,192,244533,1,0,0:0:0:0:
192,192,244533,1,8,0:0:0:0:
64,192,244633,1,0,0:0:0:0:
320,192,244633,1,8,0:0:0:0:
448,192,244633,1,0,0:0:0:0:
448,192,244733,1,0,0:0:0:0:
192,192,244733,1,0,0:0:0:0:
64,192,244833,1,4,0:0:0:0:
320,192,244833,1,0,0:0:0:0:
448,192,244899,1,0,0:0:0:0:
192,192,244899,1,4,0:0:0:0:
64,192,244966,1,4,0:0:0:0:
320,192,244966,1,0,0:0:0:0:
448,192,245033,1,0,0:0:0:0:
192,192,245033,1,4,0:0:0:0:
64,192,245099,1,4,0:0:0:0:
320,192,245099,1,0,0:0:0:0:
448,192,245166,1,0,0:0:0:0:
192,192,245166,1,4,0:0:0:0:
320,192,245233,1,8,0:0:0:0:
64,192,245233,1,4,0:0:0:0:
192,192,245333,1,8,0:0:0:0:
64,192,245333,1,0,0:0:0:0:
320,192,245433,1,8,0:0:0:0:
448,192,245433,1,0,0:0:0:0:
192,192,245433,1,0,0:0:0:0:
320,192,245533,1,8,0:0:0:0:
448,192,245533,1,0,0:0:0:0:
64,192,245633,1,0,0:0:0:0:
192,192,245633,1,0,0:0:0:0:
320,192,245633,1,8,0:0:0:0:
64,192,245733,1,0,0:0:0:0:
448,192,245733,1,8,0:0:0:0:
320,192,245833,1,0,0:0:0:0:
448,192,245833,1,0,0:0:0:0:
192,192,245883,1,0,0:0:0:0:
64,192,245883,1,0,0:0:0:0:
320,192,245933,1,0,0:0:0:0:
448,192,245933,1,0,0:0:0:0:
192,192,245983,1,0,0:0:0:0:
64,192,245983,1,0,0:0:0:0:
320,192,246033,1,0,0:0:0:0:
448,192,246033,1,8,0:0:0:0:
64,192,246133,1,0,0:0:0:0:
192,192,246133,1,8,0:0:0:0:
64,192,246233,1,0,0:0:0:0:
320,192,246233,1,8,0:0:0:0:
448,192,246233,1,0,0:0:0:0:
192,192,246333,1,8,0:0:0:0:
448,192,246333,1,0,0:0:0:0:
320,192,246433,1,8,0:0:0:0:
64,192,246433,1,0,0:0:0:0:
192,192,246433,1,0,0:0:0:0:
64,192,246533,1,0,0:0:0:0:
448,192,246533,1,0,0:0:0:0:
192,192,246583,1,0,0:0:0:0:
320,192,246583,1,0,0:0:0:0:
64,192,246633,1,0,0:0:0:0:
448,192,246633,1,8,0:0:0:0:
320,192,246683,1,8,0:0:0:0:
192,192,246733,1,8,0:0:0:0:
64,192,246733,1,0,0:0:0:0:
320,192,246783,1,8,0:0:0:0:
448,192,246833,1,0,0:0:0:0:
192,192,246833,1,8,0:0:0:0:
64,192,246833,1,0,0:0:0:0:
320,192,246933,1,8,0:0:0:0:
64,192,246933,1,0,0:0:0:0:
64,192,247033,1,0,0:0:0:0:
192,192,247033,1,8,0:0:0:0:
448,192,247033,1,0,0:0:0:0:
320,192,247133,1,0,0:0:0:0:
448,192,247133,1,8,0:0:0:0:
320,192,247233,1,8,0:0:0:0:
64,192,247233,1,0,0:0:0:0:
192,192,247233,1,0,0:0:0:0:
64,192,247333,1,0,0:0:0:0:
448,192,247333,1,8,0:0:0:0:
448,192,247433,1,0,0:0:0:0:
320,192,247433,1,0,0:0:0:0:
192,192,247483,1,0,0:0:0:0:
64,192,247483,1,0,0:0:0:0:
320,192,247533,1,0,0:0:0:0:
448,192,247533,1,0,0:0:0:0:
192,192,247583,1,0,0:0:0:0:
64,192,247583,1,0,0:0:0:0:
320,192,247633,1,8,0:0:0:0:
448,192,247633,1,0,0:0:0:0:
64,192,247733,1,0,0:0:0:0:
192,192,247733,1,0,0:0:0:0:
320,192,247783,1,0,0:0:0:0:
448,192,247783,1,0,0:0:0:0:
192,192,247833,1,0,0:0:0:0:
64,192,247833,1,0,0:0:0:0:
192,192,247933,1,0,0:0:0:0:
320,192,247933,1,0,0:0:0:0:
64,192,247983,1,0,0:0:0:0:
448,192,247983,1,0,0:0:0:0:
192,192,248033,1,0,0:0:0:0:
320,192,248033,1,0,0:0:0:0:
64,192,248083,1,0,0:0:0:0:
448,192,248083,1,0,0:0:0:0:
192,192,248133,1,0,0:0:0:0:
320,192,248133,1,0,0:0:0:0:
64,192,248183,1,0,0:0:0:0:
448,192,248183,1,0,0:0:0:0:
192,192,248233,1,8,0:0:0:0:
320,192,248233,1,0,0:0:0:0:
64,192,248333,1,0,0:0:0:0:
320,192,248433,1,0,0:0:0:0:
448,192,248433,1,0,0:0:0:0:
192,192,248433,1,8,0:0:0:0:
192,192,248533,1,8,0:0:0:0:
64,192,248533,1,0,0:0:0:0:
448,192,248533,1,0,0:0:0:0:
64,192,248733,1,0,0:0:0:0:
192,192,248733,1,0,0:0:0:0:
448,192,248733,1,8,0:0:0:0:
320,192,248733,1,0,0:0:0:0:
64,192,248933,1,0,0:0:0:0:
448,192,248933,1,0,0:0:0:0:
192,192,248983,1,0,0:0:0:0:
320,192,248983,1,0,0:0:0:0:
64,192,249033,1,0,0:0:0:0:
448,192,249033,1,0,0:0:0:0:
192,192,249083,1,0,0:0:0:0:
320,192,249083,1,0,0:0:0:0:
64,192,249133,1,0,0:0:0:0:
448,192,249133,1,0,0:0:0:0:
192,192,249183,1,0,0:0:0:0:
320,192,249233,1,0,0:0:0:0:
64,192,249233,1,0,0:0:0:0:
448,192,249233,1,8,0:0:0:0:
192,192,249333,1,0,0:0:0:0:
448,192,249333,1,8,0:0:0:0:
64,192,249333,1,0,0:0:0:0:
64,192,249533,1,0,0:0:0:0:
320,192,249533,1,0,0:0:0:0:
448,192,249533,1,8,0:0:0:0:
192,192,249533,1,0,0:0:0:0:
64,192,249733,1,0,0:0:0:0:
192,192,249733,1,0,0:0:0:0:
320,192,249783,1,0,0:0:0:0:
448,192,249783,1,0,0:0:0:0:
192,192,249833,1,0,0:0:0:0:
64,192,249833,1,0,0:0:0:0:
320,192,249883,1,0,0:0:0:0:
448,192,249883,1,0,0:0:0:0:
192,192,249933,1,0,0:0:0:0:
64,192,249933,1,0,0:0:0:0:
320,192,249983,1,0,0:0:0:0:
448,192,249983,1,0,0:0:0:0:
192,192,250033,1,8,0:0:0:0:
64,192,250033,1,0,0:0:0:0:
320,192,250133,1,8,0:0:0:0:
448,192,250133,1,0,0:0:0:0:
64,192,250333,1,0,0:0:0:0:
192,192,250383,1,0,0:0:0:0:
448,192,250433,1,0,0:0:0:0:
320,192,250533,1,0,0:0:0:0:
192,192,250633,1,0,0:0:0:0:
64,192,250733,1,0,0:0:0:0:
320,192,250833,1,0,0:0:0:0:
448,192,250833,1,8,0:0:0:0:
64,192,251033,1,0,0:0:0:0:
192,192,251033,1,0,0:0:0:0:
320,192,251033,1,8,0:0:0:0:
64,192,251133,1,0,0:0:0:0:
192,192,251133,1,0,0:0:0:0:
448,192,251133,1,8,0:0:0:0:
192,192,251333,1,8,0:0:0:0:
320,192,251333,1,0,0:0:0:0:
448,192,251333,1,0,0:0:0:0:
320,192,251433,1,0,0:0:0:0:
448,192,251433,1,0,0:0:0:0:
64,192,251433,1,8,0:0:0:0:
64,192,251633,1,0,0:0:0:70:bell.wav
192,192,251633,1,8,0:0:0:0:
448,192,251633,1,0,0:0:0:70:crash.wav
320,192,251633,1,0,0:0:0:0:
192,192,251733,1,0,0:0:0:0:
64,192,251733,1,8,0:0:0:0:
64,192,251833,1,8,0:0:0:0:
192,192,251833,1,0,0:0:0:0:
64,192,251933,1,8,0:0:0:0:
192,192,251933,1,0,0:0:0:0:
320,192,252033,1,0,0:0:0:0:
448,192,252033,1,8,0:0:0:0:
320,192,252133,1,0,0:0:0:0:
448,192,252133,1,8,0:0:0:0:
320,192,252233,1,0,0:0:0:0:
448,192,252233,1,0,0:0:0:0:
192,192,252283,1,0,0:0:0:0:
64,192,252283,1,0,0:0:0:0:
320,192,252333,1,0,0:0:0:0:
448,192,252333,1,0,0:0:0:0:
192,192,252383,1,0,0:0:0:0:
64,192,252383,1,0,0:0:0:0:
320,192,252433,1,8,0:0:0:0:
448,192,252433,1,0,0:0:0:0:
192,192,252533,1,8,0:0:0:0:
64,192,252533,1,0,0:0:0:0:
64,192,252633,1,0,0:0:0:0:
320,192,252633,1,8,0:0:0:0:
192,192,252733,1,0,0:0:0:0:
448,192,252733,1,8,0:0:0:0:
448,192,252833,1,0,0:0:0:0:
320,192,252833,1,8,0:0:0:0:
64,192,252933,1,0,0:0:0:0:
192,192,252933,1,0,0:0:0:0:
320,192,252983,1,0,0:0:0:0:
448,192,252983,1,0,0:0:0:0:
64,192,253033,1,0,0:0:0:0:
192,192,253033,1,0,0:0:0:0:
320,192,253083,1,0,0:0:0:0:
64,192,253133,1,0,0:0:0:0:
448,192,253133,1,0,0:0:0:0:
192,192,253183,1,0,0:0:0:0:
320,192,253233,1,8,0:0:0:0:
448,192,253233,1,0,0:0:0:0:
192,192,253333,1,8,0:0:0:0:
64,192,253333,1,0,0:0:0:0:
64,192,253433,1,0,0:0:0:0:
320,192,253433,1,8,0:0:0:0:
192,192,253533,1,8,0:0:0:0:
448,192,253533,1,0,0:0:0:0:
64,192,253633,1,0,0:0:0:0:
320,192,253633,1,8,0:0:0:0:
192,192,253733,1,8,0:0:0:0:
64,192,253733,1,0,0:0:0:0:
320,192,253833,1,0,0:0:0:0:
448,192,253833,1,0,0:0:0:0:
192,192,253883,1,0,0:0:0:0:
64,192,253883,1,0,0:0:0:0:
448,192,253933,1,0,0:0:0:0:
320,192,253933,1,0,0:0:0:0:
192,192,253983,1,0,0:0:0:0:
64,192,253983,1,0,0:0:0:0:
320,192,254033,1,8,0:0:0:0:
448,192,254033,1,0,0:0:0:0:
64,192,254133,1,0,0:0:0:0:
192,192,254133,1,8,0:0:0:0:
320,192,254183,1,0,0:0:0:0:
448,192,254233,1,8,0:0:0:0:
64,192,254233,1,0,0:0:0:0:
320,192,254333,1,0,0:0:0:0:
192,192,254333,1,0,0:0:0:0:
64,192,254383,1,0,0:0:0:0:
448,192,254383,1,0,0:0:0:0:
192,192,254433,1,0,0:0:0:0:
320,192,254433,1,0,0:0:0:0:
64,192,254483,1,0,0:0:0:0:
448,192,254483,1,0,0:0:0:0:
192,192,254533,1,0,0:0:0:0:
320,192,254533,1,0,0:0:0:0:
64,192,254583,1,0,0:0:0:0:
448,192,254583,1,0,0:0:0:0:
192,192,254633,1,0,0:0:0:0:
320,192,254633,1,0,0:0:0:0:
64,192,254733,1,0,0:0:0:0:
448,192,254733,1,0,0:0:0:0:
320,192,254783,1,0,0:0:0:0:
192,192,254833,1,8,0:0:0:0:
64,192,254833,1,0,0:0:0:0:
320,192,254933,1,8,0:0:0:0:
448,192,254933,1,0,0:0:0:0:
64,192,255133,1,0,0:0:0:0:
192,192,255158,1,0,0:0:0:0:
448,192,255183,1,0,0:0:0:0:
320,192,255208,1,0,0:0:0:0:
64,192,255233,1,0,0:0:0:0:
192,192,255258,1,0,0:0:0:0:
448,192,255283,1,0,0:0:0:0:
320,192,255308,1,0,0:0:0:0:
64,192,255333,1,0,0:0:0:0:
192,192,255358,1,0,0:0:0:0:
448,192,255383,1,0,0:0:0:0:
320,192,255408,1,0,0:0:0:0:
64,192,255433,1,0,0:0:0:0:
192,192,255458,1,0,0:0:0:0:
448,192,255483,1,0,0:0:0:0:
320,192,255508,1,0,0:0:0:0:
64,192,255533,1,0,0:0:0:0:
192,192,255533,1,0,0:0:0:0:
320,192,255583,1,0,0:0:0:0:
448,192,255633,1,0,0:0:0:0:
192,192,255633,1,8,0:0:0:0:
64,192,255633,1,0,0:0:0:0:
192,192,255733,1,8,0:0:0:0:
448,192,255733,1,0,0:0:0:0:
64,192,255733,1,0,0:0:0:0:
192,192,255833,1,8,0:0:0:0:
448,192,255833,1,0,0:0:0:0:
64,192,255833,1,0,0:0:0:0:
320,192,255933,1,0,0:0:0:0:
64,192,255933,1,8,0:0:0:0:
448,192,255933,1,0,0:0:0:0:
64,192,256033,1,8,0:0:0:0:
448,192,256033,1,0,0:0:0:0:
320,192,256033,1,0,0:0:0:0:
192,192,256133,1,0,0:0:0:0:
64,192,256133,1,8,0:0:0:0:
320,192,256133,1,0,0:0:0:0:
448,192,256133,1,0,0:0:0:0:
64,192,256333,1,0,0:0:0:0:
448,192,256333,1,0,0:0:0:0:
192,192,256383,1,0,0:0:0:0:
320,192,256383,1,0,0:0:0:0:
64,192,256433,1,0,0:0:0:0:
448,192,256433,1,0,0:0:0:0:
192,192,256483,1,0,0:0:0:0:
320,192,256483,1,0,0:0:0:0:
64,192,256533,1,0,0:0:0:0:
448,192,256533,1,0,0:0:0:0:
320,192,256633,1,0,0:0:0:0:
448,192,256633,1,0,0:0:0:0:
192,192,256683,1,0,0:0:0:0:
64,192,256683,1,0,0:0:0:0:
320,192,256733,1,0,0:0:0:0:
448,192,256733,1,0,0:0:0:0:
192,192,256833,1,0,0:0:0:0:
64,192,256833,1,0,0:0:0:0:
320,192,256883,1,0,0:0:0:0:
448,192,256883,1,0,0:0:0:0:
192,192,256933,1,0,0:0:0:0:
64,192,256933,1,0,0:0:0:0:
320,192,257033,1,0,0:0:0:0:
448,192,257033,1,0,0:0:0:0:
192,192,257083,1,0,0:0:0:0:
64,192,257083,1,0,0:0:0:0:
320,192,257133,1,0,0:0:0:0:
448,192,257133,1,0,0:0:0:0:
192,192,257183,1,0,0:0:0:0:
64,192,257183,1,0,0:0:0:0:
320,192,257233,1,8,0:0:0:0:
448,192,257233,1,0,0:0:0:0:
64,192,257383,1,0,0:0:0:0:
192,192,257383,1,8,0:0:0:0:
448,192,257383,1,0,0:0:0:0:
64,192,257533,1,0,0:0:0:0:
192,192,257533,1,0,0:0:0:0:
320,192,257533,1,8,0:0:0:0:
64,192,257633,1,0,0:0:0:0:
320,192,257633,1,8,0:0:0:0:
448,192,257633,1,0,0:0:0:0:
192,192,257783,1,0,0:0:0:0:
320,192,257783,1,0,0:0:0:0:
448,192,257783,1,8,0:0:0:0:
64,192,257933,1,0,0:0:0:0:
192,192,257933,1,8,0:0:0:0:
448,192,257933,1,0,0:0:0:0:
64,192,258233,1,0,0:0:0:0:
320,192,258233,1,0,0:0:0:0:
192,192,258283,1,0,0:0:0:0:
448,192,258283,1,0,0:0:0:0:
320,192,258333,1,0,0:0:0:0:
64,192,258333,1,0,0:0:0:0:
192,192,258383,1,0,0:0:0:0:
448,192,258383,1,0,0:0:0:0:
320,192,258433,1,0,0:0:0:0:
64,192,258433,1,0,0:0:0:0:
192,192,258633,1,0,0:0:0:0:
448,192,258633,1,0,0:0:0:0:
320,192,258683,1,0,0:0:0:0:
64,192,258683,1,0,0:0:0:0:
192,192,258733,1,0,0:0:0:0:
448,192,258733,1,0,0:0:0:0:
320,192,258783,1,0,0:0:0:0:
64,192,258783,1,0,0:0:0:0:
192,192,258833,1,0,0:0:0:0:
448,192,258833,1,0,0:0:0:0:
64,192,259033,1,8,0:0:0:0:
192,192,259033,1,0,0:0:0:0:
448,192,259033,1,0,0:0:0:0:
192,192,259133,1,0,0:0:0:0:
64,192,259133,1,8,0:0:0:0:
448,192,259233,1,8,0:0:0:0:
320,192,259233,1,0,0:0:0:0:
320,192,259333,1,8,0:0:0:0:
448,192,259333,1,0,0:0:0:0:
64,192,259433,1,0,0:0:0:0:
192,192,259433,1,0,0:0:0:0:
320,192,259483,1,0,0:0:0:0:
448,192,259483,1,0,0:0:0:0:
192,192,259533,1,0,0:0:0:0:
64,192,259533,1,0,0:0:0:0:
320,192,259583,1,0,0:0:0:0:
448,192,259583,1,0,0:0:0:0:
192,192,259633,1,8,0:0:0:0:
64,192,259633,1,0,0:0:0:0:
320,192,259733,1,8,0:0:0:0:
448,192,259733,1,0,0:0:0:0:
64,192,259833,1,0,0:0:0:0:
320,192,259833,1,8,0:0:0:0:
192,192,259933,1,8,0:0:0:0:
64,192,259933,1,0,0:0:0:0:
320,192,260033,1,8,0:0:0:0:
448,192,260033,1,0,0:0:0:0:
320,192,260133,1,8,0:0:0:0:
448,192,260133,1,0,0:0:0:0:
64,192,260233,1,0,0:0:0:0:
192,192,260233,1,0,0:0:0:0:
320,192,260283,1,0,0:0:0:0:
448,192,260283,1,0,0:0:0:0:
192,192,260333,1,0,0:0:0:0:
64,192,260333,1,0,0:0:0:0:
320,192,260383,1,0,0:0:0:0:
448,192,260383,1,0,0:0:0:0:
192,192,260433,1,8,0:0:0:0:
64,192,260433,1,0,0:0:0:0:
320,192,260533,1,8,0:0:0:0:
448,192,260533,1,0,0:0:0:0:
192,192,260583,1,0,0:0:0:0:
64,192,260633,1,0,0:0:0:0:
320,192,260633,1,8,0:0:0:0:
448,192,260633,1,0,0:0:0:0:
192,192,260733,1,0,0:0:0:0:
64,192,260733,1,0,0:0:0:0:
320,192,260783,1,0,0:0:0:0:
448,192,260783,1,0,0:0:0:0:
192,192,260833,1,0,0:0:0:0:
64,192,260833,1,0,0:0:0:0:
320,192,260883,1,0,0:0:0:0:
448,192,260883,1,0,0:0:0:0:
192,192,260933,1,0,0:0:0:0:
64,192,260933,1,0,0:0:0:0:
320,192,260983,1,0,0:0:0:0:
448,192,260983,1,0,0:0:0:0:
192,192,261033,1,8,0:0:0:0:
64,192,261033,1,0,0:0:0:0:
320,192,261133,1,8,0:0:0:0:
448,192,261133,1,0,0:0:0:0:
192,192,261233,1,8,0:0:0:0:
448,192,261233,1,0,0:0:0:70:crash.wav
64,192,261233,128,0,261333:0:0:0:0:
320,192,261333,128,0,261433:0:0:0:0:
192,192,261533,128,0,261633:0:0:0:0:
448,192,261633,128,0,261733:0:0:0:0:
192,192,261733,128,0,261833:0:0:0:0:
448,192,261833,1,0,0:0:0:0:
320,192,261883,1,0,0:0:0:0:
64,192,261933,1,0,0:0:0:0:
192,192,261983,1,0,0:0:0:0:
64,192,262033,1,0,0:0:0:70:crash.wav
320,192,262033,1,8,0:0:0:0:
448,192,262033,128,0,262133:0:0:0:0:
192,192,262133,128,0,262233:0:0:0:0:
448,192,262383,128,0,262533:0:0:0:0:
320,192,262533,1,0,0:0:0:0:
64,192,262633,1,0,0:0:0:0:
192,192,262683,1,0,0:0:0:0:
320,192,262733,1,0,0:0:0:0:
448,192,262783,1,0,0:0:0:0:
192,192,262833,1,8,0:0:0:0:
64,192,262833,1,0,0:0:0:0:
448,192,263183,1,0,0:0:0:0:
192,192,263233,1,0,0:0:0:0:
64,192,263233,1,0,0:0:0:0:
320,192,263283,1,0,0:0:0:0:
192,192,263333,1,0,0:0:0:0:
64,192,263333,1,0,0:0:0:0:
448,192,263383,1,0,0:0:0:0:
320,192,263433,1,0,0:0:0:0:
64,192,263433,1,0,0:0:0:0:
448,192,263483,1,0,0:0:0:0:
320,192,263533,1,0,0:0:0:0:
64,192,263533,1,0,0:0:0:0:
192,192,263583,1,0,0:0:0:0:
320,192,263633,1,0,0:0:0:0:
448,192,263633,128,0,264033:0:0:0:0:
64,192,263683,1,0,0:0:0:0:
192,192,263733,1,0,0:0:0:0:
320,192,263733,1,0,0:0:0:0:
192,192,263833,1,4,0:0:0:0:
320,192,263933,1,4,0:0:0:0:
192,192,264033,1,4,0:0:0:0:
64,192,264033,128,0,264333:0:0:0:0:
320,192,264133,1,4,0:0:0:0:
192,192,264233,1,4,0:0:0:0:
320,192,264333,1,4,0:0:0:0:
192,192,264433,1,4,0:0:0:0:
448,192,264433,128,8,265133:0:0:0:0:
64,192,264433,128,0,265133:0:0:0:70:crash.wav
64,192,265233,1,0,0:0:0:0:
448,192,265233,1,8,0:0:0:0:
192,192,265283,1,0,0:0:0:0:
320,192,265283,1,8,0:0:0:0:
64,192,265333,1,0,0:0:0:0:
448,192,265333,1,8,0:0:0:0:
192,192,265433,1,0,0:0:0:0:
320,192,265433,1,8,0:0:0:0:
64,192,265533,1,0,0:0:0:0:
448,192,265533,1,8,0:0:0:0:
192,192,265583,1,0,0:0:0:0:
320,192,265583,1,8,0:0:0:0:
64,192,265633,1,0,0:0:0:0:
448,192,265633,1,8,0:0:0:0:
192,192,265733,1,0,0:0:0:0:
320,192,265733,1,8,0:0:0:0:
64,192,265833,1,0,0:0:0:0:
448,192,265833,1,8,0:0:0:0:
192,192,265933,1,0,0:0:0:0:
320,192,265933,1,8,0:0:0:0:
64,192,266033,128,8,266733:0:0:0:0:
192,192,266033,1,4,0:0:0:0:
448,192,266033,128,0,266733:0:0:0:0:
64,192,266833,1,0,0:0:0:0:
192,192,266858,1,0,0:0:0:0:
320,192,266883,1,0,0:0:0:0:
448,192,266908,1,0,0:0:0:0:
64,192,266933,1,0,0:0:0:0:
192,192,266958,1,0,0:0:0:0:
320,192,266983,1,0,0:0:0:0:
448,192,267008,1,0,0:0:0:0:
192,192,267033,1,0,0:0:0:0:
64,192,267033,1,0,0:0:0:0:
320,192,267083,1,0,0:0:0:0:
448,192,267083,1,0,0:0:0:0:
192,192,267133,1,0,0:0:0:0:
64,192,267133,1,0,0:0:0:0:
320,192,267183,1,0,0:0:0:0:
448,192,267183,1,0,0:0:0:0:
192,192,267233,1,0,0:0:0:0:
64,192,267233,1,8,0:0:0:0:
320,192,267333,1,8,0:0:0:0:
448,192,267333,1,0,0:0:0:0:
64,192,267433,1,8,0:0:0:0:
192,192,267433,1,0,0:0:0:0:
64,192,267633,1,0,0:0:0:0:
192,192,267633,1,0,0:0:0:0:
320,192,267683,1,0,0:0:0:0:
448,192,267683,1,0,0:0:0:0:
64,192,267733,1,0,0:0:0:0:
192,192,267733,1,0,0:0:0:0:
448,192,267783,1,0,0:0:0:0:
320,192,267783,1,0,0:0:0:0:
64,192,268033,1,0,0:0:0:0:
320,192,268033,1,0,0:0:0:0:
448,192,268083,1,0,0:0:0:0:
192,192,268083,1,0,0:0:0:0:
320,192,268133,1,0,0:0:0:0:
64,192,268133,1,0,0:0:0:0:
192,192,268183,1,0,0:0:0:0:
448,192,268183,1,0,0:0:0:0:
192,192,268433,1,0,0:0:0:0:
448,192,268433,1,0,0:0:0:0:
320,192,268483,1,0,0:0:0:0:
64,192,268483,1,0,0:0:0:0:
192,192,268533,1,0,0:0:0:0:
448,192,268533,1,0,0:0:0:0:
320,192,268583,1,0,0:0:0:0:
64,192,268583,1,0,0:0:0:0:
320,192,268833,1,0,0:0:0:0:
448,192,268833,1,0,0:0:0:0:
64,192,268883,1,0,0:0:0:0:
192,192,268883,1,0,0:0:0:0:
448,192,268933,1,0,0:0:0:0:
320,192,268933,1,0,0:0:0:0:
64,192,268983,1,0,0:0:0:0:
192,192,268983,1,0,0:0:0:0:
64,192,269233,128,0,269333:0:0:0:0:
192,192,269233,128,0,269333:0:0:0:0:
192,192,269433,128,0,269533:0:0:0:0:
64,192,269433,128,0,269533:0:0:0:0:
64,192,269633,128,0,269733:0:0:0:0:
192,192,269633,128,0,269733:0:0:0:0:
192,192,269833,128,0,269933:0:0:0:0:
64,192,269833,128,0,269933:0:0:0:0:
448,192,269933,1,0,0:0:0:0:
320,192,270033,1,0,0:0:0:0:
64,192,270133,128,0,270433:0:0:0:0:
192,192,270133,128,0,270433:0:0:0:0:
448,192,270133,1,0,0:0:0:0:
320,192,270233,1,0,0:0:0:0:
448,192,270333,1,0,0:0:0:0:
320,192,270433,1,0,0:0:0:0:
448,192,270483,1,0,0:0:0:0:
64,192,270533,1,0,0:0:0:0:
192,192,270583,1,0,0:0:0:0:
320,192,270633,1,0,0:0:0:0:
448,192,270683,1,0,0:0:0:0:
64,192,270733,1,0,0:0:0:0:
192,192,270783,1,0,0:0:0:0:
320,192,270833,1,0,0:0:0:70:crash.wav
448,192,270833,1,8,0:0:0:0:
64,192,270833,1,0,0:0:0:70:bell.wav
320,192,270933,1,0,0:0:0:0:
448,192,270933,1,8,0:0:0:0:
192,192,271033,1,0,0:0:0:0:
64,192,271033,1,8,0:0:0:0:
64,192,271133,1,8,0:0:0:0:
320,192,271133,1,0,0:0:0:0:
320,192,271233,1,0,0:0:0:0:
448,192,271233,1,8,0:0:0:0:
192,192,271333,1,8,0:0:0:0:
64,192,271333,1,0,0:0:0:0:
320,192,271433,1,0,0:0:0:0:
448,192,271433,1,0,0:0:0:0:
192,192,271483,1,0,0:0:0:0:
64,192,271483,1,0,0:0:0:0:
320,192,271533,1,0,0:0:0:0:
448,192,271533,1,0,0:0:0:0:
192,192,271583,1,0,0:0:0:0:
64,192,271583,1,0,0:0:0:0:
320,192,271633,1,8,0:0:0:0:
448,192,271633,1,0,0:0:0:0:
64,192,271733,1,8,0:0:0:0:
192,192,271733,1,0,0:0:0:0:
64,192,271833,1,8,0:0:0:0:
320,192,271833,1,0,0:0:0:0:
192,192,271933,1,8,0:0:0:0:
448,192,271933,1,0,0:0:0:0:
320,192,272033,1,8,0:0:0:0:
448,192,272033,1,0,0:0:0:0:
64,192,272133,1,0,0:0:0:0:
192,192,272133,1,8,0:0:0:0:
192,192,272233,1,8,0:0:0:0:
448,192,272233,1,0,0:0:0:0:
320,192,272333,1,0,0:0:0:0:
64,192,272433,1,0,0:0:0:0:
192,192,272433,1,8,0:0:0:0:
448,192,272433,1,0,0:0:0:0:
192,192,272533,1,8,0:0:0:0:
64,192,272533,1,0,0:0:0:0:
320,192,272633,1,0,0:0:0:0:
448,192,272633,1,8,0:0:0:0:
448,192,272733,1,8,0:0:0:0:
192,192,272733,1,0,0:0:0:0:
192,192,272833,1,8,0:0:0:0:
64,192,272833,1,0,0:0:0:0:
320,192,272933,1,8,0:0:0:0:
448,192,272933,1,0,0:0:0:0:
192,192,273033,1,0,0:0:0:0:
64,192,273033,1,0,0:0:0:0:
320,192,273083,1,0,0:0:0:0:
448,192,273083,1,0,0:0:0:0:
192,192,273133,1,0,0:0:0:0:
64,192,273133,1,0,0:0:0:0:
320,192,273183,1,0,0:0:0:0:
448,192,273183,1,0,0:0:0:0:
192,192,273233,1,8,0:0:0:0:
64,192,273233,1,0,0:0:0:0:
448,192,273333,1,0,0:0:0:0:
320,192,273333,1,0,0:0:0:0:
192,192,273383,1,0,0:0:0:0:
64,192,273383,1,0,0:0:0:0:
448,192,273433,1,0,0:0:0:0:
320,192,273433,1,0,0:0:0:0:
320,192,273533,1,0,0:0:0:0:
192,192,273533,1,0,0:0:0:0:
448,192,273583,1,0,0:0:0:0:
64,192,273583,1,0,0:0:0:0:
320,192,273633,1,0,0:0:0:0:
192,192,273633,1,0,0:0:0:0:
192,192,273733,1,0,0:0:0:0:
64,192,273733,1,0,0:0:0:0:
320,192,273783,1,0,0:0:0:0:
448,192,273783,1,0,0:0:0:0:
64,192,273833,1,8,0:0:0:0:
192,192,273833,1,0,0:0:0:0:
64,192,273933,1,8,0:0:0:0:
192,192,273933,1,0,0:0:0:0:
192,192,274033,1,0,0:0:0:0:
320,192,274033,1,0,0:0:0:0:
448,192,274033,1,8,0:0:0:0:
320,192,274133,1,0,0:0:0:0:
448,192,274133,1,8,0:0:0:0:
192,192,274233,1,8,0:0:0:0:
64,192,274233,1,0,0:0:0:0:
64,192,274333,1,0,0:0:0:0:
448,192,274333,1,8,0:0:0:0:
320,192,274433,1,0,0:0:0:0:
448,192,274433,1,8,0:0:0:0:
192,192,274533,1,8,0:0:0:0:
64,192,274533,1,0,0:0:0:0:
448,192,274633,1,0,0:0:0:0:
320,192,274633,1,0,0:0:0:0:
192,192,274683,1,0,0:0:0:0:
64,192,274683,1,0,0:0:0:0:
448,192,274733,1,0,0:0:0:0:
320,192,274733,1,0,0:0:0:0:
192,192,274783,1,0,0:0:0:0:
64,192,274783,1,0,0:0:0:0:
448,192,274833,1,0,0:0:0:0:
320,192,274833,1,8,0:0:0:0:
64,192,274933,1,0,0:0:0:0:
192,192,274933,1,8,0:0:0:0:
64,192,275033,1,0,0:0:0:0:
448,192,275033,1,8,0:0:0:0:
192,192,275133,1,0,0:0:0:0:
320,192,275133,1,8,0:0:0:0:
320,192,275233,1,0,0:0:0:0:
448,192,275233,1,8,0:0:0:0:
192,192,275333,1,8,0:0:0:0:
64,192,275333,1,0,0:0:0:0:
448,192,275433,1,0,0:0:0:0:
192,192,275433,1,8,0:0:0:0:
320,192,275533,1,0,0:0:0:0:
64,192,275633,1,0,0:0:0:0:
192,192,275633,1,8,0:0:0:0:
448,192,275633,1,0,0:0:0:0:
192,192,275733,1,8,0:0:0:0:
64,192,275733,1,0,0:0:0:0:
320,192,275833,1,8,0:0:0:0:
448,192,275833,1,0,0:0:0:0:
448,192,275933,1,8,0:0:0:0:
64,192,275933,1,0,0:0:0:0:
192,192,276033,1,8,0:0:0:0:
64,192,276033,1,0,0:0:0:0:
320,192,276133,1,8,0:0:0:0:
448,192,276133,1,0,0:0:0:0:
64,192,276233,1,0,0:0:0:0:
192,192,276233,1,0,0:0:0:0:
320,192,276283,1,0,0:0:0:0:
448,192,276283,1,0,0:0:0:0:
64,192,276333,1,0,0:0:0:0:
192,192,276333,1,0,0:0:0:0:
448,192,276383,1,0,0:0:0:0:
64,192,276433,1,0,0:0:0:0:
192,192,276433,1,0,0:0:0:0:
320,192,276433,1,8,0:0:0:0:
448,192,276633,1,8,0:0:0:0:
192,192,276633,1,0,0:0:0:0:
64,192,276633,1,0,0:0:0:0:
448,192,276733,1,0,0:0:0:0:
64,192,276833,1,0,0:0:0:0:
192,192,276833,1,0,0:0:0:0:
320,192,276833,1,8,0:0:0:0:
192,192,276933,1,0,0:0:0:0:
320,192,277033,1,8,0:0:0:0:
64,192,277033,1,0,0:0:0:0:
448,192,277033,1,0,0:0:0:0:
320,192,277133,1,0,0:0:0:0:
64,192,277233,1,0,0:0:0:70:crash.wav
448,192,277233,1,0,0:0:0:0:
192,192,277233,1,8,0:0:0:0:
192,192,277333,1,8,0:0:0:0:
64,192,277333,1,0,0:0:0:0:
320,192,277433,1,0,0:0:0:0:
448,192,277433,1,8,0:0:0:0:
64,192,277533,1,0,0:0:0:0:
448,192,277533,1,8,0:0:0:0:
192,192,277633,1,8,0:0:0:0:
64,192,277633,1,0,0:0:0:0:
192,192,277733,1,8,0:0:0:0:
448,192,277733,1,0,0:0:0:0:
320,192,277833,1,0,0:0:0:0:
448,192,277833,1,0,0:0:0:0:
192,192,277883,1,0,0:0:0:0:
64,192,277883,1,0,0:0:0:0:
448,192,277933,1,0,0:0:0:0:
320,192,277933,1,0,0:0:0:0:
192,192,277983,1,0,0:0:0:0:
64,192,277983,1,0,0:0:0:0:
320,192,278033,1,8,0:0:0:0:
448,192,278033,1,0,0:0:0:0:
192,192,278133,1,8,0:0:0:0:
64,192,278133,1,0,0:0:0:0:
192,192,278233,1,0,0:0:0:0:
320,192,278233,1,8,0:0:0:0:
320,192,278333,1,0,0:0:0:0:
448,192,278333,1,8,0:0:0:0:
64,192,278433,1,0,0:0:0:0:
192,192,278433,1,8,0:0:0:0:
64,192,278533,1,0,0:0:0:0:
448,192,278533,1,8,0:0:0:0:
320,192,278633,1,0,0:0:0:0:
448,192,278633,1,8,0:0:0:0:
192,192,278733,1,0,0:0:0:0:
64,192,278833,1,0,0:0:0:0:
320,192,278833,1,0,0:0:0:0:
448,192,278833,1,8,0:0:0:0:
320,192,278933,1,0,0:0:0:0:
448,192,278933,1,8,0:0:0:0:
192,192,279033,1,0,0:0:0:0:
64,192,279033,1,8,0:0:0:0:
448,192,279133,1,0,0:0:0:0:
64,192,279133,1,8,0:0:0:0:
320,192,279233,1,8,0:0:0:0:
448,192,279233,1,0,0:0:0:0:
320,192,279333,1,8,0:0:0:0:
64,192,279333,1,0,0:0:0:0:
192,192,279433,1,0,0:0:0:0:
64,192,279433,1,0,0:0:0:0:
320,192,279483,1,0,0:0:0:0:
448,192,279483,1,0,0:0:0:0:
64,192,279533,1,0,0:0:0:0:
192,192,279533,1,0,0:0:0:0:
320,192,279583,1,0,0:0:0:0:
448,192,279583,1,0,0:0:0:0:
192,192,279633,1,8,0:0:0:0:
64,192,279633,1,0,0:0:0:0:
320,192,279733,1,0,0:0:0:0:
448,192,279733,1,0,0:0:0:0:
64,192,279783,1,0,0:0:0:0:
192,192,279783,1,0,0:0:0:0:
320,192,279833,1,0,0:0:0:0:
448,192,279833,1,0,0:0:0:0:
64,192,279933,1,0,0:0:0:0:
448,192,279933,1,0,0:0:0:0:
192,192,279983,1,0,0:0:0:0:
320,192,279983,1,0,0:0:0:0:
64,192,280033,1,0,0:0:0:0:
448,192,280033,1,0,0:0:0:0:
192,192,280133,1,0,0:0:0:0:
64,192,280133,1,0,0:0:0:0:
320,192,280183,1,0,0:0:0:0:
448,192,280183,1,0,0:0:0:0:
64,192,280233,1,0,0:0:0:0:
192,192,280233,1,8,0:0:0:0:
320,192,280333,1,0,0:0:0:0:
448,192,280333,1,8,0:0:0:0:
64,192,280433,1,0,0:0:0:0:
192,192,280458,1,0,0:0:0:0:
320,192,280483,1,0,0:0:0:0:
448,192,280508,1,0,0:0:0:0:
64,192,280533,1,0,0:0:0:0:
192,192,280533,1,0,0:0:0:0:
320,192,280583,1,0,0:0:0:0:
448,192,280583,1,0,0:0:0:0:
192,192,280633,1,0,0:0:0:0:
64,192,280633,1,8,0:0:0:0:
448,192,280733,1,0,0:0:0:0:
320,192,280733,1,8,0:0:0:0:
192,192,280833,1,8,0:0:0:0:
64,192,280833,1,0,0:0:0:0:
192,192,280933,1,8,0:0:0:0:
320,192,280933,1,0,0:0:0:0:
448,192,280933,1,0,0:0:0:70:crash.wav
320,192,281133,1,0,0:0:0:0:
448,192,281133,1,0,0:0:0:70:crash.wav
192,192,281133,1,8,0:0:0:0:
192,192,281333,1,8,0:0:0:0:
320,192,281333,1,0,0:0:0:0:
448,192,281333,1,0,0:0:0:70:crash.wav
192,192,281533,1,8,0:0:0:0:
320,192,281533,1,0,0:0:0:0:
448,192,281533,1,0,0:0:0:0:
64,192,281633,1,8,0:0:0:0:
320,192,281633,1,0,0:0:0:0:
448,192,281633,1,0,0:0:0:70:crash.wav
64,192,281733,1,0,0:0:0:0:
320,192,281833,1,0,0:0:0:0:
448,192,281833,1,0,0:0:0:70:crash.wav
192,192,281833,1,8,0:0:0:0:
320,192,281933,1,0,0:0:0:0:
64,192,282033,128,0,282733:0:0:0:0:
448,192,282033,128,0,282733:0:0:0:0:
192,192,282033,1,8,0:0:0:0:
64,192,282833,1,8,0:0:0:0:
192,192,282833,1,0,0:0:0:0:
448,192,282833,1,0,0:0:0:0:
320,192,283033,1,0,0:0:0:0:
192,192,283033,1,0,0:0:0:0:
64,192,283033,1,8,0:0:0:0:
64,192,283233,1,8,0:0:0:0:
320,192,283233,1,0,0:0:0:0:
448,192,283233,1,0,0:0:0:0:
192,192,283433,1,8,0:0:0:0:
320,192,283433,1,0,0:0:0:0:
448,192,283433,1,0,0:0:0:0:
64,192,283633,1,0,0:0:0:0:
192,192,283633,1,0,0:0:0:0:
320,192,283683,1,0,0:0:0:0:
448,192,283683,1,0,0:0:0:0:
192,192,283733,1,0,0:0:0:0:
64,192,283733,1,0,0:0:0:0:
320,192,283783,1,0,0:0:0:0:
448,192,283783,1,0,0:0:0:0:
192,192,283833,1,0,0:0:0:0:
64,192,283833,1,0,0:0:0:0:
320,192,283883,1,0,0:0:0:0:
448,192,283883,1,0,0:0:0:0:
192,192,283933,1,0,0:0:0:0:
64,192,283933,1,0,0:0:0:0:
320,192,283983,1,0,0:0:0:0:
448,192,283983,1,0,0:0:0:0:
192,192,284033,1,0,0:0:0:0:
64,192,284033,1,0,0:0:0:0:
320,192,284083,1,0,0:0:0:0:
448,192,284083,1,0,0:0:0:0:
192,192,284133,1,0,0:0:0:0:
64,192,284133,1,0,0:0:0:0:
320,192,284183,1,0,0:0:0:0:
448,192,284183,1,0,0:0:0:0:
192,192,284233,1,0,0:0:0:0:
64,192,284233,1,0,0:0:0:0:
320,192,284283,1,0,0:0:0:0:
448,192,284283,1,0,0:0:0:0:
192,192,284333,1,0,0:0:0:0:
64,192,284333,1,0,0:0:0:0:
320,192,284383,1,0,0:0:0:0:
448,192,284383,1,0,0:0:0:0:
192,192,284433,1,8,0:0:0:0:
64,192,284433,1,0,0:0:0:0:
320,192,284533,1,8,0:0:0:0:
448,192,284533,1,0,0:0:0:0:
64,192,284633,1,8,0:0:0:0:
448,192,284633,1,0,0:0:0:0:
192,192,284733,1,8,0:0:0:0:
64,192,284733,1,0,0:0:0:0:
320,192,284833,1,8,0:0:0:0:
448,192,284833,1,0,0:0:0:0:
192,192,284933,1,8,0:0:0:0:
448,192,284933,1,0,0:0:0:0:
320,192,285033,1,0,0:0:0:0:
64,192,285033,1,8,0:0:0:0:
64,192,285233,1,0,0:0:0:0:
192,192,285233,1,0,0:0:0:0:
320,192,285283,1,0,0:0:0:0:
448,192,285283,1,0,0:0:0:0:
192,192,285333,1,0,0:0:0:0:
64,192,285333,1,0,0:0:0:0:
320,192,285383,1,0,0:0:0:0:
448,192,285383,1,0,0:0:0:0:
192,192,285433,1,0,0:0:0:0:
64,192,285433,1,0,0:0:0:0:
320,192,285483,1,0,0:0:0:0:
448,192,285483,1,0,0:0:0:0:
192,192,285533,1,0,0:0:0:0:
64,192,285533,1,0,0:0:0:0:
320,192,285583,1,0,0:0:0:0:
448,192,285583,1,0,0:0:0:0:
192,192,285633,1,0,0:0:0:0:
64,192,285633,1,0,0:0:0:0:
320,192,285683,1,0,0:0:0:0:
448,192,285683,1,0,0:0:0:0:
192,192,285733,1,0,0:0:0:0:
64,192,285733,1,0,0:0:0:0:
320,192,285783,1,0,0:0:0:0:
448,192,285783,1,0,0:0:0:0:
192,192,285833,1,0,0:0:0:0:
64,192,285833,1,0,0:0:0:0:
320,192,285883,1,0,0:0:0:0:
448,192,285883,1,0,0:0:0:0:
192,192,285933,1,0,0:0:0:0:
64,192,285933,1,0,0:0:0:0:
320,192,285983,1,0,0:0:0:0:
448,192,285983,1,0,0:0:0:0:
192,192,286033,1,8,0:0:0:0:
64,192,286033,1,0,0:0:0:0:
320,192,286133,1,0,0:0:0:0:
448,192,286133,1,0,0:0:0:0:
192,192,286183,1,0,0:0:0:0:
64,192,286183,1,0,0:0:0:0:
320,192,286233,1,0,0:0:0:0:
448,192,286233,1,0,0:0:0:0:
64,192,286333,1,0,0:0:0:0:
320,192,286333,1,0,0:0:0:0:
448,192,286383,1,0,0:0:0:0:
192,192,286383,1,0,0:0:0:0:
320,192,286433,1,0,0:0:0:0:
64,192,286433,1,0,0:0:0:0:
192,192,286533,1,0,0:0:0:0:
448,192,286533,1,0,0:0:0:0:
320,192,286583,1,0,0:0:0:0:
64,192,286583,1,0,0:0:0:0:
192,192,286633,1,8,0:0:0:0:
448,192,286633,1,0,0:0:0:0:
320,192,286733,1,8,0:0:0:0:
448,192,286733,1,0,0:0:0:0:
192,192,286833,1,0,0:0:0:0:
64,192,286833,1,0,0:0:0:0:
320,192,286883,1,0,0:0:0:0:
448,192,286883,1,0,0:0:0:0:
192,192,286933,1,0,0:0:0:0:
64,192,286933,1,0,0:0:0:0:
320,192,286983,1,0,0:0:0:0:
448,192,286983,1,0,0:0:0:0:
192,192,287033,1,0,0:0:0:0:
64,192,287033,1,0,0:0:0:0:
320,192,287083,1,0,0:0:0:0:
448,192,287083,1,0,0:0:0:0:
192,192,287133,1,0,0:0:0:0:
64,192,287133,1,0,0:0:0:0:
320,192,287183,1,0,0:0:0:0:
448,192,287183,1,0,0:0:0:0:
192,192,287233,1,0,0:0:0:0:
64,192,287233,1,0,0:0:0:0:
320,192,287283,1,0,0:0:0:0:
448,192,287283,1,0,0:0:0:0:
192,192,287333,1,0,0:0:0:0:
64,192,287333,1,0,0:0:0:0:
320,192,287383,1,0,0:0:0:0:
448,192,287383,1,0,0:0:0:0:
192,192,287433,1,0,0:0:0:0:
64,192,287433,1,0,0:0:0:0:
320,192,287533,1,0,0:0:0:0:
448,192,287533,1,0,0:0:0:0:
192,192,287583,1,0,0:0:0:0:
64,192,287583,1,0,0:0:0:0:
320,192,287633,1,0,0:0:0:0:
448,192,287633,1,0,0:0:0:0:
64,192,287733,1,0,0:0:0:0:
448,192,287733,1,0,0:0:0:0:
192,192,287783,1,0,0:0:0:0:
320,192,287783,1,0,0:0:0:0:
64,192,287833,1,0,0:0:0:0:
448,192,287833,1,0,0:0:0:0:
192,192,287933,1,0,0:0:0:0:
320,192,287933,1,0,0:0:0:0:
64,192,287983,1,0,0:0:0:0:
448,192,287983,1,0,0:0:0:0:
192,192,288033,1,0,0:0:0:0:
320,192,288033,1,0,0:0:0:0:
64,192,288133,1,0,0:0:0:0:
192,192,288133,1,0,0:0:0:0:
448,192,288183,1,0,0:0:0:0:
320,192,288183,1,0,0:0:0:0:
192,192,288233,1,8,0:0:0:0:
64,192,288233,1,0,0:0:0:0:
320,192,288333,1,8,0:0:0:0:
448,192,288333,1,0,0:0:0:0:
64,192,288433,1,0,0:0:0:0:
320,192,288433,1,8,0:0:0:0:
192,192,288533,1,8,0:0:0:0:
64,192,288533,1,0,0:0:0:0:
448,192,288633,1,8,0:0:0:0:
320,192,288633,1,0,0:0:0:0:
64,192,288733,1,0,0:0:0:0:
448,192,288733,1,8,0:0:0:0:
192,192,288833,1,8,0:0:0:0:
64,192,288833,1,0,0:0:0:0:
320,192,288933,1,8,0:0:0:0:
448,192,288933,1,0,0:0:0:0:
64,192,289033,1,0,0:0:0:0:
448,192,289033,1,0,0:0:0:0:
192,192,289083,1,0,0:0:0:0:
320,192,289083,1,0,0:0:0:0:
64,192,289133,1,0,0:0:0:0:
448,192,289133,1,0,0:0:0:0:
320,192,289183,1,0,0:0:0:0:
192,192,289183,1,0,0:0:0:0:
64,192,289233,1,0,0:0:0:0:
448,192,289233,1,0,0:0:0:0:
192,192,289333,1,0,0:0:0:0:
448,192,289433,1,0,0:0:0:0:
320,192,289533,1,0,0:0:0:0:
64,192,289633,1,0,0:0:0:0:
64,192,289733,1,0,0:0:0:0:
448,192,289833,1,0,0:0:0:0:
448,192,289933,1,0,0:0:0:0:
64,192,290033,1,0,0:0:0:0:
192,192,290033,1,0,0:0:0:0:
320,192,290083,1,0,0:0:0:0:
448,192,290083,1,0,0:0:0:0:
192,192,290133,1,0,0:0:0:0:
64,192,290133,1,0,0:0:0:0:
320,192,290183,1,0,0:0:0:0:
448,192,290183,1,0,0:0:0:0:
192,192,290233,1,0,0:0:0:0:
64,192,290233,1,0,0:0:0:0:
320,192,290283,1,0,0:0:0:0:
448,192,290333,1,0,0:0:0:0:
64,192,290333,1,0,0:0:0:0:
192,192,290383,1,0,0:0:0:0:
320,192,290433,1,0,0:0:0:0:
448,192,290433,1,0,0:0:0:0:
192,192,290483,1,0,0:0:0:0:
64,192,290483,1,0,0:0:0:0:
320,192,290533,1,0,0:0:0:0:
448,192,290533,1,0,0:0:0:0:
192,192,290583,1,0,0:0:0:0:
64,192,290583,1,0,0:0:0:0:
448,192,290633,1,0,0:0:0:0:
320,192,290658,1,0,0:0:0:0:
192,192,290683,1,0,0:0:0:0:
64,192,290708,1,0,0:0:0:0:
448,192,290733,1,0,0:0:0:0:
320,192,290758,1,0,0:0:0:0:
192,192,290783,1,0,0:0:0:0:
64,192,290808,1,0,0:0:0:0:
320,192,290833,1,0,0:0:0:0:
448,192,290833,1,0,0:0:0:0:
192,192,290883,1,0,0:0:0:0:
64,192,290883,1,0,0:0:0:0:
320,192,290933,1,0,0:0:0:0:
448,192,290933,1,0,0:0:0:0:
192,192,290983,1,0,0:0:0:0:
64,192,290983,1,0,0:0:0:0:
320,192,291033,1,0,0:0:0:0:
448,192,291033,1,0,0:0:0:0:
192,192,291083,1,0,0:0:0:0:
64,192,291133,1,0,0:0:0:0:
448,192,291133,1,0,0:0:0:0:
320,192,291183,1,0,0:0:0:0:
192,192,291233,1,0,0:0:0:0:
64,192,291233,1,0,0:0:0:0:
320,192,291283,1,0,0:0:0:0:
448,192,291283,1,0,0:0:0:0:
64,192,291333,1,0,0:0:0:0:
192,192,291333,1,0,0:0:0:0:
320,192,291383,1,0,0:0:0:0:
448,192,291383,1,0,0:0:0:0:
192,192,291433,1,8,0:0:0:0:
64,192,291433,1,0,0:0:0:0:
320,192,291533,1,0,0:0:0:0:
64,192,291633,1,0,0:0:0:0:
192,192,291633,1,0,0:0:0:0:
448,192,291633,1,0,0:0:0:0:
192,192,291733,1,0,0:0:0:0:
320,192,291733,1,0,0:0:0:0:
64,192,291783,1,0,0:0:0:0:
448,192,291783,1,0,0:0:0:0:
192,192,291833,1,0,0:0:0:0:
320,192,291833,1,0,0:0:0:0:
448,192,291933,1,0,0:0:0:0:
64,192,291933,1,0,0:0:0:0:
192,192,291983,1,0,0:0:0:0:
320,192,291983,1,0,0:0:0:0:
64,192,292033,1,0,0:0:0:0:
448,192,292033,1,0,0:0:0:0:
192,192,292133,1,0,0:0:0:0:
64,192,292133,1,0,0:0:0:0:
320,192,292183,1,0,0:0:0:0:
448,192,292183,1,0,0:0:0:0:
192,192,292233,1,0,0:0:0:0:
64,192,292233,1,0,0:0:0:0:
320,192,292283,1,0,0:0:0:0:
448,192,292283,1,0,0:0:0:0:
192,192,292333,1,0,0:0:0:0:
64,192,292333,1,0,0:0:0:0:
320,192,292383,1,0,0:0:0:0:
448,192,292383,1,0,0:0:0:0:
64,192,292433,1,0,0:0:0:0:
192,192,292458,1,0,0:0:0:0:
320,192,292483,1,0,0:0:0:0:
448,192,292508,1,0,0:0:0:0:
192,192,292533,1,0,0:0:0:0:
64,192,292533,1,0,0:0:0:0:
320,192,292583,1,0,0:0:0:0:
448,192,292583,1,0,0:0:0:0:
192,192,292633,1,0,0:0:0:0:
64,192,292633,1,0,0:0:0:0:
320,192,292683,1,0,0:0:0:0:
448,192,292683,1,0,0:0:0:0:
192,192,292733,1,0,0:0:0:0:
64,192,292733,1,0,0:0:0:0:
320,192,292783,1,0,0:0:0:0:
448,192,292783,1,0,0:0:0:0:
192,192,292833,1,8,0:0:0:0:
64,192,292833,1,0,0:0:0:0:
320,192,292933,1,0,0:0:0:0:
448,192,292933,1,0,0:0:0:0:
64,192,292983,1,0,0:0:0:0:
192,192,292983,1,0,0:0:0:0:
320,192,293033,1,0,0:0:0:0:
448,192,293033,1,0,0:0:0:0:
320,192,293133,1,0,0:0:0:0:
192,192,293133,1,8,0:0:0:0:
192,192,293233,1,0,0:0:0:0:
64,192,293233,1,0,0:0:0:0:
320,192,293283,1,0,0:0:0:0:
448,192,293283,1,0,0:0:0:0:
192,192,293333,1,0,0:0:0:0:
64,192,293333,1,0,0:0:0:0:
320,192,293383,1,0,0:0:0:0:
448,192,293383,1,0,0:0:0:0:
192,192,293433,1,0,0:0:0:0:
64,192,293433,128,0,293483:0:0:0:0:
320,192,293483,1,0,0:0:0:0:
448,192,293483,1,0,0:0:0:0:
192,192,293533,1,0,0:0:0:0:
64,192,293533,1,0,0:0:0:0:
320,192,293583,1,0,0:0:0:0:
448,192,293583,1,0,0:0:0:0:
192,192,293633,1,0,0:0:0:0:
64,192,293633,128,0,293683:0:0:0:0:
320,192,293683,1,0,0:0:0:0:
448,192,293683,1,0,0:0:0:0:
64,192,293733,1,0,0:0:0:0:
192,192,293733,1,0,0:0:0:0:
320,192,293783,1,0,0:0:0:0:
448,192,293783,1,0,0:0:0:0:
192,192,293833,1,0,0:0:0:0:
64,192,293833,128,0,293883:0:0:0:0:
320,192,293883,1,0,0:0:0:0:
448,192,293883,1,0,0:0:0:0:
192,192,293933,1,0,0:0:0:0:
64,192,293933,1,0,0:0:0:0:
320,192,293983,1,0,0:0:0:0:
448,192,293983,1,0,0:0:0:0:
192,192,294033,1,0,0:0:0:0:
64,192,294033,128,0,294083:0:0:0:0:
320,192,294083,1,0,0:0:0:0:
448,192,294083,1,0,0:0:0:0:
192,192,294133,1,0,0:0:0:0:
64,192,294133,1,0,0:0:0:0:
320,192,294183,1,0,0:0:0:0:
448,192,294183,1,0,0:0:0:0:
192,192,294233,1,8,0:0:0:0:
64,192,294233,128,0,294283:0:0:0:0:
320,192,294333,1,0,0:0:0:0:
448,192,294333,1,0,0:0:0:0:
192,192,294383,1,0,0:0:0:0:
64,192,294383,1,0,0:0:0:0:
320,192,294433,1,0,0:0:0:0:
448,192,294433,1,0,0:0:0:0:
192,192,294483,1,0,0:0:0:0:
64,192,294483,1,0,0:0:0:0:
320,192,294533,1,0,0:0:0:0:
448,192,294533,1,0,0:0:0:0:
192,192,294583,1,0,0:0:0:0:
64,192,294583,1,0,0:0:0:0:
320,192,294633,1,0,0:0:0:0:
448,192,294633,1,0,0:0:0:0:
192,192,294683,1,0,0:0:0:0:
64,192,294683,1,0,0:0:0:0:
320,192,294733,1,0,0:0:0:0:
448,192,294733,1,0,0:0:0:0:
64,192,294783,1,0,0:0:0:0:
192,192,294783,1,0,0:0:0:0:
320,192,294833,128,8,295583:0:0:0:0:
448,192,294833,128,0,295583:0:0:0:0:
64,192,295633,1,0,0:0:0:0:
320,192,295633,128,8,295783:0:0:0:0:
448,192,295633,128,0,295783:0:0:0:0:
448,192,295833,1,0,0:0:0:0:
192,192,295833,1,8,0:0:0:0:
64,192,295833,1,0,0:0:0:0:
448,192,295933,1,0,0:0:0:0:
64,192,296033,1,0,0:0:0:0:
192,192,296033,1,8,0:0:0:0:
320,192,296033,1,0,0:0:0:0:
64,192,296133,1,0,0:0:0:0:
192,192,296233,1,0,0:0:0:0:
320,192,296233,1,8,0:0:0:0:
448,192,296233,1,0,0:0:0:0:
320,192,296333,1,0,0:0:0:0:
448,192,296433,1,8,0:0:0:0:
320,192,296433,1,0,0:0:0:70:bell.wav
192,192,296433,1,0,0:0:0:0:
64,192,296433,1,0,0:0:0:70:crash.wav
