osu file format v14

[General]
AudioFilename: audio.mp3
AudioLeadIn: 0
PreviewTime: 82010
Countdown: 0
SampleSet: Soft
StackLeniency: 0.2
Mode: 0
LetterboxInBreaks: 0
WidescreenStoryboard: 0

[Editor]
Bookmarks: 27610,101210,130310,130360,130410,147210,147310,203610,226010,262810,296410
DistanceSpacing: 0.4
BeatDivisor: 4
GridSize: 32
TimelineZoom: 2.899999

[Metadata]
Title:POWA OF DA WILDANES
TitleUnicode:POWA OF DA WILDANES
Artist:Camellia
ArtistUnicode:かめりあ
Creator:Akali
Version:BREWTAL BEEST
Source:
Tags:power of the wilderness invaidas from da jungle invaiders the speedcore breakcore
BeatmapID:1409923
BeatmapSetID:666135

[Difficulty]
HPDrainRate:4
CircleSize:4
OverallDifficulty:10
ApproachRate:10
SliderMultiplier:1.8
SliderTickRate:1

[Events]
//Background and Video events
0,0,"3_waifu2x_art_noise0_tta_1.png",0,0
//Break Periods
//Storyboard Layer 0 (Background)
//Storyboard Layer 1 (Fail)
//Storyboard Layer 2 (Pass)
//Storyboard Layer 3 (Foreground)
//Storyboard Sound Samples

[TimingPoints]
1210,200,4,2,0,80,1,0
14810,-200,4,2,0,80,0,0
40410,-147.710487444609,4,2,0,80,0,0
53210,-200,4,2,0,80,0,0
58810,-100,4,2,0,80,0,0
59610,-200,4,2,0,80,0,0
65210,-100,4,2,0,80,0,0
66010,-125,4,2,0,80,0,0
71610,-100,4,2,0,80,0,0
78810,-147.710487444609,4,2,0,80,0,0
81210,-125,4,2,0,80,0,0
82010,-75.0187546886722,4,2,0,80,0,1
87610,-59.6302921884317,4,2,0,80,0,1
88410,-75.0187546886722,4,2,0,80,0,1
93210,-75.0187546886722,4,2,0,80,0,0
94010,-75.0187546886722,4,2,0,80,0,0
94410,-100,4,2,0,80,0,0
94810,-75.0187546886722,4,2,0,80,0,1
100410,-75.0187546886722,4,2,0,80,0,0
102810,-125,4,2,0,80,0,0
104010,-75.0187546886722,4,2,0,80,0,0
106010,-125,4,2,0,80,0,0
106360,-125,4,2,0,5,0,0
106410,-125,4,2,0,80,0,0
106810,-100,4,2,0,80,0,0
107610,-75.0187546886722,4,2,0,80,0,0
116010,-59.6302921884317,4,2,0,80,0,0
117210,-75.0187546886722,4,2,0,80,0,0
117910,-59.6302921884317,4,2,0,80,0,0
118110,-75.0187546886722,4,2,0,80,0,0
120010,-200,4,2,0,80,0,0
120160,-200,4,2,0,5,0,0
120210,-200,4,2,0,80,0,0
120360,-200,4,2,0,5,0,0
120410,-75.0187546886722,4,2,0,80,0,0
126410,-100,4,2,0,80,0,0
126810,-75.0187546886722,4,2,0,80,0,0
133210,-147.710487444609,4,2,0,80,0,0
134760,-147.710487444609,4,2,0,5,0,0
134810,-147.710487444609,4,2,0,40,0,0
136410,-147.710487444609,4,2,0,60,0,0
138010,-147.710487444609,4,2,0,80,0,0
138410,-100,4,2,0,80,0,0
138810,-75.0187546886722,4,2,0,80,0,0
142810,-50,4,2,0,80,0,1
144410,-75.187969924812,4,2,0,80,0,1
144810,-100,4,2,0,80,0,1
145410,-75.0187546886722,4,2,0,80,0,1
145610,-59.6302921884317,4,2,0,80,0,1
145810,-50,4,2,0,80,0,1
146010,-75.0187546886722,4,2,0,80,0,0
149210,-50,4,2,0,80,0,1
150410,-59.6302921884317,4,2,0,80,0,1
151610,-50,4,2,0,80,0,1
152410,-75.0187546886722,4,2,0,80,0,0
155610,-50,4,2,0,80,0,1
157210,-75.187969924812,4,2,0,80,0,1
158410,-50,4,2,0,80,0,1
162010,-100,4,2,0,80,0,0
162410,-59.6302921884317,4,2,0,80,0,0
163010,-50,4,2,0,80,0,0
164810,-59.6302921884317,4,2,0,80,0,0
165210,-200,4,2,0,80,0,0
165260,-200,4,2,0,40,0,0
190810,-147.710487444609,4,2,0,60,0,0
197210,-125,4,2,0,60,0,0
205185,-125,4,2,0,5,0,0
205210,-125,4,2,0,80,0,0
205610,-100,4,2,0,80,0,0
206810,-147.710487444609,4,2,0,80,0,0
209310,-147.710487444609,4,2,0,5,0,0
209360,-147.710487444609,4,2,0,80,0,0
209410,-100,4,2,0,80,0,0
209510,-147.710487444609,4,2,0,5,0,0
209560,-147.710487444609,4,2,0,80,0,0
209610,-75.0187546886722,4,2,0,80,0,0
209710,-147.710487444609,4,2,0,5,0,0
209760,-147.710487444609,4,2,0,80,0,0
209810,-59.6302921884317,4,2,0,80,0,0
210010,-147.710487444609,4,2,0,80,0,0
212410,-100,4,2,0,80,0,0
213210,-147.710487444609,4,2,0,80,0,0
215710,-147.710487444609,4,2,0,80,0,0
215760,-147.710487444609,4,2,0,5,0,0
215810,-100,4,2,0,80,0,0
215910,-147.710487444609,4,2,0,5,0,0
215960,-100,4,2,0,80,0,0
216010,-75.0187546886722,4,2,0,80,0,0
216110,-147.710487444609,4,2,0,5,0,0
216160,-75.0187546886722,4,2,0,80,0,0
216210,-59.6302921884317,4,2,0,80,0,0
216410,-100,4,2,0,80,0,0
216710,-100,4,2,0,80,0,0
219410,-100,4,2,0,80,0,0
219610,-125,4,2,0,80,0,0
225610,-100,4,2,0,80,0,0
225810,-75.0187546886722,4,2,0,80,0,0
226010,-100,4,2,0,80,0,0
232410,-147.710487444609,4,2,0,80,0,0
237210,-1000,4,2,0,80,0,0
238810,-75.0187546886722,4,2,0,80,0,1
250810,-59.6302921884317,4,2,0,80,0,1
251610,-75.0187546886722,4,2,0,80,0,1
254810,-100,4,2,0,80,0,1
255110,-75.0187546886722,4,2,0,80,0,1
257210,-59.6302921884317,4,2,0,80,0,1
258010,-75.0187546886722,4,2,0,80,0,1
261210,-100,4,2,0,80,0,1
262810,-147.710487444609,4,2,0,80,0,0
263210,-100,4,2,0,80,0,0
263410,-75.0187546886722,4,2,0,80,0,0
264410,-125,4,2,0,80,0,1
265210,-75.0187546886722,4,2,0,80,0,0
266010,-125,4,2,0,80,0,1
266810,-75.0187546886722,4,2,0,80,0,0
269210,-147.710487444609,4,2,0,80,0,0
269410,-100,4,2,0,80,0,0
269610,-75.0187546886722,4,2,0,80,0,0
269810,-59.6302921884317,4,2,0,80,0,0
270810,-59.6302921884317,4,2,0,80,0,1
282010,-75.0187546886722,4,2,0,80,0,0
283610,-59.6302921884317,4,2,0,80,0,1
294810,-66.6666666666667,4,2,0,80,0,1
296410,-66.6666666666667,4,2,0,80,0,0

[HitObjects]
48,59,14810,5,0,0:0:0:0:
24,97,14910,1,0,0:0:0:0:
22,141,15010,1,0,0:0:0:0:
42,180,15110,1,0,0:0:0:0:
233,199,15310,5,0,0:0:0:0:
189,187,15410,1,0,0:0:0:0:
102,121,15610,5,0,0:0:0:0:
146,109,15710,1,0,0:0:0:0:
233,43,15910,5,0,0:0:0:0:
189,31,16010,1,0,0:0:0:0:
287,261,16210,5,0,0:0:0:0:
311,223,16310,1,0,0:0:0:0:
313,179,16410,1,0,0:0:0:0:
102,121,16610,5,0,0:0:0:0:
113,165,16710,1,0,0:0:0:0:
40,349,16910,5,0,0:0:0:0:
72,317,17010,1,0,0:0:0:0:
269,289,17210,5,0,0:0:0:0:
224,277,17310,1,0,0:0:0:0:
113,165,17510,5,0,0:0:0:0:
125,209,17610,1,0,0:0:0:0:
321,343,17810,5,0,0:0:0:0:
269,289,17910,1,0,0:0:0:0:
224,277,18010,1,0,0:0:0:0:
179,289,18110,1,0,0:0:0:0:
146,321,18210,1,0,0:0:0:0:
133,365,18310,1,0,0:0:0:0:
321,343,18510,5,0,0:0:0:0:
343,303,18610,1,0,0:0:0:0:
277,192,18810,5,0,0:0:0:0:
317,214,18910,1,0,0:0:0:0:
428,148,19110,5,0,0:0:0:0:
406,188,19210,1,0,0:0:0:0:
472,299,19410,5,0,0:0:0:0:
432,277,19510,1,0,0:0:0:0:
386,277,19610,1,0,0:0:0:0:
277,192,19810,5,0,0:0:0:0:
316,168,19910,1,0,0:0:0:0:
353,16,20110,5,0,0:0:0:0:
354,61,20210,1,0,0:0:0:0:
429,193,20410,5,0,0:0:0:0:
428,148,20510,1,0,0:0:0:0:
276,147,20710,5,0,0:0:0:0:
277,192,20810,1,0,0:0:0:0:
199,278,21010,5,0,0:0:0:0:
137,235,21110,1,0,0:0:0:0:
120,193,21210,1,0,0:0:0:0:
126,148,21310,1,0,0:0:0:0:
153,112,21410,1,0,0:0:0:0:
194,94,21510,1,0,0:0:0:0:
245,284,21710,5,0,0:0:0:0:
199,278,21810,1,0,0:0:0:0:
74,199,22010,5,0,0:0:0:0:
120,193,22110,1,0,0:0:0:0:
240,100,22310,5,0,0:0:0:0:
194,94,22410,1,0,0:0:0:0:
14,256,22610,5,0,0:0:0:0:
52,278,22710,1,0,0:0:0:0:
96,279,22810,1,0,0:0:0:0:
223,181,23010,5,0,0:0:0:0:
260,203,23110,1,0,0:0:0:0:
336,308,23310,5,0,0:0:0:0:
373,286,23410,1,0,0:0:0:0:
353,195,23610,5,0,0:0:0:0:
395,207,23710,1,0,0:0:0:0:
466,335,23910,5,0,0:0:0:0:
454,294,24010,1,0,0:0:0:0:
223,181,24210,5,0,0:0:0:0:
291,213,24310,1,0,0:0:0:0:
335,207,24410,1,0,0:0:0:0:
370,179,24510,1,0,0:0:0:0:
386,137,24610,1,0,0:0:0:0:
378,92,24710,1,0,0:0:0:0:
240,51,24910,5,0,0:0:0:0:
234,97,25010,1,0,0:0:0:0:
136,199,25210,5,0,0:0:0:0:
130,153,25310,1,0,0:0:0:0:
73,58,25510,5,0,0:0:0:0:
67,104,25610,1,0,0:0:0:0:
240,265,25810,5,0,0:0:0:0:
243,221,25910,1,0,0:0:0:0:
223,181,26010,1,0,0:0:0:0:
34,279,26210,5,0,0:0:0:0:
80,273,26310,1,0,0:0:0:0:
186,346,26510,5,0,0:0:0:0:
232,352,26610,1,0,0:0:0:0:
439,295,26810,5,0,0:0:0:0:
393,301,26910,1,0,0:0:0:0:
223,181,27110,5,0,0:0:0:0:
269,187,27210,1,0,0:0:0:0:
364,101,27410,5,0,0:0:0:0:
407,162,27510,2,0,P|371:174|367:174,1,22.5
395,205,27610,2,0,P|357:198|353:196,1,22.5
363,236,27710,2,0,P|277:247|223:181,1,180
252,105,28210,5,0,0:0:0:0:
190,54,28310,1,0,0:0:0:0:
113,78,28410,1,0,0:0:0:0:
107,87,28460,1,0,0:0:0:0:
105,98,28510,2,0,B|68:218|161:205|227:307|176:454|17:432|-48:263|138:222|139:284|106:332,1,450
6,258,29610,6,0,P|55:214|122:206,1,135
177,265,30010,2,0,P|242:274|302:244,1,135
382,250,30410,2,0,P|372:207|340:174,1,90
175,150,30710,6,0,P|183:137|190:116,1,22.5
217,163,30810,2,0,P|214:147|204:127,1,22.5
256,142,30910,2,0,P|174:134|122:213,1,180
177,265,31410,5,0,0:0:0:0:
148,340,31510,1,0,0:0:0:0:
74,372,31610,1,0,0:0:0:0:
71,361,31660,1,0,0:0:0:0:
69,349,31710,2,0,B|94:289|154:266|219:286|245:335|245:335|287:359|287:359|334:337|334:337|362:349|400:352|435:346|467:313,1,450
365,196,32760,5,0,0:0:0:0:
357,204,32810,2,0,P|349:245|424:237,1,135
375,90,33160,5,0,0:0:0:0:
369,80,33210,2,0,P|386:144|356:204,1,135
186,177,33560,5,0,0:0:0:0:
180,186,33610,2,0,P|227:140|293:136,1,135
259,28,34010,6,0,P|245:38|221:47,1,22.5
208,30,34110,2,0,P|131:46|125:144,1,180
180,186,34610,5,0,0:0:0:0:
208,262,34710,1,0,0:0:0:0:
174,335,34810,1,0,0:0:0:0:
164,329,34860,1,0,0:0:0:0:
158,318,34910,2,0,B|122:285|112:222|163:166|223:178|258:203|258:203|199:165|190:92|233:35|293:31,1,450
435,111,36010,6,0,P|371:130|304:121,1,135
275,33,36410,2,0,P|329:64|304:122,1,135
227,98,36810,2,0,P|183:93|138:113,1,90
108,232,37110,6,0,L|144:225,1,22.5
143,192,37210,2,0,L|164:199,1,22.5
193,175,37310,2,0,B|223:189|253:180|253:180|295:233|363:225,1,180
431,194,37810,5,0,0:0:0:0:
456,117,37910,1,0,0:0:0:0:
419,45,38010,1,0,0:0:0:0:
409,51,38060,1,0,0:0:0:0:
401,59,38110,2,0,B|374:86|380:126|380:126|422:156|431:194|431:194|378:218|347:261|349:346|417:381|486:331|458:250|430:230,1,450
308,197,39210,6,0,P|288:267|304:346,1,135
254,260,39610,1,0,0:0:0:0:
243,256,39660,1,0,0:0:0:0:
231,256,39710,2,0,P|187:289|138:295,1,90
69,112,40010,2,0,P|129:139|156:200,1,135
42,335,40410,6,0,L|56:214,1,121.85999377089
82,10,40810,1,0,0:0:0:0:
156,200,41010,1,0,0:0:0:0:
69,112,41210,2,0,P|119:81|242:110,1,182.789990656334
291,162,41610,2,0,P|350:172|404:139,1,121.85999377089
465,20,42010,6,0,L|478:141,1,121.85999377089
338,324,42410,2,0,L|352:203,1,121.85999377089
491,243,42810,2,0,P|476:334|388:367,1,182.789990656334
338,324,43210,2,0,L|216:310,1,121.85999377089
170,253,43510,1,0,0:0:0:0:
104,222,43610,6,0,L|225:208,1,121.85999377089
274,153,43910,1,0,0:0:0:0:
296,83,44010,2,0,P|237:89|201:137,1,121.85999377089
216,310,44410,1,0,0:0:0:0:
19,130,44610,2,0,L|37:188,1,60.9299968854448
90,354,44809,1,0,0:0:0:0:
225,208,45010,1,0,0:0:0:0:
266,217,45110,1,0,0:0:0:0:
299,249,45210,6,0,B|324:269|324:269|432:262,1,121.85999377089
463,209,45510,2,0,B|438:189|438:189|330:196,1,121.85999377089
379,121,45810,2,0,L|447:116,1,60.9299968854448
365,50,46010,2,0,L|241:41,1,121.85999377089
103,216,46410,2,0,L|225:208,1,121.85999377089
248,138,46710,1,0,0:0:0:0:
181,108,46810,6,0,P|181:167|225:208,1,121.85999377089
487,133,47210,2,0,P|435:103|378:120,1,121.85999377089
360,363,47610,2,0,B|394:327|394:327|401:245,1,121.85999377089
339,214,47910,1,0,0:0:0:0:
286,163,48010,2,0,L|276:36,1,121.85999377089
11,141,48410,6,0,B|53:164|53:164|126:157,1,121.85999377089
190,193,48710,1,0,0:0:0:0:
243,244,48810,2,0,L|236:309,1,60.9299968854448
84,162,49010,2,0,L|78:101,1,60.9299968854448
275,54,49210,6,0,P|284:113|261:169,1,121.85999377089
190,193,49510,2,0,P|161:246|164:306,1,121.85999377089
222,350,49810,2,0,L|299:341,1,60.9299968854448
476,195,50010,5,0,0:0:0:0:
261,169,50210,1,0,0:0:0:0:
372,331,50410,1,0,0:0:0:0:
398,116,50610,1,0,0:0:0:0:
153,156,50810,5,0,0:0:0:0:
422,188,51010,1,0,0:0:0:0:
254,81,51210,1,0,0:0:0:0:
222,350,51410,1,0,0:0:0:0:
45,143,51610,5,0,0:0:0:0:
256,192,51660,12,0,52360,0:0:0:0:
256,192,52410,12,0,53160,0:0:0:0:
255,142,53210,6,0,B|310:146|342:214|275:288|189:241|208:170|208:170|158:179|121:144|121:144|137:234|102:286|26:319|26:319|85:276|111:216|102:130|15:76|15:76|106:92|174:77|157:-18|66:-6|86:60,1,1080
257,242,56410,6,0,B|202:238|170:170|237:96|323:143|304:214|304:214|354:205|391:240|391:240|375:150|410:98|486:65|486:65|427:108|401:168|410:254|497:308|497:308|438:299|405:357|405:357|325:364,1,1035
233,323,58810,6,0,L|324:317,1,90
440,115,59010,2,0,L|349:108,1,90
56,273,59210,6,0,L|146:266,1,90
262,64,59410,2,0,L|171:57,1,90
54,160,59610,6,0,B|66:237|135:285|216:283|257:242|257:242|202:238|170:170|237:96|323:143|304:214|304:214|354:205|391:240|391:240|406:103|310:66|262:64|262:64|310:40|374:45|429:90|442:169,1,1080
254,141,62810,6,0,B|309:145|341:213|274:287|188:240|207:169|207:169|172:245|273:351|380:290|444:200|441:73|343:2|214:-9|117:35|60:159|129:284|173:305,1,1035
243,347,65210,6,0,P|255:304|247:260,1,90
65,158,65410,1,0,0:0:0:0:
41,247,65510,2,0,P|85:248|125:229,1,90
315,62,65710,1,0,0:0:0:0:
197,80,65810,2,0,L|206:169,1,90
460,221,66010,6,0,B|469:184|469:184|456:134,1,72
352,80,66210,2,0,L|343:169,1,72
247,260,66410,1,0,0:0:0:0:
328,330,66510,1,0,0:0:0:0:
435,319,66610,2,0,L|427:247,1,72
227,366,66810,6,0,B|194:376|194:376|157:369,1,72
41,247,67010,2,0,L|112:239,1,72
199,92,67210,2,0,B|165:88|165:88|130:103,1,72
247,260,67410,2,0,B|269:234|269:234|278:197,1,72
106,26,67610,6,0,L|98:97,1,72
37,211,67810,2,0,L|42:268,3,36
105,311,68010,2,0,L|112:239,1,72
199,92,68210,2,0,L|195:56,3,36
282,83,68410,6,0,L|289:154,1,72
247,260,68610,1,0,0:0:0:0:
402,315,68710,1,0,0:0:0:0:
405,306,68760,1,0,0:0:0:0:
407,295,68810,2,0,P|389:264|360:243,1,72
178,274,69010,2,0,P|214:274|247:260,1,72
432,53,69210,6,0,B|401:38|401:38|363:41,1,72
130,80,69410,2,0,B|157:60|157:60|195:55,1,72
396,134,69610,1,0,0:0:0:0:
360,243,69710,1,0,0:0:0:0:
246,260,69810,2,0,L|238:188,1,72
28,313,70010,6,0,L|20:384,1,72
215,254,70210,2,0,L|207:182,1,72
39,117,70410,2,0,P|56:148|85:169,1,72
325,145,70610,2,0,P|349:118|361:85,1,72
192,38,70810,5,0,0:0:0:0:
194,49,70860,1,0,0:0:0:0:
195,59,70910,1,0,0:0:0:0:
204,152,71010,1,0,0:0:0:0:
144,224,71110,1,0,0:0:0:0:
152,317,71210,1,0,0:0:0:0:
224,377,71310,1,0,0:0:0:0:
326,299,71410,1,0,0:0:0:0:
315,301,71460,1,0,0:0:0:0:
305,302,71510,1,0,0:0:0:0:
294,304,71560,1,0,0:0:0:0:
284,305,71610,6,0,L|288:249,3,45
418,207,71810,2,0,L|414:151,3,45
378,67,72010,2,0,B|391:245|391:245|418:207|418:207|414:152,1,270
476,3,72410,6,0,L|484:114,1,90
227,207,72610,2,0,L|220:117,1,90
384,35,72810,1,0,0:0:0:0:
378,67,72910,1,0,0:0:0:0:
306,159,73010,1,0,0:0:0:0:
308,191,73110,1,0,0:0:0:0:
391,245,73210,5,0,0:0:0:0:
227,207,73310,1,0,0:0:0:0:
270,355,73410,1,0,0:0:0:0:
308,191,73510,1,0,0:0:0:0:
147,241,73610,1,0,0:0:0:0:
142,74,73710,2,0,B|221:117|221:117|227:207,1,180
60,346,74010,6,0,L|66:256,1,90
287,322,74210,2,0,L|197:328,1,90
93,177,74410,1,0,0:0:0:0:
123,165,74510,1,0,0:0:0:0:
323,153,74610,1,0,0:0:0:0:
355,162,74710,1,0,0:0:0:0:
226,206,74810,5,0,0:0:0:0:
253,71,74910,1,0,0:0:0:0:
456,126,75010,1,0,0:0:0:0:
323,153,75110,1,0,0:0:0:0:
367,25,75210,1,0,0:0:0:0:
410,254,75310,2,0,B|345:315|345:315|255:324,1,180
58,341,75610,6,0,L|148:334,1,90
345,313,75810,2,0,L|256:324,1,90
44,139,76010,2,0,P|57:181|89:212,1,90
322,114,76210,2,0,P|317:159|291:195,1,90
132,115,76409,5,0,0:0:0:0:
137,133,76509,1,0,0:0:0:0:
230,125,76609,1,0,0:0:0:0:
232,107,76709,1,0,0:0:0:0:
60,32,76809,5,0,0:0:0:0:
64,50,76909,1,0,0:0:0:0:
287,30,77009,1,0,0:0:0:0:
289,12,77109,1,0,0:0:0:0:
127,97,77210,5,0,0:0:0:0:
234,89,77310,1,0,0:0:0:0:
89,212,77410,5,0,0:0:0:0:
291,195,77510,1,0,0:0:0:0:
58,341,77610,5,0,0:0:0:0:
345,313,77710,1,0,0:0:0:0:
181,103,77810,1,0,0:0:0:0:
199,305,77910,1,0,0:0:0:0:
285,256,78010,5,0,0:0:0:0:
289,248,78060,1,0,0:0:0:0:
291,239,78110,1,0,0:0:0:0:
293,230,78160,1,0,0:0:0:0:
294,221,78210,1,0,0:0:0:0:
294,212,78260,1,0,0:0:0:0:
292,203,78310,1,0,0:0:0:0:
291,195,78360,1,0,0:0:0:0:
264,186,78410,5,0,0:0:0:0:
262,177,78460,1,0,0:0:0:0:
261,168,78510,1,0,0:0:0:0:
261,159,78560,1,0,0:0:0:0:
262,150,78610,1,0,0:0:0:0:
263,141,78660,1,0,0:0:0:0:
266,133,78710,1,0,0:0:0:0:
270,125,78760,1,0,0:0:0:0:
320,70,78810,6,0,B|346:91|359:132|341:182|291:195|291:195|305:242|277:299|234:329|234:329|250:277|244:231|204:215|204:215|152:311|13:287|13:287|120:261|171:202|171:202|97:247|23:243|23:243|83:228|133:186|133:186|74:207|33:197|33:197|83:182|142:137|128:68,1,1401.38992836523
114,38,81210,6,0,P|123:54|128:71,1,36
155,40,81310,2,0,P|159:57|160:75,1,36
193,51,81410,2,0,P|193:68|189:86,1,36
227,72,81510,2,0,P|222:89|214:105,1,36
255,100,81610,2,0,P|246:115|234:128,1,36
270,125,81710,6,0,P|257:137|242:147,2,36
355,73,82010,6,0,L|344:219,1,119.970002617754
167,344,82210,1,0,0:0:0:0:
63,283,82310,2,0,L|72:163,1,119.970002617754
256,267,82510,5,0,0:0:0:0:
151,206,82610,1,0,0:0:0:0:
152,194,82660,1,0,0:0:0:0:
152,182,82710,1,0,0:0:0:0:
153,170,82760,1,0,0:0:0:0:
154,158,82810,6,0,B|209:136|209:136|269:141,1,119.970002617754
476,334,83010,2,0,L|356:341,1,119.970002617754
152,182,83210,5,0,0:0:0:0:
165,376,83310,1,0,0:0:0:0:
385,226,83410,2,0,P|411:172|410:112,1,119.970002617754
271,57,83610,5,0,0:0:0:0:
258,243,83710,1,0,0:0:0:0:
83,128,83810,5,0,0:0:0:0:
269,141,83910,1,0,0:0:0:0:
161,301,84010,2,0,L|151:181,1,119.970002617754
37,52,84210,6,0,P|65:41|95:40,1,59.9850013088768
170,125,84311,2,0,P|165:155|152:182,1,59.9850013088768
20,222,84410,6,0,P|5:278|31:331,1,119.970002617754
42,335,84560,1,0,0:0:0:0:
52,338,84610,1,0,0:0:0:0:
258,244,84710,2,0,L|252:302,2,59.9850013088768
168,166,84910,1,0,0:0:0:0:
160,174,84960,1,0,0:0:0:0:
151,181,85010,2,0,L|161:301,1,119.970002617754
403,347,85210,5,0,0:0:0:0:
418,168,85310,1,0,0:0:0:0:
258,244,85410,5,0,0:0:0:0:
437,259,85510,1,0,0:0:0:0:
361,97,85610,2,0,B|336:133|336:133|329:239,1,119.970002617754
164,348,85810,1,0,0:0:0:0:
163,336,85860,1,0,0:0:0:0:
162,324,85910,1,0,0:0:0:0:
161,312,85960,1,0,0:0:0:0:
160,300,86010,6,0,B|-2:294,1,119.970002617754
101,157,86210,1,0,0:0:0:0:
258,244,86310,1,0,0:0:0:0:
201,9,86410,5,0,0:0:0:0:
151,181,86510,1,0,0:0:0:0:
7,95,86610,2,0,B|56:75|56:75|123:79,1,119.970002617754
308,72,86810,5,0,0:0:0:0:
258,244,86910,1,0,0:0:0:0:
381,373,87010,2,0,B|401:324|401:324|397:257,1,119.970002617754
258,96,87210,5,0,0:0:0:0:
208,268,87310,1,0,0:0:0:0:
428,184,87410,6,0,L|432:124,1,59.9850013088768
263,184,87510,2,0,L|258:243,1,59.9850013088768
343,375,87610,6,0,B|367:318|367:318|358:224,1,150.93000304573
162,30,87810,2,0,L|150:180,1,150.93000304573
305,377,88010,6,0,B|329:320|329:320|320:226,1,150.93000304573
124,32,88210,2,0,L|112:182,1,150.93000304573
428,184,88410,6,0,L|418:64,1,119.970002617754
263,184,88610,1,0,0:0:0:0:
326,286,88710,2,0,B|380:307|380:307|481:297,1,119.970002617754
282,65,88910,1,0,0:0:0:0:
149,180,89010,1,0,0:0:0:0:
149,191,89060,1,0,0:0:0:0:
150,203,89110,1,0,0:0:0:0:
151,215,89160,1,0,0:0:0:0:
152,227,89210,6,0,B|167:287|167:287|155:343,1,119.970002617754,0|0,2:0|2:0,2:0:0:0:
0,189,89410,2,0,L|21:65,1,119.970002617754
260,34,89610,5,0,0:0:0:0:
230,211,89710,1,0,0:0:0:0:
88,120,89810,2,0,P|141:94|203:112,1,119.970002617754
326,286,90010,5,0,0:0:0:0:
296,109,90110,1,0,0:0:0:0:
152,227,90210,5,0,0:0:0:0:
343,187,90310,1,0,0:0:0:0:
202,352,90410,2,0,L|74:338,1,119.970002617754
196,162,90610,6,0,P|217:183|229:210,1,59.9850013088768
326,286,90710,2,0,P|355:291|384:285,1,59.9850013088768
474,199,90810,6,0,L|354:212,1,119.970002617754
349,200,90960,1,0,0:0:0:0:
343,187,91010,1,0,0:0:0:0:
437,30,91110,2,0,L|433:106,2,59.9850013088768
279,30,91310,1,0,0:0:0:0:
142,107,91410,2,0,L|151:226,1,119.970002617754
276,317,91610,5,0,0:0:0:0:
277,305,91660,1,0,0:0:0:0:
278,293,91710,1,0,0:0:0:0:
279,281,91760,1,0,0:0:0:0:
280,269,91810,1,0,0:0:0:0:
160,356,91910,1,0,0:0:0:0:
383,375,92010,1,0,0:0:0:0:
134,335,92110,6,0,P|151:276|234:275,1,119.970002617754
413,356,92310,2,0,P|405:295|323:281,1,119.970002617754
301,30,92510,2,0,L|291:150,1,119.970002617754
281,270,92710,1,0,0:0:0:0:
428,183,92810,2,0,B|452:131|452:131|435:65,1,119.970002617754
151,160,93010,2,0,B|135:104|135:104|160:47,1,119.970002617754
301,30,93210,6,0,B|340:51|351:84|347:133|291:151|291:151|277:187|232:194|232:194|290:182|322:205|324:252|324:252|281:270|281:270|316:299|316:299|278:339|231:330|212:236|122:188|29:263|26:379|161:371|173:323|123:274,1,839.790018324276
15,177,94010,6,0,L|152:191,1,119.970002617754
491,225,94210,2,0,L|371:212,1,119.970002617754
33,146,94410,6,0,L|151:158,1,90
479,190,94610,2,0,L|360:177,1,90
226,0,94810,6,0,B|208:37|208:37|219:116,1,119.970002617754
371,212,95010,1,0,0:0:0:0:
392,15,95110,1,0,0:0:0:0:
282,169,95210,5,0,0:0:0:0:
479,190,95310,1,0,0:0:0:0:
363,351,95410,1,0,0:0:0:0:
351,349,95460,1,0,0:0:0:0:
339,348,95510,1,0,0:0:0:0:
327,347,95560,1,0,0:0:0:0:
315,345,95610,6,0,B|282:320|282:320|255:245,1,119.970002617754
33,146,95810,1,0,0:0:0:0:
54,343,95910,1,0,0:0:0:0:
262,265,96010,5,0,0:0:0:0:
65,244,96110,1,0,0:0:0:0:
121,48,96210,2,0,L|134:168,1,119.970002617754
406,152,96410,5,0,0:0:0:0:
209,131,96510,1,0,0:0:0:0:
276,49,96610,5,0,0:0:0:0:
255,246,96710,1,0,0:0:0:0:
383,143,96810,5,0,0:0:0:0:
133,167,96910,1,0,0:0:0:0:
338,255,97010,6,0,L|409:247,1,59.9850013088768
465,145,97110,2,0,L|406:152,1,59.9850013088768
380,49,97210,6,0,P|325:70|293:119,1,119.970002617754
294,131,97360,1,0,0:0:0:0:
294,141,97410,5,0,0:0:0:0:
371,342,97510,1,0,0:0:0:0:
166,272,97610,5,0,0:0:0:0:
397,248,97710,1,0,0:0:0:0:
261,305,97810,6,0,L|253:234,1,59.9850013088768
145,92,97910,2,0,L|151:151,1,59.9850013088768
92,315,98010,5,0,0:0:0:0:
85,306,98060,1,0,0:0:0:0:
77,297,98110,1,0,0:0:0:0:
69,288,98160,1,0,0:0:0:0:
62,279,98210,2,0,L|56:220,3,59.9850013088768
0,157,98410,5,0,0:0:0:0:
166,272,98510,1,0,0:0:0:0:
145,92,98610,5,0,0:0:0:0:
261,305,98710,1,0,0:0:0:0:
477,58,98910,5,0,0:0:0:0:
259,50,99010,1,0,0:0:0:0:
491,147,99110,5,0,0:0:0:0:
235,136,99210,1,0,0:0:0:0:
468,234,99310,5,0,0:0:0:0:
249,225,99410,1,0,0:0:0:0:
363,237,99610,6,0,L|367:118,1,119.970002617754
347,89,99760,1,0,0:0:0:0:
338,80,99810,2,0,P|320:110|319:148,1,59.9850013088768
241,159,99910,2,0,P|258:189|290:209,1,59.9850013088768
452,183,100010,1,0,0:0:0:0:
259,50,100110,1,0,0:0:0:0:
160,190,100210,1,0,0:0:0:0:
157,219,100260,1,0,0:0:0:0:
161,249,100310,1,0,0:0:0:0:
171,277,100360,1,0,0:0:0:0:
187,302,100410,6,0,B|221:223|160:190|160:190|102:197|102:197|66:160,1,239.940005235507
95,76,100710,1,0,0:0:0:0:
259,50,100810,2,0,B|235:93|235:93|146:108,1,119.970002617754
29,4,101010,2,0,L|31:33,6,29.9925006544384
95,76,101210,5,0,0:0:0:0:
123,343,101410,1,0,0:0:0:0:
236,93,101610,5,0,0:0:0:0:
264,360,101810,1,0,0:0:0:0:
366,37,102010,5,0,0:0:0:0:
394,304,102210,1,0,0:0:0:0:
209,230,102410,5,0,0:0:0:0:
348,217,102510,2,0,L|339:127,2,59.9850013088768
95,76,102810,6,0,L|105:177,1,72
123,343,103010,2,0,L|115:271,1,72
236,93,103210,6,0,L|246:194,1,72
264,360,103410,2,0,L|256:288,1,72
366,37,103610,6,0,L|376:138,1,72
394,304,103810,2,0,L|386:232,1,72
197,85,104060,5,0,0:0:0:0:
209,230,104160,2,0,L|299:221,2,59.9850013088768
28,132,104410,6,0,L|87:137,3,59.9850013088768
101,209,104610,5,0,0:0:0:0:
123,228,104660,1,0,0:0:0:0:
151,238,104710,1,0,0:0:0:0:
181,239,104760,1,0,0:0:0:0:
209,230,104810,2,0,L|268:224,3,59.9850013088768
302,158,105010,5,0,0:0:0:0:
310,146,105060,1,0,0:0:0:0:
321,135,105110,1,0,0:0:0:0:
334,127,105160,1,0,0:0:0:0:
348,122,105210,2,0,L|407:127,3,59.9850013088768
472,168,105410,5,0,0:0:0:0:
468,173,105460,1,0,0:0:0:0:
464,178,105510,1,0,0:0:0:0:
459,182,105560,1,0,0:0:0:0:
453,186,105610,5,0,0:0:0:0:
337,35,105710,1,0,0:0:0:0:
429,195,105810,5,0,0:0:0:0:
313,44,105910,1,0,0:0:0:0:
227,154,106010,6,0,P|261:247|301:157,1,252
232,118,106410,6,0,L|227:154,1,36
210,127,106510,2,0,L|204:162,1,36
126,243,106610,6,0,L|131:278,1,36
148,251,106710,2,0,L|153:286,1,36
283,344,106810,6,0,L|238:350,1,45
271,324,106910,2,0,L|226:330,1,45
43,375,107010,6,0,L|87:368,1,45
48,354,107110,2,0,L|92:347,1,45
153,286,107210,6,0,L|148:251,12,22.5
31,144,107610,6,0,P|14:259|92:346,1,239.940005235507
228,329,107910,2,0,P|279:224|232:118,1,239.940005235507
121,58,108210,2,0,L|137:176,1,119.970002617754
153,286,108410,6,0,L|228:293,3,59.9850013088768
290,241,108610,1,0,0:0:0:0:
298,252,108660,1,0,0:0:0:0:
305,262,108710,2,0,L|364:267,3,59.9850013088768
423,332,108910,1,0,0:0:0:0:
433,324,108960,1,0,0:0:0:0:
440,314,109010,2,0,P|451:286|451:256,3,59.9850013088768
399,188,109210,5,0,0:0:0:0:
398,176,109260,1,0,0:0:0:0:
396,163,109310,1,0,0:0:0:0:
394,150,109360,1,0,0:0:0:0:
392,137,109410,1,0,0:0:0:0:
262,157,109510,1,0,0:0:0:0:
327,94,109610,2,0,P|343:63|344:16,1,59.9850013088768
307,78,109710,2,0,P|314:43|303:-1,1,59.9850013088768
285,69,109810,2,0,P|283:34|260:-7,1,59.9850013088768
205,55,109910,5,0,0:0:0:0:
140,118,110010,2,0,P|124:149|123:196,1,59.9850013088768
160,134,110110,2,0,P|152:168|163:213,1,59.9850013088768
182,143,110210,2,0,P|183:177|206:219,1,59.9850013088768
262,157,110310,5,0,0:0:0:0:
290,241,110410,2,0,P|306:272|307:319,1,59.9850013088768
270,257,110510,2,0,P|278:291|267:336,1,59.9850013088768
248,266,110610,2,0,P|247:300|224:342,1,59.9850013088768
224,268,110710,2,0,P|214:300|181:335,1,59.9850013088768
142,260,110810,6,0,L|399:281,1,239.940005235507
444,74,111110,2,0,L|204:54,1,239.940005235507
84,44,111410,1,0,0:0:0:0:
262,157,111510,1,0,0:0:0:0:
147,200,111610,6,0,L|142:260,3,59.9850013088768
6,252,111810,1,0,0:0:0:0:
8,266,111860,1,0,0:0:0:0:
9,279,111911,2,0,L|68:284,3,59.9850013088768
126,336,112110,1,0,0:0:0:0:
138,337,112160,1,0,0:0:0:0:
150,338,112210,1,0,0:0:0:0:
162,336,112260,1,0,0:0:0:0:
173,332,112310,1,0,0:0:0:0:
184,327,112360,1,0,0:0:0:0:
193,320,112410,6,0,P|220:307|250:308,1,59.9850013088768
227,250,112510,2,0,P|256:254|279:272,1,59.9850013088768
294,208,112610,2,0,P|315:228|324:257,1,59.9850013088768
370,214,112710,2,0,P|375:243|366:271,1,59.9850013088768
428,262,112810,5,0,0:0:0:0:
324,335,112910,1,0,0:0:0:0:
440,294,113010,5,0,0:0:0:0:
336,367,113110,1,0,0:0:0:0:
452,326,113210,6,0,L|464:200,1,119.970002617754
336,141,113410,1,0,0:0:0:0:
227,250,113510,1,0,0:0:0:0:
238,248,113560,1,0,0:0:0:0:
250,247,113610,1,0,0:0:0:0:
262,246,113660,1,0,0:0:0:0:
274,245,113710,1,0,0:0:0:0:
225,172,113810,2,0,L|147:179,1,59.9850013088768
168,332,113910,2,0,L|245:324,1,59.9850013088768
274,245,114010,6,0,B|187:254|187:254|149:285|149:285|28:295,1,239.940005235507
25,81,114310,2,0,B|128:72|128:72|171:96|171:96|259:90,1,239.940005235507
462,149,114610,2,0,L|343:160,1,119.970002617754
215,32,114810,6,0,L|211:91,3,59.9850013088768
165,177,115010,1,0,0:0:0:0:
152,181,115060,1,0,0:0:0:0:
140,184,115111,2,0,L|143:243,3,59.9850013088768
245,231,115310,1,0,0:0:0:0:
258,227,115360,1,0,0:0:0:0:
270,224,115411,2,0,L|266:164,3,59.9850013088768
368,106,115610,6,0,P|352:131|343:160,1,59.9850013088768
341,174,115710,2,0,P|347:203|360:229,1,59.9850013088768
368,241,115810,2,0,P|392:257|421:266,1,59.9850013088768
435,268,115910,2,0,P|464:261|490:248,1,59.9850013088768
435,174,116010,6,0,B|384:200|384:200|368:241,1,100.620002030486
459,359,116143,6,0,B|461:301|461:301|434:267,1,100.620002030486
286,287,116276,6,0,B|334:318|334:318|377:311,1,100.620002030486
266,164,116410,6,0,L|255:275,1,100.620002030486
158,360,116543,6,0,L|148:259,1,100.620002030486
50,163,116676,6,0,L|39:274,1,100.620002030486
8,345,116810,6,0,L|11:382,12,37.7325007614324
124,358,117210,6,0,B|114:247|114:247|135:226|135:226|148:111,1,239.940005235507
134,104,117460,1,0,0:0:0:0:
115,84,117510,1,0,0:0:0:0:
93,69,117560,1,0,0:0:0:0:
66,62,117610,1,0,0:0:0:0:
18,227,117710,2,0,B|36:237|36:237|135:226,1,119.970002617754
412,165,117910,6,0,B|389:177|389:177|265:163,1,150.93000304573
159,8,118110,2,0,L|144:129,1,119.970002617754
348,205,118310,1,0,0:0:0:0:
199,186,118410,1,0,0:0:0:0:
258,325,118510,1,0,0:0:0:0:
117,345,118610,2,0,L|124:285,3,59.9850013088768
170,209,118810,5,0,0:0:0:0:
229,348,118910,1,0,0:0:0:0:
319,228,119010,1,0,0:0:0:0:
180,287,119110,1,0,0:0:0:0:
329,306,119210,1,0,0:0:0:0:
271,168,119310,1,0,0:0:0:0:
420,187,119410,1,0,0:0:0:0:
311,85,119510,1,0,0:0:0:0:
404,97,119610,5,0,0:0:0:0:
392,130,119660,1,0,0:0:0:0:
369,158,119710,1,0,0:0:0:0:
338,173,119760,1,0,0:0:0:0:
302,178,119810,1,0,0:0:0:0:
268,167,119860,1,0,0:0:0:0:
240,145,119910,1,0,0:0:0:0:
223,115,119960,1,0,0:0:0:0:
221,47,120010,6,0,L|223:115,1,67.5
186,128,120210,6,0,L|184:60,1,67.5
127,7,120410,6,0,B|111:37|111:37|119:249,1,239.940005235507
218,284,120660,1,0,0:0:0:0:
230,286,120710,2,0,L|221:47,1,239.940005235507
311,85,120960,1,0,0:0:0:0:
322,89,121010,2,0,L|327:220,1,119.970002617754
332,361,121210,6,0,L|330:301,3,59.9850013088768
240,263,121410,1,0,0:0:0:0:
235,275,121460,1,0,0:0:0:0:
230,286,121510,2,0,L|170:288,3,59.9850013088768
80,249,121710,1,0,0:0:0:0:
68,244,121760,1,0,0:0:0:0:
57,239,121810,2,0,L|55:179,3,59.9850013088768
12,118,122010,5,0,0:0:0:0:
29,108,122060,1,0,0:0:0:0:
48,104,122110,1,0,0:0:0:0:
68,104,122160,1,0,0:0:0:0:
87,109,122210,1,0,0:0:0:0:
202,154,122310,2,0,B|256:175|256:175|317:172,1,119.970002617754
184,32,122510,1,0,0:0:0:0:
104,118,122610,2,0,L|106:178,1,59.9850013088768
168,228,122710,2,0,L|170:288,1,59.9850013088768
106,337,122810,5,0,0:0:0:0:
287,330,122910,1,0,0:0:0:0:
205,273,123010,2,0,L|200:139,1,119.970002617754
250,96,123160,1,0,0:0:0:0:
258,104,123210,2,0,L|318:102,1,59.9850013088768
338,177,123310,2,0,L|278:179,1,59.9850013088768
298,253,123410,2,0,L|358:251,1,59.9850013088768
378,326,123510,2,0,L|318:328,1,59.9850013088768
287,330,123610,6,0,B|320:290|320:290|526:283,1,239.940005235507
477,196,123860,1,0,0:0:0:0:
474,208,123910,2,0,L|194:218,1,239.940005235507
101,58,124210,2,0,L|105:185,1,119.970002617754
26,292,124410,6,0,P|65:269|79:249,1,59.9850013088768
165,303,124510,2,0,P|164:257|154:235,1,59.9850013088768
105,177,124610,1,0,0:0:0:0:
86,360,124710,1,0,0:0:0:0:
253,342,124810,5,0,0:0:0:0:
258,318,124860,1,0,0:0:0:0:
263,294,124910,1,0,0:0:0:0:
268,270,124960,1,0,0:0:0:0:
273,246,125010,2,0,L|269:149,3,59.9850013088768
209,133,125210,5,0,0:0:0:0:
235,117,125310,1,0,0:0:0:0:
378,151,125410,2,0,L|495:173,1,119.970002617754
261,101,125610,5,0,0:0:0:0:
287,85,125710,1,0,0:0:0:0:
430,119,125810,2,0,L|536:138,3,59.9850013088768
339,53,126010,5,0,0:0:0:0:
313,69,126110,1,0,0:0:0:0:
287,85,126210,1,0,0:0:0:0:
261,101,126310,1,0,0:0:0:0:
188,57,126410,6,0,P|175:99|187:142,1,90
260,186,126610,2,0,P|272:143|261:101,1,90
75,83,126810,6,0,L|60:227,1,119.970002617754
69,211,126960,1,0,0:0:0:0:
77,220,127010,1,0,0:0:0:0:
84,229,127060,1,0,0:0:0:0:
92,239,127110,2,0,L|211:251,1,119.970002617754
220,243,127260,1,0,0:0:0:0:
229,235,127310,1,0,0:0:0:0:
238,228,127360,1,0,0:0:0:0:
248,220,127410,2,0,L|367:207,1,119.970002617754
457,282,127560,5,0,0:0:0:0:
448,290,127610,2,0,L|388:283,3,59.9850013088768
312,295,127810,1,0,0:0:0:0:
303,302,127860,1,0,0:0:0:0:
294,309,127910,1,0,0:0:0:0:
285,317,127960,1,0,0:0:0:0:
275,324,128010,2,0,L|215:330,3,59.9850013088768
151,244,128210,2,0,L|211:251,3,59.9850013088768
264,176,128410,5,0,0:0:0:0:
273,153,128460,1,0,0:0:0:0:
275,128,128510,1,0,0:0:0:0:
271,103,128560,1,0,0:0:0:0:
260,80,128610,1,0,0:0:0:0:
102,58,128710,1,0,0:0:0:0:
172,133,128810,2,0,L|162:211,1,59.9850013088768
137,146,128910,2,0,L|127:224,1,59.9850013088768
102,159,129010,2,0,L|92:237,1,59.9850013088768
19,190,129110,5,0,0:0:0:0:
151,244,129210,2,0,L|161:322,1,59.9850013088768
186,257,129310,2,0,L|196:335,1,59.9850013088768
221,270,129410,2,0,L|231:348,1,59.9850013088768
310,302,129510,5,0,0:0:0:0:
341,219,129610,2,0,L|281:226,1,59.9850013088768
354,184,129710,2,0,L|294:191,1,59.9850013088768
367,149,129810,2,0,L|307:156,1,59.9850013088768
380,114,129910,2,0,L|320:121,1,59.9850013088768
279,60,130010,6,0,B|333:86|333:86|393:79,1,119.970002617754
403,84,130160,1,0,0:0:0:0:
413,89,130210,1,0,0:0:0:0:
423,94,130260,1,0,0:0:0:0:
433,99,130310,2,0,B|446:249,1,119.970002617754
310,302,130510,1,0,0:0:0:0:
243,125,130610,1,0,0:0:0:0:
199,309,130710,1,0,0:0:0:0:
341,219,130810,6,0,L|209:231,1,119.970002617754
117,160,130960,1,0,0:0:0:0:
109,169,131010,5,0,0:0:0:0:
74,177,131060,1,0,0:0:0:0:
38,165,131110,1,0,0:0:0:0:
14,138,131160,1,0,0:0:0:0:
6,102,131210,2,0,P|29:69|60:49,1,59.9850013088768
116,34,131310,2,0,P|155:39|188:57,1,59.9850013088768
227,100,131410,2,0,P|240:137|240:174,1,59.9850013088768
221,229,131510,2,0,P|194:258|161:275,1,59.9850013088768
59,296,131610,6,0,L|73:176,1,119.970002617754
355,99,131810,2,0,L|340:218,1,119.970002617754
177,269,132010,1,0,0:0:0:0:
227,100,132110,1,0,0:0:0:0:
396,277,132210,1,0,0:0:0:0:
153,346,132310,1,0,0:0:0:0:
220,228,132410,6,0,L|250:232,6,29.9925006544384
314,161,132610,2,0,L|310:190,6,29.9925006544384
379,253,132810,2,0,L|349:249,6,29.9925006544384
285,319,133010,2,0,L|289:290,6,29.9925006544384
220,228,133210,6,0,B|286:216|314:161|314:161|324:222|379:253|379:253|323:261|285:320|285:320|278:255|220:228|220:228|201:292|140:296|140:296|212:226|183:101|71:66|2:121|-19:169,1,944.414951724394
71,216,134810,6,0,P|98:190|116:152,3,60.9299968854448
103,8,135210,6,0,P|121:40|127:82,3,60.9299968854448
153,243,135610,6,0,P|185:224|213:192,1,60.9299968854448
186,2,135810,6,0,P|212:28|229:66,1,60.9299968854448
253,267,136010,6,0,P|289:257|323:234,1,60.9299968854448
290,7,136210,6,0,P|322:25|349:58,1,60.9299968854448
420,235,136410,5,0,0:0:0:0:
388,217,136510,1,0,0:0:0:0:
441,80,136610,5,0,0:0:0:0:
405,89,136710,1,0,0:0:0:0:
309,246,136810,5,0,0:0:0:0:
277,228,136910,1,0,0:0:0:0:
338,42,137010,5,0,0:0:0:0:
302,51,137110,1,0,0:0:0:0:
172,123,137210,5,0,0:0:0:0:
208,128,137310,1,0,0:0:0:0:
359,146,137410,5,0,0:0:0:0:
323,141,137510,1,0,0:0:0:0:
227,242,137610,5,0,0:0:0:0:
245,210,137710,1,0,0:0:0:0:
257,24,137810,5,0,0:0:0:0:
266,60,137910,1,0,0:0:0:0:
323,141,138010,5,0,0:0:0:0:
208,128,138110,1,0,0:0:0:0:
245,210,138210,1,0,0:0:0:0:
266,60,138310,1,0,0:0:0:0:
126,117,138410,6,0,P|128:153|138:175,1,45
227,242,138510,2,0,P|207:272|187:286,1,45
51,220,138610,2,0,P|70:250|90:264,1,45
200,277,138710,6,0,P|197:313|187:334,1,45
40,334,138810,6,0,P|30:275|50:219,1,119.970002617754
304,228,139010,2,0,P|257:265|199:276,1,119.970002617754
80,53,139210,2,0,P|135:74|173:119,2,119.970002617754
80,53,139610,6,0,L|231:74,1,119.970002617754
377,33,139810,2,0,L|373:92,1,59.9850013088768
251,124,139910,2,0,L|247:183,1,59.9850013088768
125,215,140010,2,0,L|276:236,1,119.970002617754
409,49,140210,6,0,L|405:108,1,59.9850013088768
283,140,140310,2,0,L|279:199,1,59.9850013088768
157,231,140410,2,0,L|308:252,1,119.970002617754
441,65,140610,6,0,L|437:124,1,59.9850013088768
315,156,140710,2,0,L|311:215,1,59.9850013088768
189,247,140810,2,0,L|340:268,1,119.970002617754
473,81,141010,5,0,0:0:0:0:
347,172,141110,1,0,0:0:0:0:
221,263,141210,2,0,L|372:284,1,119.970002617754
505,97,141410,5,0,0:0:0:0:
493,100,141460,1,0,0:0:0:0:
481,103,141510,1,0,0:0:0:0:
469,106,141560,1,0,0:0:0:0:
457,109,141610,2,0,B|428:165|428:165|436:260,1,119.970002617754
313,372,141810,5,0,0:0:0:0:
301,372,141860,1,0,0:0:0:0:
288,371,141910,1,0,0:0:0:0:
276,369,141960,1,0,0:0:0:0:
264,369,142010,2,0,B|225:318|225:318|217:223,1,119.970002617754
173,92,142210,5,0,0:0:0:0:
315,156,142310,1,0,0:0:0:0:
189,247,142410,1,0,0:0:0:0:
141,76,142610,5,0,0:0:0:0:
283,140,142710,1,0,0:0:0:0:
157,231,142810,6,0,B|158:323|158:323|268:312|285:212|260:135|195:65|33:126|42:217|83:301,1,540
271,363,143210,6,0,B|310:328|339:270|327:207|327:207|315:169|341:134|341:134|291:132|268:90|268:90|201:49|129:44|37:93,1,540
158,323,143610,6,0,P|200:311|251:250,1,90
236,183,143710,2,0,P|204:151|125:137,1,90
68,200,143810,2,0,B|61:226|31:237|31:237|99:222|160:228,1,180
340,134,144010,6,0,P|391:176|325:165,1,180
76,76,144210,6,0,P|73:9|109:65,1,180
236,182,144410,6,0,B|236:207|265:243|265:243|215:230|156:223|92:223|31:237|31:237|61:226|67:199,1,359.099985205536
118,146,144810,6,0,P|138:137|161:136,1,45
236,182,144910,2,0,P|257:179|278:172,1,45
247,91,145010,6,0,P|267:82|289:81,1,45
365,127,145110,2,0,P|386:124|407:117,1,45
381,3,145210,6,0,P|371:23|368:45,1,45
486,128,145310,2,0,P|482:149|472:169,1,45
381,241,145410,6,0,P|359:185|364:126,1,119.970002617754
312,304,145610,6,0,P|264:266|236:172,1,150.93000304573
40,370,145810,6,0,P|110:330|232:338,1,180
431,295,146010,6,0,L|311:303,1,119.970002617754
7,121,146210,2,0,L|2:180,1,59.9850013088768
121,152,146310,2,0,L|116:211,1,59.9850013088768
235,183,146410,2,0,L|226:302,1,119.970002617754
39,109,146610,6,0,L|34:168,1,59.9850013088768
153,140,146710,2,0,L|148:199,1,59.9850013088768
267,171,146810,2,0,L|258:290,1,119.970002617754
71,97,147010,6,0,L|66:156,1,59.9850013088768
185,128,147110,2,0,L|180:187,1,59.9850013088768
299,159,147210,2,0,L|290:278,1,119.970002617754
103,85,147410,5,0,0:0:0:0:
217,116,147510,1,0,0:0:0:0:
331,147,147610,2,0,L|322:266,1,119.970002617754
81,351,147810,5,0,0:0:0:0:
71,356,147860,1,0,0:0:0:0:
61,361,147910,1,0,0:0:0:0:
51,366,147959,1,0,0:0:0:0:
40,370,148010,2,0,B|31:307|31:307|48:253,1,119.970002617754
190,215,148210,5,0,0:0:0:0:
200,219,148260,1,0,0:0:0:0:
210,223,148310,1,0,0:0:0:0:
220,228,148359,1,0,0:0:0:0:
231,231,148410,2,0,B|236:167|236:167|216:115,1,119.970002617754
103,85,148610,5,0,0:0:0:0:
119,229,148710,1,0,0:0:0:0:
204,345,148810,1,0,0:0:0:0:
71,97,149010,5,0,0:0:0:0:
87,241,149110,1,0,0:0:0:0:
172,357,149210,2,0,B|240:330|240:330|327:352|327:352|286:287|339:263|339:263|388:360|508:383|542:193|360:200|384:291|424:325,1,540
504,183,149610,6,0,B|446:137|353:142|267:225|327:353|327:353|258:304|264:226|314:157,1,540
451,78,150010,6,0,P|406:78|362:89,1,90
274,99,150110,2,0,P|318:99|362:88,1,90
192,77,150210,6,0,P|214:160|297:182,1,180
428,257,150410,6,0,P|453:314|391:306,1,150.93000304573
269,340,150610,6,0,L|276:264,1,75.4650015228648
179,281,150710,2,0,L|171:356,1,75.4650015228648
72,362,150810,6,0,P|159:257|269:338,1,301.860006091459
494,205,151110,6,0,P|406:100|297:182,1,301.860006091459
365,327,151410,6,0,P|409:268|394:196,1,150.93000304573
79,72,151610,6,0,B|147:97|192:77|192:77|224:108|296:112|296:112|312:85|367:52|437:73,1,360
365,327,151910,6,0,B|315:325|276:274|271:243|271:243|202:221|161:239|161:239|126:204|55:203,1,360
13,382,152210,6,0,P|55:296|119:366,1,225
261,363,152410,6,0,L|271:244,1,119.970002617754
463,209,152610,6,0,L|458:149,1,59.9850013088768
350,233,152710,2,0,L|345:173,1,59.9850013088768
237,257,152810,2,0,L|227:137,1,119.970002617754
35,102,153010,6,0,L|39:42,1,59.9850013088768
148,126,153110,2,0,L|152:66,1,59.9850013088768
261,150,153210,2,0,L|270:30,1,119.970002617754
271,244,153410,6,0,L|261:363,1,119.970002617754
107,322,153610,1,0,0:0:0:0:
71,212,153710,1,0,0:0:0:0:
184,236,153810,1,0,0:0:0:0:
107,322,153910,1,0,0:0:0:0:
71,212,154010,5,0,0:0:0:0:
73,200,154060,1,0,0:0:0:0:
75,188,154110,1,0,0:0:0:0:
77,176,154160,1,0,0:0:0:0:
79,164,154210,2,0,B|131:143|131:143|209:159,1,119.970002617754
300,243,154410,5,0,0:0:0:0:
302,255,154460,1,0,0:0:0:0:
304,267,154510,1,0,0:0:0:0:
306,279,154560,1,0,0:0:0:0:
308,291,154610,2,0,B|360:312|360:312|438:296,1,119.970002617754
437,132,154810,6,0,L|318:155,1,119.970002617754
182,19,155010,5,0,0:0:0:0:
193,155,155110,1,0,0:0:0:0:
204,291,155210,1,0,0:0:0:0:
330,19,155410,5,0,0:0:0:0:
319,155,155510,1,0,0:0:0:0:
308,291,155610,6,0,B|340:225|409:224|409:224|343:209|319:155|319:155|283:200|213:199|213:199|160:262|206:325|206:325|201:261,1,540
227,83,156010,6,0,B|160:95|85:157|79:268|79:268|85:157|1:115|1:115|85:157|135:116,1,540
19,33,156410,6,0,P|69:56|116:46,1,90
195,2,156510,2,0,P|222:38|227:83,1,90
122,146,156610,2,0,B|82:198|79:268|79:268|90:237|123:216,1,180
203,288,156810,6,0,P|180:342|182:276,1,180
415,191,157010,6,0,P|477:171|413:164,1,180
362,3,157210,6,0,B|334:50|359:98|359:98|300:169|358:250|358:250|323:303|357:359,1,359.099985205536
478,320,157610,6,0,P|450:309|421:306,1,59.8499975342561
358,250,157710,2,0,P|328:254|300:266,1,59.8499975342561
244,330,157810,6,0,P|220:311|202:287,1,59.8499975342561
122,260,157910,2,0,P|111:232|107:202,1,59.8499975342561
251,185,158010,6,0,P|242:243|202:286,1,119.699995068512
121,259,158210,2,0,P|108:202|129:147,1,119.699995068512
392,105,158410,6,0,P|410:174|346:142,1,180
45,8,158610,6,0,P|-7:39|69:51,1,180
256,64,158810,5,0,0:0:0:0:
129,146,158910,1,0,0:0:0:0:
184,6,159010,1,0,0:0:0:0:
222,152,159110,1,0,0:0:0:0:
46,188,159210,5,0,0:0:0:0:
210,263,159310,1,0,0:0:0:0:
64,346,159410,1,0,0:0:0:0:
139,182,159510,1,0,0:0:0:0:
176,359,159610,5,0,0:0:0:0:
311,239,159710,1,0,0:0:0:0:
135,276,159810,1,0,0:0:0:0:
306,332,159910,1,0,0:0:0:0:
176,359,160010,6,0,P|225:266|174:193,1,180
139,182,160210,2,0,P|137:252|191:197,1,180
256,64,160410,5,0,0:0:0:0:
383,146,160510,1,0,0:0:0:0:
328,6,160610,1,0,0:0:0:0:
290,152,160710,1,0,0:0:0:0:
466,188,160810,5,0,0:0:0:0:
302,263,160910,1,0,0:0:0:0:
448,346,161010,1,0,0:0:0:0:
373,182,161110,1,0,0:0:0:0:
336,359,161210,5,0,0:0:0:0:
201,239,161310,1,0,0:0:0:0:
377,276,161410,1,0,0:0:0:0:
206,332,161510,1,0,0:0:0:0:
244,155,161610,6,0,P|468:182|325:357,1,540
296,192,162010,6,0,P|408:203|336:294,1,270
87,270,162410,6,0,B|150:260|223:313|223:313|276:240|350:230,1,301.860006091459
349,230,162710,2,0,B|285:240|212:186|212:186|159:260|86:270,1,301.860006091459
87,269,163010,6,0,P|206:148|348:229,1,360
348,229,163310,6,0,B|247:239|209:148|209:148|193:247|83:270,1,360
64,187,163610,6,0,P|112:171|132:133,1,90
130,138,163710,2,0,P|82:154|62:192,1,90
86,268,163810,6,0,P|202:176|128:5,1,360
48,149,164110,6,0,P|91:159|130:138,1,90
130,138,164210,2,0,P|117:95|79:72,1,90
79,72,164311,2,0,P|48:104|47:148,1,90
63,185,164410,6,0,P|151:164|209:78,1,180
281,243,164610,6,0,P|217:183|204:96,1,180
366,48,164810,6,0,P|331:193|356:45,1,452.790009137189
479,69,165210,6,0,B|503:138|482:199|449:233|401:264|349:266|349:266|399:307|487:259|487:259|525:356|400:392|309:347|282:298|282:298|262:337|226:359|226:359|239:306|205:268|205:268|142:353|-37:342|-92:77|148:51|202:102|223:196|223:196|228:74|79:61|6:137|6:137|26:14|209:-7|296:93|300:183|300:183|367:218|424:169|455:141|431:-24|286:29|271:89,1,2520
126,201,171610,6,0,B|136:269|92:337|36:359|36:359|114:351|201:133|236:353|339:379|382:250|352:214|291:188|251:237|273:283,1,630
351,357,173210,6,0,B|416:327|443:228|393:157|315:144|315:144|211:102|244:-47|453:-72|453:163|315:144|315:144|194:186|77:85|77:85|183:248|96:330|36:359|36:359|69:324|57:277,1,1350
77,85,176410,6,0,P|174:176|208:304,1,270
332,80,177210,6,0,P|205:119|76:84,1,270
27,290,178010,5,0,0:0:0:0:
68,272,178110,1,0,0:0:0:0:
112,276,178210,1,0,0:0:0:0:
148,301,178310,1,0,0:0:0:0:
341,281,178510,5,0,0:0:0:0:
300,299,178610,1,0,0:0:0:0:
256,295,178710,1,0,0:0:0:0:
219,269,178810,2,0,P|212:246|212:224,1,45
288,136,179010,2,0,P|271:153|253:164,1,45
139,143,179210,2,0,P|162:148|180:159,1,45
50,218,179410,6,0,L|47:153,1,45
57,167,179560,1,0,0:0:0:0:
66,160,179610,1,0,0:0:0:0:
139,143,179710,2,0,L|197:148,1,45
256,295,179910,6,0,P|204:314|160:306,1,90
200,224,180210,1,0,0:0:0:0:
241,205,180310,1,0,0:0:0:0:
285,209,180410,2,0,L|292:259,1,45
422,296,180610,6,0,L|428:251,1,45
419,245,180760,1,0,0:0:0:0:
410,238,180810,1,0,0:0:0:0:
357,176,180910,5,0,0:0:0:0:
357,164,180960,1,0,0:0:0:0:
356,153,181010,1,0,0:0:0:0:
414,86,181110,5,0,0:0:0:0:
426,86,181160,1,0,0:0:0:0:
437,85,181210,1,0,0:0:0:0:
434,161,181310,1,0,0:0:0:0:
285,209,181510,6,0,L|276:109,1,90
222,68,181810,1,0,0:0:0:0:
177,59,181910,1,0,0:0:0:0:
133,73,182010,2,0,L|128:117,1,45
116,232,182210,2,0,L|120:182,1,45
31,75,182410,2,0,L|26:119,1,45
154,158,182610,5,0,0:0:0:0:
145,165,182660,1,0,0:0:0:0:
137,172,182710,1,0,0:0:0:0:
128,179,182760,1,0,0:0:0:0:
120,187,182810,2,0,L|117:218,2,22.5
276,119,183110,6,0,P|330:125|372:153,1,90
391,211,183410,1,0,0:0:0:0:
380,254,183510,1,0,0:0:0:0:
352,289,183610,2,0,L|291:284,1,45
295,284,183760,1,0,0:0:0:0:
283,283,183810,1,0,0:0:0:0:
211,218,183910,5,0,0:0:0:0:
205,228,183960,1,0,0:0:0:0:
199,237,184010,1,0,0:0:0:0:
207,341,184110,5,0,0:0:0:0:
201,330,184160,1,0,0:0:0:0:
196,320,184210,1,0,0:0:0:0:
345,339,184410,5,0,0:0:0:0:
388,328,184510,1,0,0:0:0:0:
430,339,184610,1,0,0:0:0:0:
461,370,184710,1,0,0:0:0:0:
476,127,184910,5,0,0:0:0:0:
465,169,185010,1,0,0:0:0:0:
434,200,185110,1,0,0:0:0:0:
391,211,185210,2,0,P|371:191|365:174,1,45
398,61,185410,2,0,P|390:88|378:102,1,45
265,130,185610,2,0,P|292:122|310:125,1,45
307,285,185810,6,0,L|246:282,1,45
256,271,185960,1,0,0:0:0:0:
251,261,186010,1,0,0:0:0:0:
193,212,186110,2,0,L|132:215,1,45
64,349,186310,2,0,P|96:329|125:282,1,90
75,230,186610,5,0,0:0:0:0:
78,185,186710,1,0,0:0:0:0:
81,140,186810,6,0,L|125:137,1,45
135,131,186960,1,0,0:0:0:0:
144,124,187010,1,0,0:0:0:0:
245,99,187110,5,0,0:0:0:0:
236,106,187160,1,0,0:0:0:0:
227,113,187210,1,0,0:0:0:0:
193,212,187310,5,0,0:0:0:0:
202,205,187360,1,0,0:0:0:0:
211,198,187410,1,0,0:0:0:0:
312,173,187510,5,0,0:0:0:0:
303,180,187560,1,0,0:0:0:0:
294,187,187610,5,0,0:0:0:0:
281,230,187710,1,0,0:0:0:0:
291,273,187810,1,0,0:0:0:0:
321,305,187910,2,0,L|420:301,1,90
461,245,188210,1,0,0:0:0:0:
474,202,188310,1,0,0:0:0:0:
463,158,188410,2,0,L|418:156,1,45
245,99,188610,5,0,0:0:0:0:
305,51,188710,2,0,L|349:49,1,45
294,187,188910,5,0,0:0:0:0:
252,201,189010,1,0,0:0:0:0:
208,193,189110,1,0,0:0:0:0:
173,164,189210,1,0,0:0:0:0:
113,116,189310,2,0,L|68:114,1,45
316,79,189510,2,0,L|360:77,1,45
300,261,189710,5,0,0:0:0:0:
273,331,189810,1,0,0:0:0:0:
225,272,189910,1,0,0:0:0:0:
177,213,190010,2,0,L|176:169,1,45
359,160,190210,5,0,0:0:0:0:
371,166,190260,1,0,0:0:0:0:
383,172,190310,2,0,L|384:216,1,45
189,284,190510,1,0,0:0:0:0:
177,290,190560,1,0,0:0:0:0:
165,296,190610,2,0,L|166:340,1,45
297,383,190810,6,0,L|300:261,1,121.85999377089
223,242,191110,1,0,0:0:0:0:
165,187,191210,2,0,L|163:126,1,60.9299968854448
352,85,191410,1,0,0:0:0:0:
129,270,191610,6,0,P|85:230|77:171,1,121.85999377089
133,114,191910,1,0,0:0:0:0:
190,59,192010,2,0,L|251:60,1,60.9299968854448
33,22,192210,5,0,0:0:0:0:
37,52,192310,1,0,0:0:0:0:
41,82,192410,2,0,P|69:97|101:100,1,60.9299968854448
250,60,192610,1,0,0:0:0:0:
314,106,192710,2,0,L|301:245,1,121.85999377089
404,212,193010,5,0,0:0:0:0:
401,242,193110,1,0,0:0:0:0:
399,272,193210,2,0,P|371:288|340:293,1,60.9299968854448
176,189,193410,2,0,P|181:218|197:244,1,60.9299968854448
340,161,193610,2,0,L|346:91,1,60.9299968854448
333,91,193760,1,0,0:0:0:0:
320,81,193810,1,0,0:0:0:0:
221,130,193910,1,0,0:0:0:0:
234,140,193960,1,0,0:0:0:0:
247,150,194010,5,0,0:0:0:0:
283,221,194110,2,0,P|279:280|235:324,1,121.85999377089
135,359,194410,2,0,L|127:290,1,60.9299968854448
31,227,194610,1,0,0:0:0:0:
18,199,194710,1,0,0:0:0:0:
20,168,194810,6,0,L|89:160,1,60.9299968854448
239,20,195010,2,0,L|178:27,1,60.9299968854448
159,184,195210,2,0,L|219:176,1,60.9299968854448
317,43,195410,1,0,0:0:0:0:
331,47,195460,1,0,0:0:0:0:
344,50,195510,1,0,0:0:0:0:
357,53,195560,1,0,0:0:0:0:
370,56,195610,6,0,L|377:116,1,60.9299968854448
298,248,195810,1,0,0:0:0:0:
230,207,195910,2,0,P|277:171|341:183,1,121.85999377089
376,246,196210,1,0,0:0:0:0:
338,315,196310,1,0,0:0:0:0:
270,355,196410,6,0,L|209:347,1,60.9299968854448
202,334,196560,1,0,0:0:0:0:
194,320,196610,1,0,0:0:0:0:
124,283,196710,1,0,0:0:0:0:
116,269,196760,1,0,0:0:0:0:
108,255,196810,2,0,L|115:194,1,60.9299968854448
214,179,197010,1,0,0:0:0:0:
222,193,197060,1,0,0:0:0:0:
230,207,197110,1,0,0:0:0:0:
215,284,197210,6,0,B|97:286|97:286|74:241,1,144
50,191,197510,1,0,0:0:0:0:
73,115,197610,2,0,L|159:111,1,72
256,32,197810,5,0,0:0:0:0:
331,55,197910,1,0,0:0:0:0:
406,78,198010,2,0,L|399:172,1,72
289,335,198210,2,0,L|293:263,1,72
181,55,198410,2,0,P|153:93|155:199,1,144
161,189,198660,1,0,0:0:0:0:
173,191,198710,1,0,0:0:0:0:
185,193,198760,1,0,0:0:0:0:
197,195,198810,6,0,L|268:190,1,72
362,303,199010,1,0,0:0:0:0:
289,335,199110,2,0,L|138:324,1,144
26,269,199410,1,0,0:0:0:0:
31,226,199510,1,0,0:0:0:0:
56,191,199610,6,0,L|64:112,1,72
56,110,199760,1,0,0:0:0:0:
48,100,199810,1,0,0:0:0:0:
149,106,199910,5,0,0:0:0:0:
141,96,199960,1,0,0:0:0:0:
133,86,200010,1,0,0:0:0:0:
234,92,200110,5,0,0:0:0:0:
226,82,200160,1,0,0:0:0:0:
218,72,200210,1,0,0:0:0:0:
311,68,200310,5,0,0:0:0:0:
303,58,200360,1,0,0:0:0:0:
295,48,200410,1,0,0:0:0:0:
369,21,200510,2,0,L|364:105,1,72
237,177,200710,5,0,0:0:0:0:
197,195,200810,2,0,L|201:266,1,72
289,335,201010,1,0,0:0:0:0:
362,303,201110,1,0,0:0:0:0:
390,228,201210,6,0,P|343:224|306:243,1,72
267,114,201410,2,0,P|240:152|237:194,1,72
106,163,201610,2,0,P|126:205|160:228,1,72
289,335,201810,5,0,0:0:0:0:
280,323,201860,1,0,0:0:0:0:
268,313,201910,1,0,0:0:0:0:
254,307,201960,1,0,0:0:0:0:
238,304,202010,5,0,0:0:0:0:
161,324,202110,2,0,L|88:317,1,72
256,203,202310,2,0,P|309:234|415:212,1,144
418,154,202610,1,0,0:0:0:0:
399,77,202710,1,0,0:0:0:0:
343,18,202810,6,0,L|253:28,1,72
26,137,203010,2,0,L|97:129,1,72
162,173,203210,5,0,0:0:0:0:
160,191,203260,1,0,0:0:0:0:
158,209,203310,1,0,0:0:0:0:
157,288,203410,5,0,0:0:0:0:
159,306,203460,1,0,0:0:0:0:
161,324,203510,1,0,0:0:0:0:
256,192,203610,12,0,205185,0:0:0:0:
257,174,205210,6,0,L|256:192,15,18
181,220,205610,6,0,P|194:243|219:262,1,45
284,266,205710,2,0,P|307:253|326:228,1,45
330,163,205810,2,0,P|317:140|292:121,1,45
227,117,205910,2,0,P|204:130|185:155,1,45
181,220,206010,6,0,L|242:213,1,45
284,266,206110,1,0,0:0:0:0:
280,275,206160,1,0,0:0:0:0:
276,284,206210,1,0,0:0:0:0:
272,293,206260,1,0,0:0:0:0:
268,302,206310,2,0,L|207:309,1,45
127,300,206410,5,0,0:0:0:0:
119,294,206460,1,0,0:0:0:0:
109,290,206510,1,0,0:0:0:0:
99,288,206560,1,0,0:0:0:0:
88,290,206610,2,0,L|81:351,1,45
22,241,206710,2,0,L|16:196,1,45
3,97,206810,6,0,B|64:92|125:141|113:214|113:214|194:146|127:20|127:20|182:40|312:126|176:232|61:239|132:368|132:368|167:249|283:159|301:426|508:371|517:211|501:160,1,1340.45993147979
464,84,209110,5,0,0:0:0:0:
387,137,209210,2,0,L|392:198,1,60.9299968854448
395,229,209360,5,0,0:0:0:0:
380,226,209410,2,0,L|387:137,1,90
388,98,209560,5,0,0:0:0:0:
372,107,209610,2,0,L|380:226,1,119.970002617754
378,263,209760,5,0,0:0:0:0:
361,257,209810,2,0,L|371:106,1,150.93000304573
304,38,210010,6,0,B|344:-6|440:-25|597:60|453:317|296:222|276:118|276:118|286:192|260:247|260:247|252:193|192:153|192:153|220:226|202:261|202:261|185:211|137:193|137:193|103:215|103:215|64:205|64:205|25:221|25:221|127:228|138:374|28:388,1,1340.45993147979
23,304,212310,5,0,0:0:0:0:
127,358,212410,2,0,L|250:345,1,90
480,209,212610,2,0,L|357:196,1,90
112,270,212810,2,0,L|202:261,1,90
465,121,213010,2,0,L|375:111,1,90
256,0,213210,6,0,B|185:82|208:214|311:256|311:256|258:190|257:131|257:131|156:63|116:199|9:131|9:131|16:191|104:200|104:200|101:279|101:279|175:251|175:251|216:316|296:351|344:335|344:335|390:317|416:249|368:188,1,1340.45993147979
264,173,215510,5,0,0:0:0:0:
311,256,215610,2,0,L|372:251,1,60.9299968854448
403,248,215760,5,0,0:0:0:0:
400,263,215810,2,0,L|311:256,1,90
272,255,215960,5,0,0:0:0:0:
281,271,216010,2,0,L|400:263,1,119.970002617754
437,265,216160,5,0,0:0:0:0:
431,282,216210,2,0,L|280:272,1,150.93000304573
95,344,216410,5,0,0:0:0:0:
143,268,216510,2,0,L|150:167,1,91.3949953281672
75,95,216710,2,0,P|40:176|53:264,1,180
186,341,217010,2,0,P|175:298|143:268,1,90
149,178,217210,5,0,0:0:0:0:
232,212,217310,2,0,L|337:206,1,90
381,0,217510,2,0,P|416:81|403:169,1,180
384,331,217810,2,0,P|389:286|417:252,1,90,0|0,2:0|2:0,2:0:0:0:
275,102,218010,5,0,0:0:0:0:
192,68,218110,2,0,L|87:74,1,90
164,274,218310,5,0,0:0:0:0:
247,308,218410,1,0,0:0:0:0:
232,212,218510,1,0,0:0:0:0:
81,240,218610,1,0,0:0:0:0:
181,357,218710,1,0,0:0:0:0:
332,329,218810,5,0,0:0:0:0:
334,305,218860,1,0,0:0:0:0:
331,283,218910,1,0,0:0:0:0:
320,261,218960,1,0,0:0:0:0:
305,243,219010,2,0,L|311:194,2,45
247,308,219210,5,0,0:0:0:0:
221,306,219260,1,0,0:0:0:0:
200,301,219310,1,0,0:0:0:0:
178,289,219360,1,0,0:0:0:0:
161,271,219410,2,0,P|142:229|146:175,1,90
318,117,219610,6,0,B|330:85|330:85|326:47,1,72
173,23,219810,2,0,B|158:58|158:58|160:92,1,72
305,243,220010,1,0,0:0:0:0:
221,306,220110,1,0,0:0:0:0:
137,369,220210,2,0,L|37:360,1,72
32,192,220410,6,0,L|103:185,1,72
304,148,220610,2,0,L|232:141,1,72
139,63,220810,1,0,0:0:0:0:
132,183,220910,1,0,0:0:0:0:
213,271,221010,2,0,L|285:264,1,72
425,96,221210,6,0,B|447:126|447:126|453:160,1,72
409,357,221410,1,0,0:0:0:0:
407,339,221460,1,0,0:0:0:0:
405,321,221510,1,0,0:0:0:0:
403,303,221560,1,0,0:0:0:0:
402,285,221610,1,0,0:0:0:0:
305,243,221710,1,0,0:0:0:0:
241,158,221810,1,0,0:0:0:0:
243,140,221860,1,0,0:0:0:0:
245,122,221910,1,0,0:0:0:0:
247,104,221960,1,0,0:0:0:0:
248,86,222010,1,0,0:0:0:0:
338,138,222110,6,0,L|342:183,2,36
213,271,222310,2,0,L|209:316,2,36
62,194,222510,2,0,L|70:286,1,72
86,267,222660,1,0,0:0:0:0:
104,269,222710,1,0,0:0:0:0:
122,271,222760,1,0,0:0:0:0:
140,272,222810,6,0,B|163:242|163:242|180:184,1,72
74,45,223010,2,0,L|65:137,1,72
241,158,223210,1,0,0:0:0:0:
165,64,223310,1,0,0:0:0:0:
285,46,223410,2,0,L|377:54,1,72
453,160,223610,6,0,B|423:182|423:182|389:188,1,72
176,186,223810,2,0,B|206:164|206:164|240:158,1,72
509,342,224010,6,0,B|472:349|472:349|439:341,1,72
245,253,224210,2,0,B|281:245|281:245|314:253,1,72
461,232,224410,5,0,0:0:0:0:
459,214,224460,1,0,0:0:0:0:
457,196,224510,1,0,0:0:0:0:
455,178,224560,1,0,0:0:0:0:
453,160,224610,2,0,L|381:153,1,72
285,46,224810,1,0,0:0:0:0:
273,162,224910,1,0,0:0:0:0:
179,94,225010,5,0,0:0:0:0:
177,112,225060,1,0,0:0:0:0:
175,130,225110,1,0,0:0:0:0:
173,148,225160,1,0,0:0:0:0:
171,166,225210,2,0,L|99:172,1,72
39,80,225360,1,0,0:0:0:0:
41,62,225410,2,0,L|112:55,1,72
285,46,225610,6,0,B|295:94|295:94|280:145,1,90
54,273,225810,2,0,P|58:215|98:171,1,119.970002617754
232,261,226010,6,0,L|143:253,1,90
256,352,226210,1,0,0:0:0:0:
393,291,226310,1,0,0:0:0:0:
332,153,226410,1,0,0:0:0:0:
315,302,226510,1,0,0:0:0:0:
405,181,226610,2,0,P|408:137|387:98,1,90
190,69,226810,5,0,0:0:0:0:
195,99,226910,1,0,0:0:0:0:
237,231,227010,1,0,0:0:0:0:
242,201,227110,1,0,0:0:0:0:
105,140,227210,1,0,0:0:0:0:
121,290,227310,2,0,B|187:285|187:285|220:309|220:309|297:304,1,180
494,188,227610,6,0,L|390:180,1,90
195,99,227810,2,0,L|299:91,1,90
399,21,228010,1,0,0:0:0:0:
390,154,228110,1,0,0:0:0:0:
263,200,228210,1,0,0:0:0:0:
272,333,228310,1,0,0:0:0:0:
322,262,228410,5,0,0:0:0:0:
348,265,228510,1,0,0:0:0:0:
212,268,228610,1,0,0:0:0:0:
186,276,228710,1,0,0:0:0:0:
272,333,228810,1,0,0:0:0:0:
263,200,228910,2,0,L|286:9,1,180
435,78,229210,6,0,B|419:121|419:121|390:154,1,90
124,40,229410,2,0,B|129:85|129:85|150:124,1,90
393,340,229610,6,0,B|377:297|377:297|347:264,1,90
102,304,229810,2,0,B|127:266|127:266|164:241,1,90
392,172,230010,5,0,0:0:0:0:
390,154,230110,1,0,0:0:0:0:
144,141,230210,1,0,0:0:0:0:
150,124,230310,1,0,0:0:0:0:
360,74,230410,5,0,0:0:0:0:
358,56,230510,1,0,0:0:0:0:
199,54,230610,1,0,0:0:0:0:
205,37,230710,1,0,0:0:0:0:
362,150,230810,5,0,0:0:0:0:
177,127,230910,1,0,0:0:0:0:
347,264,231010,5,0,0:0:0:0:
164,241,231110,1,0,0:0:0:0:
274,111,231210,5,0,0:0:0:0:
252,289,231310,1,0,0:0:0:0:
140,213,231410,5,0,0:0:0:0:
380,242,231510,1,0,0:0:0:0:
280,322,231610,5,0,0:0:0:0:
269,326,231660,1,0,0:0:0:0:
261,330,231710,1,0,0:0:0:0:
251,332,231760,1,0,0:0:0:0:
241,330,231810,1,0,0:0:0:0:
232,326,231860,1,0,0:0:0:0:
223,320,231910,1,0,0:0:0:0:
218,315,231960,1,0,0:0:0:0:
224,256,232010,5,0,0:0:0:0:
235,252,232060,1,0,0:0:0:0:
243,248,232110,1,0,0:0:0:0:
253,246,232160,1,0,0:0:0:0:
263,248,232210,1,0,0:0:0:0:
272,252,232260,1,0,0:0:0:0:
281,258,232310,1,0,0:0:0:0:
286,263,232360,1,0,0:0:0:0:
280,322,232410,6,0,B|228:304|224:256|224:256|205:329|102:366|6:290|56:182|56:182|134:230|134:230|105:146|105:146|166:121|212:160|223:205|223:205|237:151|199:92|199:92|259:146|263:204|263:204|287:144|251:91|251:91|309:148|301:204|301:204|366:291|497:255|567:73|440:-13|319:-1|294:27|294:27|329:53|372:108|376:164,1,1888.82990344879
373,215,235610,6,0,P|378:185|375:155,3,60.9299968854448
251,91,236010,2,0,P|274:117|292:147,3,60.9299968854448
222,204,236410,6,0,L|224:184,9,20.3099989618149
224,256,236810,6,0,L|225:276,12,15.2324992213612
201,300,237210,6,0,B|218:339|218:339|242:304|242:304|200:298,1,126,2|2,0:0|0:0,0:0:0:0:
132,258,238810,5,0,0:0:0:0:
322,285,238910,1,0,0:0:0:0:
185,152,239010,1,0,0:0:0:0:
15,238,239110,2,0,B|125:289|125:289|243:304,1,239.940005235507
447,222,239410,5,0,0:0:0:0:
445,233,239460,1,0,0:0:0:0:
444,245,239510,1,0,0:0:0:0:
442,257,239560,1,0,0:0:0:0:
440,269,239611,2,0,B|322:285,1,119.970002617754
66,136,239810,2,0,B|184:151,1,119.970002617754
295,16,240010,5,0,0:0:0:0:
274,138,240110,1,0,0:0:0:0:
287,145,240160,1,0,0:0:0:0:
299,151,240211,2,0,B|291:210,1,59.9850013088768
322,285,240310,2,0,B|329:344,1,59.9850013088768
243,304,240410,5,0,0:0:0:0:
440,269,240510,2,0,B|455:150,1,119.970002617754
186,203,240710,2,0,P|191:87|94:2,1,239.940005235507
66,136,241010,5,0,0:0:0:0:
67,147,241060,1,0,0:0:0:0:
68,158,241110,1,0,0:0:0:0:
69,169,241160,1,0,0:0:0:0:
70,180,241210,1,0,0:0:0:0:
146,273,241310,6,0,L|150:213,1,59.9850013088768
191,86,241410,1,0,0:0:0:0:
396,157,241510,6,0,L|336:152,1,59.9850013088768
209,112,241610,1,0,0:0:0:0:
296,316,241710,6,0,L|269:262,1,59.9850013088768
237,125,241810,2,0,P|300:128|354:89,1,119.970002617754
189,55,242010,6,0,P|167:76|155:104,1,59.9850013088768
179,199,242110,2,0,P|182:228|174:257,1,59.9850013088768
70,180,242210,1,0,0:0:0:0:
57,343,242310,2,0,L|296:316,1,239.940005235507
396,157,242610,5,0,0:0:0:0:
406,163,242660,1,0,0:0:0:0:
416,169,242710,1,0,0:0:0:0:
426,175,242760,1,0,0:0:0:0:
436,181,242810,2,0,L|422:300,1,119.970002617754
179,199,243010,2,0,P|228:159|243:95,1,119.970002617754
43,17,243210,5,0,0:0:0:0:
92,98,243310,2,0,P|120:109|150:109,1,59.9850013088768
195,26,243410,1,0,0:0:0:0:
217,16,243460,1,0,0:0:0:0:
242,12,243510,1,0,0:0:0:0:
266,14,243560,1,0,0:0:0:0:
288,22,243610,6,0,P|284:51|292:80,1,59.9850013088768
396,157,243710,2,0,L|406:29,1,119.970002617754
254,101,243860,1,0,0:0:0:0:
243,106,243910,2,0,B|208:219|290:228|231:370,1,239.940005235507
102,280,244210,6,0,P|130:272|160:275,1,59.9850013088768
280,327,244310,2,0,P|309:330|338:322,1,59.9850013088768
361,161,244410,5,0,0:0:0:0:
146,175,244510,1,0,0:0:0:0:
302,237,244610,5,0,0:0:0:0:
288,22,244710,1,0,0:0:0:0:
97,70,244810,5,0,0:0:0:0:
87,108,244876,1,0,0:0:0:0:
96,147,244943,1,0,0:0:0:0:
146,175,245010,5,0,0:0:0:0:
155,214,245077,1,0,0:0:0:0:
145,252,245143,1,0,0:0:0:0:
102,280,245210,6,0,B|121:340|121:340|195:376,1,119.970002617754
398,251,245410,1,0,0:0:0:0:
301,93,245510,2,0,B|268:182|268:182|279:326,1,239.940005235507
437,250,245810,5,0,0:0:0:0:
438,238,245860,1,0,0:0:0:0:
439,226,245910,1,0,0:0:0:0:
440,214,245960,1,0,0:0:0:0:
441,202,246010,2,0,B|388:173|388:173|314:179,1,119.970002617754
102,280,246210,2,0,L|239:268,1,119.970002617754
301,93,246410,5,0,0:0:0:0:
201,29,246510,1,0,0:0:0:0:
189,25,246560,1,0,0:0:0:0:
177,21,246610,2,0,L|182:80,1,59.9850013088768
136,145,246710,2,0,L|130:204,1,59.9850013088768
203,240,246810,5,0,0:0:0:0:
24,150,246910,2,0,L|34:22,1,119.970002617754
301,93,247110,2,0,B|312:237|312:237|279:326,1,239.940005235507
106,328,247410,5,0,0:0:0:0:
105,316,247460,1,0,0:0:0:0:
104,304,247510,1,0,0:0:0:0:
103,292,247560,1,0,0:0:0:0:
102,280,247610,1,0,0:0:0:0:
208,180,247710,6,0,L|202:239,1,59.9850013088768
191,359,247810,1,0,0:0:0:0:
342,158,247910,6,0,L|321:214,1,59.9850013088768
278,326,248010,1,0,0:0:0:0:
477,171,248110,6,0,L|442:220,1,59.9850013088768
371,317,248210,2,0,P|425:339|491:328,1,119.970002617754
380,137,248410,5,0,0:0:0:0:
201,239,248510,2,0,B|188:180|188:180|227:106,1,119.970002617754
356,46,248710,2,0,B|369:105|369:105|330:179,1,119.970002617754
120,78,248910,5,0,0:0:0:0:
132,57,248960,1,0,0:0:0:0:
150,41,249010,1,0,0:0:0:0:
170,29,249060,1,0,0:0:0:0:
193,22,249110,1,0,0:0:0:0:
217,20,249160,1,0,0:0:0:0:
241,24,249210,5,0,0:0:0:0:
309,146,249310,2,0,L|299:285,1,119.970002617754
89,334,249510,2,0,L|208:342,1,119.970002617754
472,264,249710,5,0,0:0:0:0:
460,243,249760,1,0,0:0:0:0:
442,227,249810,1,0,0:0:0:0:
422,215,249860,1,0,0:0:0:0:
399,208,249910,1,0,0:0:0:0:
375,206,249960,1,0,0:0:0:0:
351,210,250010,6,0,P|377:251|421:206,1,119.970002617754
479,67,250210,2,0,P|436:34|408:80,1,119.970002617754
472,264,250410,5,0,0:0:0:0:
368,324,250510,1,0,0:0:0:0:
223,284,250610,1,0,0:0:0:0:
132,126,250710,1,0,0:0:0:0:
360,59,250810,2,0,L|350:209,1,150.93000304573
235,59,251010,5,0,0:0:0:0:
462,218,251110,2,0,P|431:285|367:324,1,150.93000304573
131,160,251310,5,0,0:0:0:0:
165,359,251410,1,0,0:0:0:0:
243,257,251510,1,0,0:0:0:0:
44,223,251610,6,0,P|36:109|135:52,1,239.940005235507
281,128,251910,1,0,0:0:0:0:
131,160,252010,2,0,L|152:291,1,119.970002617754
330,299,252210,5,0,0:0:0:0:
320,272,252260,1,0,0:0:0:0:
299,253,252310,1,0,0:0:0:0:
271,248,252360,1,0,0:0:0:0:
243,257,252410,2,0,B|302:267|302:267|377:249,1,119.970002617754
425,39,252610,2,0,B|386:85|386:85|364:159,1,119.970002617754
460,206,252810,5,0,0:0:0:0:
441,313,252910,1,0,0:0:0:0:
438,324,252960,1,0,0:0:0:0:
435,335,253010,2,0,L|354:330,1,59.9850013088768
295,298,253110,2,0,L|235:301,1,59.9850013088768
165,359,253210,5,0,0:0:0:0:
236,216,253310,2,0,L|355:221,1,119.970002617754
275,23,253510,5,0,0:0:0:0:
244,180,253610,1,0,0:0:0:0:
396,129,253710,1,0,0:0:0:0:
204,67,253810,1,0,0:0:0:0:
192,68,253860,1,0,0:0:0:0:
180,69,253910,1,0,0:0:0:0:
168,70,253960,1,0,0:0:0:0:
156,71,254010,1,0,0:0:0:0:
55,157,254110,6,0,P|87:168|144:165,1,59.9850013088768
252,144,254210,1,0,0:0:0:0:
80,290,254310,6,0,P|113:283|161:252,1,59.9850013088768
244,180,254410,1,0,0:0:0:0:
343,381,254510,6,0,P|314:362|283:314,1,59.9850013088768
236,216,254610,2,0,P|300:234|339:284,1,119.970002617754
128,368,254810,6,0,L|143:184,1,180
15,47,255110,5,0,0:0:0:0:
25,52,255160,1,0,0:0:0:0:
35,57,255210,1,0,0:0:0:0:
45,62,255260,1,0,0:0:0:0:
55,67,255310,1,0,0:0:0:0:
65,72,255360,1,0,0:0:0:0:
75,77,255410,2,0,L|147:70,1,59.9850013088768
184,174,255510,2,0,L|256:181,1,59.9850013088768
313,53,255610,5,0,0:0:0:0:
295,232,255710,1,0,0:0:0:0:
262,107,255810,5,0,0:0:0:0:
279,307,255910,1,0,0:0:0:0:
384,136,256010,1,0,0:0:0:0:
157,278,256110,2,0,L|19:267,1,119.970002617754
295,232,256310,5,0,0:0:0:0:
306,235,256360,1,0,0:0:0:0:
317,238,256410,2,0,L|309:330,1,59.9850013088768
211,376,256510,1,0,0:0:0:0:
183,205,256610,6,0,L|187:264,1,59.9850013088768
301,376,256710,1,0,0:0:0:0:
404,306,256810,6,0,L|399:246,1,59.9850013088768
286,135,256910,1,0,0:0:0:0:
367,79,257010,6,0,P|380:106|384:136,1,59.9850013088768
295,232,257110,2,0,P|265:230|238:219,1,59.9850013088768
190,129,257210,6,0,P|238:119|286:135,1,100.620002030486
436,55,257343,6,0,P|420:102|383:135,1,100.620002030486
377,304,257476,6,0,P|343:266|334:218,1,100.620002030486
383,135,257610,6,0,P|429:146|391:161,1,100.620002030486
334,218,257743,6,0,P|300:251|307:211,1,100.620002030486
286,134,257876,6,0,P|273:88|304:114,2,100.620002030486
75,77,258210,5,0,0:0:0:0:
78,100,258260,1,0,0:0:0:0:
81,123,258310,1,0,0:0:0:0:
84,146,258360,1,0,0:0:0:0:
87,169,258410,2,0,L|79:300,1,119.970002617754
384,357,258610,5,0,0:0:0:0:
280,313,258710,2,0,L|283:253,1,59.9850013088768
176,269,258810,2,0,L|183:149,1,119.970002617754
273,25,259010,5,0,0:0:0:0:
411,86,259110,1,0,0:0:0:0:
290,176,259210,1,0,0:0:0:0:
299,24,259310,5,0,0:0:0:0:
424,107,259410,1,0,0:0:0:0:
431,130,259460,1,0,0:0:0:0:
431,154,259510,1,0,0:0:0:0:
425,177,259560,1,0,0:0:0:0:
413,198,259610,5,0,0:0:0:0:
260,252,259710,1,0,0:0:0:0:
384,357,259810,1,0,0:0:0:0:
330,204,259910,1,0,0:0:0:0:
225,328,260010,1,0,0:0:0:0:
182,149,260110,1,0,0:0:0:0:
77,273,260210,1,0,0:0:0:0:
79,296,260260,1,0,0:0:0:0:
81,319,260310,1,0,0:0:0:0:
83,342,260360,1,0,0:0:0:0:
85,365,260410,1,0,0:0:0:0:
187,331,260510,6,0,P|188:293|175:264,1,59.9850013088768
99,198,260610,1,0,0:0:0:0:
325,331,260710,6,0,P|324:293|337:264,1,59.9850013088768
413,198,260810,1,0,0:0:0:0:
218,194,260910,6,0,P|195:175|182:149,1,59.9850013088768
146,47,261010,1,0,0:0:0:0:
294,194,261110,6,0,P|317:175|330:149,1,59.9850013088768
366,47,261210,2,0,B|302:97|302:97|294:194|294:194|350:248|350:248|319:279|325:331|325:331|350:274|415:273,1,450
410,367,261810,5,0,0:0:0:0:
223,272,261910,1,0,0:0:0:0:
442,131,262010,2,0,B|503:195|444:275|444:275|354:263|325:331|325:331|320:282|349:246|349:246|294:194|294:194|265:231|193:229,1,540
196,222,262660,1,0,0:0:0:0:
167,200,262710,1,0,0:0:0:0:
152,166,262760,1,0,0:0:0:0:
156,129,262810,6,0,B|170:91|205:79|205:79|226:119|277:127|317:112,1,182.789990656334
364,18,263210,6,0,P|354:38|350:60,1,45
377,204,263310,2,0,P|364:185|357:163,1,45
219,16,263410,6,0,P|210:44|207:74,1,59.9850013088768
234,228,263510,2,0,P|221:200|214:171,1,59.9850013088768
300,116,263610,5,0,0:0:0:0:
156,129,263710,1,0,0:0:0:0:
338,186,263810,5,0,0:0:0:0:
134,203,263910,1,0,0:0:0:0:
316,260,264010,5,0,0:0:0:0:
172,273,264110,1,0,0:0:0:0:
294,334,264210,5,0,0:0:0:0:
210,343,264310,1,0,0:0:0:0:
362,383,264410,6,0,B|377:262|377:262|338:186|338:186|354:52|354:52|440:212,1,504
342,265,265210,5,0,0:0:0:0:
330,267,265260,1,0,0:0:0:0:
318,269,265310,1,0,0:0:0:0:
219,201,265410,1,0,0:0:0:0:
309,138,265510,1,0,0:0:0:0:
308,150,265560,1,0,0:0:0:0:
307,162,265610,5,0,0:0:0:0:
217,225,265710,1,0,0:0:0:0:
108,205,265810,1,0,0:0:0:0:
45,115,265910,1,0,0:0:0:0:
135,52,266010,2,0,B|150:132|150:132|108:205|108:205|11:215|11:215|77:338|77:338|209:324,1,504
217,225,266810,6,0,L|213:266,5,29.9925006544384
261,320,267010,1,0,0:0:0:0:
273,322,267060,1,0,0:0:0:0:
285,324,267110,1,0,0:0:0:0:
297,326,267160,1,0,0:0:0:0:
309,328,267210,1,0,0:0:0:0:
406,257,267310,1,0,0:0:0:0:
250,233,267410,1,0,0:0:0:0:
439,83,267610,5,0,0:0:0:0:
427,85,267660,1,0,0:0:0:0:
415,87,267710,1,0,0:0:0:0:
403,89,267760,1,0,0:0:0:0:
406,257,268010,5,0,0:0:0:0:
394,255,268060,1,0,0:0:0:0:
382,253,268110,1,0,0:0:0:0:
370,251,268160,1,0,0:0:0:0:
283,107,268410,5,0,0:0:0:0:
271,109,268460,1,0,0:0:0:0:
259,111,268510,1,0,0:0:0:0:
247,113,268560,1,0,0:0:0:0:
250,233,268810,5,0,0:0:0:0:
238,231,268860,1,0,0:0:0:0:
226,229,268910,1,0,0:0:0:0:
214,227,268960,1,0,0:0:0:0:
57,57,269210,6,0,L|62:120,1,40.6199979236299
128,278,269410,6,0,L|132:218,1,60
240,33,269610,6,0,L|246:112,1,79.9800017451691
406,257,269810,6,0,L|413:156,1,100.620002030486
423,9,270010,5,0,0:0:0:0:
427,46,270110,1,0,0:0:0:0:
402,117,270210,1,0,0:0:0:0:
326,144,270310,1,0,0:0:0:0:
246,112,270410,5,0,0:0:0:0:
238,111,270460,1,0,0:0:0:0:
230,112,270510,1,0,0:0:0:0:
222,115,270560,1,0,0:0:0:0:
216,120,270610,1,0,0:0:0:0:
211,126,270660,1,0,0:0:0:0:
208,133,270710,1,0,0:0:0:0:
206,142,270760,1,0,0:0:0:0:
207,149,270810,6,0,B|226:179|226:179|375:189,1,150.93000304573
491,198,271010,1,0,0:0:0:0:
352,59,271110,1,0,0:0:0:0:
411,251,271210,1,0,0:0:0:0:
497,68,271310,1,0,0:0:0:0:
341,186,271410,2,0,P|317:252|369:337,1,150.93000304573
361,330,271560,1,0,0:0:0:0:
374,337,271610,5,0,0:0:0:0:
209,259,271710,2,0,L|57:270,1,150.93000304573
54,158,271910,1,0,0:0:0:0:
136,338,272010,1,0,0:0:0:0:
207,147,272110,1,0,0:0:0:0:
85,128,272210,6,0,B|54:157|54:157|162:148,1,150.93000304573
280,68,272410,1,0,0:0:0:0:
209,259,272510,1,0,0:0:0:0:
185,25,272610,1,0,0:0:0:0:
341,153,272710,2,0,L|326:303,1,150.93000304573
443,347,272910,1,0,0:0:0:0:
209,259,273010,1,0,0:0:0:0:
456,181,273110,6,0,P|456:143|445:104,1,75.4650015228648,0|0,2:0|2:0,2:0:0:0:
353,39,273210,1,0,2:0:0:0:
369,221,273310,6,0,P|359:184|338:149,1,75.4650015228648,0|0,2:0|2:0,2:0:0:0:
232,109,273410,1,0,2:0:0:0:
295,282,273510,6,0,P|275:249|246:220,1,75.4650015228648,0|0,2:0|2:0,2:0:0:0:
133,209,273610,1,0,2:0:0:0:
195,315,273710,1,0,0:0:0:0:
194,103,273810,1,0,2:0:0:0:
11,210,273910,1,0,0:0:0:0:
45,330,274010,6,0,L|195:315,1,150.93000304573
443,347,274210,1,0,0:0:0:0:
250,223,274310,1,0,0:0:0:0:
286,369,274410,1,0,0:0:0:0:
369,221,274510,2,0,B|366:141|366:141|323:71,1,150.93000304573
297,76,274660,1,0,0:0:0:0:
267,73,274710,1,0,0:0:0:0:
237,70,274760,1,0,0:0:0:0:
207,67,274810,5,0,0:0:0:0:
11,210,274910,2,0,L|161:195,1,150.93000304573
142,4,275110,1,0,0:0:0:0:
6,124,275210,1,0,0:0:0:0:
87,285,275310,1,0,0:0:0:0:
249,223,275410,2,0,P|244:151|185:102,1,150.93000304573
418,15,275610,6,0,L|406:166,1,150.93000304573
256,256,275810,1,0,0:0:0:0:
106,166,275910,2,0,L|93:15,1,150.93000304573
333,26,276110,1,0,0:0:0:0:
186,102,276210,2,0,L|192:177,1,75.4650015228648
313,252,276310,2,0,L|306:327,1,75.4650015228648
110,363,276410,6,0,B|159:302|159:302|235:283,1,150.93000304573
482,162,276610,2,0,L|326:171,1,150.93000304573
92,1,276810,6,0,B|147:56|147:56|224:67,1,150.93000304573
482,162,277010,2,0,L|326:171,1,150.93000304573
64,126,277210,5,0,0:0:0:0:
159,302,277310,1,0,0:0:0:0:
264,132,277410,1,0,0:0:0:0:
89,226,277510,2,0,P|59:297|80:364,1,150.93000304573
283,341,277710,5,0,0:0:0:0:
264,132,277810,1,0,0:0:0:0:
177,278,277910,1,0,0:0:0:0:
386,259,278010,1,0,0:0:0:0:
220,202,278110,2,0,L|231:26,1,150.93000304573
434,89,278310,5,0,0:0:0:0:
264,132,278410,1,0,0:0:0:0:
391,11,278510,1,0,0:0:0:0:
434,181,278610,2,0,B|386:259|386:259|286:269,1,150.93000304573
264,132,278810,5,0,0:0:0:0:
283,341,278910,1,0,0:0:0:0:
145,184,279010,1,0,0:0:0:0:
67,288,279110,2,0,L|241:273,1,150.93000304573
202,33,279310,1,0,0:0:0:0:
83,85,279410,1,0,0:0:0:0:
59,104,279460,1,0,0:0:0:0:
41,129,279510,1,0,0:0:0:0:
30,157,279560,1,0,0:0:0:0:
25,185,279610,1,0,0:0:0:0:
145,183,279710,6,0,P|173:159|191:126,1,75.4650015228648
202,33,279810,1,0,0:0:0:0:
145,183,279910,6,0,P|169:211|202:228,1,75.4650015228648
322,212,280010,1,0,0:0:0:0:
328,58,280110,6,0,P|299:82|282:115,1,75.4650015228648
299,235,280210,1,0,0:0:0:0:
466,171,280310,1,0,0:0:0:0:
369,322,280410,5,0,0:0:0:0:
390,301,280460,1,0,0:0:0:0:
403,275,280510,1,0,0:0:0:0:
410,246,280560,1,0,0:0:0:0:
409,216,280610,5,0,0:0:0:0:
282,115,280710,1,0,0:0:0:0:
256,320,280810,1,0,0:0:0:0:
51,294,280910,2,0,B|42:217|42:217|89:137,1,150.93000304573
369,322,281110,2,0,B|397:249|397:249|372:160,1,150.93000304573
240,15,281310,2,0,L|228:166,1,150.93000304573
178,315,281510,5,0,0:0:0:0:
349,197,281610,2,0,L|361:46,1,150.93000304573
104,177,281810,2,0,L|115:26,1,150.93000304573
240,15,282010,6,0,B|286:94|286:94|228:166|228:166|300:147|349:197|349:197|241:184|168:224|168:224|265:220|302:272|302:272|189:261|184:378|253:383|320:339|222:296,1,839.790018324276
168,224,282810,6,0,P|125:290|126:353,1,119.970002617754
415,293,283010,2,0,P|458:227|457:164,1,119.970002617754
240,15,283210,2,0,L|248:160,1,119.970002617754
259,373,283410,2,0,L|252:253,1,119.970002617754
99,61,283610,5,0,0:0:0:0:
92,67,283660,1,0,0:0:0:0:
86,75,283710,1,0,0:0:0:0:
81,83,283760,1,0,0:0:0:0:
76,91,283810,1,0,0:0:0:0:
72,99,283860,1,0,0:0:0:0:
69,108,283910,1,0,0:0:0:0:
66,117,283960,1,0,0:0:0:0:
65,127,284010,1,0,0:0:0:0:
64,136,284060,1,0,0:0:0:0:
64,145,284110,1,0,0:0:0:0:
64,155,284160,1,0,0:0:0:0:
65,164,284210,1,0,0:0:0:0:
67,173,284260,1,0,0:0:0:0:
70,182,284310,1,0,0:0:0:0:
74,191,284360,1,0,0:0:0:0:
78,199,284410,5,0,0:0:0:0:
246,134,284510,1,0,0:0:0:0:
99,61,284610,1,0,0:0:0:0:
185,286,284710,1,0,0:0:0:0:
212,142,284810,1,0,0:0:0:0:
47,336,284910,1,0,0:0:0:0:
297,382,285010,1,0,0:0:0:0:
384,45,285210,5,0,0:0:0:0:
392,50,285260,1,0,0:0:0:0:
399,57,285310,1,0,0:0:0:0:
404,64,285360,1,0,0:0:0:0:
410,71,285410,1,0,0:0:0:0:
414,80,285460,1,0,0:0:0:0:
419,88,285510,1,0,0:0:0:0:
422,96,285560,1,0,0:0:0:0:
425,106,285610,1,0,0:0:0:0:
427,115,285660,1,0,0:0:0:0:
427,124,285710,1,0,0:0:0:0:
429,134,285760,1,0,0:0:0:0:
428,143,285810,1,0,0:0:0:0:
427,152,285860,1,0,0:0:0:0:
425,161,285910,1,0,0:0:0:0:
423,171,285960,1,0,0:0:0:0:
419,179,286010,5,0,0:0:0:0:
246,132,286110,1,0,0:0:0:0:
384,45,286210,1,0,0:0:0:0:
322,278,286310,1,0,0:0:0:0:
280,137,286410,1,0,0:0:0:0:
464,313,286510,1,0,0:0:0:0:
220,384,286610,1,0,0:0:0:0:
419,179,286710,1,0,0:0:0:0:
232,195,286810,5,0,0:0:0:0:
223,197,286860,1,0,0:0:0:0:
215,202,286910,1,0,0:0:0:0:
209,209,286960,1,0,0:0:0:0:
206,218,287010,1,0,0:0:0:0:
206,227,287060,1,0,0:0:0:0:
208,236,287110,1,0,0:0:0:0:
214,243,287160,1,0,0:0:0:0:
222,249,287210,1,0,0:0:0:0:
231,251,287260,1,0,0:0:0:0:
240,250,287310,1,0,0:0:0:0:
249,247,287360,1,0,0:0:0:0:
256,241,287410,1,0,0:0:0:0:
130,202,287510,6,0,P|131:256|149:298,1,75.4650015228648
224,353,287610,1,0,0:0:0:0:
365,164,287710,6,0,P|380:216|376:261,1,75.4650015228648
321,337,287810,1,0,0:0:0:0:
105,184,287910,6,0,P|92:236|98:281,1,75.4650015228648
225,327,288010,1,0,0:0:0:0:
381,138,288110,6,0,P|409:184|417:229,1,75.4650015228648
311,312,288210,1,0,0:0:0:0:
238,146,288310,1,0,0:0:0:0:
410,65,288410,2,0,P|462:120|488:190,1,150.93000304573
238,146,288610,5,0,0:0:0:0:
48,123,288710,2,0,P|15:190|13:265,1,150.93000304573
256,246,288910,5,0,0:0:0:0:
238,146,289010,1,0,0:0:0:0:
234,127,289060,1,0,0:0:0:0:
231,108,289110,1,0,0:0:0:0:
228,90,289160,1,0,0:0:0:0:
223,70,289210,6,0,P|197:98|175:148,1,75.4650015228648
180,129,289310,2,0,P|208:154|258:176,1,75.4650015228648
240,172,289410,2,0,P|265:143|287:93,1,75.4650015228648
283,110,289510,2,0,P|254:84|204:62,1,75.4650015228648
131,53,289610,5,0,0:0:0:0:
112,277,289710,1,0,0:0:0:0:
256,246,289810,5,0,0:0:0:0:
32,227,289910,1,0,0:0:0:0:
149,378,290010,2,0,L|300:365,1,150.93000304573
363,6,290210,2,0,L|212:19,1,150.93000304573
299,365,290410,2,0,L|450:352,1,150.93000304573
346,110,290610,1,0,0:0:0:0:
332,122,290660,1,0,0:0:0:0:
321,138,290710,1,0,0:0:0:0:
316,156,290760,1,0,0:0:0:0:
315,175,290810,1,0,0:0:0:0:
440,241,290910,6,0,L|364:234,1,75.4650015228648
214,160,291010,1,0,0:0:0:0:
315,330,291110,6,0,L|243:304,1,75.4650015228648
176,156,291210,1,0,0:0:0:0:
171,383,291310,6,0,L|109:339,1,75.4650015228648
137,151,291410,2,0,P|176:215|166:288,1,150.93000304573
1,134,291610,5,0,0:0:0:0:
214,160,291710,1,0,0:0:0:0:
75,236,291810,5,0,0:0:0:0:
288,210,291910,1,0,0:0:0:0:
192,75,292010,5,0,0:0:0:0:
166,288,292110,1,0,0:0:0:0:
364,205,292210,5,0,0:0:0:0:
360,186,292260,1,0,0:0:0:0:
351,169,292310,1,0,0:0:0:0:
339,155,292360,1,0,0:0:0:0:
324,144,292410,1,0,0:0:0:0:
440,218,292510,6,0,P|412:266|372:283,1,75.4650015228648
257,340,292610,1,0,0:0:0:0:
364,205,292710,6,0,P|315:232|272:227,1,75.4650015228648
144,219,292810,1,0,0:0:0:0:
304,155,292910,6,0,P|248:154|213:128,1,75.4650015228648
107,57,293010,1,0,0:0:0:0:
394,90,293110,1,0,0:0:0:0:
257,340,293210,5,0,0:0:0:0:
234,329,293260,1,0,0:0:0:0:
216,312,293310,1,0,0:0:0:0:
205,289,293360,1,0,0:0:0:0:
202,265,293410,1,0,0:0:0:0:
207,240,293460,1,0,0:0:0:0:
220,219,293510,1,0,0:0:0:0:
347,280,293610,6,0,L|273:269,1,75.4650015228648
53,307,293710,1,0,0:0:0:0:
130,97,293810,1,0,0:0:0:0:
307,128,293910,5,0,0:0:0:0:
309,152,293960,1,0,0:0:0:0:
303,177,294010,1,0,0:0:0:0:
289,198,294060,1,0,0:0:0:0:
269,213,294110,1,0,0:0:0:0:
245,220,294160,1,0,0:0:0:0:
220,219,294210,1,0,0:0:0:0:
271,8,294310,1,0,0:0:0:0:
429,157,294410,5,0,0:0:0:0:
410,171,294460,1,0,0:0:0:0:
385,179,294510,1,0,0:0:0:0:
360,177,294560,1,0,0:0:0:0:
337,167,294610,1,0,0:0:0:0:
319,150,294660,1,0,0:0:0:0:
307,128,294710,1,0,0:0:0:0:
411,55,294810,6,0,P|232:346|272:9,1,945.000036048891
411,55,295610,5,0,0:0:0:0:
171,307,295710,1,0,0:0:0:0:
459,131,295810,5,0,0:0:0:0:
124,229,295910,1,0,0:0:0:0:
462,221,296010,5,0,0:0:0:0:
123,139,296110,1,0,0:0:0:0:
417,300,296210,5,0,0:0:0:0:
166,60,296310,1,0,0:0:0:0:
293,182,296410,5,0,0:0:0:0:
