osu file format v14

[General]
AudioFilename: audio.mp3
AudioLeadIn: 0
PreviewTime: 238813
Countdown: 0
SampleSet: Soft
StackLeniency: 0.7
Mode: 2
LetterboxInBreaks: 0
WidescreenStoryboard: 1

[Editor]
Bookmarks: 14813,40413,53213,55613,56413,58813,62013,65213,120413,133213,136413,138413,162413,162713,163013,163313,163613,163913,164213,164513,165213,190813,203613,235413,238813,245213,250013,250813,251113,251413,261213,296413,302013,309213,328263
DistanceSpacing: 1
BeatDivisor: 4
GridSize: 8
TimelineZoom: 4.299998

[Metadata]
Title:POWA OF DA WILDANES
TitleUnicode:POWA OF DA WILDANES
Artist:Camellia
ArtistUnicode:かめりあ
Creator:-Izayoi
Version:WILD
Source:osu!
Tags:cametek kamelcamellia invaidas from da jungle jump
BeatmapID:1978287
BeatmapSetID:865950

[Difficulty]
HPDrainRate:3
CircleSize:4
OverallDifficulty:9.8
ApproachRate:9.8
SliderMultiplier:1.8
SliderTickRate:1

[Events]
//Background and Video events
0,0,"Feesh.full-nomouth.jpg",0,0
//Break Periods
2,8813,11088
2,12013,14334
2,165413,177534
//Storyboard Layer 0 (Background)
//Storyboard Layer 1 (Fail)
//Storyboard Layer 2 (Pass)
//Storyboard Layer 3 (Foreground)
//Storyboard Sound Samples

[TimingPoints]
8413,400,4,2,0,50,1,0
53213,200,4,1,0,50,1,0
53213,-200,4,1,0,50,0,0
66013,-100,4,1,0,50,0,0
82013,-100,4,1,0,60,0,1
93213,-100,4,1,0,60,0,0
94813,-100,4,1,0,60,0,1
101213,-100,4,1,0,60,0,0
102513,-100,4,1,0,60,0,1
102813,-100,4,1,0,60,0,0
104113,-100,4,1,0,60,0,1
106013,-100,4,1,0,60,0,0
107613,-100,4,1,0,50,0,1
107813,-100,4,1,0,50,0,0
107913,-100,4,1,0,50,0,1
108113,-100,4,1,0,50,0,0
108213,-100,4,1,0,50,0,1
108413,-100,4,1,0,50,0,0
110813,-100,4,1,0,50,0,1
111013,-100,4,1,0,50,0,0
111113,-100,4,1,0,50,0,1
111313,-100,4,1,0,50,0,0
111413,-100,4,1,0,50,0,1
111613,-100,4,1,0,50,0,0
114013,-100,4,1,0,50,0,1
114213,-100,4,1,0,50,0,0
114313,-100,4,1,0,50,0,1
114513,-100,4,1,0,50,0,0
114613,-100,4,1,0,50,0,1
114813,-100,4,1,0,50,0,0
120413,-100,4,1,0,50,0,1
126013,-100,4,1,0,50,0,0
126813,-100,4,1,0,50,0,1
133213,-100,4,2,0,50,0,0
139613,-100,4,1,0,50,0,1
142813,-100,4,1,0,50,0,0
146013,-100,4,1,0,50,0,1
149213,-100,4,1,0,50,0,0
152413,-100,4,1,0,50,0,1
155613,-100,4,1,0,50,0,0
158813,-100,4,1,0,50,0,1
162013,-100,4,2,0,50,0,0
190813,400,4,2,0,50,1,0
206813,200,4,1,0,50,1,0
206813,-200,4,1,0,50,0,0
218813,-133.333333333333,4,1,0,50,0,0
219613,-100,4,1,0,50,0,0
232463,-100,4,2,0,50,0,0
238813,-100,4,1,0,60,0,1
250013,-100,4,2,0,60,0,0
251613,-100,4,1,0,60,0,1
262813,-100,4,1,0,50,0,0
264413,-200,4,1,0,50,0,1
265213,-100,4,1,0,50,0,0
266013,-200,4,1,0,50,0,1
266813,-100,4,1,0,50,0,0
270813,-100,4,1,0,60,0,1
282013,-100,4,1,0,60,0,0
283613,-100,4,1,0,60,0,1
294813,-100,4,1,0,60,0,0
296413,-100,4,2,0,60,0,0
309213,400,4,2,0,50,1,0

[HitObjects]
272,192,8413,6,0,L|224:192,1,45,0|0,0:0|0:0,0:0:0:0:
240,192,11613,6,0,L|288:192,1,45,0|0,0:0|0:0,0:0:0:0:
160,256,14813,5,0,0:0:0:0:
112,224,14913,2,0,P|56:152|144:48,1,225,0|0,0:0|0:0,0:0:0:0:
256,192,15713,1,0,0:0:0:0:
384,192,16013,1,0,0:0:0:0:
256,192,16313,1,0,0:0:0:0:
320,144,16413,6,0,P|464:208|464:320,1,270
336,336,17313,1,0,0:0:0:0:
208,336,17613,1,0,0:0:0:0:
352,304,17813,2,0,L|400:304,1,45,0|0,0:0|0:0,0:0:0:0:
336,272,18013,1,0,0:0:0:0:
272,304,18113,6,0,P|144:272|88:184,1,225
224,192,18913,1,0,0:0:0:0:
352,192,19213,1,0,0:0:0:0:
224,192,19513,1,0,0:0:0:0:
160,112,19613,6,0,P|120:184|264:248,1,270
112,192,20513,1,0,0:0:0:0:
256,192,20813,1,0,0:0:0:0:
352,192,21013,1,0,0:0:0:0:
368,144,21113,1,0,0:0:0:0:
304,256,21213,1,0,0:0:0:0:
240,272,21313,6,0,P|160:192|240:128,1,225
368,96,22113,1,0,0:0:0:0:
240,96,22413,1,0,0:0:0:0:
112,96,22713,1,0,0:0:0:0:
160,96,22813,6,0,P|256:176|160:248,1,270
320,304,23713,1,0,0:0:0:0:
192,224,24013,1,0,0:0:0:0:
288,224,24213,1,0,0:0:0:0:
336,192,24313,1,0,0:0:0:0:
288,176,24413,1,0,0:0:0:0:
224,176,24513,6,0,P|200:232|320:336,1,225
448,224,25313,1,0,0:0:0:0:
320,224,25613,1,0,0:0:0:0:
448,192,25913,1,0,0:0:0:0:
384,64,26013,6,0,P|272:80|192:232,1,270
336,192,26913,1,0,0:0:0:0:
192,192,27213,1,0,0:0:0:0:
288,192,27413,2,0,L|336:192,1,45,0|0,0:0|0:0,0:0:0:0:
136,352,27613,6,0,P|64:288|112:128,1,270,0|0,0:0|0:0,0:0:0:0:
160,112,28313,1,0,0:0:0:0:
224,112,28413,2,0,P|336:128|320:336,1,360,0|0,0:0|0:0,0:0:0:0:
480,336,29613,2,0,L|360:200,2,180,0|0|0,0:0|0:0|0:0,0:0:0:0:
288,352,30813,6,0,P|168:264|240:176,1,270,0|0,0:0|0:0,0:0:0:0:
272,176,31513,1,0,0:0:0:0:
336,304,31613,2,0,P|432:224|304:64,1,360,0|0,0:0|0:0,0:0:0:0:
144,64,32813,2,0,L|288:184,2,180,0|0|0,0:0|0:0|0:0,0:0:0:0:
328,72,34013,6,0,P|352:192|256:304,1,270,0|0,0:0|0:0,0:0:0:0:
208,304,34713,1,0,0:0:0:0:
144,352,34813,2,0,P|64:304|144:96,1,360,0|0,0:0|0:0,0:0:0:0:
320,64,36013,2,0,L|464:192,2,180,0|0|0,0:0|0:0|0:0,0:0:0:0:
128,64,37213,6,0,P|80:160|160:296,1,270,0|0,0:0|0:0,0:0:0:0:
208,336,37913,1,0,0:0:0:0:
272,352,38013,2,0,P|336:216|184:104,1,360
16,192,39213,6,0,L|152:72,2,180
512,192,40413,6,0,L|376:312,2,180
320,192,41613,1,0,0:0:0:0:
128,32,42013,2,0,P|32:192|136:296,1,360
400,192,43413,1,0,0:0:0:0:
272,272,43613,6,0,P|200:208|304:96,1,270
384,96,44413,1,0,0:0:0:0:
256,96,44613,2,0,L|352:96,1,90
128,192,45213,2,0,P|264:304|384:192,1,360
128,96,46813,6,0,P|120:192|256:288,1,270
128,192,47613,1,0,0:0:0:0:
240,192,47813,2,0,L|144:192,1,90
384,320,48413,2,0,P|384:176|184:72,1,360
384,192,49813,1,0,0:0:0:0:
256,288,50013,6,0,P|176:192|272:96,1,270
144,192,50813,1,0,0:0:0:0:
256,192,51013,2,0,P|336:168|336:32,1,225
32,192,51613,5,0,1:0:0:0:
128,192,52813,2,0,P|64:144|104:96,1,157.5
360,320,53213,6,0,B|448:56|448:56|464:240|464:240|376:40|376:40|336:224|336:224|472:56,1,1080
152,56,56413,6,0,B|64:336|64:336|216:112|216:112|88:152|88:152|266:281|266:281|320:160,1,1035
80,352,58813,6,0,L|32:352,1,45
336,272,59013,2,0,L|384:272,1,45
160,192,59213,2,0,L|112:192,1,45
416,128,59413,2,0,L|464:128,1,45
160,56,59613,6,0,B|40:192|40:192|176:344|176:344|48:48|48:48|160:112|160:112|72:352,1,1080
344,96,62813,6,0,B|200:280|200:280|328:112|328:112|192:112|192:112|336:280|336:280|176:96,1,1035
440,192,65213,6,0,L|488:192,1,45
192,272,65413,2,0,L|144:272,1,45
384,336,65613,2,0,L|440:336,1,45
80,128,65813,2,0,L|24:128,1,45
352,192,66013,6,0,L|448:192,1,90
336,192,66213,2,0,L|320:96,1,90
432,112,66413,2,0,L|336:112,1,90
448,192,66613,2,0,L|480:96,1,90
144,192,66813,6,0,L|240:192,1,90
128,160,67013,2,0,L|224:160,1,90
112,128,67213,2,0,L|16:128,1,90
128,96,67413,2,0,L|32:96,1,90
288,192,67613,5,0,0:0:0:0:
480,80,67813,2,0,L|432:80,1,44.999998626709
320,80,67913,2,0,L|272:80,1,44.999998626709
160,80,68013,1,0,0:0:0:0:
32,272,68213,2,0,L|80:272,1,44.999998626709
192,272,68313,2,0,L|240:272,1,44.999998626709
384,272,68413,6,0,L|480:272,1,89.9999972534181
176,256,68613,2,0,L|112:192,1,89.9999972534181
160,192,68763,1,0,0:0:0:0:
352,320,68813,2,0,P|432:240|320:96,1,314.999990386963,0|0,0:0|2:0,0:0:0:0:
128,144,69213,6,0,L|32:144,1,89.9999972534181
144,176,69413,2,0,L|48:176,1,89.9999972534181
160,208,69613,2,0,L|256:208,1,89.9999972534181
144,240,69813,2,0,L|48:240,1,89.9999972534181
432,304,70013,6,0,L|448:208,1,89.9999972534181
336,304,70213,2,0,L|320:208,1,89.9999972534181
432,192,70413,2,0,L|480:112,1,89.9999972534181
368,112,70613,2,0,L|448:48,1,89.9999972534181
208,160,70813,6,0,L|160:160,2,44.999998626709
296,160,71013,1,0,0:0:0:0:
80,224,71113,2,0,L|32:224,2,45
168,224,71313,1,0,0:0:0:0:
440,224,71413,1,0,0:0:0:0:
480,200,71463,1,0,0:0:0:0:
488,152,71513,1,0,0:0:0:0:
456,120,71563,1,0,0:0:0:0:
208,160,71613,6,0,L|160:160,1,44.999998626709
304,224,71713,2,0,L|352:224,1,44.999998626709
192,224,71813,2,0,L|144:224,1,44.999998626709
320,160,71913,2,0,L|368:160,1,44.999998626709
176,80,72013,2,0,P|64:160|192:240,1,314.999990386963,0|0,0:0|2:0,0:0:0:0:
480,256,72413,5,0,0:0:0:0:
304,256,72613,1,0,0:0:0:0:
480,224,72813,1,0,0:0:0:0:
304,224,73013,1,0,0:0:0:0:
480,192,73213,1,0,0:0:0:0:
304,192,73413,1,0,0:0:0:0:
480,160,73613,1,0,0:0:0:0:
256,96,73713,2,0,P|208:128|272:224,1,179.999994506836
32,256,74013,5,0,0:0:0:0:
208,256,74213,1,0,0:0:0:0:
32,224,74413,1,0,0:0:0:0:
208,224,74613,1,0,0:0:0:0:
32,192,74813,1,0,0:0:0:0:
208,192,75013,1,0,0:0:0:0:
32,160,75213,1,0,0:0:0:0:
256,96,75313,2,0,P|304:128|240:224,1,179.999994506836
496,192,75613,6,0,L|496:96,3,89.9999972534181
336,192,76013,2,0,L|336:96,3,89.9999972534181
176,192,76413,6,0,L|176:96,3,89.9999972534181
16,192,76813,2,0,L|16:96,3,89.9999972534181
336,160,77213,6,0,L|432:160,1,89.9999972534181
176,224,77413,2,0,L|80:224,1,89.9999972534181
384,32,77613,2,0,L|480:32,1,89.9999972534181
128,352,77813,2,0,L|32:352,1,89.9999972534181
272,288,78013,6,0,L|320:288,1,44.999998626709
432,288,78113,2,0,L|480:288,1,44.999998626709
240,96,78213,2,0,L|192:96,1,44.999998626709
80,96,78313,2,0,L|32:96,1,44.999998626709
407,273,78413,5,0,0:0:0:0:
431,260,78438,1,0,0:0:0:0:
451,243,78463,1,0,0:0:0:0:
466,220,78488,1,0,0:0:0:0:
474,194,78513,1,0,0:0:0:0:
476,167,78538,1,0,0:0:0:0:
471,141,78563,1,0,0:0:0:0:
459,117,78588,1,0,0:0:0:0:
441,97,78613,1,0,0:0:0:0:
418,82,78638,1,0,0:0:0:0:
393,73,78663,1,0,0:0:0:0:
366,70,78688,1,0,0:0:0:0:
335,68,78713,1,0,0:0:0:0:
304,68,78738,1,0,0:0:0:0:
273,68,78763,1,0,0:0:0:0:
80,64,78813,5,0,0:0:0:0:
256,192,78913,12,0,81613,0:0:0:0:
320,192,82013,5,0,0:0:0:0:
408,192,82113,1,0,0:0:0:0:
304,160,82213,1,0,0:0:0:0:
424,160,82313,1,0,0:0:0:0:
320,128,82413,1,0,0:0:0:0:
408,128,82513,1,0,0:0:0:0:
304,224,82613,1,0,0:0:0:0:
336,224,82663,1,0,0:0:0:0:
368,224,82713,1,0,0:0:0:0:
400,224,82763,1,0,0:0:0:0:
176,192,82813,5,0,0:0:0:0:
88,192,82913,1,0,0:0:0:0:
192,224,83013,1,0,0:0:0:0:
72,224,83113,1,0,0:0:0:0:
176,256,83213,1,0,0:0:0:0:
88,256,83313,1,0,0:0:0:0:
336,192,83413,1,0,0:0:0:0:
160,192,83613,5,0,0:0:0:0:
248,192,83713,1,0,0:0:0:0:
144,160,83813,1,0,0:0:0:0:
264,160,83913,1,0,0:0:0:0:
160,128,84013,1,0,0:0:0:0:
248,128,84113,1,0,0:0:0:0:
144,224,84213,1,0,0:0:0:0:
112,224,84263,1,0,0:0:0:0:
80,224,84313,1,0,0:0:0:0:
48,224,84363,1,0,0:0:0:0:
336,304,84413,5,0,0:0:0:0:
424,232,84513,2,0,L|440:176,1,45
272,192,84613,1,0,0:0:0:0:
360,192,84713,2,0,L|360:136,1,45
192,144,84813,1,0,0:0:0:0:
280,144,84913,2,0,L|264:88,1,45
112,96,85013,1,0,0:0:0:0:
24,96,85113,1,0,0:0:0:0:
368,192,85213,5,0,0:0:0:0:
280,192,85313,1,0,0:0:0:0:
384,160,85413,1,0,0:0:0:0:
264,160,85513,1,0,0:0:0:0:
368,128,85613,1,0,0:0:0:0:
280,128,85713,1,0,0:0:0:0:
384,224,85813,1,0,0:0:0:0:
416,224,85863,1,0,0:0:0:0:
448,224,85913,1,0,0:0:0:0:
480,224,85963,1,0,0:0:0:0:
256,192,86013,5,0,0:0:0:0:
168,192,86113,1,0,0:0:0:0:
272,224,86213,1,0,0:0:0:0:
152,224,86313,1,0,0:0:0:0:
256,256,86413,1,0,0:0:0:0:
168,256,86513,1,0,0:0:0:0:
432,192,86613,1,0,0:0:0:0:
256,160,86813,5,0,0:0:0:0:
344,160,86913,1,0,0:0:0:0:
240,192,87013,1,0,0:0:0:0:
360,192,87113,1,0,0:0:0:0:
256,224,87213,1,0,0:0:0:0:
344,224,87313,1,0,0:0:0:0:
240,128,87413,1,0,0:0:0:0:
272,128,87463,1,0,0:0:0:0:
304,128,87513,1,0,0:0:0:0:
336,128,87563,1,0,0:0:0:0:
112,192,87613,6,0,P|80:144|128:72,1,135,0|0,0:0|2:0,0:0:0:0:
400,192,87813,2,0,P|432:240|384:312,1,135,0|0,0:0|2:0,0:0:0:0:
64,192,88013,2,0,P|32:240|80:312,1,135,0|0,0:0|2:0,0:0:0:0:
448,192,88213,2,0,P|480:144|432:72,1,135,0|0,0:0|2:0,0:0:0:0:
256,80,88413,5,0,0:0:0:0:
168,80,88513,1,0,0:0:0:0:
272,112,88613,1,0,0:0:0:0:
152,112,88713,1,0,0:0:0:0:
256,144,88813,1,0,0:0:0:0:
168,144,88913,1,0,0:0:0:0:
272,48,89013,1,0,0:0:0:0:
304,48,89063,1,0,0:0:0:0:
336,48,89113,1,0,0:0:0:0:
368,48,89163,1,0,0:0:0:0:
160,192,89213,5,0,0:0:0:0:
72,192,89313,1,0,0:0:0:0:
176,224,89413,1,0,0:0:0:0:
264,224,89513,1,0,0:0:0:0:
160,256,89613,1,0,0:0:0:0:
72,256,89713,1,0,0:0:0:0:
384,192,89813,1,0,0:0:0:0:
208,160,90013,5,0,0:0:0:0:
296,160,90113,1,0,0:0:0:0:
192,192,90213,1,0,0:0:0:0:
280,192,90313,1,0,0:0:0:0:
176,224,90413,1,0,0:0:0:0:
264,224,90513,1,0,0:0:0:0:
160,256,90613,1,0,0:0:0:0:
192,256,90663,1,0,0:0:0:0:
224,256,90713,1,0,0:0:0:0:
256,256,90763,1,0,0:0:0:0:
392,192,90813,5,0,0:0:0:0:
480,192,90913,2,0,L|496:144,1,45
224,160,91013,1,0,0:0:0:0:
136,160,91113,2,0,L|120:104,1,45
368,112,91213,1,0,0:0:0:0:
456,112,91313,2,0,L|472:56,1,45
200,64,91413,1,0,0:0:0:0:
112,64,91513,1,0,0:0:0:0:
368,288,91613,6,0,L|392:248,2,45
280,288,91813,1,0,0:0:0:0:
368,288,91913,1,0,0:0:0:0:
264,256,92013,1,0,0:0:0:0:
464,192,92113,6,0,L|480:40,1,135,0|0,0:0|2:0,0:0:0:0:
128,192,92313,2,0,L|112:40,1,135,0|0,0:0|2:0,0:0:0:0:
344,192,92513,2,0,L|360:88,1,90,0|0,0:0|2:0,0:0:0:0:
256,192,92713,1,0,0:0:0:0:
480,192,92813,6,0,L|512:344,1,135,0|0,0:0|2:0,0:0:0:0:
32,192,93013,2,0,L|0:40,1,135,0|0,0:0|2:0,0:0:0:0:
384,343,93213,5,0,0:0:0:0:
405,322,93238,1,0,2:0:0:0:
423,298,93263,1,0,2:0:0:0:
435,270,93288,1,0,2:0:0:0:
443,241,93313,1,0,2:0:0:0:
446,211,93338,1,0,2:0:0:0:
443,182,93363,1,0,2:0:0:0:
435,153,93388,1,0,2:0:0:0:
423,125,93413,1,0,2:0:0:0:
405,101,93438,1,0,2:0:0:0:
384,80,93463,1,0,2:0:0:0:
358,62,93488,1,0,2:0:0:0:
326,50,93513,1,0,2:0:0:0:
291,42,93538,1,0,2:0:0:0:
256,39,93563,1,0,2:0:0:0:
220,42,93588,1,0,2:0:0:0:
185,50,93613,1,0,2:0:0:0:
153,62,93638,1,0,2:0:0:0:
127,80,93663,1,0,2:0:0:0:
106,101,93688,1,0,2:0:0:0:
88,125,93713,1,0,2:0:0:0:
76,153,93738,1,0,2:0:0:0:
68,182,93763,1,0,2:0:0:0:
65,212,93788,1,0,2:0:0:0:
68,241,93813,1,0,2:0:0:0:
76,270,93838,1,0,2:0:0:0:
88,298,93863,1,0,2:0:0:0:
106,322,93888,1,0,2:0:0:0:
127,343,93913,1,0,2:0:0:0:
352,192,94013,6,0,L|384:40,1,135,0|0,0:0|2:0,0:0:0:0:
160,192,94213,2,0,L|128:344,1,135,0|0,0:0|2:0,0:0:0:0:
448,192,94413,2,0,L|480:40,1,135,0|0,0:0|2:0,0:0:0:0:
64,192,94613,2,0,L|32:344,1,135,0|0,0:0|2:0,0:0:0:0:
320,192,94813,5,0,0:0:0:0:
408,192,94913,1,0,0:0:0:0:
304,160,95013,1,0,0:0:0:0:
392,160,95113,1,0,0:0:0:0:
288,128,95213,1,0,0:0:0:0:
376,128,95313,1,0,0:0:0:0:
272,96,95413,1,0,0:0:0:0:
240,96,95463,1,0,0:0:0:0:
208,96,95513,1,0,0:0:0:0:
176,96,95563,1,0,0:0:0:0:
384,192,95613,5,0,0:0:0:0:
472,192,95713,1,0,0:0:0:0:
368,224,95813,1,0,0:0:0:0:
280,224,95913,1,0,0:0:0:0:
384,256,96013,1,0,0:0:0:0:
472,256,96113,1,0,0:0:0:0:
112,192,96213,1,0,0:0:0:0:
288,192,96413,5,0,0:0:0:0:
376,192,96513,1,0,0:0:0:0:
272,160,96613,1,0,0:0:0:0:
392,160,96713,1,0,0:0:0:0:
288,128,96813,1,0,0:0:0:0:
376,128,96913,1,0,0:0:0:0:
272,224,97013,1,0,0:0:0:0:
304,224,97063,1,0,0:0:0:0:
336,224,97113,1,0,0:0:0:0:
368,224,97163,1,0,0:0:0:0:
128,192,97213,5,0,0:0:0:0:
40,192,97313,2,0,L|56:144,1,45
208,144,97413,1,0,0:0:0:0:
120,144,97513,2,0,L|120:96,1,45
288,96,97613,1,0,0:0:0:0:
200,96,97713,2,0,L|184:48,1,45
368,48,97813,2,0,L|464:48,1,90
240,224,98013,6,0,L|184:224,1,45
48,304,98113,2,0,L|0:304,1,45
272,160,98213,2,0,L|320:160,1,45
464,96,98313,2,0,L|512:96,1,45
256,192,98413,5,0,0:0:0:0:
168,192,98513,1,0,0:0:0:0:
272,160,98613,1,0,0:0:0:0:
184,160,98713,1,0,0:0:0:0:
448,192,98813,6,0,L|464:288,1,90
376,160,99013,1,0,0:0:0:0:
464,160,99113,1,0,0:0:0:0:
392,128,99213,1,0,0:0:0:0:
480,128,99313,1,0,0:0:0:0:
176,192,99413,1,0,0:0:0:0:
336,192,99613,6,0,L|376:112,1,90
336,112,99763,1,0,0:0:0:0:
112,192,99813,2,0,L|72:112,1,90
112,112,99963,1,0,0:0:0:0:
448,192,100013,2,0,L|488:112,1,90
448,112,100163,1,0,0:0:0:0:
192,192,100213,2,0,L|144:192,1,45
320,192,100313,2,0,L|368:192,1,45
112,336,100413,6,0,P|64:256|128:224,1,180,0|0,0:0|2:0,0:0:0:0:
208,272,100713,1,0,2:0:0:0:
112,272,100813,1,0,2:0:0:0:
32,208,100913,1,0,2:0:0:0:
32,112,101013,1,0,2:0:0:0:
112,48,101113,1,0,2:0:0:0:
480,192,101213,5,0,0:0:0:0:
304,192,101413,1,0,0:0:0:0:
480,160,101613,1,0,0:0:0:0:
304,160,101813,1,0,0:0:0:0:
480,128,102013,1,0,0:0:0:0:
304,128,102213,1,0,0:0:0:0:
480,96,102413,1,0,0:0:0:0:
256,192,102513,2,0,L|384:320,1,180
208,192,102813,5,0,0:0:0:0:
32,192,103013,1,0,0:0:0:0:
208,160,103213,1,0,0:0:0:0:
32,160,103413,1,0,0:0:0:0:
208,128,103613,1,0,0:0:0:0:
32,128,103813,1,0,0:0:0:0:
208,96,104013,1,0,0:0:0:0:
32,144,104113,2,0,P|16:240|48:320,1,180
368,192,104413,6,0,L|376:144,6,45
128,320,104813,5,0,0:0:0:0:
74,293,104863,1,0,0:0:0:0:
37,245,104913,1,0,0:0:0:0:
25,187,104963,1,0,0:0:0:0:
39,128,105013,1,0,0:0:0:0:
77,82,105063,1,0,0:0:0:0:
131,57,105113,1,0,0:0:0:0:
384,64,105213,5,0,0:0:0:0:
437,90,105263,1,0,0:0:0:0:
474,138,105313,1,0,0:0:0:0:
486,196,105363,1,0,0:0:0:0:
472,255,105413,1,0,0:0:0:0:
434,301,105463,1,0,0:0:0:0:
380,326,105513,1,0,0:0:0:0:
144,192,105613,6,0,L|96:192,1,45
368,192,105713,2,0,L|416:192,1,45
80,256,105813,2,0,L|32:256,1,45
432,256,105913,2,0,L|480:256,1,45
144,256,106013,6,0,P|32:144|152:32,1,360,0|0,0:0|2:0,0:0:0:0:
200,32,106463,1,0,2:0:0:0:
264,32,106513,6,0,L|248:88,1,45,0|0,2:0|2:0,2:0:0:0:
312,80,106613,2,0,L|296:136,1,45,0|0,2:0|2:0,2:0:0:0:
360,128,106713,2,0,L|344:184,1,45,0|0,2:0|2:0,2:0:0:0:
408,176,106813,2,0,L|424:232,1,45,0|0,2:0|2:0,2:0:0:0:
360,224,106913,2,0,L|376:280,1,45,0|0,2:0|2:0,2:0:0:0:
312,272,107013,2,0,L|328:328,1,45,0|0,2:0|2:0,2:0:0:0:
264,320,107113,2,0,L|248:264,1,45,0|0,2:0|2:0,2:0:0:0:
432,336,107213,6,0,P|480:224|368:80,1,315,0|0,2:0|2:0,2:0:0:0:
112,288,107613,6,0,L|48:88,1,180
328,256,107913,2,0,L|176:128,1,180
400,288,108213,2,0,L|464:88,1,180
360,112,108513,5,0,0:0:0:0:
448,112,108613,2,0,L|448:64,1,45
272,192,108713,1,0,0:0:0:0:
240,304,108813,1,0,0:0:0:0:
328,192,108913,2,0,L|328:248,1,45
176,304,109013,1,0,0:0:0:0:
144,192,109113,1,0,0:0:0:0:
384,96,109213,6,0,L|336:96,1,45
176,96,109313,2,0,L|128:96,1,45
352,288,109413,2,0,L|448:288,1,90
224,288,109613,6,0,L|144:216,2,90
312,192,109913,1,0,0:0:0:0:
112,288,110013,2,0,L|32:216,2,90
200,192,110313,1,0,0:0:0:0:
16,288,110413,2,0,L|16:184,1,90
120,192,110613,2,0,L|16:192,1,90
416,288,110813,6,0,L|480:88,1,180
192,248,111113,2,0,L|344:120,1,180
120,192,111413,2,0,L|16:192,1,90
368,192,111613,5,0,0:0:0:0:
416,304,111713,1,0,0:0:0:0:
328,192,111813,2,0,L|312:136,1,45
480,192,111913,2,0,L|480:88,1,90
400,96,112113,2,0,L|368:56,1,45
112,240,112213,1,0,0:0:0:0:
64,208,112263,1,0,0:0:0:0:
64,144,112313,1,0,0:0:0:0:
112,112,112363,1,0,0:0:0:0:
288,320,112413,5,0,0:0:0:0:
368,288,112513,1,0,0:0:0:0:
432,224,112613,1,0,0:0:0:0:
448,144,112713,1,0,0:0:0:0:
432,224,112813,1,0,0:0:0:0:
368,288,112913,1,0,0:0:0:0:
288,320,113013,1,0,0:0:0:0:
384,320,113113,2,0,L|416:216,1,90
112,320,113313,6,0,L|80:216,1,90
176,192,113513,1,0,0:0:0:0:
192,160,113563,1,0,0:0:0:0:
208,128,113613,1,0,0:0:0:0:
224,96,113663,1,0,0:0:0:0:
48,192,113713,2,0,L|112:128,2,90
288,304,114013,6,0,L|368:120,1,180
112,304,114313,2,0,L|32:128,1,180
400,304,114613,2,0,L|480:120,1,180
144,192,114913,5,0,0:0:0:0:
56,192,115013,2,0,L|40:136,1,45
280,192,115113,1,0,0:0:0:0:
368,192,115213,1,0,0:0:0:0:
464,192,115313,2,0,L|480:136,1,45
232,192,115413,1,0,0:0:0:0:
144,192,115513,1,0,0:0:0:0:
352,288,115613,6,0,L|408:288,1,45
352,288,115713,1,0,0:0:0:0:
313,241,115763,1,0,0:0:0:0:
305,181,115813,1,0,0:0:0:0:
323,123,115863,1,0,0:0:0:0:
366,81,115913,1,0,0:0:0:0:
424,67,115963,1,0,0:0:0:0:
184,304,116013,6,0,L|160:288,1,22.5
64,192,116163,2,0,L|48:168,1,22.5
320,296,116313,2,0,L|336:272,1,22.5
248,248,116413,6,0,L|232:224,1,22.5
464,192,116563,2,0,L|480:168,1,22.5
152,192,116713,2,0,L|136:168,1,22.5
437,335,116813,5,0,0:0:0:0:
450,314,116838,1,0,0:0:0:0:
461,291,116863,1,0,0:0:0:0:
467,267,116888,1,0,0:0:0:0:
470,242,116913,1,0,0:0:0:0:
469,217,116938,1,0,0:0:0:0:
464,192,116963,1,0,0:0:0:0:
455,169,116988,1,0,0:0:0:0:
443,147,117013,1,0,0:0:0:0:
427,128,117038,1,0,0:0:0:0:
409,111,117063,1,0,0:0:0:0:
388,97,117088,1,0,0:0:0:0:
365,87,117113,1,0,0:0:0:0:
341,80,117138,1,0,0:0:0:0:
317,77,117163,1,0,0:0:0:0:
96,80,117213,5,0,0:0:0:0:
256,192,117413,2,0,L|256:144,3,45
128,192,117613,2,0,L|24:192,1,90
144,192,117813,2,0,L|144:88,1,90
384,192,118013,2,0,L|480:192,1,90
368,192,118213,2,0,L|368:288,1,90
144,256,118413,5,0,0:0:0:0:
96,224,118463,1,0,0:0:0:0:
96,160,118513,1,0,0:0:0:0:
144,128,118563,1,0,0:0:0:0:
352,256,118613,1,0,0:0:0:0:
400,224,118663,1,0,0:0:0:0:
400,160,118713,1,0,0:0:0:0:
352,128,118763,1,0,0:0:0:0:
192,192,118813,5,0,0:0:0:0:
104,192,118913,1,0,0:0:0:0:
208,160,119013,1,0,0:0:0:0:
120,160,119113,1,0,0:0:0:0:
224,128,119213,1,0,0:0:0:0:
136,128,119313,1,0,0:0:0:0:
240,96,119413,1,0,0:0:0:0:
152,96,119513,1,0,0:0:0:0:
448,320,119613,5,0,0:0:0:0:
473,265,119663,1,0,0:0:0:0:
482,205,119713,1,0,0:0:0:0:
464,147,119763,1,0,0:0:0:0:
426,100,119813,1,0,0:0:0:0:
372,73,119863,1,0,0:0:0:0:
312,64,119913,1,0,0:0:0:0:
252,62,119963,1,0,0:0:0:0:
64,192,120013,5,0,0:0:0:0:
448,192,120213,1,0,0:0:0:0:
32,296,120413,6,0,L|32:112,1,180
200,272,120713,2,0,L|312:120,1,180
480,296,121013,2,0,L|480:112,1,180
392,192,121313,5,0,0:0:0:0:
176,192,121413,2,0,L|176:144,1,45
320,256,121513,1,0,0:0:0:0:
240,256,121613,2,0,L|144:256,1,90
192,256,121763,1,0,0:0:0:0:
392,256,121813,2,0,L|496:256,1,90
176,192,122013,6,0,L|120:192,1,45
176,160,122113,2,0,L|224:160,1,45
392,160,122213,1,0,0:0:0:0:
480,160,122313,1,0,0:0:0:0:
32,224,122513,1,0,0:0:0:0:
120,192,122613,2,0,L|24:192,1,90
256,192,122813,5,0,0:0:0:0:
480,192,122913,1,0,0:0:0:0:
368,192,123113,1,0,0:0:0:0:
352,144,123163,1,0,0:0:0:0:
360,96,123213,1,0,0:0:0:0:
400,64,123263,1,0,0:0:0:0:
184,304,123313,2,0,P|96:256|64:168,1,180
328,240,123613,6,0,P|416:192|448:104,1,180
184,176,123913,2,0,P|96:128|64:40,1,180
344,192,124213,2,0,L|424:136,2,90
256,240,124513,5,0,0:0:0:0:
352,240,124613,1,0,0:0:0:0:
128,232,124713,2,0,L|64:168,1,90
112,216,124863,1,0,0:0:0:0:
336,192,124913,2,0,L|368:160,1,45
128,40,125013,2,0,P|72:112|144:160,1,180
392,160,125313,5,0,0:0:0:0:
144,312,125413,2,0,L|88:224,1,90
392,224,125613,1,0,0:0:0:0:
104,232,125713,2,0,P|64:192|56:144,1,90
56,112,125863,1,0,0:0:0:0:
80,72,125913,1,0,0:0:0:0:
120,56,125963,1,0,0:0:0:0:
256,152,126013,5,0,2:0:0:0:
432,192,126213,1,0,2:0:0:0:
128,192,126413,1,0,2:0:0:0:
464,224,126613,1,0,2:0:0:0:
32,352,126813,6,0,P|80:240|152:224,1,180
480,32,127113,2,0,P|432:144|360:160,1,180
32,32,127413,2,0,P|80:144|152:160,1,180
256,224,127713,6,0,L|344:192,1,90
320,192,127863,1,0,0:0:0:0:
192,192,127913,1,0,0:0:0:0:
104,224,128013,2,0,L|8:192,1,100
24,192,128163,1,0,0:0:0:0:
256,296,128213,2,0,L|352:296,1,90
128,192,128413,5,0,0:0:0:0:
104,144,128463,1,0,0:0:0:0:
128,96,128513,1,0,0:0:0:0:
176,80,128563,1,0,0:0:0:0:
336,80,128613,1,0,0:0:0:0:
96,192,128713,1,0,0:0:0:0:
8,192,128813,1,0,0:0:0:0:
96,312,128913,2,0,L|96:216,1,90
480,192,129113,6,0,L|480:96,1,90
392,224,129313,1,0,0:0:0:0:
480,224,129413,1,0,0:0:0:0:
192,224,129513,1,0,0:0:0:0:
104,224,129613,2,0,L|200:224,1,90
88,192,129813,2,0,L|184:192,1,90
480,352,130013,6,0,P|432:240|360:224,1,180
32,32,130313,2,0,P|80:144|152:160,1,180
392,192,130613,2,0,L|488:192,1,90
160,224,130813,6,0,P|64:256|32:344,1,180
352,160,131113,2,0,P|448:128|480:40,1,180
120,192,131413,2,0,L|24:192,1,90
336,192,131613,6,0,L|384:88,1,90
176,192,131813,2,0,L|128:88,1,90
408,192,132013,2,0,L|480:128,1,90
104,192,132213,2,0,L|32:128,1,90
336,224,132413,6,0,L|424:192,1,90
320,192,132613,2,0,L|408:160,1,90
104,320,132813,2,0,P|32:192|144:88,1,315,0|0,0:0|2:0,0:0:0:0:
384,88,133213,1,0,0:0:0:0:
256,192,133313,12,0,136213,0:0:0:0:
88,80,136413,6,0,L|88:32,1,45
136,80,136513,2,0,L|136:32,1,45
184,80,136613,2,0,L|184:32,1,45
232,80,136713,2,0,L|232:32,1,45
280,80,136813,6,0,L|280:32,1,45
328,80,136913,2,0,L|328:32,1,45
376,80,137013,2,0,L|376:32,1,45
424,80,137113,2,0,L|424:32,1,45
128,192,137213,6,0,L|80:192,1,45
80,160,137313,2,0,L|128:160,1,45
256,192,137413,2,0,L|304:192,1,45
256,224,137513,2,0,L|208:224,1,45
384,192,137613,6,0,L|432:192,1,45
432,224,137713,2,0,L|384:224,1,45
256,192,137813,2,0,L|208:192,1,45
256,160,137913,2,0,L|304:160,1,45
448,160,138013,6,0,L|480:192,1,45
304,352,138113,2,0,L|256:352,1,45
64,224,138213,2,0,L|32:192,1,45
208,32,138313,2,0,L|256:32,1,45
425,291,138413,5,0,0:0:0:0:
442,281,138438,1,0,0:0:0:0:
457,268,138463,1,0,0:0:0:0:
469,252,138488,1,0,0:0:0:0:
478,234,138513,1,0,0:0:0:0:
485,215,138538,1,0,0:0:0:0:
486,195,138563,1,0,0:0:0:0:
485,175,138588,1,0,0:0:0:0:
477,156,138613,1,0,0:0:0:0:
466,139,138638,1,0,0:0:0:0:
451,125,138663,1,0,0:0:0:0:
432,112,138688,1,0,0:0:0:0:
410,104,138713,1,0,0:0:0:0:
387,102,138738,1,0,0:0:0:0:
364,103,138763,1,0,0:0:0:0:
72,192,138813,6,0,P|32:120|40:64,1,135,0|0,1:0|0:0,0:0:0:0:
440,192,139013,2,0,P|480:264|464:328,1,135,0|0,1:0|0:0,0:0:0:0:
256,192,139213,1,0,1:0:0:0:
128,192,139613,6,0,L|128:96,1,90
384,192,139813,2,0,L|384:96,1,90
112,192,140013,2,0,L|80:104,1,90
400,192,140213,2,0,L|432:104,1,90
96,192,140413,6,0,L|32:120,1,90
416,192,140613,2,0,L|480:120,1,90
256,192,140813,1,0,0:0:0:0:
168,192,140913,1,0,0:0:0:0:
272,168,141013,1,0,0:0:0:0:
152,168,141113,1,0,0:0:0:0:
416,192,141213,6,0,L|480:120,1,90
96,192,141413,2,0,L|32:120,1,90
432,192,141613,2,0,L|464:104,1,90
80,192,141813,2,0,L|48:104,1,90
312,192,142013,6,0,P|368:128|304:80,1,180
208,80,142313,1,0,0:0:0:0:
416,192,142413,2,0,P|472:256|408:304,1,180
96,192,142713,1,0,0:0:0:0:
432,344,142813,6,0,P|464:160|320:80,2,360
280,296,143813,1,0,0:0:0:0:
248,120,144013,1,0,0:0:0:0:
424,80,144213,1,0,0:0:0:0:
144,344,144413,6,0,P|48:184|304:64,1,540
32,192,145213,2,0,P|72:88|136:72,3,180
416,192,146013,6,0,L|416:96,1,90
96,192,146213,2,0,L|96:96,1,90
432,192,146413,2,0,L|400:104,1,90
80,192,146613,2,0,L|112:104,1,90
448,192,146813,6,0,L|384:120,1,90
64,192,147013,2,0,L|128:120,1,90
376,192,147213,1,0,0:0:0:0:
296,192,147313,1,0,0:0:0:0:
392,160,147413,1,0,0:0:0:0:
280,160,147513,1,0,0:0:0:0:
464,184,147613,6,0,L|400:112,1,90
48,184,147813,2,0,L|112:112,1,90
480,184,148013,2,0,L|448:96,1,90
32,184,148213,2,0,L|64:96,1,90
328,256,148413,6,0,L|184:128,1,180
400,192,148713,1,0,0:0:0:0:
184,256,148813,2,0,L|328:128,1,180
112,192,149113,1,0,0:0:0:0:
432,344,149213,6,0,P|464:160|328:88,2,360
48,336,150213,2,0,P|136:192|48:40,1,360
336,320,150813,6,0,L|408:96,1,225,0|0,0:0|2:0,0:0:0:0:
176,320,151113,2,0,L|104:96,1,225,0|0,0:0|2:0,0:0:0:0:
392,320,151413,2,0,L|440:184,1,135,0|0,0:0|2:0,0:0:0:0:
120,320,151613,6,0,L|48:96,1,225,0|0,0:0|2:0,0:0:0:0:
440,320,151913,2,0,L|512:96,1,225,0|0,0:0|2:0,0:0:0:0:
80,320,152213,2,0,L|32:184,1,135,0|0,0:0|2:0,0:0:0:0:
384,192,152413,6,0,L|384:96,1,90
96,192,152613,2,0,L|96:96,1,90
400,192,152813,2,0,L|432:104,1,90
80,192,153013,2,0,L|112:104,1,90
416,192,153213,6,0,L|480:120,1,90
64,192,153413,2,0,L|128:120,1,90
384,192,153613,1,0,0:0:0:0:
464,192,153713,1,0,0:0:0:0:
368,160,153813,1,0,0:0:0:0:
480,160,153913,1,0,0:0:0:0:
96,192,154013,6,0,L|32:120,1,90
448,192,154213,2,0,L|384:120,1,90
80,192,154413,2,0,L|48:104,1,90
464,192,154613,2,0,L|432:104,1,90
104,272,154813,6,0,P|136:168|208:152,1,180
432,192,155113,1,0,0:0:0:0:
144,240,155213,2,0,P|54:204|32:120,1,180
280,192,155513,1,0,0:0:0:0:
32,336,155613,6,0,P|112:176|256:48,2,360
328,312,156613,2,0,P|440:192|320:72,1,360
160,72,157213,6,0,P|152:320|296:216,1,540
168,304,158013,2,0,L|152:112,1,180
312,304,158413,2,0,L|328:104,1,180
32,224,158813,5,0,0:0:0:0:
120,192,158913,1,0,0:0:0:0:
32,160,159013,1,0,0:0:0:0:
392,192,159113,5,0,0:0:0:0:
304,160,159213,1,0,0:0:0:0:
392,128,159313,1,0,0:0:0:0:
112,256,159413,5,0,0:0:0:0:
200,224,159513,1,0,0:0:0:0:
112,192,159613,1,0,0:0:0:0:
448,288,159713,5,0,0:0:0:0:
360,256,159813,1,0,0:0:0:0:
448,224,159913,1,0,0:0:0:0:
112,336,160013,6,0,L|80:136,1,180
376,224,160413,5,0,0:0:0:0:
288,192,160513,1,0,0:0:0:0:
376,160,160613,1,0,0:0:0:0:
88,192,160713,5,0,0:0:0:0:
176,160,160813,1,0,0:0:0:0:
88,128,160913,1,0,0:0:0:0:
400,320,161013,5,0,0:0:0:0:
312,288,161113,1,0,0:0:0:0:
480,256,161213,1,0,0:0:0:0:
112,128,161313,5,0,0:0:0:0:
200,96,161413,1,0,0:0:0:0:
32,64,161513,1,0,0:0:0:0:
312,48,161613,6,0,P|408:160|312:264,1,315,0|0,0:0|2:0,0:0:0:0:
128,240,162013,6,0,L|120:208,8,22.5,0|0|0|0|0|0|0|0|0,1:0|0:0|0:0|0:0|0:0|0:0|0:0|0:0|0:0,0:0:0:0:
256,246,162413,5,0,0:0:0:0:
267,229,162438,1,0,0:0:0:0:
273,210,162463,1,0,0:0:0:0:
272,190,162488,1,0,0:0:0:0:
264,171,162513,1,0,0:0:0:0:
251,155,162538,1,0,0:0:0:0:
234,144,162563,1,0,0:0:0:0:
215,137,162588,1,0,0:0:0:0:
195,135,162613,1,0,0:0:0:0:
175,136,162638,1,0,0:0:0:0:
155,136,162663,1,0,0:0:0:0:
377,335,162713,5,0,0:0:0:0:
394,325,162738,1,0,0:0:0:0:
409,312,162763,1,0,0:0:0:0:
421,296,162788,1,0,0:0:0:0:
430,278,162813,1,0,0:0:0:0:
437,259,162838,1,0,0:0:0:0:
438,239,162863,1,0,0:0:0:0:
437,219,162888,1,0,0:0:0:0:
429,200,162913,1,0,0:0:0:0:
418,183,162938,1,0,0:0:0:0:
403,169,162963,1,0,0:0:0:0:
125,226,163013,5,0,0:0:0:0:
108,216,163038,1,0,0:0:0:0:
93,203,163063,1,0,0:0:0:0:
81,187,163088,1,0,0:0:0:0:
72,169,163113,1,0,0:0:0:0:
65,150,163138,1,0,0:0:0:0:
64,130,163163,1,0,0:0:0:0:
65,110,163188,1,0,0:0:0:0:
73,91,163213,1,0,0:0:0:0:
84,74,163238,1,0,0:0:0:0:
99,60,163263,1,0,0:0:0:0:
290,191,163313,5,0,0:0:0:0:
307,181,163338,1,0,0:0:0:0:
323,170,163363,1,0,0:0:0:0:
340,159,163388,1,0,0:0:0:0:
356,148,163413,1,0,0:0:0:0:
373,137,163438,1,0,0:0:0:0:
390,127,163463,1,0,0:0:0:0:
407,116,163488,1,0,0:0:0:0:
424,106,163513,1,0,0:0:0:0:
441,95,163538,1,0,0:0:0:0:
457,84,163563,1,0,0:0:0:0:
99,303,163613,5,0,0:0:0:0:
84,289,163638,1,0,0:0:0:0:
73,272,163663,1,0,0:0:0:0:
65,253,163688,1,0,0:0:0:0:
64,233,163713,1,0,0:0:0:0:
65,213,163738,1,0,0:0:0:0:
72,194,163763,1,0,0:0:0:0:
81,176,163788,1,0,0:0:0:0:
93,160,163813,1,0,0:0:0:0:
108,147,163838,1,0,0:0:0:0:
125,137,163863,1,0,0:0:0:0:
336,251,163913,5,0,0:0:0:0:
321,236,163938,1,0,0:0:0:0:
307,221,163963,1,0,0:0:0:0:
292,207,163988,1,0,0:0:0:0:
277,193,164013,1,0,0:0:0:0:
262,179,164038,1,0,0:0:0:0:
248,164,164063,1,0,0:0:0:0:
234,149,164088,1,0,0:0:0:0:
219,135,164113,1,0,0:0:0:0:
205,120,164138,1,0,0:0:0:0:
191,105,164163,1,0,0:0:0:0:
438,251,164213,5,0,0:0:0:0:
453,237,164238,1,0,0:0:0:0:
464,220,164263,1,0,0:0:0:0:
472,201,164288,1,0,0:0:0:0:
473,181,164313,1,0,0:0:0:0:
472,161,164338,1,0,0:0:0:0:
465,142,164363,1,0,0:0:0:0:
456,124,164388,1,0,0:0:0:0:
444,108,164413,1,0,0:0:0:0:
429,95,164438,1,0,0:0:0:0:
412,85,164463,1,0,0:0:0:0:
144,336,164513,6,0,P|256:128|360:360,1,585,0|0,0:0|2:0,0:0:0:0:
144,352,165213,1,0,1:0:0:0:
256,80,178013,6,0,L|272:32,4,45
240,152,178313,1,0,0:0:0:0:
256,224,178413,1,0,0:0:0:0:
296,280,178513,1,0,0:0:0:0:
376,280,178613,5,0,0:0:0:0:
368,208,178713,1,0,0:0:0:0:
336,144,178813,1,0,0:0:0:0:
272,104,178913,1,0,0:0:0:0:
192,104,179013,2,0,L|168:192,1,90
96,192,179213,2,0,L|72:280,1,90
112,344,179413,1,0,0:0:0:0:
192,344,179513,2,0,L|200:296,2,45
144,304,179713,5,0,0:0:0:0:
120,232,179813,1,0,0:0:0:0:
120,160,179913,1,0,0:0:0:0:
144,88,180013,1,0,0:0:0:0:
184,32,180113,1,0,0:0:0:0:
264,32,180213,5,0,0:0:0:0:
312,88,180313,1,0,0:0:0:0:
312,160,180413,1,0,0:0:0:0:
264,216,180513,1,0,0:0:0:0:
184,216,180613,5,0,0:0:0:0:
112,216,180713,2,0,L|96:264,2,45
184,216,180913,2,0,L|184:168,2,45
256,216,181113,2,0,L|272:264,2,45
232,120,181313,5,0,0:0:0:0:
208,192,181413,1,0,0:0:0:0:
216,264,181513,1,0,0:0:0:0:
256,328,181613,1,0,0:0:0:0:
328,352,181713,1,0,0:0:0:0:
408,352,181813,5,0,0:0:0:0:
328,352,181913,1,0,0:0:0:0:
296,288,182013,1,0,0:0:0:0:
312,216,182113,1,0,0:0:0:0:
376,184,182213,2,0,L|392:88,1,90
464,96,182413,2,0,L|480:192,1,90
400,184,182613,1,0,0:0:0:0:
392,152,182663,1,0,0:0:0:0:
384,120,182713,1,0,0:0:0:0:
376,88,182763,1,0,0:0:0:0:
368,56,182813,5,0,0:0:0:0:
312,96,182913,1,0,0:0:0:0:
280,160,183013,1,0,0:0:0:0:
360,160,183113,1,0,0:0:0:0:
408,216,183213,1,0,0:0:0:0:
360,272,183313,1,0,0:0:0:0:
280,272,183413,2,0,L|216:344,2,90
320,208,183713,5,0,0:0:0:0:
296,136,183813,5,0,0:0:0:0:
224,112,183913,2,0,L|216:160,2,45
152,120,184113,2,0,L|136:168,2,45
176,144,184263,1,0,0:0:0:0:
192,176,184313,1,0,0:0:0:0:
184,208,184363,1,0,0:0:0:0:
160,312,184413,5,0,0:0:0:0:
104,264,184513,1,0,0:0:0:0:
80,192,184613,1,0,0:0:0:0:
104,120,184713,1,0,0:0:0:0:
160,72,184813,1,0,0:0:0:0:
232,56,184913,1,0,0:0:0:0:
152,56,185013,5,0,0:0:0:0:
96,104,185113,1,0,0:0:0:0:
72,176,185213,1,0,0:0:0:0:
96,248,185313,1,0,0:0:0:0:
168,248,185413,2,0,L|184:344,1,90
256,336,185613,2,0,L|272:240,1,90
344,248,185813,1,0,0:0:0:0:
368,216,185863,1,0,0:0:0:0:
376,184,185913,1,0,0:0:0:0:
368,152,185963,1,0,0:0:0:0:
344,120,186013,5,0,0:0:0:0:
288,48,186113,1,0,0:0:0:0:
240,104,186213,1,0,0:0:0:0:
216,176,186313,1,0,0:0:0:0:
240,248,186413,1,0,0:0:0:0:
288,304,186513,1,0,0:0:0:0:
368,304,186613,5,0,0:0:0:0:
416,248,186713,1,0,0:0:0:0:
416,176,186813,1,0,0:0:0:0:
360,128,186913,1,0,0:0:0:0:
280,128,187013,1,0,0:0:0:0:
352,128,187113,2,0,L|360:184,2,45
424,128,187313,2,0,L|432:176,2,45
496,128,187513,2,0,L|504:176,2,45
472,56,187713,5,0,0:0:0:0:
456,128,187813,1,0,0:0:0:0:
424,192,187913,1,0,0:0:0:0:
368,240,188013,1,0,0:0:0:0:
304,272,188113,1,0,0:0:0:0:
384,296,188213,5,0,0:0:0:0:
432,240,188313,1,0,0:0:0:0:
448,168,188413,1,0,0:0:0:0:
424,96,188513,1,0,0:0:0:0:
376,40,188613,1,0,0:0:0:0:
296,40,188713,1,0,0:0:0:0:
256,104,188813,1,0,0:0:0:0:
296,168,188913,1,0,0:0:0:0:
376,168,189013,2,0,L|392:264,1,90
312,312,189213,5,0,0:0:0:0:
256,264,189313,1,0,0:0:0:0:
232,192,189413,1,0,0:0:0:0:
256,120,189513,1,0,0:0:0:0:
312,72,189613,1,0,0:0:0:0:
392,72,189713,1,0,0:0:0:0:
408,144,189813,1,0,0:0:0:0:
376,208,189913,1,0,0:0:0:0:
304,232,190013,1,0,0:0:0:0:
224,232,190113,6,0,L|176:152,1,90
248,152,190313,2,0,L|288:64,1,90
232,136,190513,5,0,0:0:0:0:
248,216,190613,1,0,0:0:0:0:
288,288,190713,1,0,0:0:0:0:
384,288,190813,6,0,L|240:176,2,180
256,288,191813,2,0,L|256:184,1,90
112,288,192413,2,0,L|256:176,2,180
288,192,193613,1,0,0:0:0:0:
184,192,193813,1,0,0:0:0:0:
304,280,194013,6,0,L|304:88,1,180
200,192,194613,2,0,L|200:96,1,90
312,104,195013,1,0,0:0:0:0:
200,104,195213,1,0,0:0:0:0:
392,280,195613,2,0,L|392:88,1,180
200,280,196413,2,0,L|200:80,1,180
384,296,197213,6,0,L|512:168,2,180
256,224,198213,2,0,L|360:224,1,90
160,320,198813,2,0,L|32:192,2,180
336,192,200013,1,0,0:0:0:0:
224,192,200213,1,0,0:0:0:0:
336,280,200413,6,0,L|200:136,2,180
248,232,201413,1,0,0:0:0:0:
128,192,201613,1,0,0:0:0:0:
344,312,202013,2,0,P|456:192|320:72,1,360
256,192,203613,12,0,206013,0:0:0:0:
192,304,206813,6,0,B|64:128|64:128|176:176|176:176|120:304|120:304|104:48|104:48|64:232|64:232|176:112,1,1080
384,232,210013,6,0,B|256:104|256:104|352:144|352:144|328:264|328:264|288:40|288:40|400:184|400:184|216:320,1,1035
408,312,212413,6,0,L|456:312,1,45
168,248,212613,2,0,L|112:248,1,45
312,192,212813,2,0,L|360:192,1,45
112,104,213013,2,0,L|64:104,1,45
320,304,213213,6,0,B|472:232|472:232|384:200|384:200|448:336|448:336|400:40|400:40|354:328|354:328|440:288,1,1080
128,328,216413,6,0,P|64:248|160:48,1,337.5,0|0,0:0|2:0,0:0:0:0:
384,328,217213,2,0,P|448:248|352:48,1,337.5,0|0,0:0|2:0,0:0:0:0:
128,328,218013,2,0,P|176:184|336:112,1,337.5,0|0,0:0|2:0,0:0:0:0:
176,192,218813,6,0,L|104:192,1,67.5000025749208
144,192,218963,1,0,0:0:0:0:
336,192,219013,2,0,L|376:192,1,33.7500012874604
120,224,219113,2,0,L|48:224,1,67.5000025749208
88,224,219263,1,0,0:0:0:0:
280,224,219313,2,0,L|320:224,1,33.7500012874604
64,256,219413,2,0,P|24:216|56:168,1,101.250003862381,0|0,0:0|2:0,0:0:0:0:
336,192,219613,6,0,L|432:192,1,90
328,160,219813,2,0,L|232:160,1,90
336,128,220013,2,0,L|432:128,1,90
328,96,220213,2,0,L|424:96,1,90
168,192,220413,6,0,L|72:192,1,90
176,224,220613,2,0,L|176:320,1,90
80,312,220813,2,0,L|184:312,1,90
72,280,221013,2,0,L|72:184,1,90
256,192,221213,5,0,0:0:0:0:
432,160,221413,2,0,L|464:128,1,45
256,160,221513,2,0,L|224:120,1,45
400,160,221613,1,0,0:0:0:0:
256,128,221813,2,0,L|224:88,1,45
432,128,221913,2,0,L|464:96,1,45
136,272,222013,6,0,L|88:192,1,90
136,192,222163,1,0,0:0:0:0:
376,112,222213,2,0,L|424:192,1,90
376,192,222363,1,0,0:0:0:0:
128,296,222413,2,0,P|72:208|208:80,1,315,0|0,0:0|2:0,0:0:0:0:
384,288,222813,6,0,L|480:288,1,90
376,256,223013,2,0,L|472:256,1,90
368,224,223213,2,0,L|336:136,1,90
432,192,223413,2,0,L|480:112,1,90
192,152,223613,6,0,L|96:152,1,90
200,120,223813,2,0,L|296:120,1,90
192,88,224013,2,0,L|96:88,1,90
200,56,224213,2,0,L|104:56,1,90
384,192,224413,6,0,L|384:144,2,45
304,192,224613,1,0,0:0:0:0:
96,192,224713,2,0,L|64:160,2,45
184,192,224913,1,0,0:0:0:0:
392,192,225013,2,0,L|440:192,1,45
392,160,225113,2,0,L|336:160,1,45
152,288,225213,6,0,L|120:256,1,45
312,248,225313,2,0,L|344:216,1,45
192,224,225413,2,0,L|160:192,1,45
368,192,225513,2,0,L|400:160,1,45
112,296,225613,2,0,P|24:192|144:80,1,315,0|0,0:0|2:0,0:0:0:0:
256,80,226013,5,0,0:0:0:0:
432,192,226213,1,0,0:0:0:0:
256,304,226413,1,0,0:0:0:0:
80,192,226613,1,0,0:0:0:0:
256,80,226813,1,0,0:0:0:0:
432,192,227013,1,0,0:0:0:0:
256,192,227213,1,0,0:0:0:0:
480,288,227313,2,0,L|480:104,1,180
256,80,227613,5,0,0:0:0:0:
80,192,227813,1,0,0:0:0:0:
256,304,228013,1,0,0:0:0:0:
432,192,228213,1,0,0:0:0:0:
256,80,228413,1,0,0:0:0:0:
80,192,228613,1,0,0:0:0:0:
256,192,228813,1,0,0:0:0:0:
32,288,228913,2,0,L|32:104,1,180
360,83,229213,5,0,0:0:0:0:
424,147,229313,1,0,0:0:0:0:
425,237,229413,1,0,0:0:0:0:
361,301,229513,1,0,0:0:0:0:
152,82,229613,5,0,0:0:0:0:
88,146,229713,1,0,0:0:0:0:
87,236,229813,1,0,0:0:0:0:
151,300,229913,1,0,0:0:0:0:
400,248,230013,5,0,0:0:0:0:
472,192,230113,1,0,0:0:0:0:
400,144,230213,1,0,0:0:0:0:
312,192,230313,1,0,0:0:0:0:
112,248,230413,5,0,0:0:0:0:
40,192,230513,1,0,0:0:0:0:
112,144,230613,1,0,0:0:0:0:
200,192,230713,1,0,0:0:0:0:
384,96,230813,5,0,0:0:0:0:
464,96,230913,1,0,0:0:0:0:
256,192,231013,1,0,0:0:0:0:
336,192,231113,1,0,0:0:0:0:
128,288,231213,1,0,0:0:0:0:
48,288,231313,1,0,0:0:0:0:
256,192,231413,1,0,0:0:0:0:
176,192,231513,1,0,0:0:0:0:
352,240,231613,5,0,0:0:0:0:
392,216,231663,1,0,0:0:0:0:
392,168,231713,1,0,0:0:0:0:
352,144,231763,1,0,0:0:0:0:
160,240,231813,1,0,0:0:0:0:
120,216,231863,1,0,0:0:0:0:
120,168,231913,1,0,0:0:0:0:
160,144,231963,1,0,0:0:0:0:
412,302,232013,5,0,0:0:0:0:
436,289,232038,1,0,0:0:0:0:
456,272,232063,1,0,0:0:0:0:
471,249,232088,1,0,0:0:0:0:
479,223,232113,1,0,0:0:0:0:
481,196,232138,1,0,0:0:0:0:
476,170,232163,1,0,0:0:0:0:
464,146,232188,1,0,0:0:0:0:
446,126,232213,1,0,0:0:0:0:
423,111,232238,1,0,0:0:0:0:
398,102,232263,1,0,0:0:0:0:
371,99,232288,1,0,0:0:0:0:
340,97,232313,1,0,0:0:0:0:
309,97,232338,1,0,0:0:0:0:
278,97,232363,1,0,0:0:0:0:
128,96,232413,5,0,0:0:0:0:
256,192,232513,12,0,235413,0:0:0:0:
296,192,235613,6,0,L|392:192,1,90,0|0,0:0|0:0,0:0:0:0:
296,160,235813,2,0,L|392:160,1,90,0|0,0:0|0:0,0:0:0:0:
296,128,236013,2,0,L|392:128,1,90,0|0,0:0|0:0,0:0:0:0:
296,96,236213,2,0,L|392:96,1,90,0|0,0:0|0:0,0:0:0:0:
125,300,236413,5,0,0:0:0:0:
87,274,236463,1,0,0:0:0:0:
62,237,236513,1,0,0:0:0:0:
53,193,236563,1,0,0:0:0:0:
62,149,236613,1,0,0:0:0:0:
87,111,236663,1,0,0:0:0:0:
125,86,236713,1,0,0:0:0:0:
169,78,236763,1,0,0:0:0:0:
400,192,236813,6,0,L|424:192,14,22.5,0|0|0|0|0|0|0|0|0|0|0|0|0|0|0,0:0|0:0|0:0|0:0|0:0|0:0|0:0|0:0|0:0|0:0|0:0|0:0|0:0|0:0|0:0,0:0:0:0:
128,312,238413,6,0,P|40:224|72:48,1,315
352,192,238813,5,0,0:0:0:0:
440,192,238913,1,0,0:0:0:0:
344,160,239013,1,0,0:0:0:0:
448,160,239113,1,0,0:0:0:0:
352,128,239213,1,0,0:0:0:0:
440,128,239313,1,0,0:0:0:0:
344,224,239413,1,0,0:0:0:0:
376,224,239463,1,0,0:0:0:0:
408,224,239513,1,0,0:0:0:0:
440,224,239563,1,0,0:0:0:0:
256,224,239613,5,0,0:0:0:0:
168,224,239713,1,0,0:0:0:0:
264,256,239813,1,0,0:0:0:0:
104,280,239913,1,0,0:0:0:0:
16,280,240013,1,0,0:0:0:0:
288,160,240113,2,0,L|336:160,2,45
64,160,240313,1,0,0:0:0:0:
96,160,240363,1,0,0:0:0:0:
128,160,240413,1,0,0:0:0:0:
336,88,240513,5,0,0:0:0:0:
424,88,240613,1,0,0:0:0:0:
216,88,240713,1,0,0:0:0:0:
128,88,240813,1,0,0:0:0:0:
224,120,240913,1,0,0:0:0:0:
64,160,241013,2,0,L|16:160,1,45
184,192,241113,2,0,L|232:192,1,45
392,296,241213,6,0,L|464:232,1,90
416,296,241363,1,0,0:0:0:0:
192,232,241413,2,0,L|120:168,1,90
168,232,241563,1,0,0:0:0:0:
432,192,241613,1,0,0:0:0:0:
456,152,241663,1,0,0:0:0:0:
432,112,241713,1,0,0:0:0:0:
384,104,241763,1,0,0:0:0:0:
216,104,241813,2,0,L|120:104,1,90
384,264,242013,2,0,L|392:216,1,45
224,264,242113,5,0,0:0:0:0:
136,264,242213,1,0,0:0:0:0:
232,232,242313,1,0,0:0:0:0:
144,232,242413,1,0,0:0:0:0:
240,200,242513,1,0,0:0:0:0:
152,200,242613,1,0,0:0:0:0:
120,200,242663,1,0,0:0:0:0:
88,200,242713,1,0,0:0:0:0:
56,200,242763,1,0,0:0:0:0:
288,160,242813,5,0,0:0:0:0:
376,160,242913,1,0,0:0:0:0:
280,128,243013,1,0,0:0:0:0:
120,128,243113,2,0,L|24:128,1,90
256,56,243313,1,0,0:0:0:0:
296,56,243363,1,0,0:0:0:0:
336,56,243413,1,0,0:0:0:0:
80,192,243513,2,0,L|24:192,1,45
80,224,243613,2,0,L|128:224,1,45
312,296,243713,6,0,L|344:208,1,90
296,208,243863,1,0,0:0:0:0:
128,232,243913,2,0,L|128:136,1,90
176,144,244063,1,0,0:0:0:0:
416,168,244113,2,0,L|384:80,1,90
344,80,244263,1,0,0:0:0:0:
184,80,244313,2,0,L|152:112,1,45
384,288,244413,5,0,0:0:0:0:
472,288,244513,1,0,0:0:0:0:
216,192,244613,1,0,0:0:0:0:
304,192,244713,1,0,0:0:0:0:
88,280,244813,1,0,0:0:0:0:
24,256,244879,1,0,0:0:0:0:
88,232,244946,1,0,0:0:0:0:
232,224,245013,1,0,0:0:0:0:
296,192,245079,1,0,0:0:0:0:
232,168,245146,1,0,0:0:0:0:
408,192,245213,5,0,0:0:0:0:
496,192,245313,1,0,0:0:0:0:
400,160,245413,1,0,0:0:0:0:
488,160,245513,1,0,0:0:0:0:
392,128,245613,1,0,0:0:0:0:
480,128,245713,1,0,0:0:0:0:
384,232,245813,1,0,0:0:0:0:
416,232,245863,1,0,0:0:0:0:
448,232,245913,1,0,0:0:0:0:
480,232,245963,1,0,0:0:0:0:
256,192,246013,5,0,0:0:0:0:
168,192,246113,1,0,0:0:0:0:
264,160,246213,1,0,0:0:0:0:
352,160,246313,1,0,0:0:0:0:
256,128,246413,1,0,0:0:0:0:
32,224,246513,1,0,0:0:0:0:
64,224,246563,1,0,0:0:0:0:
96,224,246613,1,0,0:0:0:0:
392,224,246713,1,0,0:0:0:0:
360,224,246763,1,0,0:0:0:0:
224,224,246813,5,0,0:0:0:0:
136,224,246913,1,0,0:0:0:0:
232,192,247013,1,0,0:0:0:0:
128,192,247113,1,0,0:0:0:0:
224,160,247213,1,0,0:0:0:0:
136,160,247313,1,0,0:0:0:0:
232,264,247413,1,0,0:0:0:0:
264,264,247463,1,0,0:0:0:0:
296,264,247513,1,0,0:0:0:0:
328,264,247563,1,0,0:0:0:0:
120,264,247613,6,0,L|56:200,1,90
104,264,247763,1,0,0:0:0:0:
384,192,247813,2,0,L|448:128,1,90
400,192,247963,1,0,0:0:0:0:
192,192,248013,2,0,L|160:160,1,45
320,192,248113,2,0,L|352:224,1,45
64,312,248213,2,0,P|112:248|176:224,1,135,0|0,0:0|2:0,0:0:0:0:
296,192,248413,6,0,L|328:160,1,45,0|0,0:0|2:0,0:0:0:0:
96,256,248513,2,0,P|56:208|88:152,1,135
416,256,248713,2,0,L|448:168,1,90
352,168,248913,1,0,0:0:0:0:
312,192,248963,1,0,0:0:0:0:
288,232,249013,1,0,0:0:0:0:
280,280,249063,1,0,0:0:0:0:
296,320,249113,1,0,0:0:0:0:
328,352,249163,1,0,0:0:0:0:
120,192,249213,6,0,L|32:160,1,90
128,160,249413,1,0,0:0:0:0:
344,88,249513,2,0,L|440:88,1,90
336,112,249713,2,0,L|288:112,1,45
440,176,249813,2,0,L|496:176,1,45
200,192,249913,2,0,L|152:192,1,45
367,303,250013,5,0,0:0:0:0:
378,291,250029,1,0,0:0:0:0:
388,277,250046,1,0,0:0:0:0:
396,263,250063,1,0,0:0:0:0:
403,248,250079,1,0,0:0:0:0:
408,232,250096,1,0,0:0:0:0:
411,216,250113,1,0,0:0:0:0:
413,200,250129,1,0,0:0:0:0:
413,183,250146,1,0,0:0:0:0:
411,167,250163,1,0,0:0:0:0:
408,151,250179,1,0,0:0:0:0:
403,135,250196,1,0,0:0:0:0:
396,120,250213,1,0,0:0:0:0:
388,106,250229,1,0,0:0:0:0:
378,92,250246,1,0,0:0:0:0:
367,80,250263,1,0,0:0:0:0:
355,69,250279,1,0,0:0:0:0:
341,59,250296,1,0,0:0:0:0:
327,51,250313,1,0,0:0:0:0:
312,44,250329,1,0,0:0:0:0:
296,39,250346,1,0,0:0:0:0:
280,36,250363,1,0,0:0:0:0:
264,34,250379,1,0,0:0:0:0:
247,34,250396,1,0,0:0:0:0:
231,36,250413,5,0,0:0:0:0:
215,39,250429,1,0,0:0:0:0:
199,44,250446,1,0,0:0:0:0:
184,51,250463,1,0,0:0:0:0:
170,59,250479,1,0,0:0:0:0:
156,69,250496,1,0,0:0:0:0:
144,80,250513,1,0,0:0:0:0:
133,92,250529,1,0,0:0:0:0:
123,106,250546,1,0,0:0:0:0:
115,120,250563,1,0,0:0:0:0:
108,135,250579,1,0,0:0:0:0:
103,151,250596,1,0,0:0:0:0:
100,167,250613,1,0,0:0:0:0:
98,183,250629,1,0,0:0:0:0:
98,200,250646,1,0,0:0:0:0:
100,216,250663,1,0,0:0:0:0:
103,232,250679,1,0,0:0:0:0:
108,248,250696,1,0,0:0:0:0:
115,263,250713,1,0,0:0:0:0:
123,277,250729,1,0,0:0:0:0:
133,291,250746,1,0,0:0:0:0:
144,303,250763,1,0,0:0:0:0:
297,315,250813,5,0,0:0:0:0:
308,302,250829,1,0,0:0:0:0:
317,289,250846,1,0,0:0:0:0:
325,275,250863,1,0,0:0:0:0:
332,260,250879,1,0,0:0:0:0:
337,244,250896,1,0,0:0:0:0:
341,228,250913,1,0,0:0:0:0:
342,211,250929,1,0,0:0:0:0:
342,195,250946,1,0,0:0:0:0:
341,178,250963,1,0,0:0:0:0:
337,162,250979,1,0,0:0:0:0:
175,159,251013,1,0,0:0:0:0:
159,154,251030,1,0,0:0:0:0:
143,147,251047,1,0,0:0:0:0:
129,139,251063,1,0,0:0:0:0:
393,62,251113,5,0,0:0:0:0:
396,79,251129,1,0,0:0:0:0:
397,94,251146,1,0,0:0:0:0:
396,110,251163,1,0,0:0:0:0:
395,127,251179,1,0,0:0:0:0:
391,143,251196,1,0,0:0:0:0:
386,159,251213,1,0,0:0:0:0:
378,174,251229,1,0,0:0:0:0:
370,188,251246,1,0,0:0:0:0:
360,202,251263,1,0,0:0:0:0:
349,214,251279,1,0,0:0:0:0:
222,224,251313,1,0,0:0:0:0:
206,229,251330,1,0,0:0:0:0:
190,236,251347,1,0,0:0:0:0:
176,244,251363,1,0,0:0:0:0:
436,309,251413,5,0,0:0:0:0:
448,298,251429,1,0,0:0:0:0:
458,285,251446,1,0,0:0:0:0:
464,270,251463,1,0,0:0:0:0:
466,253,251479,1,0,0:0:0:0:
464,237,251496,1,0,0:0:0:0:
457,222,251513,1,0,0:0:0:0:
447,209,251529,1,0,0:0:0:0:
434,199,251546,1,0,0:0:0:0:
418,193,251563,1,0,0:0:0:0:
160,192,251613,5,0,0:0:0:0:
72,192,251713,1,0,0:0:0:0:
168,160,251813,1,0,0:0:0:0:
64,160,251913,1,0,0:0:0:0:
160,128,252013,1,0,0:0:0:0:
72,128,252113,1,0,0:0:0:0:
168,224,252213,1,0,0:0:0:0:
136,224,252263,1,0,0:0:0:0:
104,224,252313,1,0,0:0:0:0:
72,224,252363,1,0,0:0:0:0:
256,224,252413,5,0,0:0:0:0:
344,224,252513,1,0,0:0:0:0:
248,256,252613,1,0,0:0:0:0:
408,280,252713,1,0,0:0:0:0:
496,280,252813,1,0,0:0:0:0:
224,160,252913,2,0,L|176:160,2,45
448,160,253113,1,0,0:0:0:0:
416,160,253163,1,0,0:0:0:0:
384,160,253213,1,0,0:0:0:0:
176,88,253313,5,0,0:0:0:0:
88,88,253413,1,0,0:0:0:0:
296,88,253513,1,0,0:0:0:0:
384,88,253613,1,0,0:0:0:0:
288,120,253713,1,0,0:0:0:0:
448,160,253813,2,0,L|496:160,1,45
328,192,253913,2,0,L|280:192,1,45
120,296,254013,6,0,L|48:232,1,90
96,296,254163,1,0,0:0:0:0:
320,232,254213,2,0,L|392:168,1,90
344,232,254363,1,0,0:0:0:0:
80,192,254413,1,0,0:0:0:0:
56,152,254463,1,0,0:0:0:0:
80,112,254513,1,0,0:0:0:0:
128,104,254563,1,0,0:0:0:0:
296,104,254613,2,0,L|392:104,1,90
160,192,254813,5,0,0:0:0:0:
392,192,255113,2,0,L|416:192,16,22.5
168,288,255613,5,0,0:0:0:0:
256,288,255713,1,0,0:0:0:0:
168,288,255813,1,0,0:0:0:0:
392,192,255913,1,0,0:0:0:0:
480,192,256013,1,0,0:0:0:0:
224,192,256113,1,0,0:0:0:0:
368,192,256313,2,0,L|416:192,1,45
368,160,256413,2,0,L|320:160,1,45
88,248,256513,6,0,L|48:168,1,90
88,192,256663,1,0,0:0:0:0:
360,248,256713,2,0,L|400:168,1,90
360,192,256863,1,0,0:0:0:0:
152,248,256913,2,0,L|112:168,1,90
152,192,257063,1,0,0:0:0:0:
384,88,257113,2,0,L|416:56,1,45
144,312,257213,6,0,L|128:296,1,22.5
32,208,257363,2,0,L|32:168,1,22.5
128,88,257513,2,0,L|144:72,1,22.5
368,312,257613,6,0,L|384:296,1,22.5
480,208,257763,2,0,L|480:168,1,22.5
384,88,257913,2,0,L|368:72,1,22.5
216,192,258013,5,0,0:0:0:0:
376,192,258213,1,0,0:0:0:0:
392,152,258263,1,0,0:0:0:0:
384,104,258313,1,0,0:0:0:0:
352,72,258363,1,0,0:0:0:0:
184,192,258413,1,0,0:0:0:0:
344,192,258613,1,0,0:0:0:0:
360,152,258663,1,0,0:0:0:0:
352,104,258713,1,0,0:0:0:0:
320,72,258763,1,0,0:0:0:0:
120,272,258813,6,0,P|168:192|248:160,1,180
160,160,259113,1,0,0:0:0:0:
256,128,259213,1,0,0:0:0:0:
480,224,259313,1,0,0:0:0:0:
448,224,259363,1,0,0:0:0:0:
416,224,259413,1,0,0:0:0:0:
120,224,259513,1,0,0:0:0:0:
152,224,259563,1,0,0:0:0:0:
288,224,259613,5,0,0:0:0:0:
376,224,259713,1,0,0:0:0:0:
280,192,259813,1,0,0:0:0:0:
384,192,259913,1,0,0:0:0:0:
288,160,260013,1,0,0:0:0:0:
376,160,260113,1,0,0:0:0:0:
280,264,260213,1,0,0:0:0:0:
248,264,260263,1,0,0:0:0:0:
216,264,260313,1,0,0:0:0:0:
184,264,260363,1,0,0:0:0:0:
392,264,260413,6,0,L|456:200,1,90
408,264,260563,1,0,0:0:0:0:
128,192,260613,2,0,L|64:128,1,90
112,192,260763,1,0,0:0:0:0:
320,192,260813,2,0,L|352:160,1,45
192,192,260913,2,0,L|160:224,1,45
448,312,261013,2,0,P|480:256|424:192,1,135,0|0,0:0|2:0,0:0:0:0:
216,384,261213,6,0,P|8:240|128:32,1,540
184,192,261913,1,0,0:0:0:0:
376,384,262013,2,0,P|472:280|120:144,1,720
320,336,263213,6,0,P|392:304|424:192,1,180
416,168,263463,1,0,0:0:0:0:
400,128,263513,1,0,0:0:0:0:
368,96,263563,1,0,0:0:0:0:
120,304,263613,5,0,0:0:0:0:
56,239,263713,1,0,0:0:0:0:
57,149,263813,1,0,0:0:0:0:
121,86,263913,1,0,0:0:0:0:
208,192,264013,1,0,0:0:0:0:
288,192,264113,1,0,0:0:0:0:
208,160,264213,1,0,0:0:0:0:
112,160,264313,1,0,0:0:0:0:
384,320,264413,6,0,P|416:240|256:80,1,337.5,0|0,0:0|2:0,0:0:0:0:
432,224,265213,6,0,L|464:192,2,45
344,192,265413,1,0,0:0:0:0:
80,224,265513,2,0,L|48:192,2,45
168,192,265713,1,0,0:0:0:0:
384,96,265813,1,0,0:0:0:0:
128,96,265913,1,0,0:0:0:0:
384,328,266013,6,0,P|432:264|288:88,1,337.5,0|0,0:0|2:0,0:0:0:0:
77,318,266813,5,0,0:0:0:0:
56,301,266838,1,0,0:0:0:0:
42,277,266863,1,0,0:0:0:0:
36,251,266888,1,0,0:0:0:0:
41,224,266913,1,0,0:0:0:0:
54,201,266938,1,0,0:0:0:0:
74,183,266963,1,0,0:0:0:0:
99,173,266988,1,0,0:0:0:0:
134,171,267013,1,0,0:0:0:0:
168,144,267063,1,0,0:0:0:0:
152,104,267113,1,0,0:0:0:0:
112,88,267163,1,0,0:0:0:0:
256,248,267213,1,0,0:0:0:0:
328,192,267313,1,0,0:0:0:0:
256,136,267413,1,0,0:0:0:0:
408,192,267613,6,0,L|408:144,3,45
280,192,267813,1,0,0:0:0:0:
104,192,268013,6,0,L|104:144,3,45
232,192,268213,1,0,0:0:0:0:
384,192,268413,6,0,L|408:144,3,45
256,192,268613,1,0,0:0:0:0:
128,192,268813,6,0,L|104:144,3,45
256,192,269013,1,0,0:0:0:0:
256,192,269213,12,0,270213,0:0:0:0:
128,192,270413,6,0,L|96:152,7,45
296,80,270813,5,0,0:0:0:0:
384,80,270913,1,0,0:0:0:0:
280,112,271013,1,0,0:0:0:0:
400,112,271113,1,0,0:0:0:0:
296,144,271213,1,0,0:0:0:0:
384,144,271313,1,0,0:0:0:0:
280,48,271413,1,0,0:0:0:0:
248,48,271463,1,0,0:0:0:0:
216,48,271513,1,0,0:0:0:0:
184,48,271563,1,0,0:0:0:0:
392,192,271613,5,0,0:0:0:0:
480,192,271713,1,0,0:0:0:0:
376,224,271813,1,0,0:0:0:0:
288,224,271913,1,0,0:0:0:0:
392,256,272013,1,0,0:0:0:0:
480,256,272113,1,0,0:0:0:0:
128,192,272213,1,0,0:0:0:0:
288,192,272413,5,0,0:0:0:0:
376,192,272513,1,0,0:0:0:0:
272,160,272613,1,0,0:0:0:0:
392,160,272713,1,0,0:0:0:0:
288,128,272813,1,0,0:0:0:0:
376,128,272913,1,0,0:0:0:0:
272,224,273013,1,0,0:0:0:0:
304,224,273063,1,0,0:0:0:0:
336,224,273113,1,0,0:0:0:0:
368,224,273163,1,0,0:0:0:0:
128,192,273213,5,0,0:0:0:0:
40,192,273313,2,0,L|56:144,1,45
208,144,273413,1,0,0:0:0:0:
120,144,273513,2,0,L|120:96,1,45
288,96,273613,1,0,0:0:0:0:
200,96,273713,2,0,L|184:48,1,45
368,48,273813,2,0,L|464:48,1,90
192,192,274013,5,0,0:0:0:0:
104,192,274113,1,0,0:0:0:0:
208,160,274213,1,0,0:0:0:0:
88,160,274313,1,0,0:0:0:0:
192,128,274413,1,0,0:0:0:0:
104,128,274513,1,0,0:0:0:0:
208,224,274613,1,0,0:0:0:0:
176,224,274663,1,0,0:0:0:0:
144,224,274713,1,0,0:0:0:0:
112,224,274763,1,0,0:0:0:0:
336,192,274813,5,0,0:0:0:0:
424,192,274913,1,0,0:0:0:0:
320,224,275013,1,0,0:0:0:0:
440,224,275113,1,0,0:0:0:0:
336,256,275213,1,0,0:0:0:0:
424,256,275313,1,0,0:0:0:0:
176,192,275413,1,0,0:0:0:0:
336,192,275613,5,0,0:0:0:0:
424,192,275713,1,0,0:0:0:0:
320,160,275813,1,0,0:0:0:0:
408,160,275913,1,0,0:0:0:0:
304,128,276013,1,0,0:0:0:0:
392,128,276113,1,0,0:0:0:0:
288,96,276213,1,0,0:0:0:0:
256,96,276263,1,0,0:0:0:0:
224,96,276313,1,0,0:0:0:0:
192,96,276363,1,0,0:0:0:0:
384,224,276413,6,0,P|448:176|480:120,1,135,0|0,0:0|2:0,0:0:0:0:
216,224,276613,2,0,P|152:176|120:120,1,135,0|0,0:0|2:0,0:0:0:0:
296,224,276813,2,0,P|360:176|392:120,1,135,0|0,0:0|2:0,0:0:0:0:
128,224,277013,2,0,P|64:176|32:120,1,135,0|0,0:0|2:0,0:0:0:0:
256,192,277213,5,0,0:0:0:0:
344,192,277313,1,0,0:0:0:0:
240,160,277413,1,0,0:0:0:0:
360,160,277513,1,0,0:0:0:0:
256,128,277613,1,0,0:0:0:0:
344,128,277713,1,0,0:0:0:0:
240,224,277813,1,0,0:0:0:0:
208,224,277863,1,0,0:0:0:0:
176,224,277913,1,0,0:0:0:0:
144,224,277963,1,0,0:0:0:0:
368,192,278013,5,0,0:0:0:0:
456,192,278113,1,0,0:0:0:0:
352,224,278213,1,0,0:0:0:0:
472,224,278313,1,0,0:0:0:0:
368,256,278413,1,0,0:0:0:0:
456,256,278513,1,0,0:0:0:0:
192,192,278613,1,0,0:0:0:0:
368,192,278813,5,0,0:0:0:0:
280,192,278913,1,0,0:0:0:0:
384,224,279013,1,0,0:0:0:0:
296,224,279113,1,0,0:0:0:0:
400,256,279213,1,0,0:0:0:0:
312,256,279313,1,0,0:0:0:0:
416,288,279413,1,0,0:0:0:0:
384,288,279463,1,0,0:0:0:0:
352,288,279513,1,0,0:0:0:0:
320,288,279563,1,0,0:0:0:0:
184,224,279613,5,0,0:0:0:0:
96,224,279713,2,0,L|80:176,1,45
352,192,279813,1,0,0:0:0:0:
440,192,279913,2,0,L|456:136,1,45
208,144,280013,1,0,0:0:0:0:
120,144,280113,2,0,L|104:88,1,45
376,96,280213,1,0,0:0:0:0:
464,96,280313,1,0,0:0:0:0:
168,320,280413,5,0,0:0:0:0:
128,296,280463,1,0,0:0:0:0:
112,256,280513,1,0,0:0:0:0:
128,216,280563,1,0,0:0:0:0:
168,192,280613,1,0,0:0:0:0:
256,192,280713,1,0,0:0:0:0:
160,160,280813,1,0,0:0:0:0:
416,256,280913,6,0,L|448:120,1,135,0|0,0:0|2:0,0:0:0:0:
256,256,281113,2,0,L|256:112,1,135,0|0,0:0|2:0,0:0:0:0:
96,256,281313,2,0,L|64:168,1,90,0|0,0:0|2:0,0:0:0:0:
152,192,281513,1,0,0:0:0:0:
448,272,281613,6,0,L|480:136,1,135,0|0,0:0|2:0,0:0:0:0:
64,272,281813,2,0,L|32:136,1,135,0|0,0:0|2:0,0:0:0:0:
384,343,282013,5,0,0:0:0:0:
405,322,282038,1,0,2:0:0:0:
423,298,282063,1,0,2:0:0:0:
435,270,282088,1,0,2:0:0:0:
443,241,282113,1,0,2:0:0:0:
446,211,282138,1,0,2:0:0:0:
443,182,282163,1,0,2:0:0:0:
435,153,282188,1,0,2:0:0:0:
423,125,282213,1,0,2:0:0:0:
405,101,282238,1,0,2:0:0:0:
384,80,282263,1,0,2:0:0:0:
358,62,282288,1,0,2:0:0:0:
326,50,282313,1,0,2:0:0:0:
291,42,282338,1,0,2:0:0:0:
256,39,282363,1,0,2:0:0:0:
220,42,282388,1,0,2:0:0:0:
185,50,282413,1,0,2:0:0:0:
153,62,282438,1,0,2:0:0:0:
127,80,282463,1,0,2:0:0:0:
106,101,282488,1,0,2:0:0:0:
88,125,282513,1,0,2:0:0:0:
76,153,282538,1,0,2:0:0:0:
68,182,282563,1,0,2:0:0:0:
65,212,282588,1,0,2:0:0:0:
68,241,282613,1,0,2:0:0:0:
76,270,282638,1,0,2:0:0:0:
88,298,282663,1,0,2:0:0:0:
106,322,282688,1,0,2:0:0:0:
127,343,282713,1,0,2:0:0:0:
416,256,282813,6,0,L|488:136,1,135,0|0,0:0|2:0,0:0:0:0:
176,256,283013,2,0,L|144:120,1,135,0|0,0:0|2:0,0:0:0:0:
336,256,283213,2,0,L|368:120,1,135,0|0,0:0|2:0,0:0:0:0:
96,256,283413,2,0,L|24:136,1,135,0|0,0:0|2:0,0:0:0:0:
256,192,283613,6,0,L|304:192,1,45
128,192,283713,2,0,L|80:192,1,45
240,160,283813,6,0,L|288:160,1,45
112,160,283913,2,0,L|64:160,1,45
224,128,284013,6,0,L|272:128,1,45
96,128,284113,2,0,L|48:128,1,45
208,96,284213,6,0,L|256:96,1,45
80,96,284313,2,0,L|32:96,1,45
304,296,284413,5,0,0:0:0:0:
392,192,284513,1,0,0:0:0:0:
304,88,284613,1,0,0:0:0:0:
208,296,284713,1,0,0:0:0:0:
120,192,284813,1,0,0:0:0:0:
208,88,284913,1,0,0:0:0:0:
408,192,285013,1,0,0:0:0:0:
256,192,285213,6,0,L|208:192,1,45
384,192,285313,2,0,L|432:192,1,45
272,160,285413,6,0,L|224:160,1,45
400,160,285513,2,0,L|448:160,1,45
288,128,285613,6,0,L|240:128,1,45
416,128,285713,2,0,L|464:128,1,45
304,96,285813,6,0,L|256:96,1,45
432,96,285913,2,0,L|480:96,1,45
184,224,286013,5,0,0:0:0:0:
96,224,286113,2,0,L|80:176,1,45
352,192,286213,1,0,0:0:0:0:
440,192,286313,2,0,L|456:136,1,45
208,144,286413,1,0,0:0:0:0:
120,144,286513,2,0,L|104:88,1,45
376,96,286613,1,0,0:0:0:0:
464,96,286713,1,0,0:0:0:0:
256,344,286813,6,0,L|208:344,1,45
64,192,286913,6,0,L|24:152,1,45
256,40,287013,6,0,L|304:40,1,45
448,192,287113,6,0,L|488:232,1,45
256,344,287213,6,0,L|208:344,1,45
64,192,287313,6,0,L|24:152,1,45
256,192,287413,2,0,L|344:160,1,90
296,192,287563,1,0,0:0:0:0:
176,192,287613,5,0,0:0:0:0:
88,192,287713,2,0,L|72:144,1,45
336,192,287813,1,0,0:0:0:0:
424,192,287913,2,0,L|440:136,1,45
176,296,288013,1,0,0:0:0:0:
88,296,288113,2,0,L|72:240,1,45
336,296,288213,1,0,0:0:0:0:
424,296,288313,1,0,0:0:0:0:
96,192,288413,6,0,L|56:104,1,90
256,248,288613,2,0,L|256:152,1,90
416,192,288813,2,0,L|456:280,1,90
128,240,289013,1,0,0:0:0:0:
88,216,289063,1,0,0:0:0:0:
88,168,289113,1,0,0:0:0:0:
128,144,289163,1,0,0:0:0:0:
360,328,289213,6,0,P|408:232|256:56,1,360,0|0,0:0|2:0,0:0:0:0:
176,80,289713,1,0,2:0:0:0:
104,136,289813,1,0,2:0:0:0:
88,224,289913,1,0,2:0:0:0:
296,192,290013,6,0,L|352:192,1,45
216,192,290113,2,0,L|168:192,1,45
320,224,290213,6,0,L|368:224,1,45
240,224,290313,2,0,L|192:224,1,45
344,256,290413,6,0,L|392:256,1,45
264,256,290513,2,0,L|208:256,1,45
432,192,290613,5,0,0:0:0:0:
456,192,290638,1,0,0:0:0:0:
480,192,290663,1,0,0:0:0:0:
453,160,290688,1,0,0:0:0:0:
432,160,290713,1,0,0:0:0:0:
408,160,290738,1,0,0:0:0:0:
384,160,290763,1,0,0:0:0:0:
216,192,290813,6,0,L|160:192,1,45
296,192,290913,2,0,L|344:192,1,45
192,224,291013,6,0,L|144:224,1,45
272,224,291113,2,0,L|320:224,1,45
168,256,291213,6,0,L|120:256,1,45
248,256,291313,2,0,L|304:256,1,45
56,232,291413,6,0,P|40:168|88:128,1,135,0|0,0:0|2:0,0:0:0:0:
332,257,291613,5,0,0:0:0:0:
370,219,291663,1,0,0:0:0:0:
371,165,291713,1,0,0:0:0:0:
333,127,291763,1,0,0:0:0:0:
180,257,291813,5,0,0:0:0:0:
142,219,291863,1,0,0:0:0:0:
141,165,291913,1,0,0:0:0:0:
179,127,291963,1,0,0:0:0:0:
392,192,292013,6,0,L|440:192,1,45
392,160,292113,2,0,L|344:160,1,45
120,192,292213,5,0,0:0:0:0:
96,192,292238,1,0,0:0:0:0:
72,192,292263,1,0,0:0:0:0:
99,224,292288,1,0,0:0:0:0:
120,224,292313,1,0,0:0:0:0:
144,224,292338,1,0,0:0:0:0:
168,224,292363,1,0,0:0:0:0:
440,192,292413,6,0,L|392:192,1,45
352,192,292513,2,0,L|304:192,1,45
72,192,292613,6,0,L|120:192,1,45
160,192,292713,2,0,L|208:192,1,45
424,336,292813,5,0,0:0:0:0:
415,294,292863,1,0,0:0:0:0:
383,261,292913,1,0,0:0:0:0:
342,244,292963,1,0,0:0:0:0:
176,48,293013,5,0,0:0:0:0:
79,51,293113,1,0,0:0:0:0:
344,344,293213,6,0,L|392:344,1,45
432,344,293313,2,0,L|480:344,1,45
200,152,293413,6,0,L|152:152,1,45
312,232,293513,2,0,L|368:232,1,45
155,152,293613,6,0,L|120:120,1,45
357,232,293713,2,0,L|392:264,1,45
168,40,293813,6,0,L|120:40,1,45
80,40,293913,2,0,L|32:40,1,45
264,96,294013,6,0,L|312:96,1,45
440,96,294113,2,0,L|488:96,1,45
248,288,294213,6,0,L|200:288,1,45
72,288,294313,2,0,L|24:288,1,45
440,192,294413,6,0,L|488:192,1,45
72,192,294513,6,0,L|16:192,1,45
464,192,294613,6,0,L|512:192,1,45
48,192,294713,6,0,L|0:192,1,45
384,360,294813,6,0,P|496:264|208:104,1,630
288,192,295613,6,0,L|352:120,1,90
144,192,295813,2,0,L|80:120,1,90
416,192,296013,2,0,L|480:120,1,90
64,192,296213,2,0,L|0:120,1,90
256,192,296413,5,0,1:0:0:0:
256,192,296513,12,0,302013,0:0:0:0:
256,192,302813,12,0,308813,0:0:0:0:
352,256,309213,5,0,0:0:0:0:
400,224,309313,2,0,P|456:152|368:48,1,225
256,192,310113,1,0,0:0:0:0:
128,192,310413,1,0,0:0:0:0:
256,192,310713,1,0,0:0:0:0:
192,144,310813,6,0,P|48:208|48:320,1,270
176,336,311713,1,0,0:0:0:0:
304,336,312013,1,0,0:0:0:0:
160,304,312213,2,0,L|112:304,1,45
160,256,312413,1,0,0:0:0:0:
224,272,312513,6,0,P|304:192|224:128,1,225
96,96,313313,1,0,0:0:0:0:
224,96,313613,1,0,0:0:0:0:
352,96,313913,1,0,0:0:0:0:
304,96,314013,6,0,P|208:176|304:248,1,270
144,304,314913,1,0,0:0:0:0:
272,224,315213,1,0,0:0:0:0:
176,224,315413,1,0,0:0:0:0:
128,192,315513,1,0,0:0:0:0:
184,272,315613,1,0,0:0:0:0:
248,304,315713,6,0,P|376:272|432:184,1,225
296,192,316513,1,0,0:0:0:0:
168,192,316813,1,0,0:0:0:0:
296,192,317113,1,0,0:0:0:0:
360,112,317213,6,0,P|400:184|256:248,1,270
408,192,318113,1,0,0:0:0:0:
264,192,318413,1,0,0:0:0:0:
168,192,318613,1,0,0:0:0:0:
152,144,318713,1,0,0:0:0:0:
208,176,318813,1,0,0:0:0:0:
272,176,318913,6,0,P|296:232|176:336,1,225
48,224,319713,1,0,0:0:0:0:
176,224,320013,1,0,0:0:0:0:
48,192,320313,1,0,0:0:0:0:
112,64,320413,6,0,P|224:80|304:232,1,270
184,256,321313,1,0,0:0:0:0:
328,256,321613,1,0,0:0:0:0:
256,128,321813,2,0,L|256:80,2,45
256,192,322113,12,0,328263,0:0:0:0:
