osu file format v14

[General]
AudioFilename: audio.ogg
AudioLeadIn: 0
PreviewTime: 159664
Countdown: 0
SampleSet: Normal
StackLeniency: 0.7
Mode: 3
LetterboxInBreaks: 0
SpecialStyle: 0
WidescreenStoryboard: 0

[Editor]
Bookmarks: 5119,23301,24513,34210,42695,43907,53604,62089,63301,82695,92392,97240,102089,116634,121483,131180,140877,150574,159058,160270,182089,184513,189361,194210,211180,213604,223301,230574,231786
DistanceSpacing: 0.6
BeatDivisor: 4
GridSize: 32
TimelineZoom: 3.100001

[Metadata]
Title:POLYBIUS GB SPEEDRUN (Glitchless 100% WR in 0:03:57)
TitleUnicode:POLYBIUS GB SPEEDRUN (Glitchless 100% WR in 0:03:57)
Artist:Camellia
ArtistUnicode:かめりあ
Creator:Piggy
Version:REALITY VIRTUALIZATION
Source:
Tags:u.u.f.o. uufo ctcd-021 ctcd-022 かめるかめりあ kamelcamellia cametek electronic instrumental chiptune 8bit hardcore speedcore fa featured artist
BeatmapID:4011695
BeatmapSetID:1940246

[Difficulty]
HPDrainRate:8.5
CircleSize:4
OverallDifficulty:9
ApproachRate:5
SliderMultiplier:1.4
SliderTickRate:1

[Events]
//Background and Video events
0,0,"bg.jpg",0,0
//Break Periods
//Storyboard Layer 0 (Background)
//Storyboard Layer 1 (Fail)
//Storyboard Layer 2 (Pass)
//Storyboard Layer 3 (Foreground)
//Storyboard Layer 4 (Overlay)
//Storyboard Sound Samples

[TimingPoints]
200,303.030303030303,4,1,1,90,1,0
63230,-100,4,1,1,90,0,1
92321,-100,4,1,1,90,0,0
160199,-100,4,1,1,90,0,1
182018,-100,4,1,1,90,0,0
194139,-100,4,1,1,90,0,1
211109,-100,4,1,1,90,0,0
223230,-100,4,1,1,90,0,1
230503,-100,4,1,1,90,0,0
231715,-100,4,1,1,90,0,1
236412,-100,4,1,1,90,0,0

[HitObjects]
64,192,995,5,0,0:0:0:0:
448,192,1146,1,0,0:0:0:0:
192,192,1298,1,0,0:0:0:0:
320,192,1639,1,0,0:0:0:0:
64,192,1790,1,0,0:0:0:0:
448,192,1942,1,0,0:0:0:0:
192,192,2093,1,0,0:0:0:0:
320,192,2245,1,0,0:0:0:0:
64,192,2396,1,0,0:0:0:0:
448,192,2548,1,0,0:0:0:0:
320,192,2889,1,0,0:0:0:0:
64,192,3040,1,0,0:0:0:0:
448,192,3192,1,0,0:0:0:0:
192,192,3343,1,0,0:0:0:0:
320,192,3495,1,0,0:0:0:0:
64,192,3646,1,0,0:0:0:0:
448,192,3798,1,0,0:0:0:0:
192,192,4139,1,0,0:0:0:0:
320,192,4290,1,0,0:0:0:0:
64,192,4442,1,0,0:0:0:0:
448,192,4593,1,0,0:0:0:0:
192,192,4745,1,0,0:0:0:0:
320,192,4896,1,0,0:0:0:0:
448,192,5048,5,0,0:0:0:0:
192,192,5048,1,0,0:0:0:0:
64,192,5199,1,0,0:0:0:0:
320,192,5351,1,0,0:0:0:0:
448,192,5503,1,0,0:0:0:0:
192,192,5654,1,0,0:0:0:0:
64,192,5654,1,0,0:0:0:0:
320,192,5806,1,0,0:0:0:0:
64,192,5957,1,0,0:0:0:0:
448,192,6109,1,0,0:0:0:0:
192,192,6260,1,0,0:0:0:0:
320,192,6412,1,0,0:0:0:0:
64,192,6412,1,0,0:0:0:0:
64,192,6563,1,0,0:0:0:0:
320,192,6563,1,0,0:0:0:0:
448,192,6715,1,0,0:0:0:0:
64,192,6866,1,0,0:0:0:0:
192,192,6866,1,0,0:0:0:0:
320,192,7018,1,0,0:0:0:0:
64,192,7169,1,0,0:0:0:0:
448,192,7321,1,0,0:0:0:0:
192,192,7321,1,0,0:0:0:0:
448,192,7472,1,0,0:0:0:0:
192,192,7472,1,0,0:0:0:0:
320,192,7624,1,0,0:0:0:0:
64,192,7775,1,0,0:0:0:0:
192,192,7927,1,0,0:0:0:0:
320,192,8078,1,0,0:0:0:0:
448,192,8078,1,0,0:0:0:0:
64,192,8230,1,0,0:0:0:0:
320,192,8381,1,0,0:0:0:0:
448,192,8533,1,0,0:0:0:0:
192,192,8684,1,0,0:0:0:0:
320,192,8836,1,0,0:0:0:0:
64,192,8836,1,0,0:0:0:0:
320,192,8987,1,0,0:0:0:0:
64,192,8987,1,0,0:0:0:0:
448,192,9139,1,0,0:0:0:0:
192,192,9290,1,0,0:0:0:0:
64,192,9290,1,0,0:0:0:0:
448,192,9341,1,0,0:0:0:0:
320,192,9391,1,0,0:0:0:0:
192,192,9442,1,0,0:0:0:0:
64,192,9593,1,0,0:0:0:0:
192,192,9745,1,0,0:0:0:0:
448,192,9745,1,0,0:0:0:0:
64,192,9821,1,0,0:0:0:0:
320,192,9821,1,0,0:0:0:0:
448,192,9896,1,0,0:0:0:0:
192,192,9896,1,0,0:0:0:0:
64,192,10048,1,0,0:0:0:0:
448,192,10200,1,0,0:0:0:0:
192,192,10351,1,0,0:0:0:0:
448,192,10503,1,0,0:0:0:0:
320,192,10503,1,0,0:0:0:0:
64,192,10654,1,0,0:0:0:0:
320,192,10806,1,0,0:0:0:0:
192,192,10957,1,0,0:0:0:0:
448,192,11109,1,0,0:0:0:0:
320,192,11260,1,0,0:0:0:0:
64,192,11260,1,0,0:0:0:0:
320,192,11412,1,0,0:0:0:0:
64,192,11412,1,0,0:0:0:0:
192,192,11563,1,0,0:0:0:0:
448,192,11715,1,0,0:0:0:0:
320,192,11715,1,0,0:0:0:0:
64,192,11866,1,0,0:0:0:0:
320,192,12018,1,0,0:0:0:0:
448,192,12169,1,0,0:0:0:0:
192,192,12169,1,0,0:0:0:0:
448,192,12321,1,0,0:0:0:0:
192,192,12321,1,0,0:0:0:0:
64,192,12472,1,0,0:0:0:0:
192,192,12624,1,0,0:0:0:0:
448,192,12775,1,0,0:0:0:0:
64,192,12927,1,0,0:0:0:0:
192,192,12927,1,0,0:0:0:0:
320,192,13078,1,0,0:0:0:0:
64,192,13230,1,0,0:0:0:0:
192,192,13381,1,0,0:0:0:0:
448,192,13533,1,0,0:0:0:0:
320,192,13684,1,0,0:0:0:0:
64,192,13684,1,0,0:0:0:0:
320,192,13836,1,0,0:0:0:0:
64,192,13836,1,0,0:0:0:0:
192,192,13987,1,0,0:0:0:0:
448,192,14139,1,0,0:0:0:0:
320,192,14139,1,0,0:0:0:0:
192,192,14189,1,0,0:0:0:0:
64,192,14240,1,0,0:0:0:0:
320,192,14290,1,0,0:0:0:0:
64,192,14442,1,0,0:0:0:0:
448,192,14593,1,0,0:0:0:0:
192,192,14593,1,0,0:0:0:0:
64,192,14669,1,0,0:0:0:0:
320,192,14669,1,0,0:0:0:0:
448,192,14745,1,0,0:0:0:0:
192,192,14745,1,0,0:0:0:0:
64,192,14896,1,0,0:0:0:0:
320,192,15048,1,0,0:0:0:0:
448,192,15200,1,0,0:0:0:0:
192,192,15351,1,0,0:0:0:0:
64,192,15351,1,0,0:0:0:0:
320,192,15503,1,0,0:0:0:0:
64,192,15654,1,0,0:0:0:0:
448,192,15806,1,0,0:0:0:0:
192,192,15957,1,0,0:0:0:0:
64,192,16109,1,0,0:0:0:0:
320,192,16109,1,0,0:0:0:0:
64,192,16260,1,0,0:0:0:0:
320,192,16260,1,0,0:0:0:0:
448,192,16412,1,0,0:0:0:0:
64,192,16563,1,0,0:0:0:0:
192,192,16563,1,0,0:0:0:0:
448,192,16715,1,0,0:0:0:0:
64,192,16866,1,0,0:0:0:0:
192,192,17018,1,0,0:0:0:0:
448,192,17018,1,0,0:0:0:0:
192,192,17169,1,0,0:0:0:0:
448,192,17169,1,0,0:0:0:0:
320,192,17321,1,0,0:0:0:0:
64,192,17472,1,0,0:0:0:0:
192,192,17624,1,0,0:0:0:0:
320,192,17775,1,0,0:0:0:0:
448,192,17775,1,0,0:0:0:0:
64,192,17927,1,0,0:0:0:0:
320,192,18078,1,0,0:0:0:0:
448,192,18230,1,0,0:0:0:0:
192,192,18381,1,0,0:0:0:0:
64,192,18533,1,0,0:0:0:0:
320,192,18533,1,0,0:0:0:0:
64,192,18684,1,0,0:0:0:0:
320,192,18684,1,0,0:0:0:0:
448,192,18836,1,0,0:0:0:0:
192,192,18987,1,0,0:0:0:0:
64,192,18987,1,0,0:0:0:0:
448,192,19038,1,0,0:0:0:0:
320,192,19088,1,0,0:0:0:0:
192,192,19139,1,0,0:0:0:0:
64,192,19290,1,0,0:0:0:0:
192,192,19442,1,0,0:0:0:0:
448,192,19442,1,0,0:0:0:0:
320,192,19518,1,0,0:0:0:0:
64,192,19518,1,0,0:0:0:0:
192,192,19593,1,0,0:0:0:0:
448,192,19593,1,0,0:0:0:0:
320,192,19745,1,0,0:0:0:0:
64,192,19896,1,0,0:0:0:0:
448,192,19896,1,0,0:0:0:0:
320,192,20048,1,0,0:0:0:0:
192,192,20199,1,0,0:0:0:0:
64,192,20199,1,0,0:0:0:0:
448,192,20351,1,0,0:0:0:0:
64,192,20503,1,0,0:0:0:0:
320,192,20503,1,0,0:0:0:0:
192,192,20654,1,0,0:0:0:0:
64,192,20806,1,0,0:0:0:0:
448,192,20806,1,0,0:0:0:0:
192,192,20957,1,0,0:0:0:0:
320,192,21109,1,0,0:0:0:0:
448,192,21109,1,0,0:0:0:0:
64,192,21260,1,0,0:0:0:0:
448,192,21412,1,0,0:0:0:0:
192,192,21412,1,0,0:0:0:0:
320,192,21563,1,0,0:0:0:0:
64,192,21715,1,0,0:0:0:0:
192,192,21715,1,0,0:0:0:0:
320,192,21866,1,0,0:0:0:0:
192,192,22018,1,0,0:0:0:0:
448,192,22018,1,0,0:0:0:0:
64,192,22169,1,0,0:0:0:0:
320,192,22169,1,0,0:0:0:0:
192,192,22321,1,0,0:0:0:0:
448,192,22321,1,0,0:0:0:0:
320,192,22472,1,0,0:0:0:0:
64,192,22472,1,0,0:0:0:0:
448,192,22624,1,0,0:0:0:0:
192,192,22624,1,0,0:0:0:0:
320,192,22775,1,0,0:0:0:0:
64,192,22775,1,0,0:0:0:0:
448,192,22927,1,0,0:0:0:0:
192,192,22927,1,0,0:0:0:0:
320,192,23078,1,0,0:0:0:0:
64,192,23078,1,0,0:0:0:0:
64,192,23230,1,0,0:0:0:0:
320,192,23306,1,0,0:0:0:0:
192,192,23381,1,0,0:0:0:0:
448,192,23457,1,0,0:0:0:0:
320,192,23533,1,0,0:0:0:0:
448,192,23583,1,0,0:0:0:0:
192,192,23634,1,0,0:0:0:0:
64,192,23684,1,0,0:0:0:0:
448,192,23760,1,0,0:0:0:0:
320,192,23836,1,0,0:0:0:0:
64,192,23886,1,0,0:0:0:0:
192,192,23937,1,0,0:0:0:0:
448,192,23987,1,0,0:0:0:0:
320,192,24063,1,0,0:0:0:0:
64,192,24139,1,0,0:0:0:0:
448,192,24139,1,0,0:0:0:0:
192,192,24215,1,0,0:0:0:0:
64,192,24290,1,0,0:0:0:0:
320,192,24366,1,0,0:0:0:0:
448,192,24442,1,0,0:0:0:0:
192,192,24442,1,0,0:0:0:0:
64,192,24442,1,0,0:0:0:0:
192,192,24593,1,0,0:0:0:0:
448,192,24593,1,0,0:0:0:0:
320,192,24896,1,0,0:0:0:0:
448,192,24896,1,0,0:0:0:0:
192,192,24896,1,0,0:0:0:0:
192,192,25048,1,0,0:0:0:0:
320,192,25048,1,0,0:0:0:0:
64,192,25275,1,0,0:0:0:0:
192,192,25275,1,0,0:0:0:0:
448,192,25275,1,0,0:0:0:0:
320,192,25503,1,0,0:0:0:0:
448,192,25503,1,0,0:0:0:0:
64,192,25503,1,0,0:0:0:0:
64,192,26109,1,0,0:0:0:0:
320,192,26184,1,0,0:0:0:0:
192,192,26260,1,0,0:0:0:0:
448,192,26336,1,0,0:0:0:0:
320,192,26412,1,0,0:0:0:0:
64,192,26487,1,0,0:0:0:0:
448,192,26563,1,0,0:0:0:0:
192,192,26639,1,0,0:0:0:0:
320,192,26715,1,0,0:0:0:0:
64,192,26790,1,0,0:0:0:0:
192,192,26866,1,0,0:0:0:0:
320,192,26866,1,0,0:0:0:0:
448,192,26866,1,0,0:0:0:0:
320,192,27018,1,0,0:0:0:0:
192,192,27018,1,0,0:0:0:0:
64,192,27321,1,0,0:0:0:0:
448,192,27321,1,0,0:0:0:0:
192,192,27321,1,0,0:0:0:0:
192,192,27472,1,0,0:0:0:0:
448,192,27472,1,0,0:0:0:0:
64,192,27699,1,0,0:0:0:0:
320,192,27699,1,0,0:0:0:0:
448,192,27775,1,0,0:0:0:0:
64,192,27927,1,0,0:0:0:0:
192,192,27927,1,0,0:0:0:0:
320,192,27927,1,0,0:0:0:0:
320,192,28154,1,0,0:0:0:0:
192,192,28154,1,0,0:0:0:0:
64,192,28533,1,0,0:0:0:0:
192,192,28609,1,0,0:0:0:0:
64,192,28684,1,0,0:0:0:0:
320,192,28760,1,0,0:0:0:0:
192,192,28836,1,0,0:0:0:0:
448,192,28912,1,0,0:0:0:0:
320,192,28987,1,0,0:0:0:0:
64,192,29038,1,0,0:0:0:0:
448,192,29088,1,0,0:0:0:0:
320,192,29139,1,0,0:0:0:0:
192,192,29139,1,0,0:0:0:0:
64,192,29215,1,0,0:0:0:0:
320,192,29290,1,0,0:0:0:0:
192,192,29290,1,0,0:0:0:0:
448,192,29290,1,0,0:0:0:0:
192,192,29442,1,0,0:0:0:0:
448,192,29442,1,0,0:0:0:0:
64,192,29745,1,0,0:0:0:0:
192,192,29745,1,0,0:0:0:0:
320,192,29745,1,0,0:0:0:0:
320,192,29896,1,0,0:0:0:0:
64,192,29896,1,0,0:0:0:0:
448,192,30124,1,0,0:0:0:0:
64,192,30124,1,0,0:0:0:0:
192,192,30199,1,0,0:0:0:0:
64,192,30351,1,0,0:0:0:0:
320,192,30351,1,0,0:0:0:0:
448,192,30351,1,0,0:0:0:0:
64,192,30957,1,0,0:0:0:0:
320,192,31033,1,0,0:0:0:0:
192,192,31109,1,0,0:0:0:0:
448,192,31184,1,0,0:0:0:0:
320,192,31260,1,0,0:0:0:0:
64,192,31336,1,0,0:0:0:0:
448,192,31412,1,0,0:0:0:0:
192,192,31487,1,0,0:0:0:0:
320,192,31563,1,0,0:0:0:0:
64,192,31639,1,0,0:0:0:0:
192,192,31715,1,0,0:0:0:0:
320,192,31715,1,0,0:0:0:0:
448,192,31715,1,0,0:0:0:0:
192,192,31866,1,0,0:0:0:0:
448,192,31866,1,0,0:0:0:0:
64,192,32169,1,0,0:0:0:0:
192,192,32169,1,0,0:0:0:0:
448,192,32169,1,0,0:0:0:0:
64,192,32321,1,0,0:0:0:0:
448,192,32321,1,0,0:0:0:0:
192,192,32472,1,0,0:0:0:0:
64,192,32548,1,0,0:0:0:0:
448,192,32548,1,0,0:0:0:0:
320,192,32624,1,0,0:0:0:0:
64,192,32775,1,0,0:0:0:0:
448,192,32775,1,0,0:0:0:0:
192,192,32775,1,0,0:0:0:0:
64,192,33003,1,0,0:0:0:0:
448,192,33003,1,0,0:0:0:0:
320,192,33078,1,0,0:0:0:0:
192,192,33154,1,0,0:0:0:0:
320,192,33230,1,0,0:0:0:0:
64,192,33230,1,0,0:0:0:0:
192,192,33306,1,0,0:0:0:0:
448,192,33381,1,0,0:0:0:0:
192,192,33457,1,0,0:0:0:0:
320,192,33533,1,0,0:0:0:0:
64,192,33609,1,0,0:0:0:0:
320,192,33684,1,0,0:0:0:0:
192,192,33760,1,0,0:0:0:0:
448,192,33836,1,0,0:0:0:0:
192,192,33886,1,0,0:0:0:0:
64,192,33937,1,0,0:0:0:0:
448,192,33987,1,0,0:0:0:0:
320,192,34038,1,0,0:0:0:0:
64,192,34088,1,0,0:0:0:0:
448,192,34139,1,0,0:0:0:0:
192,192,34139,1,0,0:0:0:0:
320,192,34200,1,0,0:0:0:0:
192,192,34260,1,0,0:0:0:0:
64,192,34321,1,0,0:0:0:0:
448,192,34381,1,0,0:0:0:0:
320,192,34442,1,0,0:0:0:0:
192,192,34442,1,0,0:0:0:0:
64,192,34503,1,0,0:0:0:0:
448,192,34563,1,0,0:0:0:0:
320,192,34624,1,0,0:0:0:0:
192,192,34684,1,0,0:0:0:0:
64,192,34745,1,0,0:0:0:0:
448,192,34745,1,0,0:0:0:0:
320,192,34806,1,0,0:0:0:0:
192,192,34866,1,0,0:0:0:0:
64,192,34927,1,0,0:0:0:0:
448,192,34987,1,0,0:0:0:0:
320,192,35048,1,0,0:0:0:0:
192,192,35048,1,0,0:0:0:0:
64,192,35109,1,0,0:0:0:0:
448,192,35169,1,0,0:0:0:0:
320,192,35230,1,0,0:0:0:0:
192,192,35290,1,0,0:0:0:0:
64,192,35351,1,0,0:0:0:0:
448,192,35351,1,0,0:0:0:0:
320,192,35412,1,0,0:0:0:0:
192,192,35472,1,0,0:0:0:0:
64,192,35533,1,0,0:0:0:0:
448,192,35593,1,0,0:0:0:0:
192,192,35654,1,0,0:0:0:0:
320,192,35654,1,0,0:0:0:0:
64,192,35715,1,0,0:0:0:0:
448,192,35775,1,0,0:0:0:0:
320,192,35836,1,0,0:0:0:0:
192,192,35896,1,0,0:0:0:0:
64,192,35957,1,0,0:0:0:0:
448,192,35957,1,0,0:0:0:0:
320,192,36018,1,0,0:0:0:0:
192,192,36078,1,0,0:0:0:0:
64,192,36139,1,0,0:0:0:0:
448,192,36200,1,0,0:0:0:0:
320,192,36260,1,0,0:0:0:0:
192,192,36260,1,0,0:0:0:0:
64,192,36321,1,0,0:0:0:0:
448,192,36381,1,0,0:0:0:0:
320,192,36442,1,0,0:0:0:0:
192,192,36503,1,0,0:0:0:0:
64,192,36563,1,0,0:0:0:0:
448,192,36563,1,0,0:0:0:0:
192,192,36624,1,0,0:0:0:0:
320,192,36684,1,0,0:0:0:0:
448,192,36745,1,0,0:0:0:0:
64,192,36806,1,0,0:0:0:0:
192,192,36866,1,0,0:0:0:0:
320,192,36866,1,0,0:0:0:0:
448,192,36927,1,0,0:0:0:0:
64,192,36987,1,0,0:0:0:0:
192,192,37048,1,0,0:0:0:0:
320,192,37109,1,0,0:0:0:0:
448,192,37169,1,0,0:0:0:0:
64,192,37169,1,0,0:0:0:0:
192,192,37230,1,0,0:0:0:0:
320,192,37290,1,0,0:0:0:0:
448,192,37351,1,0,0:0:0:0:
64,192,37412,1,0,0:0:0:0:
192,192,37472,1,0,0:0:0:0:
320,192,37472,1,0,0:0:0:0:
448,192,37533,1,0,0:0:0:0:
64,192,37593,1,0,0:0:0:0:
192,192,37654,1,0,0:0:0:0:
320,192,37715,1,0,0:0:0:0:
448,192,37775,1,0,0:0:0:0:
64,192,37775,1,0,0:0:0:0:
192,192,37836,1,0,0:0:0:0:
448,192,37896,1,0,0:0:0:0:
64,192,37957,1,0,0:0:0:0:
320,192,38018,1,0,0:0:0:0:
448,192,38078,1,0,0:0:0:0:
192,192,38078,1,0,0:0:0:0:
64,192,38139,1,0,0:0:0:0:
320,192,38200,1,0,0:0:0:0:
448,192,38260,1,0,0:0:0:0:
64,192,38321,1,0,0:0:0:0:
192,192,38381,1,0,0:0:0:0:
320,192,38381,1,0,0:0:0:0:
448,192,38442,1,0,0:0:0:0:
192,192,38503,1,0,0:0:0:0:
64,192,38563,1,0,0:0:0:0:
448,192,38624,1,0,0:0:0:0:
320,192,38684,1,0,0:0:0:0:
64,192,38684,1,0,0:0:0:0:
192,192,38745,1,0,0:0:0:0:
448,192,38806,1,0,0:0:0:0:
320,192,38866,1,0,0:0:0:0:
64,192,38927,1,0,0:0:0:0:
448,192,38987,1,0,0:0:0:0:
192,192,38987,1,0,0:0:0:0:
320,192,39048,1,0,0:0:0:0:
64,192,39109,1,0,0:0:0:0:
448,192,39169,1,0,0:0:0:0:
192,192,39230,1,0,0:0:0:0:
320,192,39290,1,0,0:0:0:0:
64,192,39290,1,0,0:0:0:0:
448,192,39351,1,0,0:0:0:0:
192,192,39412,1,0,0:0:0:0:
320,192,39472,1,0,0:0:0:0:
64,192,39533,1,0,0:0:0:0:
448,192,39593,1,0,0:0:0:0:
192,192,39593,1,0,0:0:0:0:
320,192,39654,1,0,0:0:0:0:
64,192,39715,1,0,0:0:0:0:
448,192,39775,1,0,0:0:0:0:
192,192,39836,1,0,0:0:0:0:
320,192,39896,1,0,0:0:0:0:
64,192,39896,1,0,0:0:0:0:
448,192,39957,1,0,0:0:0:0:
192,192,40018,1,0,0:0:0:0:
320,192,40078,1,0,0:0:0:0:
64,192,40139,1,0,0:0:0:0:
448,192,40199,1,0,0:0:0:0:
192,192,40200,1,0,0:0:0:0:
320,192,40260,1,0,0:0:0:0:
64,192,40321,1,0,0:0:0:0:
448,192,40381,1,0,0:0:0:0:
192,192,40442,1,0,0:0:0:0:
64,192,40503,1,0,0:0:0:0:
320,192,40503,1,0,0:0:0:0:
448,192,40563,1,0,0:0:0:0:
192,192,40624,1,0,0:0:0:0:
320,192,40684,1,0,0:0:0:0:
64,192,40745,1,0,0:0:0:0:
448,192,40806,1,0,0:0:0:0:
192,192,40806,1,0,0:0:0:0:
320,192,40866,1,0,0:0:0:0:
64,192,40927,1,0,0:0:0:0:
448,192,40987,1,0,0:0:0:0:
192,192,41048,1,0,0:0:0:0:
320,192,41109,1,0,0:0:0:0:
64,192,41109,1,0,0:0:0:0:
448,192,41169,1,0,0:0:0:0:
192,192,41230,1,0,0:0:0:0:
320,192,41290,1,0,0:0:0:0:
64,192,41351,1,0,0:0:0:0:
448,192,41412,1,0,0:0:0:0:
320,192,41412,1,0,0:0:0:0:
192,192,41462,1,0,0:0:0:0:
64,192,41513,1,0,0:0:0:0:
448,192,41563,1,0,0:0:0:0:
320,192,41563,1,0,0:0:0:0:
192,192,41614,1,0,0:0:0:0:
64,192,41664,1,0,0:0:0:0:
192,192,41715,1,0,0:0:0:0:
320,192,41715,1,0,0:0:0:0:
448,192,41765,1,0,0:0:0:0:
64,192,41816,1,0,0:0:0:0:
192,192,41866,1,0,0:0:0:0:
320,192,41866,1,0,0:0:0:0:
448,192,41917,1,0,0:0:0:0:
320,192,41967,1,0,0:0:0:0:
64,192,42018,1,0,0:0:0:0:
192,192,42018,1,0,0:0:0:0:
448,192,42068,1,0,0:0:0:0:
320,192,42119,1,0,0:0:0:0:
64,192,42169,1,0,0:0:0:0:
192,192,42169,1,0,0:0:0:0:
320,192,42220,1,0,0:0:0:0:
192,192,42270,1,0,0:0:0:0:
64,192,42321,1,0,0:0:0:0:
448,192,42321,1,0,0:0:0:0:
320,192,42371,1,0,0:0:0:0:
192,192,42422,1,0,0:0:0:0:
64,192,42472,1,0,0:0:0:0:
448,192,42472,1,0,0:0:0:0:
320,192,42523,1,0,0:0:0:0:
192,192,42573,1,0,0:0:0:0:
64,192,42624,5,0,0:0:0:0:
64,192,42775,5,0,0:0:0:0:
64,192,42927,1,0,0:0:0:0:
64,192,43230,1,0,0:0:0:0:
64,192,43533,5,0,0:0:0:0:
320,192,43533,1,0,0:0:0:0:
448,192,43684,1,0,0:0:0:0:
192,192,43684,1,0,0:0:0:0:
64,192,43836,5,0,0:0:0:0:
320,192,43836,1,0,0:0:0:0:
192,192,43836,1,0,0:0:0:0:
192,192,43987,1,0,0:0:0:0:
64,192,43987,1,0,0:0:0:0:
192,192,44063,1,0,0:0:0:0:
64,192,44139,1,0,0:0:0:0:
320,192,44139,1,0,0:0:0:0:
448,192,44139,1,0,0:0:0:0:
320,192,44290,1,0,0:0:0:0:
448,192,44290,1,0,0:0:0:0:
320,192,44366,1,0,0:0:0:0:
64,192,44442,1,0,0:0:0:0:
448,192,44442,1,0,0:0:0:0:
192,192,44442,1,0,0:0:0:0:
64,192,44593,1,0,0:0:0:0:
192,192,44593,1,0,0:0:0:0:
64,192,44669,1,0,0:0:0:0:
192,192,44745,1,0,0:0:0:0:
448,192,44745,1,0,0:0:0:0:
320,192,44745,1,0,0:0:0:0:
448,192,44896,1,0,0:0:0:0:
320,192,44896,1,0,0:0:0:0:
448,192,44972,1,0,0:0:0:0:
64,192,45048,1,0,0:0:0:0:
320,192,45048,1,0,0:0:0:0:
192,192,45048,1,0,0:0:0:0:
64,192,45199,1,0,0:0:0:0:
192,192,45199,1,0,0:0:0:0:
64,192,45275,1,0,0:0:0:0:
192,192,45351,1,0,0:0:0:0:
320,192,45351,1,0,0:0:0:0:
448,192,45351,1,0,0:0:0:0:
320,192,45503,1,0,0:0:0:0:
448,192,45503,1,0,0:0:0:0:
320,192,45578,1,0,0:0:0:0:
64,192,45654,1,0,0:0:0:0:
192,192,45654,1,0,0:0:0:0:
448,192,45654,1,0,0:0:0:0:
192,192,45806,1,0,0:0:0:0:
64,192,45806,1,0,0:0:0:0:
192,192,45881,1,0,0:0:0:0:
64,192,45957,1,0,0:0:0:0:
448,192,45957,1,0,0:0:0:0:
320,192,45957,1,0,0:0:0:0:
448,192,46109,1,0,0:0:0:0:
320,192,46109,1,0,0:0:0:0:
448,192,46184,1,0,0:0:0:0:
64,192,46260,1,0,0:0:0:0:
192,192,46260,1,0,0:0:0:0:
320,192,46260,1,0,0:0:0:0:
192,192,46412,1,0,0:0:0:0:
64,192,46412,1,0,0:0:0:0:
192,192,46487,1,0,0:0:0:0:
64,192,46563,1,0,0:0:0:0:
320,192,46563,1,0,0:0:0:0:
448,192,46563,1,0,0:0:0:0:
320,192,46715,1,0,0:0:0:0:
448,192,46715,1,0,0:0:0:0:
448,192,46790,1,0,0:0:0:0:
64,192,46866,1,0,0:0:0:0:
320,192,46866,1,0,0:0:0:0:
192,192,46866,1,0,0:0:0:0:
64,192,47018,1,0,0:0:0:0:
192,192,47018,1,0,0:0:0:0:
64,192,47093,1,0,0:0:0:0:
192,192,47169,1,0,0:0:0:0:
448,192,47169,1,0,0:0:0:0:
320,192,47169,1,0,0:0:0:0:
320,192,47321,1,0,0:0:0:0:
448,192,47321,1,0,0:0:0:0:
320,192,47396,1,0,0:0:0:0:
64,192,47472,1,0,0:0:0:0:
192,192,47472,1,0,0:0:0:0:
448,192,47472,1,0,0:0:0:0:
64,192,47624,1,0,0:0:0:0:
448,192,47624,1,0,0:0:0:0:
192,192,47624,1,0,0:0:0:0:
64,192,47699,1,0,0:0:0:0:
192,192,47775,1,0,0:0:0:0:
320,192,47775,1,0,0:0:0:0:
448,192,47775,1,0,0:0:0:0:
320,192,47927,1,0,0:0:0:0:
448,192,47927,1,0,0:0:0:0:
448,192,48003,1,0,0:0:0:0:
64,192,48078,1,0,0:0:0:0:
192,192,48078,1,0,0:0:0:0:
320,192,48129,1,0,0:0:0:0:
448,192,48179,1,0,0:0:0:0:
192,192,48230,1,0,0:0:0:0:
64,192,48230,1,0,0:0:0:0:
192,192,48306,1,0,0:0:0:0:
64,192,48381,1,0,0:0:0:0:
448,192,48381,1,0,0:0:0:0:
320,192,48381,1,0,0:0:0:0:
320,192,48533,1,0,0:0:0:0:
448,192,48533,1,0,0:0:0:0:
320,192,48609,1,0,0:0:0:0:
64,192,48684,1,0,0:0:0:0:
192,192,48684,1,0,0:0:0:0:
448,192,48684,1,0,0:0:0:0:
192,192,48836,1,0,0:0:0:0:
64,192,48836,1,0,0:0:0:0:
192,192,48912,1,0,0:0:0:0:
64,192,48987,1,0,0:0:0:0:
320,192,48987,1,0,0:0:0:0:
448,192,48987,1,0,0:0:0:0:
320,192,49139,1,0,0:0:0:0:
448,192,49139,1,0,0:0:0:0:
448,192,49215,1,0,0:0:0:0:
64,192,49290,1,0,0:0:0:0:
192,192,49290,1,0,0:0:0:0:
320,192,49290,1,0,0:0:0:0:
64,192,49442,1,0,0:0:0:0:
192,192,49442,1,0,0:0:0:0:
64,192,49518,1,0,0:0:0:0:
192,192,49593,1,0,0:0:0:0:
320,192,49593,1,0,0:0:0:0:
448,192,49593,1,0,0:0:0:0:
320,192,49745,1,0,0:0:0:0:
448,192,49745,1,0,0:0:0:0:
320,192,49821,1,0,0:0:0:0:
64,192,49896,1,0,0:0:0:0:
192,192,49896,1,0,0:0:0:0:
448,192,49896,1,0,0:0:0:0:
64,192,50048,1,0,0:0:0:0:
192,192,50048,1,0,0:0:0:0:
64,192,50124,1,0,0:0:0:0:
192,192,50199,1,0,0:0:0:0:
448,192,50199,1,0,0:0:0:0:
320,192,50199,1,0,0:0:0:0:
320,192,50351,1,0,0:0:0:0:
448,192,50351,1,0,0:0:0:0:
448,192,50427,1,0,0:0:0:0:
64,192,50503,1,0,0:0:0:0:
320,192,50503,1,0,0:0:0:0:
192,192,50503,1,0,0:0:0:0:
64,192,50654,1,0,0:0:0:0:
192,192,50654,1,0,0:0:0:0:
192,192,50730,1,0,0:0:0:0:
64,192,50806,1,0,0:0:0:0:
448,192,50806,1,0,0:0:0:0:
320,192,50806,1,0,0:0:0:0:
320,192,50957,1,0,0:0:0:0:
448,192,50957,1,0,0:0:0:0:
320,192,51033,1,0,0:0:0:0:
64,192,51109,1,0,0:0:0:0:
448,192,51109,1,0,0:0:0:0:
192,192,51109,1,0,0:0:0:0:
192,192,51260,1,0,0:0:0:0:
64,192,51260,1,0,0:0:0:0:
448,192,51336,1,0,0:0:0:0:
320,192,51412,1,0,0:0:0:0:
192,192,51412,1,0,0:0:0:0:
448,192,51412,1,0,0:0:0:0:
64,192,51563,1,0,0:0:0:0:
192,192,51563,1,0,0:0:0:0:
64,192,51639,1,0,0:0:0:0:
448,192,51715,1,0,0:0:0:0:
192,192,51715,1,0,0:0:0:0:
320,192,51715,1,0,0:0:0:0:
192,192,51866,1,0,0:0:0:0:
448,192,51866,1,0,0:0:0:0:
320,192,51866,1,0,0:0:0:0:
64,192,51942,1,0,0:0:0:0:
64,192,52018,1,0,0:0:0:0:
192,192,52018,1,0,0:0:0:0:
320,192,52018,1,0,0:0:0:0:
448,192,52169,1,0,0:0:0:0:
320,192,52169,1,0,0:0:0:0:
448,192,52245,1,0,0:0:0:0:
64,192,52321,1,0,0:0:0:0:
192,192,52321,1,0,0:0:0:0:
320,192,52396,1,0,0:0:0:0:
448,192,52396,1,0,0:0:0:0:
192,192,52472,1,0,0:0:0:0:
64,192,52472,1,0,0:0:0:0:
320,192,52548,1,0,0:0:0:0:
448,192,52548,1,0,0:0:0:0:
64,192,52624,1,0,0:0:0:0:
192,192,52643,1,0,0:0:0:0:
448,192,52699,1,0,0:0:0:0:
320,192,52718,1,0,0:0:0:0:
64,192,52775,1,0,0:0:0:0:
192,192,52794,1,0,0:0:0:0:
448,192,52851,1,0,0:0:0:0:
320,192,52870,1,0,0:0:0:0:
64,192,52927,1,0,0:0:0:0:
192,192,52952,1,0,0:0:0:0:
448,192,53003,1,0,0:0:0:0:
320,192,53028,1,0,0:0:0:0:
64,192,53078,1,0,0:0:0:0:
192,192,53104,1,0,0:0:0:0:
448,192,53154,1,0,0:0:0:0:
320,192,53179,1,0,0:0:0:0:
64,192,53230,1,0,0:0:0:0:
192,192,53268,1,0,0:0:0:0:
448,192,53306,1,0,0:0:0:0:
320,192,53343,1,0,0:0:0:0:
64,192,53381,1,0,0:0:0:0:
192,192,53419,1,0,0:0:0:0:
448,192,53457,1,0,0:0:0:0:
320,192,53495,1,0,0:0:0:0:
448,192,53533,1,0,0:0:0:0:
64,192,53533,1,0,0:0:0:0:
192,192,53533,1,0,0:0:0:0:
320,192,53593,1,0,0:0:0:0:
64,192,53654,1,0,0:0:0:0:
448,192,53715,1,0,0:0:0:0:
192,192,53775,1,0,0:0:0:0:
64,192,53836,1,0,0:0:0:0:
448,192,53836,1,0,0:0:0:0:
320,192,53836,1,0,0:0:0:0:
192,192,53896,1,0,0:0:0:0:
320,192,53957,1,0,0:0:0:0:
64,192,54018,1,0,0:0:0:0:
448,192,54078,1,0,0:0:0:0:
320,192,54139,1,0,0:0:0:0:
192,192,54139,1,0,0:0:0:0:
64,192,54139,1,0,0:0:0:0:
448,192,54199,1,0,0:0:0:0:
192,192,54260,1,0,0:0:0:0:
320,192,54321,1,0,0:0:0:0:
64,192,54381,1,0,0:0:0:0:
448,192,54442,1,0,0:0:0:0:
320,192,54442,1,0,0:0:0:0:
192,192,54442,1,0,0:0:0:0:
64,192,54503,1,0,0:0:0:0:
448,192,54563,1,0,0:0:0:0:
192,192,54624,1,0,0:0:0:0:
320,192,54684,1,0,0:0:0:0:
448,192,54745,1,0,0:0:0:0:
64,192,54745,1,0,0:0:0:0:
192,192,54745,1,0,0:0:0:0:
320,192,54806,1,0,0:0:0:0:
64,192,54866,1,0,0:0:0:0:
448,192,54927,1,0,0:0:0:0:
192,192,54987,1,0,0:0:0:0:
64,192,55048,1,0,0:0:0:0:
448,192,55048,1,0,0:0:0:0:
320,192,55048,1,0,0:0:0:0:
192,192,55109,1,0,0:0:0:0:
320,192,55169,1,0,0:0:0:0:
64,192,55230,1,0,0:0:0:0:
448,192,55290,1,0,0:0:0:0:
320,192,55351,1,0,0:0:0:0:
192,192,55351,1,0,0:0:0:0:
64,192,55351,1,0,0:0:0:0:
448,192,55412,1,0,0:0:0:0:
192,192,55472,1,0,0:0:0:0:
320,192,55533,1,0,0:0:0:0:
64,192,55593,1,0,0:0:0:0:
448,192,55654,1,0,0:0:0:0:
320,192,55654,1,0,0:0:0:0:
192,192,55654,1,0,0:0:0:0:
64,192,55715,1,0,0:0:0:0:
448,192,55775,1,0,0:0:0:0:
192,192,55836,1,0,0:0:0:0:
320,192,55896,1,0,0:0:0:0:
192,192,55957,1,0,0:0:0:0:
64,192,55957,1,0,0:0:0:0:
448,192,55957,1,0,0:0:0:0:
320,192,56018,1,0,0:0:0:0:
64,192,56078,1,0,0:0:0:0:
192,192,56139,1,0,0:0:0:0:
448,192,56199,1,0,0:0:0:0:
320,192,56260,1,0,0:0:0:0:
64,192,56260,1,0,0:0:0:0:
192,192,56260,1,0,0:0:0:0:
448,192,56321,1,0,0:0:0:0:
192,192,56381,1,0,0:0:0:0:
320,192,56442,1,0,0:0:0:0:
64,192,56503,1,0,0:0:0:0:
192,192,56563,1,0,0:0:0:0:
320,192,56563,1,0,0:0:0:0:
448,192,56563,1,0,0:0:0:0:
64,192,56624,1,0,0:0:0:0:
320,192,56684,1,0,0:0:0:0:
448,192,56745,1,0,0:0:0:0:
192,192,56806,1,0,0:0:0:0:
64,192,56866,1,0,0:0:0:0:
320,192,56866,1,0,0:0:0:0:
448,192,56866,1,0,0:0:0:0:
192,192,56927,1,0,0:0:0:0:
320,192,56987,1,0,0:0:0:0:
64,192,57048,1,0,0:0:0:0:
448,192,57109,1,0,0:0:0:0:
192,192,57169,1,0,0:0:0:0:
64,192,57169,1,0,0:0:0:0:
320,192,57169,1,0,0:0:0:0:
448,192,57245,1,0,0:0:0:0:
320,192,57321,1,0,0:0:0:0:
192,192,57321,1,0,0:0:0:0:
64,192,57321,1,0,0:0:0:0:
448,192,57381,1,0,0:0:0:0:
64,192,57442,1,0,0:0:0:0:
192,192,57503,1,0,0:0:0:0:
320,192,57563,1,0,0:0:0:0:
448,192,57624,1,0,0:0:0:0:
64,192,57624,1,0,0:0:0:0:
192,192,57624,1,0,0:0:0:0:
320,192,57684,1,0,0:0:0:0:
448,192,57745,1,0,0:0:0:0:
64,192,57806,1,0,0:0:0:0:
192,192,57866,1,0,0:0:0:0:
448,192,57927,1,0,0:0:0:0:
64,192,57927,1,0,0:0:0:0:
320,192,57927,1,0,0:0:0:0:
192,192,57987,1,0,0:0:0:0:
320,192,58048,1,0,0:0:0:0:
448,192,58109,1,0,0:0:0:0:
64,192,58169,1,0,0:0:0:0:
320,192,58230,1,0,0:0:0:0:
448,192,58230,1,0,0:0:0:0:
192,192,58230,1,0,0:0:0:0:
64,192,58306,1,0,0:0:0:0:
448,192,58381,1,0,0:0:0:0:
320,192,58381,1,0,0:0:0:0:
192,192,58381,1,0,0:0:0:0:
320,192,58457,1,0,0:0:0:0:
448,192,58457,1,0,0:0:0:0:
192,192,58533,1,0,0:0:0:0:
64,192,58533,1,0,0:0:0:0:
448,192,58609,1,0,0:0:0:0:
320,192,58609,1,0,0:0:0:0:
64,192,58684,1,0,0:0:0:0:
192,192,58684,1,0,0:0:0:0:
64,192,58760,1,0,0:0:0:0:
192,192,58760,1,0,0:0:0:0:
320,192,58836,1,0,0:0:0:0:
448,192,58836,1,0,0:0:0:0:
64,192,58912,1,0,0:0:0:0:
192,192,58912,1,0,0:0:0:0:
320,192,58987,1,0,0:0:0:0:
448,192,58987,1,0,0:0:0:0:
320,192,59063,1,0,0:0:0:0:
448,192,59063,1,0,0:0:0:0:
64,192,59139,1,0,0:0:0:0:
192,192,59139,1,0,0:0:0:0:
448,192,59215,1,0,0:0:0:0:
320,192,59215,1,0,0:0:0:0:
64,192,59290,1,0,0:0:0:0:
192,192,59290,1,0,0:0:0:0:
192,192,59366,1,0,0:0:0:0:
64,192,59366,1,0,0:0:0:0:
320,192,59442,1,0,0:0:0:0:
448,192,59442,1,0,0:0:0:0:
320,192,59518,1,0,0:0:0:0:
448,192,59518,1,0,0:0:0:0:
192,192,59593,1,0,0:0:0:0:
64,192,59593,1,0,0:0:0:0:
192,192,59669,1,0,0:0:0:0:
64,192,59669,1,0,0:0:0:0:
320,192,59745,1,0,0:0:0:0:
448,192,59745,1,0,0:0:0:0:
192,192,59821,1,0,0:0:0:0:
64,192,59821,1,0,0:0:0:0:
320,192,59896,1,0,0:0:0:0:
448,192,59896,1,0,0:0:0:0:
448,192,59972,1,0,0:0:0:0:
320,192,59972,1,0,0:0:0:0:
64,192,60048,1,0,0:0:0:0:
192,192,60048,1,0,0:0:0:0:
448,192,60124,1,0,0:0:0:0:
320,192,60124,1,0,0:0:0:0:
64,192,60199,1,0,0:0:0:0:
192,192,60199,1,0,0:0:0:0:
192,192,60275,1,0,0:0:0:0:
64,192,60275,1,0,0:0:0:0:
320,192,60351,1,0,0:0:0:0:
448,192,60351,1,0,0:0:0:0:
64,192,60427,1,0,0:0:0:0:
192,192,60427,1,0,0:0:0:0:
320,192,60503,1,0,0:0:0:0:
448,192,60503,1,0,0:0:0:0:
320,192,60578,1,0,0:0:0:0:
448,192,60578,1,0,0:0:0:0:
192,192,60654,1,0,0:0:0:0:
64,192,60654,1,0,0:0:0:0:
64,192,60730,1,0,0:0:0:0:
192,192,60730,1,0,0:0:0:0:
448,192,60806,1,0,0:0:0:0:
192,192,60843,1,0,0:0:0:0:
320,192,60881,1,0,0:0:0:0:
64,192,60919,1,0,0:0:0:0:
448,192,60957,1,0,0:0:0:0:
192,192,60995,1,0,0:0:0:0:
320,192,61033,1,0,0:0:0:0:
64,192,61071,1,0,0:0:0:0:
448,192,61109,1,0,0:0:0:0:
192,192,61146,1,0,0:0:0:0:
320,192,61184,1,0,0:0:0:0:
64,192,61222,1,0,0:0:0:0:
448,192,61260,1,0,0:0:0:0:
192,192,61298,1,0,0:0:0:0:
320,192,61336,1,0,0:0:0:0:
64,192,61374,1,0,0:0:0:0:
448,192,61412,1,0,0:0:0:0:
192,192,61449,1,0,0:0:0:0:
320,192,61487,1,0,0:0:0:0:
64,192,61525,1,0,0:0:0:0:
448,192,61563,1,0,0:0:0:0:
192,192,61601,1,0,0:0:0:0:
320,192,61639,1,0,0:0:0:0:
64,192,61677,1,0,0:0:0:0:
448,192,61715,1,0,0:0:0:0:
192,192,61753,1,0,0:0:0:0:
320,192,61790,1,0,0:0:0:0:
64,192,61828,1,0,0:0:0:0:
448,192,61866,1,0,0:0:0:0:
192,192,61904,1,0,0:0:0:0:
320,192,61942,1,0,0:0:0:0:
64,192,61980,1,0,0:0:0:0:
448,192,62018,1,0,0:0:0:0:
64,192,62093,1,0,0:0:0:0:
192,192,62169,1,0,0:0:0:0:
448,192,62245,1,0,0:0:0:0:
320,192,62321,1,0,0:0:0:0:
448,192,62371,1,0,0:0:0:0:
192,192,62422,1,0,0:0:0:0:
64,192,62472,1,0,0:0:0:0:
320,192,62624,1,0,0:0:0:0:
448,192,62643,1,0,0:0:0:0:
192,192,62775,1,0,0:0:0:0:
320,192,62851,1,0,0:0:0:0:
64,192,63003,1,0,0:0:0:0:
192,192,63078,1,0,0:0:0:0:
448,192,63230,1,0,0:0:0:0:
320,192,63230,1,0,0:0:0:0:
64,192,63230,1,0,0:0:0:0:
192,192,63381,1,0,0:0:0:0:
320,192,63457,1,0,0:0:0:0:
448,192,63457,1,0,0:0:0:0:
192,192,63457,1,0,0:0:0:0:
64,192,63533,1,0,0:0:0:0:
320,192,63533,1,0,0:0:0:0:
320,192,63684,1,0,0:0:0:0:
448,192,63684,1,0,0:0:0:0:
64,192,63684,1,0,0:0:0:0:
64,192,63760,1,0,0:0:0:0:
192,192,63836,1,0,0:0:0:0:
448,192,63836,1,0,0:0:0:0:
320,192,63912,1,0,0:0:0:0:
448,192,63912,1,0,0:0:0:0:
192,192,63987,1,0,0:0:0:0:
192,192,64063,1,0,0:0:0:0:
448,192,64139,1,0,0:0:0:0:
320,192,64139,1,0,0:0:0:0:
64,192,64139,1,0,0:0:0:0:
320,192,64290,1,0,0:0:0:0:
448,192,64290,1,0,0:0:0:0:
448,192,64366,1,0,0:0:0:0:
64,192,64442,1,0,0:0:0:0:
192,192,64442,1,0,0:0:0:0:
320,192,64442,1,0,0:0:0:0:
320,192,64593,1,0,0:0:0:0:
320,192,64669,1,0,0:0:0:0:
192,192,64669,1,0,0:0:0:0:
64,192,64669,1,0,0:0:0:0:
448,192,64745,1,0,0:0:0:0:
192,192,64745,1,0,0:0:0:0:
448,192,64896,1,0,0:0:0:0:
192,192,64896,1,0,0:0:0:0:
64,192,64896,1,0,0:0:0:0:
448,192,64972,1,0,0:0:0:0:
320,192,65048,1,0,0:0:0:0:
64,192,65048,1,0,0:0:0:0:
64,192,65124,1,0,0:0:0:0:
192,192,65124,1,0,0:0:0:0:
320,192,65199,1,0,0:0:0:0:
320,192,65275,1,0,0:0:0:0:
448,192,65351,1,0,0:0:0:0:
192,192,65351,1,0,0:0:0:0:
64,192,65351,1,0,0:0:0:0:
64,192,65503,1,0,0:0:0:0:
192,192,65503,1,0,0:0:0:0:
192,192,65578,1,0,0:0:0:0:
320,192,65654,1,0,0:0:0:0:
64,192,65654,1,0,0:0:0:0:
448,192,65654,1,0,0:0:0:0:
64,192,65806,1,0,0:0:0:0:
64,192,65881,1,0,0:0:0:0:
320,192,65881,1,0,0:0:0:0:
448,192,65881,1,0,0:0:0:0:
192,192,65957,1,0,0:0:0:0:
448,192,65957,1,0,0:0:0:0:
192,192,66109,1,0,0:0:0:0:
320,192,66109,1,0,0:0:0:0:
448,192,66109,1,0,0:0:0:0:
192,192,66184,1,0,0:0:0:0:
64,192,66260,1,0,0:0:0:0:
320,192,66260,1,0,0:0:0:0:
320,192,66336,1,0,0:0:0:0:
448,192,66336,1,0,0:0:0:0:
64,192,66412,1,0,0:0:0:0:
64,192,66487,1,0,0:0:0:0:
192,192,66563,1,0,0:0:0:0:
320,192,66563,1,0,0:0:0:0:
448,192,66563,1,0,0:0:0:0:
448,192,66715,1,0,0:0:0:0:
320,192,66715,1,0,0:0:0:0:
320,192,66790,1,0,0:0:0:0:
64,192,66866,1,0,0:0:0:0:
192,192,66866,1,0,0:0:0:0:
448,192,66866,1,0,0:0:0:0:
448,192,67018,1,0,0:0:0:0:
448,192,67093,1,0,0:0:0:0:
64,192,67093,1,0,0:0:0:0:
192,192,67093,1,0,0:0:0:0:
320,192,67169,1,0,0:0:0:0:
64,192,67169,1,0,0:0:0:0:
320,192,67321,1,0,0:0:0:0:
64,192,67321,1,0,0:0:0:0:
192,192,67321,1,0,0:0:0:0:
320,192,67396,1,0,0:0:0:0:
448,192,67472,1,0,0:0:0:0:
192,192,67472,1,0,0:0:0:0:
192,192,67548,1,0,0:0:0:0:
64,192,67548,1,0,0:0:0:0:
448,192,67624,1,0,0:0:0:0:
448,192,67700,1,0,0:0:0:0:
192,192,67775,1,0,0:0:0:0:
64,192,67775,1,0,0:0:0:0:
320,192,67826,1,0,0:0:0:0:
448,192,67876,1,0,0:0:0:0:
192,192,67927,1,0,0:0:0:0:
192,192,68003,1,0,0:0:0:0:
448,192,68078,1,0,0:0:0:0:
320,192,68078,1,0,0:0:0:0:
64,192,68078,1,0,0:0:0:0:
64,192,68230,1,0,0:0:0:0:
320,192,68306,1,0,0:0:0:0:
64,192,68306,1,0,0:0:0:0:
448,192,68306,1,0,0:0:0:0:
192,192,68381,1,0,0:0:0:0:
448,192,68381,1,0,0:0:0:0:
320,192,68533,1,0,0:0:0:0:
192,192,68533,1,0,0:0:0:0:
448,192,68533,1,0,0:0:0:0:
192,192,68609,1,0,0:0:0:0:
64,192,68684,1,0,0:0:0:0:
320,192,68684,1,0,0:0:0:0:
320,192,68760,1,0,0:0:0:0:
448,192,68760,1,0,0:0:0:0:
64,192,68836,1,0,0:0:0:0:
64,192,68912,1,0,0:0:0:0:
448,192,68987,1,0,0:0:0:0:
192,192,68987,1,0,0:0:0:0:
320,192,68987,1,0,0:0:0:0:
320,192,69139,1,0,0:0:0:0:
448,192,69139,1,0,0:0:0:0:
320,192,69215,1,0,0:0:0:0:
192,192,69290,1,0,0:0:0:0:
448,192,69290,1,0,0:0:0:0:
64,192,69290,1,0,0:0:0:0:
448,192,69442,1,0,0:0:0:0:
448,192,69518,1,0,0:0:0:0:
192,192,69518,1,0,0:0:0:0:
64,192,69518,1,0,0:0:0:0:
320,192,69593,1,0,0:0:0:0:
64,192,69593,1,0,0:0:0:0:
320,192,69745,1,0,0:0:0:0:
192,192,69745,1,0,0:0:0:0:
64,192,69745,1,0,0:0:0:0:
320,192,69821,1,0,0:0:0:0:
448,192,69896,1,0,0:0:0:0:
192,192,69896,1,0,0:0:0:0:
192,192,69972,1,0,0:0:0:0:
64,192,69972,1,0,0:0:0:0:
448,192,70048,1,0,0:0:0:0:
448,192,70124,1,0,0:0:0:0:
320,192,70199,1,0,0:0:0:0:
192,192,70199,1,0,0:0:0:0:
64,192,70199,1,0,0:0:0:0:
64,192,70351,1,0,0:0:0:0:
192,192,70351,1,0,0:0:0:0:
64,192,70427,1,0,0:0:0:0:
448,192,70503,1,0,0:0:0:0:
192,192,70503,1,0,0:0:0:0:
320,192,70503,1,0,0:0:0:0:
192,192,70654,5,0,0:0:0:0:
192,192,70730,1,0,0:0:0:0:
320,192,70730,1,0,0:0:0:0:
448,192,70730,1,0,0:0:0:0:
64,192,70806,1,0,0:0:0:0:
320,192,70806,1,0,0:0:0:0:
64,192,70957,1,0,0:0:0:0:
320,192,70957,1,0,0:0:0:0:
448,192,70957,1,0,0:0:0:0:
64,192,71033,1,0,0:0:0:0:
192,192,71109,1,0,0:0:0:0:
448,192,71109,1,0,0:0:0:0:
320,192,71184,1,0,0:0:0:0:
448,192,71184,1,0,0:0:0:0:
192,192,71260,1,0,0:0:0:0:
192,192,71336,1,0,0:0:0:0:
320,192,71412,1,0,0:0:0:0:
448,192,71412,1,0,0:0:0:0:
64,192,71412,1,0,0:0:0:0:
320,192,71563,1,0,0:0:0:0:
448,192,71563,1,0,0:0:0:0:
448,192,71639,1,0,0:0:0:0:
192,192,71715,5,0,0:0:0:0:
320,192,71715,1,0,0:0:0:0:
64,192,71715,1,0,0:0:0:0:
448,192,71790,1,0,0:0:0:0:
64,192,71866,1,0,0:0:0:0:
64,192,71942,1,0,0:0:0:0:
448,192,72018,1,0,0:0:0:0:
320,192,72018,1,0,0:0:0:0:
192,192,72018,1,0,0:0:0:0:
64,192,72093,1,0,0:0:0:0:
320,192,72169,1,0,0:0:0:0:
320,192,72245,1,0,0:0:0:0:
448,192,72321,1,0,0:0:0:0:
192,192,72321,1,0,0:0:0:0:
64,192,72321,1,0,0:0:0:0:
320,192,72396,1,0,0:0:0:0:
192,192,72472,1,0,0:0:0:0:
192,192,72548,1,0,0:0:0:0:
64,192,72624,1,0,0:0:0:0:
448,192,72624,1,0,0:0:0:0:
320,192,72624,1,0,0:0:0:0:
192,192,72699,1,0,0:0:0:0:
448,192,72775,1,0,0:0:0:0:
448,192,72851,1,0,0:0:0:0:
192,192,72927,1,0,0:0:0:0:
64,192,72927,1,0,0:0:0:0:
320,192,72927,1,0,0:0:0:0:
448,192,73078,1,0,0:0:0:0:
64,192,73154,1,0,0:0:0:0:
192,192,73154,1,0,0:0:0:0:
448,192,73154,1,0,0:0:0:0:
320,192,73230,1,0,0:0:0:0:
64,192,73230,1,0,0:0:0:0:
64,192,73381,1,0,0:0:0:0:
192,192,73381,1,0,0:0:0:0:
320,192,73381,1,0,0:0:0:0:
320,192,73457,1,0,0:0:0:0:
448,192,73533,1,0,0:0:0:0:
192,192,73533,1,0,0:0:0:0:
64,192,73609,1,0,0:0:0:0:
192,192,73609,1,0,0:0:0:0:
448,192,73684,1,0,0:0:0:0:
448,192,73760,1,0,0:0:0:0:
192,192,73836,1,0,0:0:0:0:
64,192,73836,1,0,0:0:0:0:
320,192,73836,1,0,0:0:0:0:
64,192,73987,1,0,0:0:0:0:
192,192,73987,1,0,0:0:0:0:
192,192,74063,1,0,0:0:0:0:
320,192,74139,1,0,0:0:0:0:
448,192,74139,1,0,0:0:0:0:
64,192,74139,1,0,0:0:0:0:
64,192,74290,1,0,0:0:0:0:
64,192,74366,1,0,0:0:0:0:
448,192,74366,1,0,0:0:0:0:
320,192,74366,1,0,0:0:0:0:
192,192,74442,1,0,0:0:0:0:
448,192,74442,1,0,0:0:0:0:
192,192,74593,1,0,0:0:0:0:
448,192,74593,1,0,0:0:0:0:
320,192,74593,1,0,0:0:0:0:
192,192,74669,1,0,0:0:0:0:
64,192,74745,1,0,0:0:0:0:
320,192,74745,1,0,0:0:0:0:
448,192,74821,1,0,0:0:0:0:
320,192,74821,1,0,0:0:0:0:
64,192,74896,1,0,0:0:0:0:
64,192,74972,1,0,0:0:0:0:
192,192,75048,1,0,0:0:0:0:
448,192,75048,1,0,0:0:0:0:
320,192,75048,1,0,0:0:0:0:
320,192,75199,1,0,0:0:0:0:
448,192,75199,1,0,0:0:0:0:
448,192,75275,1,0,0:0:0:0:
64,192,75351,1,0,0:0:0:0:
320,192,75351,1,0,0:0:0:0:
192,192,75351,1,0,0:0:0:0:
320,192,75503,1,0,0:0:0:0:
320,192,75578,1,0,0:0:0:0:
64,192,75578,1,0,0:0:0:0:
192,192,75578,1,0,0:0:0:0:
448,192,75654,1,0,0:0:0:0:
192,192,75654,1,0,0:0:0:0:
448,192,75806,1,0,0:0:0:0:
64,192,75806,1,0,0:0:0:0:
192,192,75806,1,0,0:0:0:0:
448,192,75881,1,0,0:0:0:0:
320,192,75957,1,0,0:0:0:0:
64,192,75957,1,0,0:0:0:0:
64,192,76033,1,0,0:0:0:0:
192,192,76033,1,0,0:0:0:0:
320,192,76109,1,0,0:0:0:0:
320,192,76184,1,0,0:0:0:0:
448,192,76260,1,0,0:0:0:0:
64,192,76260,1,0,0:0:0:0:
192,192,76260,1,0,0:0:0:0:
192,192,76412,1,0,0:0:0:0:
64,192,76412,1,0,0:0:0:0:
64,192,76487,1,0,0:0:0:0:
320,192,76563,1,0,0:0:0:0:
448,192,76563,1,0,0:0:0:0:
192,192,76563,1,0,0:0:0:0:
192,192,76715,1,0,0:0:0:0:
192,192,76790,1,0,0:0:0:0:
320,192,76790,1,0,0:0:0:0:
448,192,76790,1,0,0:0:0:0:
64,192,76866,1,0,0:0:0:0:
320,192,76866,1,0,0:0:0:0:
64,192,77018,1,0,0:0:0:0:
320,192,77018,1,0,0:0:0:0:
448,192,77018,1,0,0:0:0:0:
64,192,77093,1,0,0:0:0:0:
192,192,77169,1,0,0:0:0:0:
448,192,77169,1,0,0:0:0:0:
448,192,77245,1,0,0:0:0:0:
320,192,77245,1,0,0:0:0:0:
192,192,77321,1,0,0:0:0:0:
192,192,77396,1,0,0:0:0:0:
448,192,77472,1,0,0:0:0:0:
320,192,77472,1,0,0:0:0:0:
64,192,77523,1,0,0:0:0:0:
192,192,77573,1,0,0:0:0:0:
448,192,77624,1,0,0:0:0:0:
448,192,77699,1,0,0:0:0:0:
192,192,77775,1,0,0:0:0:0:
64,192,77775,1,0,0:0:0:0:
320,192,77775,1,0,0:0:0:0:
320,192,77927,1,0,0:0:0:0:
64,192,78003,1,0,0:0:0:0:
320,192,78003,1,0,0:0:0:0:
192,192,78003,1,0,0:0:0:0:
448,192,78078,1,0,0:0:0:0:
192,192,78078,1,0,0:0:0:0:
64,192,78230,1,0,0:0:0:0:
448,192,78230,1,0,0:0:0:0:
192,192,78230,1,0,0:0:0:0:
448,192,78306,1,0,0:0:0:0:
320,192,78381,1,0,0:0:0:0:
64,192,78381,1,0,0:0:0:0:
64,192,78457,1,0,0:0:0:0:
192,192,78457,1,0,0:0:0:0:
320,192,78533,1,0,0:0:0:0:
320,192,78609,1,0,0:0:0:0:
192,192,78684,1,0,0:0:0:0:
448,192,78684,1,0,0:0:0:0:
64,192,78684,1,0,0:0:0:0:
64,192,78836,1,0,0:0:0:0:
192,192,78836,1,0,0:0:0:0:
64,192,78912,1,0,0:0:0:0:
448,192,78987,1,0,0:0:0:0:
192,192,78987,1,0,0:0:0:0:
320,192,78987,1,0,0:0:0:0:
192,192,79139,1,0,0:0:0:0:
192,192,79215,1,0,0:0:0:0:
448,192,79215,1,0,0:0:0:0:
320,192,79215,1,0,0:0:0:0:
64,192,79290,1,0,0:0:0:0:
320,192,79290,1,0,0:0:0:0:
64,192,79442,1,0,0:0:0:0:
448,192,79442,1,0,0:0:0:0:
320,192,79442,1,0,0:0:0:0:
64,192,79518,1,0,0:0:0:0:
192,192,79593,1,0,0:0:0:0:
448,192,79593,1,0,0:0:0:0:
448,192,79669,1,0,0:0:0:0:
320,192,79669,1,0,0:0:0:0:
192,192,79745,1,0,0:0:0:0:
192,192,79821,1,0,0:0:0:0:
64,192,79896,1,0,0:0:0:0:
448,192,79896,1,0,0:0:0:0:
320,192,79896,1,0,0:0:0:0:
320,192,80048,1,0,0:0:0:0:
448,192,80048,1,0,0:0:0:0:
320,192,80124,1,0,0:0:0:0:
192,192,80199,1,0,0:0:0:0:
448,192,80199,1,0,0:0:0:0:
64,192,80199,1,0,0:0:0:0:
320,192,80275,1,0,0:0:0:0:
448,192,80351,5,0,0:0:0:0:
192,192,80427,1,0,0:0:0:0:
64,192,80427,1,0,0:0:0:0:
448,192,80503,1,0,0:0:0:0:
192,192,80503,1,0,0:0:0:0:
64,192,80578,1,0,0:0:0:0:
320,192,80654,1,0,0:0:0:0:
448,192,80654,1,0,0:0:0:0:
192,192,80730,1,0,0:0:0:0:
320,192,80806,1,0,0:0:0:0:
64,192,80806,1,0,0:0:0:0:
320,192,80881,1,0,0:0:0:0:
448,192,80881,1,0,0:0:0:0:
192,192,80957,1,0,0:0:0:0:
448,192,81033,1,0,0:0:0:0:
192,192,81109,1,0,0:0:0:0:
64,192,81109,1,0,0:0:0:0:
320,192,81109,1,0,0:0:0:0:
64,192,81184,1,0,0:0:0:0:
192,192,81184,1,0,0:0:0:0:
320,192,81260,1,0,0:0:0:0:
448,192,81260,1,0,0:0:0:0:
448,192,81336,1,0,0:0:0:0:
320,192,81336,1,0,0:0:0:0:
448,192,81412,1,0,0:0:0:0:
64,192,81412,1,0,0:0:0:0:
192,192,81412,1,0,0:0:0:0:
320,192,81487,1,0,0:0:0:0:
64,192,81563,1,0,0:0:0:0:
448,192,81639,1,0,0:0:0:0:
320,192,81639,1,0,0:0:0:0:
320,192,81715,1,0,0:0:0:0:
64,192,81715,1,0,0:0:0:0:
192,192,81790,1,0,0:0:0:0:
320,192,81866,1,0,0:0:0:0:
448,192,81866,1,0,0:0:0:0:
64,192,81942,1,0,0:0:0:0:
192,192,82018,1,0,0:0:0:0:
448,192,82018,1,0,0:0:0:0:
320,192,82093,1,0,0:0:0:0:
448,192,82169,1,0,0:0:0:0:
448,192,82245,1,0,0:0:0:0:
64,192,82321,1,0,0:0:0:0:
320,192,82321,1,0,0:0:0:0:
192,192,82396,1,0,0:0:0:0:
64,192,82472,1,0,0:0:0:0:
64,192,82548,1,0,0:0:0:0:
448,192,82624,1,0,0:0:0:0:
320,192,82624,1,0,0:0:0:0:
192,192,82624,1,0,0:0:0:0:
448,192,82699,1,0,0:0:0:0:
192,192,82775,1,0,0:0:0:0:
64,192,82851,1,0,0:0:0:0:
192,192,82851,1,0,0:0:0:0:
320,192,82927,1,0,0:0:0:0:
448,192,82927,1,0,0:0:0:0:
192,192,83003,1,0,0:0:0:0:
320,192,83078,1,0,0:0:0:0:
448,192,83078,1,0,0:0:0:0:
320,192,83154,1,0,0:0:0:0:
448,192,83230,1,0,0:0:0:0:
192,192,83230,1,0,0:0:0:0:
64,192,83306,1,0,0:0:0:0:
192,192,83381,1,0,0:0:0:0:
192,192,83457,1,0,0:0:0:0:
320,192,83533,1,0,0:0:0:0:
64,192,83533,1,0,0:0:0:0:
448,192,83609,1,0,0:0:0:0:
320,192,83684,1,0,0:0:0:0:
320,192,83760,1,0,0:0:0:0:
448,192,83836,1,0,0:0:0:0:
64,192,83836,1,0,0:0:0:0:
192,192,83836,1,0,0:0:0:0:
192,192,83912,1,0,0:0:0:0:
448,192,83987,1,0,0:0:0:0:
448,192,84063,1,0,0:0:0:0:
320,192,84063,1,0,0:0:0:0:
192,192,84139,1,0,0:0:0:0:
64,192,84139,1,0,0:0:0:0:
320,192,84215,1,0,0:0:0:0:
64,192,84290,1,0,0:0:0:0:
192,192,84290,1,0,0:0:0:0:
64,192,84366,1,0,0:0:0:0:
192,192,84442,1,0,0:0:0:0:
448,192,84442,1,0,0:0:0:0:
320,192,84518,1,0,0:0:0:0:
448,192,84593,1,0,0:0:0:0:
448,192,84669,1,0,0:0:0:0:
192,192,84745,1,0,0:0:0:0:
320,192,84745,1,0,0:0:0:0:
64,192,84745,1,0,0:0:0:0:
64,192,84821,1,0,0:0:0:0:
192,192,84821,1,0,0:0:0:0:
448,192,84896,1,0,0:0:0:0:
320,192,84896,1,0,0:0:0:0:
448,192,84972,1,0,0:0:0:0:
320,192,84972,1,0,0:0:0:0:
448,192,85048,1,0,0:0:0:0:
64,192,85048,1,0,0:0:0:0:
192,192,85048,1,0,0:0:0:0:
64,192,85124,1,0,0:0:0:0:
320,192,85199,1,0,0:0:0:0:
320,192,85275,1,0,0:0:0:0:
448,192,85275,1,0,0:0:0:0:
64,192,85351,1,0,0:0:0:0:
192,192,85351,1,0,0:0:0:0:
320,192,85427,1,0,0:0:0:0:
192,192,85503,1,0,0:0:0:0:
64,192,85503,1,0,0:0:0:0:
64,192,85578,1,0,0:0:0:0:
448,192,85654,1,0,0:0:0:0:
192,192,85654,1,0,0:0:0:0:
320,192,85730,1,0,0:0:0:0:
448,192,85806,1,0,0:0:0:0:
448,192,85881,1,0,0:0:0:0:
64,192,85957,1,0,0:0:0:0:
320,192,85957,1,0,0:0:0:0:
192,192,86033,1,0,0:0:0:0:
64,192,86109,1,0,0:0:0:0:
64,192,86184,1,0,0:0:0:0:
192,192,86260,1,0,0:0:0:0:
448,192,86260,1,0,0:0:0:0:
320,192,86260,1,0,0:0:0:0:
64,192,86336,1,0,0:0:0:0:
320,192,86412,1,0,0:0:0:0:
320,192,86487,1,0,0:0:0:0:
64,192,86563,1,0,0:0:0:0:
192,192,86563,1,0,0:0:0:0:
448,192,86563,1,0,0:0:0:0:
320,192,86639,1,0,0:0:0:0:
64,192,86715,1,0,0:0:0:0:
64,192,86790,1,0,0:0:0:0:
320,192,86866,1,0,0:0:0:0:
448,192,86866,1,0,0:0:0:0:
192,192,86866,1,0,0:0:0:0:
64,192,86942,1,0,0:0:0:0:
448,192,87018,1,0,0:0:0:0:
448,192,87093,1,0,0:0:0:0:
64,192,87169,1,0,0:0:0:0:
192,192,87169,1,0,0:0:0:0:
320,192,87169,1,0,0:0:0:0:
448,192,87245,1,0,0:0:0:0:
192,192,87321,1,0,0:0:0:0:
192,192,87396,1,0,0:0:0:0:
64,192,87472,1,0,0:0:0:0:
448,192,87472,1,0,0:0:0:0:
320,192,87472,1,0,0:0:0:0:
192,192,87548,1,0,0:0:0:0:
320,192,87624,1,0,0:0:0:0:
320,192,87699,1,0,0:0:0:0:
448,192,87775,1,0,0:0:0:0:
192,192,87775,1,0,0:0:0:0:
320,192,87851,1,0,0:0:0:0:
64,192,87927,1,0,0:0:0:0:
192,192,87927,1,0,0:0:0:0:
192,192,88003,1,0,0:0:0:0:
64,192,88003,1,0,0:0:0:0:
448,192,88078,1,0,0:0:0:0:
64,192,88078,1,0,0:0:0:0:
320,192,88078,1,0,0:0:0:0:
192,192,88154,1,0,0:0:0:0:
448,192,88230,1,0,0:0:0:0:
448,192,88306,1,0,0:0:0:0:
320,192,88381,1,0,0:0:0:0:
64,192,88381,1,0,0:0:0:0:
448,192,88457,1,0,0:0:0:0:
192,192,88533,1,0,0:0:0:0:
192,192,88609,1,0,0:0:0:0:
448,192,88684,1,0,0:0:0:0:
64,192,88684,1,0,0:0:0:0:
320,192,88684,1,0,0:0:0:0:
192,192,88760,1,0,0:0:0:0:
320,192,88836,1,0,0:0:0:0:
320,192,88912,1,0,0:0:0:0:
448,192,88987,1,0,0:0:0:0:
192,192,88987,1,0,0:0:0:0:
64,192,89063,1,0,0:0:0:0:
320,192,89139,1,0,0:0:0:0:
448,192,89139,1,0,0:0:0:0:
448,192,89215,1,0,0:0:0:0:
320,192,89215,1,0,0:0:0:0:
448,192,89290,1,0,0:0:0:0:
64,192,89290,1,0,0:0:0:0:
192,192,89290,1,0,0:0:0:0:
320,192,89366,1,0,0:0:0:0:
64,192,89442,1,0,0:0:0:0:
64,192,89518,1,0,0:0:0:0:
448,192,89593,1,0,0:0:0:0:
320,192,89593,1,0,0:0:0:0:
192,192,89593,1,0,0:0:0:0:
64,192,89669,1,0,0:0:0:0:
320,192,89745,1,0,0:0:0:0:
320,192,89821,1,0,0:0:0:0:
448,192,89896,1,0,0:0:0:0:
64,192,89896,1,0,0:0:0:0:
192,192,89896,1,0,0:0:0:0:
320,192,89972,1,0,0:0:0:0:
192,192,90048,1,0,0:0:0:0:
192,192,90124,1,0,0:0:0:0:
448,192,90199,1,0,0:0:0:0:
64,192,90199,1,0,0:0:0:0:
320,192,90275,1,0,0:0:0:0:
448,192,90351,1,0,0:0:0:0:
448,192,90427,1,0,0:0:0:0:
192,192,90503,1,0,0:0:0:0:
320,192,90503,1,0,0:0:0:0:
64,192,90503,1,0,0:0:0:0:
448,192,90553,1,0,0:0:0:0:
320,192,90604,1,0,0:0:0:0:
64,192,90654,1,0,0:0:0:0:
192,192,90654,1,0,0:0:0:0:
448,192,90730,1,0,0:0:0:0:
320,192,90806,1,0,0:0:0:0:
192,192,90806,1,0,0:0:0:0:
64,192,90856,1,0,0:0:0:0:
192,192,90907,1,0,0:0:0:0:
320,192,90957,1,0,0:0:0:0:
448,192,90957,1,0,0:0:0:0:
64,192,91033,1,0,0:0:0:0:
448,192,91109,1,0,0:0:0:0:
320,192,91109,1,0,0:0:0:0:
192,192,91159,1,0,0:0:0:0:
64,192,91159,1,0,0:0:0:0:
320,192,91210,1,0,0:0:0:0:
448,192,91210,1,0,0:0:0:0:
192,192,91260,1,0,0:0:0:0:
64,192,91260,1,0,0:0:0:0:
320,192,91336,1,0,0:0:0:0:
448,192,91336,1,0,0:0:0:0:
192,192,91412,1,0,0:0:0:0:
64,192,91412,1,0,0:0:0:0:
320,192,91462,1,0,0:0:0:0:
448,192,91462,1,0,0:0:0:0:
192,192,91513,1,0,0:0:0:0:
64,192,91513,1,0,0:0:0:0:
320,192,91563,1,0,0:0:0:0:
448,192,91563,1,0,0:0:0:0:
192,192,91639,1,0,0:0:0:0:
64,192,91639,1,0,0:0:0:0:
320,192,91715,1,0,0:0:0:0:
448,192,91715,1,0,0:0:0:0:
192,192,91790,1,0,0:0:0:0:
64,192,91790,1,0,0:0:0:0:
448,192,91866,1,0,0:0:0:0:
192,192,91942,1,0,0:0:0:0:
320,192,91942,1,0,0:0:0:0:
64,192,92018,1,0,0:0:0:0:
448,192,92093,1,0,0:0:0:0:
320,192,92093,1,0,0:0:0:0:
64,192,92169,1,0,0:0:0:0:
192,192,92169,1,0,0:0:0:0:
320,192,92245,1,0,0:0:0:0:
448,192,92245,1,0,0:0:0:0:
64,192,92321,1,0,0:0:0:0:
192,192,92321,1,0,0:0:0:0:
64,192,92472,1,0,0:0:0:0:
192,192,92548,1,0,0:0:0:0:
320,192,92624,1,0,0:0:0:0:
448,192,92643,1,0,0:0:0:0:
192,192,92775,1,0,0:0:0:0:
320,192,92927,1,0,0:0:0:0:
448,192,92965,1,0,0:0:0:0:
320,192,93003,1,0,0:0:0:0:
192,192,93230,1,0,0:0:0:0:
64,192,93249,1,0,0:0:0:0:
448,192,93381,1,0,0:0:0:0:
192,192,93533,1,0,0:0:0:0:
320,192,93836,1,0,0:0:0:0:
448,192,93855,1,0,0:0:0:0:
64,192,93987,1,0,0:0:0:0:
320,192,94139,1,0,0:0:0:0:
192,192,94290,1,0,0:0:0:0:
448,192,94341,1,0,0:0:0:0:
320,192,94391,1,0,0:0:0:0:
192,192,94442,1,0,0:0:0:0:
64,192,94461,1,0,0:0:0:0:
320,192,94593,1,0,0:0:0:0:
64,192,94896,1,0,0:0:0:0:
192,192,94972,1,0,0:0:0:0:
320,192,95048,1,0,0:0:0:0:
448,192,95067,1,0,0:0:0:0:
320,192,95199,1,0,0:0:0:0:
192,192,95351,1,0,0:0:0:0:
64,192,95389,1,0,0:0:0:0:
192,192,95427,1,0,0:0:0:0:
192,192,95654,1,0,0:0:0:0:
64,192,95673,1,0,0:0:0:0:
448,192,95806,1,0,0:0:0:0:
320,192,95957,1,0,0:0:0:0:
64,192,96109,5,0,0:0:0:0:
192,192,96184,1,0,0:0:0:0:
320,192,96260,1,0,0:0:0:0:
448,192,96279,1,0,0:0:0:0:
192,192,96412,1,0,0:0:0:0:
320,192,96487,1,0,0:0:0:0:
448,192,96563,1,0,0:0:0:0:
320,192,96715,1,0,0:0:0:0:
192,192,96866,1,0,0:0:0:0:
64,192,96885,1,0,0:0:0:0:
448,192,97018,1,0,0:0:0:0:
64,192,97169,5,0,0:0:0:0:
192,192,97169,1,0,0:0:0:0:
320,192,97169,1,0,0:0:0:0:
64,192,97245,1,0,0:0:0:0:
448,192,97321,1,0,0:0:0:0:
320,192,97321,1,0,0:0:0:0:
448,192,97396,1,0,0:0:0:0:
320,192,97396,1,0,0:0:0:0:
192,192,97472,1,0,0:0:0:0:
64,192,97472,1,0,0:0:0:0:
192,192,97548,1,0,0:0:0:0:
320,192,97624,1,0,0:0:0:0:
448,192,97624,1,0,0:0:0:0:
320,192,97699,1,0,0:0:0:0:
64,192,97775,1,0,0:0:0:0:
192,192,97775,1,0,0:0:0:0:
64,192,97851,1,0,0:0:0:0:
320,192,97927,1,0,0:0:0:0:
320,192,98003,1,0,0:0:0:0:
192,192,98078,1,0,0:0:0:0:
64,192,98078,1,0,0:0:0:0:
192,192,98154,1,0,0:0:0:0:
448,192,98230,1,0,0:0:0:0:
320,192,98230,1,0,0:0:0:0:
448,192,98306,1,0,0:0:0:0:
192,192,98381,1,0,0:0:0:0:
64,192,98381,1,0,0:0:0:0:
320,192,98419,1,0,0:0:0:0:
192,192,98457,1,0,0:0:0:0:
320,192,98533,1,0,0:0:0:0:
320,192,98609,1,0,0:0:0:0:
64,192,98684,1,0,0:0:0:0:
192,192,98684,1,0,0:0:0:0:
64,192,98760,1,0,0:0:0:0:
448,192,98836,1,0,0:0:0:0:
320,192,98836,1,0,0:0:0:0:
448,192,98912,1,0,0:0:0:0:
192,192,98987,1,0,0:0:0:0:
64,192,98987,1,0,0:0:0:0:
192,192,99063,1,0,0:0:0:0:
448,192,99139,1,0,0:0:0:0:
320,192,99139,1,0,0:0:0:0:
448,192,99215,1,0,0:0:0:0:
64,192,99290,1,0,0:0:0:0:
192,192,99290,1,0,0:0:0:0:
64,192,99366,1,0,0:0:0:0:
320,192,99442,1,0,0:0:0:0:
448,192,99442,1,0,0:0:0:0:
320,192,99518,1,0,0:0:0:0:
192,192,99593,1,0,0:0:0:0:
64,192,99593,1,0,0:0:0:0:
64,192,99669,1,0,0:0:0:0:
320,192,99745,1,0,0:0:0:0:
192,192,99745,1,0,0:0:0:0:
320,192,99821,1,0,0:0:0:0:
64,192,99896,1,0,0:0:0:0:
192,192,99896,1,0,0:0:0:0:
64,192,99972,1,0,0:0:0:0:
192,192,100048,1,0,0:0:0:0:
320,192,100048,1,0,0:0:0:0:
64,192,100124,1,0,0:0:0:0:
320,192,100199,1,0,0:0:0:0:
448,192,100199,1,0,0:0:0:0:
448,192,100275,1,0,0:0:0:0:
192,192,100351,1,0,0:0:0:0:
320,192,100351,1,0,0:0:0:0:
192,192,100427,1,0,0:0:0:0:
320,192,100503,1,0,0:0:0:0:
448,192,100503,1,0,0:0:0:0:
448,192,100578,1,0,0:0:0:0:
192,192,100654,1,0,0:0:0:0:
320,192,100654,1,0,0:0:0:0:
448,192,100730,1,0,0:0:0:0:
64,192,100806,1,0,0:0:0:0:
320,192,100806,1,0,0:0:0:0:
192,192,100806,1,0,0:0:0:0:
192,192,100957,1,0,0:0:0:0:
320,192,100957,1,0,0:0:0:0:
64,192,100957,1,0,0:0:0:0:
64,192,101109,1,0,0:0:0:0:
320,192,101109,1,0,0:0:0:0:
192,192,101109,1,0,0:0:0:0:
192,192,101260,1,0,0:0:0:0:
320,192,101260,1,0,0:0:0:0:
64,192,101260,1,0,0:0:0:0:
320,192,101412,1,0,0:0:0:0:
448,192,101462,1,0,0:0:0:0:
448,192,101614,1,0,0:0:0:0:
64,192,101715,1,0,0:0:0:0:
192,192,101866,1,0,0:0:0:0:
64,192,102018,1,0,0:0:0:0:
448,192,102018,1,0,0:0:0:0:
320,192,102018,1,0,0:0:0:0:
192,192,102056,1,0,0:0:0:0:
320,192,102093,1,0,0:0:0:0:
448,192,102144,1,0,0:0:0:0:
64,192,102194,1,0,0:0:0:0:
192,192,102245,1,0,0:0:0:0:
320,192,102321,1,0,0:0:0:0:
448,192,102321,1,0,0:0:0:0:
192,192,102396,1,0,0:0:0:0:
64,192,102447,1,0,0:0:0:0:
448,192,102497,1,0,0:0:0:0:
320,192,102548,1,0,0:0:0:0:
192,192,102586,1,0,0:0:0:0:
448,192,102624,1,0,0:0:0:0:
320,192,102624,1,0,0:0:0:0:
64,192,102624,1,0,0:0:0:0:
192,192,102775,1,0,0:0:0:0:
192,192,102851,1,0,0:0:0:0:
320,192,102927,1,0,0:0:0:0:
320,192,103003,1,0,0:0:0:0:
192,192,103078,1,0,0:0:0:0:
192,192,103154,1,0,0:0:0:0:
320,192,103230,1,0,0:0:0:0:
320,192,103306,1,0,0:0:0:0:
448,192,103381,1,0,0:0:0:0:
192,192,103381,1,0,0:0:0:0:
192,192,103457,1,0,0:0:0:0:
64,192,103533,1,0,0:0:0:0:
320,192,103533,1,0,0:0:0:0:
320,192,103609,1,0,0:0:0:0:
192,192,103684,1,0,0:0:0:0:
192,192,103760,1,0,0:0:0:0:
64,192,103836,1,0,0:0:0:0:
320,192,103836,1,0,0:0:0:0:
192,192,103912,1,0,0:0:0:0:
64,192,103987,1,0,0:0:0:0:
320,192,104038,1,0,0:0:0:0:
448,192,104088,1,0,0:0:0:0:
64,192,104139,1,0,0:0:0:0:
192,192,104189,1,0,0:0:0:0:
448,192,104240,1,0,0:0:0:0:
320,192,104290,1,0,0:0:0:0:
448,192,104366,1,0,0:0:0:0:
320,192,104442,1,0,0:0:0:0:
64,192,104442,1,0,0:0:0:0:
192,192,104442,1,0,0:0:0:0:
448,192,104480,1,0,0:0:0:0:
64,192,104518,1,0,0:0:0:0:
192,192,104568,1,0,0:0:0:0:
320,192,104619,1,0,0:0:0:0:
448,192,104669,1,0,0:0:0:0:
192,192,104745,1,0,0:0:0:0:
64,192,104745,1,0,0:0:0:0:
448,192,104821,1,0,0:0:0:0:
320,192,104871,1,0,0:0:0:0:
192,192,104922,1,0,0:0:0:0:
64,192,104972,1,0,0:0:0:0:
448,192,105010,1,0,0:0:0:0:
320,192,105048,1,0,0:0:0:0:
192,192,105048,1,0,0:0:0:0:
64,192,105048,1,0,0:0:0:0:
448,192,105199,1,0,0:0:0:0:
448,192,105275,1,0,0:0:0:0:
64,192,105351,1,0,0:0:0:0:
64,192,105427,1,0,0:0:0:0:
448,192,105503,1,0,0:0:0:0:
448,192,105578,1,0,0:0:0:0:
64,192,105654,1,0,0:0:0:0:
64,192,105730,1,0,0:0:0:0:
448,192,105806,1,0,0:0:0:0:
192,192,105806,1,0,0:0:0:0:
448,192,105881,1,0,0:0:0:0:
64,192,105957,1,0,0:0:0:0:
320,192,105957,1,0,0:0:0:0:
64,192,106033,1,0,0:0:0:0:
448,192,106109,1,0,0:0:0:0:
448,192,106184,1,0,0:0:0:0:
64,192,106260,1,0,0:0:0:0:
320,192,106260,1,0,0:0:0:0:
448,192,106336,1,0,0:0:0:0:
320,192,106412,1,0,0:0:0:0:
64,192,106462,1,0,0:0:0:0:
192,192,106513,1,0,0:0:0:0:
320,192,106563,1,0,0:0:0:0:
448,192,106614,1,0,0:0:0:0:
192,192,106664,1,0,0:0:0:0:
64,192,106715,1,0,0:0:0:0:
320,192,106790,1,0,0:0:0:0:
192,192,106866,1,0,0:0:0:0:
64,192,106866,1,0,0:0:0:0:
448,192,106866,1,0,0:0:0:0:
320,192,106904,1,0,0:0:0:0:
192,192,106942,1,0,0:0:0:0:
64,192,106992,1,0,0:0:0:0:
448,192,107043,1,0,0:0:0:0:
320,192,107093,1,0,0:0:0:0:
64,192,107169,1,0,0:0:0:0:
192,192,107169,1,0,0:0:0:0:
320,192,107245,1,0,0:0:0:0:
448,192,107295,1,0,0:0:0:0:
64,192,107346,1,0,0:0:0:0:
192,192,107396,1,0,0:0:0:0:
320,192,107434,1,0,0:0:0:0:
448,192,107472,1,0,0:0:0:0:
192,192,107472,1,0,0:0:0:0:
64,192,107472,1,0,0:0:0:0:
448,192,107624,1,0,0:0:0:0:
448,192,107699,1,0,0:0:0:0:
192,192,107775,1,0,0:0:0:0:
192,192,107851,1,0,0:0:0:0:
448,192,107927,1,0,0:0:0:0:
448,192,108003,1,0,0:0:0:0:
192,192,108078,1,0,0:0:0:0:
192,192,108154,1,0,0:0:0:0:
448,192,108230,1,0,0:0:0:0:
64,192,108230,1,0,0:0:0:0:
448,192,108306,1,0,0:0:0:0:
192,192,108381,1,0,0:0:0:0:
320,192,108381,1,0,0:0:0:0:
192,192,108457,1,0,0:0:0:0:
448,192,108533,1,0,0:0:0:0:
448,192,108609,1,0,0:0:0:0:
192,192,108684,1,0,0:0:0:0:
320,192,108684,1,0,0:0:0:0:
448,192,108760,1,0,0:0:0:0:
320,192,108836,1,0,0:0:0:0:
192,192,108886,1,0,0:0:0:0:
64,192,108937,1,0,0:0:0:0:
320,192,108987,1,0,0:0:0:0:
448,192,109038,1,0,0:0:0:0:
64,192,109088,1,0,0:0:0:0:
192,192,109139,1,0,0:0:0:0:
64,192,109215,1,0,0:0:0:0:
320,192,109290,1,0,0:0:0:0:
448,192,109290,1,0,0:0:0:0:
192,192,109290,1,0,0:0:0:0:
64,192,109328,1,0,0:0:0:0:
448,192,109366,1,0,0:0:0:0:
320,192,109417,1,0,0:0:0:0:
192,192,109467,1,0,0:0:0:0:
64,192,109518,1,0,0:0:0:0:
448,192,109593,1,0,0:0:0:0:
320,192,109593,1,0,0:0:0:0:
64,192,109669,1,0,0:0:0:0:
192,192,109720,1,0,0:0:0:0:
320,192,109770,1,0,0:0:0:0:
448,192,109821,1,0,0:0:0:0:
64,192,109859,1,0,0:0:0:0:
448,192,109896,1,0,0:0:0:0:
320,192,109896,1,0,0:0:0:0:
192,192,109896,1,0,0:0:0:0:
64,192,110048,1,0,0:0:0:0:
64,192,110124,1,0,0:0:0:0:
320,192,110199,1,0,0:0:0:0:
320,192,110275,1,0,0:0:0:0:
64,192,110351,1,0,0:0:0:0:
64,192,110427,1,0,0:0:0:0:
320,192,110503,1,0,0:0:0:0:
320,192,110578,1,0,0:0:0:0:
448,192,110654,1,0,0:0:0:0:
64,192,110654,1,0,0:0:0:0:
64,192,110730,1,0,0:0:0:0:
192,192,110806,1,0,0:0:0:0:
320,192,110806,1,0,0:0:0:0:
320,192,110881,1,0,0:0:0:0:
64,192,110957,1,0,0:0:0:0:
448,192,110957,1,0,0:0:0:0:
64,192,111033,1,0,0:0:0:0:
192,192,111109,1,0,0:0:0:0:
320,192,111109,1,0,0:0:0:0:
448,192,111184,1,0,0:0:0:0:
64,192,111260,1,0,0:0:0:0:
320,192,111260,1,0,0:0:0:0:
192,192,111336,1,0,0:0:0:0:
448,192,111374,1,0,0:0:0:0:
64,192,111412,1,0,0:0:0:0:
320,192,111412,1,0,0:0:0:0:
192,192,111487,1,0,0:0:0:0:
448,192,111563,1,0,0:0:0:0:
64,192,111563,1,0,0:0:0:0:
320,192,111601,1,0,0:0:0:0:
192,192,111639,1,0,0:0:0:0:
64,192,111715,1,0,0:0:0:0:
448,192,111715,1,0,0:0:0:0:
320,192,111715,1,0,0:0:0:0:
192,192,111753,1,0,0:0:0:0:
320,192,111790,1,0,0:0:0:0:
448,192,111841,1,0,0:0:0:0:
64,192,111891,1,0,0:0:0:0:
192,192,111942,1,0,0:0:0:0:
320,192,112018,1,0,0:0:0:0:
448,192,112018,1,0,0:0:0:0:
192,192,112093,1,0,0:0:0:0:
64,192,112144,1,0,0:0:0:0:
448,192,112194,1,0,0:0:0:0:
320,192,112245,1,0,0:0:0:0:
192,192,112283,1,0,0:0:0:0:
448,192,112321,1,0,0:0:0:0:
320,192,112321,1,0,0:0:0:0:
64,192,112321,1,0,0:0:0:0:
192,192,112472,1,0,0:0:0:0:
192,192,112548,1,0,0:0:0:0:
320,192,112624,1,0,0:0:0:0:
320,192,112699,1,0,0:0:0:0:
192,192,112775,1,0,0:0:0:0:
192,192,112851,1,0,0:0:0:0:
320,192,112927,1,0,0:0:0:0:
320,192,113003,1,0,0:0:0:0:
448,192,113078,1,0,0:0:0:0:
192,192,113078,1,0,0:0:0:0:
192,192,113154,1,0,0:0:0:0:
64,192,113230,1,0,0:0:0:0:
320,192,113230,1,0,0:0:0:0:
320,192,113306,1,0,0:0:0:0:
192,192,113381,1,0,0:0:0:0:
192,192,113457,1,0,0:0:0:0:
64,192,113533,1,0,0:0:0:0:
320,192,113533,1,0,0:0:0:0:
192,192,113609,1,0,0:0:0:0:
64,192,113684,1,0,0:0:0:0:
320,192,113735,1,0,0:0:0:0:
448,192,113785,1,0,0:0:0:0:
64,192,113836,1,0,0:0:0:0:
192,192,113886,1,0,0:0:0:0:
448,192,113937,1,0,0:0:0:0:
320,192,113987,1,0,0:0:0:0:
448,192,114063,1,0,0:0:0:0:
320,192,114139,1,0,0:0:0:0:
64,192,114139,1,0,0:0:0:0:
192,192,114139,1,0,0:0:0:0:
448,192,114177,1,0,0:0:0:0:
64,192,114215,1,0,0:0:0:0:
192,192,114265,1,0,0:0:0:0:
320,192,114316,1,0,0:0:0:0:
448,192,114366,1,0,0:0:0:0:
192,192,114442,1,0,0:0:0:0:
64,192,114442,1,0,0:0:0:0:
448,192,114518,1,0,0:0:0:0:
320,192,114568,1,0,0:0:0:0:
192,192,114619,1,0,0:0:0:0:
64,192,114669,1,0,0:0:0:0:
448,192,114707,1,0,0:0:0:0:
320,192,114745,1,0,0:0:0:0:
192,192,114745,1,0,0:0:0:0:
64,192,114745,1,0,0:0:0:0:
448,192,114896,1,0,0:0:0:0:
448,192,114972,1,0,0:0:0:0:
64,192,115048,1,0,0:0:0:0:
64,192,115124,1,0,0:0:0:0:
448,192,115199,1,0,0:0:0:0:
448,192,115275,1,0,0:0:0:0:
64,192,115351,1,0,0:0:0:0:
64,192,115427,1,0,0:0:0:0:
448,192,115503,1,0,0:0:0:0:
192,192,115503,1,0,0:0:0:0:
448,192,115578,1,0,0:0:0:0:
64,192,115654,1,0,0:0:0:0:
320,192,115654,1,0,0:0:0:0:
64,192,115730,1,0,0:0:0:0:
448,192,115806,1,0,0:0:0:0:
448,192,115881,1,0,0:0:0:0:
320,192,115957,1,0,0:0:0:0:
64,192,115957,1,0,0:0:0:0:
192,192,115957,1,0,0:0:0:0:
192,192,116033,1,0,0:0:0:0:
320,192,116109,1,0,0:0:0:0:
64,192,116109,1,0,0:0:0:0:
448,192,116109,1,0,0:0:0:0:
320,192,116184,1,0,0:0:0:0:
448,192,116260,1,0,0:0:0:0:
192,192,116260,1,0,0:0:0:0:
64,192,116311,1,0,0:0:0:0:
320,192,116361,1,0,0:0:0:0:
192,192,116412,1,0,0:0:0:0:
448,192,116462,1,0,0:0:0:0:
64,192,116513,1,0,0:0:0:0:
192,192,116563,1,0,0:0:0:0:
320,192,116563,1,0,0:0:0:0:
448,192,116563,1,0,0:0:0:0:
192,192,116715,1,0,0:0:0:0:
448,192,116715,1,0,0:0:0:0:
192,192,116866,1,0,0:0:0:0:
64,192,116917,1,0,0:0:0:0:
320,192,116967,1,0,0:0:0:0:
192,192,117018,1,0,0:0:0:0:
448,192,117068,1,0,0:0:0:0:
320,192,117119,1,0,0:0:0:0:
64,192,117169,1,0,0:0:0:0:
192,192,117169,1,0,0:0:0:0:
64,192,117321,1,0,0:0:0:0:
192,192,117321,1,0,0:0:0:0:
64,192,117472,1,0,0:0:0:0:
320,192,117523,1,0,0:0:0:0:
448,192,117573,1,0,0:0:0:0:
64,192,117624,1,0,0:0:0:0:
192,192,117674,1,0,0:0:0:0:
448,192,117725,1,0,0:0:0:0:
320,192,117775,1,0,0:0:0:0:
192,192,117775,1,0,0:0:0:0:
64,192,117775,1,0,0:0:0:0:
64,192,117927,1,0,0:0:0:0:
320,192,117927,1,0,0:0:0:0:
320,192,118078,1,0,0:0:0:0:
448,192,118129,1,0,0:0:0:0:
192,192,118179,1,0,0:0:0:0:
320,192,118230,1,0,0:0:0:0:
64,192,118280,1,0,0:0:0:0:
192,192,118331,1,0,0:0:0:0:
320,192,118381,1,0,0:0:0:0:
448,192,118381,1,0,0:0:0:0:
320,192,118533,1,0,0:0:0:0:
448,192,118533,1,0,0:0:0:0:
64,192,118684,1,0,0:0:0:0:
192,192,118735,1,0,0:0:0:0:
448,192,118785,1,0,0:0:0:0:
320,192,118836,1,0,0:0:0:0:
64,192,118987,1,0,0:0:0:0:
192,192,118987,1,0,0:0:0:0:
448,192,118987,1,0,0:0:0:0:
192,192,119139,1,0,0:0:0:0:
64,192,119139,1,0,0:0:0:0:
64,192,119215,1,0,0:0:0:0:
192,192,119215,1,0,0:0:0:0:
320,192,119290,1,0,0:0:0:0:
448,192,119290,1,0,0:0:0:0:
448,192,119442,1,0,0:0:0:0:
64,192,119593,1,0,0:0:0:0:
320,192,119593,1,0,0:0:0:0:
448,192,119593,1,0,0:0:0:0:
448,192,119745,1,0,0:0:0:0:
320,192,119745,1,0,0:0:0:0:
448,192,119821,1,0,0:0:0:0:
320,192,119821,1,0,0:0:0:0:
192,192,119896,1,0,0:0:0:0:
64,192,119896,1,0,0:0:0:0:
64,192,120048,1,0,0:0:0:0:
64,192,120199,5,0,0:0:0:0:
192,192,120199,1,0,0:0:0:0:
192,192,120275,1,0,0:0:0:0:
64,192,120275,1,0,0:0:0:0:
320,192,120351,1,0,0:0:0:0:
448,192,120351,1,0,0:0:0:0:
320,192,120427,1,0,0:0:0:0:
448,192,120427,1,0,0:0:0:0:
192,192,120503,1,0,0:0:0:0:
64,192,120503,1,0,0:0:0:0:
192,192,120578,1,0,0:0:0:0:
64,192,120578,1,0,0:0:0:0:
320,192,120654,1,0,0:0:0:0:
448,192,120654,1,0,0:0:0:0:
320,192,120730,1,0,0:0:0:0:
448,192,120730,1,0,0:0:0:0:
192,192,120806,5,0,0:0:0:0:
192,192,120881,1,0,0:0:0:0:
320,192,120957,1,0,0:0:0:0:
320,192,121033,1,0,0:0:0:0:
192,192,121109,1,0,0:0:0:0:
448,192,121184,1,0,0:0:0:0:
64,192,121260,1,0,0:0:0:0:
320,192,121336,1,0,0:0:0:0:
192,192,121412,1,0,0:0:0:0:
448,192,121412,1,0,0:0:0:0:
64,192,121563,1,0,0:0:0:0:
448,192,121715,1,0,0:0:0:0:
192,192,121866,1,0,0:0:0:0:
64,192,122018,1,0,0:0:0:0:
448,192,122169,1,0,0:0:0:0:
192,192,122321,1,0,0:0:0:0:
64,192,122472,1,0,0:0:0:0:
320,192,122624,1,0,0:0:0:0:
192,192,122775,1,0,0:0:0:0:
448,192,122927,1,0,0:0:0:0:
64,192,123078,1,0,0:0:0:0:
320,192,123381,1,0,0:0:0:0:
64,192,123533,1,0,0:0:0:0:
320,192,123684,1,0,0:0:0:0:
192,192,123836,1,0,0:0:0:0:
64,192,124290,1,0,0:0:0:0:
192,192,124366,1,0,0:0:0:0:
448,192,124442,1,0,0:0:0:0:
320,192,124593,1,0,0:0:0:0:
192,192,124745,1,0,0:0:0:0:
320,192,124896,1,0,0:0:0:0:
448,192,125048,1,0,0:0:0:0:
320,192,125199,1,0,0:0:0:0:
64,192,125351,1,0,0:0:0:0:
192,192,125503,1,0,0:0:0:0:
320,192,125806,1,0,0:0:0:0:
448,192,125881,1,0,0:0:0:0:
320,192,125957,1,0,0:0:0:0:
192,192,126033,1,0,0:0:0:0:
64,192,126109,1,0,0:0:0:0:
192,192,126184,1,0,0:0:0:0:
320,192,126260,1,0,0:0:0:0:
64,192,126715,1,0,0:0:0:0:
192,192,126790,1,0,0:0:0:0:
448,192,126866,1,0,0:0:0:0:
320,192,127472,1,0,0:0:0:0:
64,192,127927,1,0,0:0:0:0:
192,192,128003,1,0,0:0:0:0:
448,192,128078,1,0,0:0:0:0:
64,192,128533,1,0,0:0:0:0:
320,192,128609,1,0,0:0:0:0:
448,192,128684,1,0,0:0:0:0:
320,192,128836,1,0,0:0:0:0:
192,192,128987,1,0,0:0:0:0:
64,192,129139,1,0,0:0:0:0:
192,192,129442,1,0,0:0:0:0:
448,192,129593,1,0,0:0:0:0:
320,192,129896,1,0,0:0:0:0:
64,192,130048,1,0,0:0:0:0:
192,192,130199,1,0,0:0:0:0:
448,192,130351,1,0,0:0:0:0:
320,192,130503,1,0,0:0:0:0:
192,192,130806,1,0,0:0:0:0:
320,192,131109,1,0,0:0:0:0:
64,192,131109,1,0,0:0:0:0:
192,192,131260,1,0,0:0:0:0:
320,192,131412,1,0,0:0:0:0:
448,192,131431,1,0,0:0:0:0:
64,192,131563,1,0,0:0:0:0:
320,192,131715,1,0,0:0:0:0:
192,192,131866,1,0,0:0:0:0:
448,192,131866,1,0,0:0:0:0:
192,192,132018,1,0,0:0:0:0:
64,192,132037,1,0,0:0:0:0:
320,192,132169,1,0,0:0:0:0:
448,192,132321,1,0,0:0:0:0:
192,192,132321,1,0,0:0:0:0:
192,192,132472,1,0,0:0:0:0:
448,192,132472,1,0,0:0:0:0:
192,192,132624,1,0,0:0:0:0:
64,192,132643,1,0,0:0:0:0:
320,192,132775,1,0,0:0:0:0:
320,192,133078,1,0,0:0:0:0:
64,192,133078,1,0,0:0:0:0:
320,192,133230,1,0,0:0:0:0:
448,192,133249,1,0,0:0:0:0:
448,192,133381,1,0,0:0:0:0:
192,192,133381,1,0,0:0:0:0:
192,192,133533,1,0,0:0:0:0:
448,192,133533,1,0,0:0:0:0:
192,192,133836,1,0,0:0:0:0:
64,192,133855,1,0,0:0:0:0:
64,192,133987,1,0,0:0:0:0:
192,192,134063,1,0,0:0:0:0:
448,192,134139,1,0,0:0:0:0:
320,192,134290,1,0,0:0:0:0:
64,192,134290,1,0,0:0:0:0:
320,192,134442,1,0,0:0:0:0:
448,192,134461,1,0,0:0:0:0:
192,192,134593,1,0,0:0:0:0:
64,192,134745,1,0,0:0:0:0:
320,192,134745,1,0,0:0:0:0:
320,192,134896,1,0,0:0:0:0:
64,192,134896,1,0,0:0:0:0:
320,192,135048,1,0,0:0:0:0:
448,192,135067,1,0,0:0:0:0:
64,192,135200,1,0,0:0:0:0:
448,192,135503,1,0,0:0:0:0:
192,192,135503,1,0,0:0:0:0:
192,192,135654,1,0,0:0:0:0:
64,192,135673,1,0,0:0:0:0:
320,192,135806,1,0,0:0:0:0:
64,192,135806,1,0,0:0:0:0:
448,192,135881,1,0,0:0:0:0:
64,192,135957,1,0,0:0:0:0:
320,192,135957,1,0,0:0:0:0:
320,192,136260,1,0,0:0:0:0:
448,192,136279,1,0,0:0:0:0:
320,192,136412,1,0,0:0:0:0:
192,192,136487,1,0,0:0:0:0:
320,192,136563,1,0,0:0:0:0:
448,192,136715,1,0,0:0:0:0:
192,192,136715,1,0,0:0:0:0:
192,192,136866,1,0,0:0:0:0:
64,192,136885,1,0,0:0:0:0:
192,192,137169,1,0,0:0:0:0:
448,192,137169,1,0,0:0:0:0:
192,192,137321,1,0,0:0:0:0:
448,192,137321,1,0,0:0:0:0:
320,192,137472,1,0,0:0:0:0:
448,192,137491,1,0,0:0:0:0:
192,192,137624,1,0,0:0:0:0:
320,192,137700,1,0,0:0:0:0:
192,192,137775,1,0,0:0:0:0:
320,192,137927,1,0,0:0:0:0:
64,192,137927,1,0,0:0:0:0:
192,192,138078,1,0,0:0:0:0:
64,192,138097,1,0,0:0:0:0:
192,192,138230,1,0,0:0:0:0:
448,192,138230,1,0,0:0:0:0:
320,192,138306,1,0,0:0:0:0:
448,192,138381,1,0,0:0:0:0:
64,192,138381,1,0,0:0:0:0:
320,192,138533,1,0,0:0:0:0:
320,192,138684,1,0,0:0:0:0:
192,192,138684,1,0,0:0:0:0:
448,192,138703,1,0,0:0:0:0:
192,192,138836,1,0,0:0:0:0:
448,192,138987,1,0,0:0:0:0:
64,192,138987,1,0,0:0:0:0:
320,192,139139,1,0,0:0:0:0:
192,192,139290,1,0,0:0:0:0:
320,192,139290,1,0,0:0:0:0:
64,192,139309,1,0,0:0:0:0:
192,192,139442,1,0,0:0:0:0:
448,192,139593,1,0,0:0:0:0:
64,192,139593,1,0,0:0:0:0:
320,192,139631,5,0,0:0:0:0:
192,192,139669,1,0,0:0:0:0:
64,192,139745,5,0,0:0:0:0:
320,192,139821,1,0,0:0:0:0:
64,192,139896,1,0,0:0:0:0:
448,192,139896,1,0,0:0:0:0:
192,192,139934,1,0,0:0:0:0:
320,192,139972,1,0,0:0:0:0:
448,192,140048,1,0,0:0:0:0:
64,192,140124,1,0,0:0:0:0:
320,192,140200,1,0,0:0:0:0:
192,192,140200,1,0,0:0:0:0:
448,192,140275,1,0,0:0:0:0:
64,192,140351,1,0,0:0:0:0:
448,192,140427,1,0,0:0:0:0:
192,192,140503,1,0,0:0:0:0:
320,192,140503,1,0,0:0:0:0:
64,192,140578,1,0,0:0:0:0:
448,192,140654,1,0,0:0:0:0:
320,192,140730,1,0,0:0:0:0:
448,192,140806,5,0,0:0:0:0:
192,192,140806,1,0,0:0:0:0:
64,192,140806,1,0,0:0:0:0:
192,192,140957,1,0,0:0:0:0:
448,192,140957,1,0,0:0:0:0:
320,192,141260,1,0,0:0:0:0:
448,192,141260,1,0,0:0:0:0:
192,192,141260,1,0,0:0:0:0:
192,192,141412,1,0,0:0:0:0:
320,192,141412,1,0,0:0:0:0:
64,192,141639,1,0,0:0:0:0:
192,192,141639,1,0,0:0:0:0:
448,192,141639,1,0,0:0:0:0:
320,192,141866,1,0,0:0:0:0:
448,192,141866,1,0,0:0:0:0:
64,192,141866,1,0,0:0:0:0:
64,192,142472,1,0,0:0:0:0:
320,192,142548,1,0,0:0:0:0:
192,192,142624,1,0,0:0:0:0:
448,192,142700,1,0,0:0:0:0:
320,192,142775,1,0,0:0:0:0:
64,192,142851,1,0,0:0:0:0:
448,192,142927,1,0,0:0:0:0:
192,192,143003,1,0,0:0:0:0:
320,192,143078,1,0,0:0:0:0:
64,192,143154,1,0,0:0:0:0:
192,192,143230,1,0,0:0:0:0:
320,192,143230,1,0,0:0:0:0:
448,192,143230,1,0,0:0:0:0:
320,192,143381,1,0,0:0:0:0:
192,192,143381,1,0,0:0:0:0:
64,192,143684,1,0,0:0:0:0:
448,192,143684,1,0,0:0:0:0:
192,192,143684,1,0,0:0:0:0:
192,192,143836,1,0,0:0:0:0:
448,192,143836,1,0,0:0:0:0:
64,192,144063,1,0,0:0:0:0:
320,192,144063,1,0,0:0:0:0:
448,192,144139,1,0,0:0:0:0:
64,192,144290,1,0,0:0:0:0:
192,192,144290,1,0,0:0:0:0:
320,192,144290,1,0,0:0:0:0:
320,192,144518,1,0,0:0:0:0:
192,192,144518,1,0,0:0:0:0:
64,192,144896,1,0,0:0:0:0:
192,192,144972,1,0,0:0:0:0:
64,192,145048,1,0,0:0:0:0:
320,192,145124,1,0,0:0:0:0:
192,192,145200,1,0,0:0:0:0:
448,192,145275,1,0,0:0:0:0:
320,192,145351,1,0,0:0:0:0:
64,192,145402,1,0,0:0:0:0:
448,192,145452,1,0,0:0:0:0:
320,192,145503,1,0,0:0:0:0:
192,192,145503,1,0,0:0:0:0:
64,192,145578,1,0,0:0:0:0:
320,192,145654,1,0,0:0:0:0:
192,192,145654,1,0,0:0:0:0:
448,192,145654,1,0,0:0:0:0:
192,192,145806,1,0,0:0:0:0:
448,192,145806,1,0,0:0:0:0:
64,192,146109,1,0,0:0:0:0:
192,192,146109,1,0,0:0:0:0:
320,192,146109,1,0,0:0:0:0:
320,192,146260,1,0,0:0:0:0:
64,192,146260,1,0,0:0:0:0:
448,192,146487,1,0,0:0:0:0:
64,192,146487,1,0,0:0:0:0:
192,192,146563,1,0,0:0:0:0:
64,192,146715,1,0,0:0:0:0:
320,192,146715,1,0,0:0:0:0:
448,192,146715,1,0,0:0:0:0:
64,192,147321,1,0,0:0:0:0:
320,192,147396,1,0,0:0:0:0:
192,192,147472,1,0,0:0:0:0:
448,192,147548,1,0,0:0:0:0:
320,192,147624,1,0,0:0:0:0:
64,192,147700,1,0,0:0:0:0:
448,192,147775,1,0,0:0:0:0:
192,192,147851,1,0,0:0:0:0:
320,192,147927,1,0,0:0:0:0:
64,192,148003,1,0,0:0:0:0:
192,192,148078,1,0,0:0:0:0:
320,192,148078,1,0,0:0:0:0:
448,192,148078,1,0,0:0:0:0:
192,192,148230,1,0,0:0:0:0:
448,192,148230,1,0,0:0:0:0:
64,192,148533,1,0,0:0:0:0:
192,192,148533,1,0,0:0:0:0:
448,192,148533,1,0,0:0:0:0:
64,192,148684,1,0,0:0:0:0:
448,192,148684,1,0,0:0:0:0:
192,192,148836,1,0,0:0:0:0:
64,192,148912,1,0,0:0:0:0:
448,192,148912,1,0,0:0:0:0:
320,192,148987,1,0,0:0:0:0:
64,192,149139,1,0,0:0:0:0:
448,192,149139,1,0,0:0:0:0:
192,192,149139,1,0,0:0:0:0:
64,192,149366,5,0,0:0:0:0:
448,192,149366,1,0,0:0:0:0:
320,192,149442,1,0,0:0:0:0:
192,192,149518,1,0,0:0:0:0:
320,192,149593,1,0,0:0:0:0:
64,192,149593,1,0,0:0:0:0:
192,192,149669,1,0,0:0:0:0:
448,192,149745,1,0,0:0:0:0:
192,192,149821,1,0,0:0:0:0:
320,192,149896,1,0,0:0:0:0:
64,192,149972,1,0,0:0:0:0:
448,192,150048,1,0,0:0:0:0:
320,192,150124,1,0,0:0:0:0:
64,192,150199,1,0,0:0:0:0:
448,192,150250,1,0,0:0:0:0:
192,192,150301,1,0,0:0:0:0:
64,192,150351,1,0,0:0:0:0:
320,192,150402,1,0,0:0:0:0:
192,192,150452,1,0,0:0:0:0:
64,192,150503,5,0,0:0:0:0:
448,192,150503,1,0,0:0:0:0:
192,192,150563,1,0,0:0:0:0:
320,192,150624,1,0,0:0:0:0:
64,192,150684,1,0,0:0:0:0:
192,192,150745,1,0,0:0:0:0:
448,192,150806,1,0,0:0:0:0:
64,192,150866,1,0,0:0:0:0:
320,192,150927,1,0,0:0:0:0:
448,192,150987,1,0,0:0:0:0:
192,192,151048,1,0,0:0:0:0:
64,192,151109,1,0,0:0:0:0:
320,192,151109,1,0,0:0:0:0:
448,192,151169,1,0,0:0:0:0:
192,192,151230,1,0,0:0:0:0:
64,192,151290,1,0,0:0:0:0:
320,192,151351,1,0,0:0:0:0:
192,192,151412,1,0,0:0:0:0:
448,192,151472,1,0,0:0:0:0:
320,192,151533,1,0,0:0:0:0:
64,192,151593,1,0,0:0:0:0:
448,192,151654,1,0,0:0:0:0:
192,192,151715,1,0,0:0:0:0:
320,192,151715,1,0,0:0:0:0:
64,192,151775,1,0,0:0:0:0:
448,192,151836,1,0,0:0:0:0:
192,192,151896,1,0,0:0:0:0:
320,192,151957,1,0,0:0:0:0:
64,192,152018,1,0,0:0:0:0:
192,192,152078,1,0,0:0:0:0:
448,192,152139,1,0,0:0:0:0:
64,192,152200,1,0,0:0:0:0:
320,192,152260,1,0,0:0:0:0:
448,192,152321,1,0,0:0:0:0:
192,192,152381,1,0,0:0:0:0:
320,192,152442,1,0,0:0:0:0:
448,192,152503,1,0,0:0:0:0:
64,192,152563,1,0,0:0:0:0:
320,192,152624,1,0,0:0:0:0:
192,192,152684,1,0,0:0:0:0:
448,192,152745,1,0,0:0:0:0:
320,192,152806,1,0,0:0:0:0:
64,192,152866,1,0,0:0:0:0:
192,192,152927,1,0,0:0:0:0:
448,192,152927,1,0,0:0:0:0:
320,192,152987,1,0,0:0:0:0:
64,192,153048,1,0,0:0:0:0:
192,192,153109,1,0,0:0:0:0:
448,192,153169,1,0,0:0:0:0:
320,192,153230,1,0,0:0:0:0:
64,192,153290,1,0,0:0:0:0:
192,192,153351,1,0,0:0:0:0:
448,192,153412,1,0,0:0:0:0:
64,192,153472,1,0,0:0:0:0:
320,192,153533,1,0,0:0:0:0:
192,192,153533,1,0,0:0:0:0:
448,192,153593,1,0,0:0:0:0:
64,192,153654,1,0,0:0:0:0:
192,192,153715,1,0,0:0:0:0:
320,192,153775,1,0,0:0:0:0:
64,192,153836,1,0,0:0:0:0:
448,192,153896,1,0,0:0:0:0:
320,192,153957,1,0,0:0:0:0:
192,192,154018,1,0,0:0:0:0:
448,192,154078,1,0,0:0:0:0:
64,192,154139,1,0,0:0:0:0:
320,192,154139,1,0,0:0:0:0:
192,192,154200,1,0,0:0:0:0:
448,192,154260,1,0,0:0:0:0:
64,192,154321,1,0,0:0:0:0:
320,192,154381,1,0,0:0:0:0:
448,192,154442,1,0,0:0:0:0:
192,192,154503,1,0,0:0:0:0:
320,192,154563,1,0,0:0:0:0:
448,192,154624,1,0,0:0:0:0:
64,192,154684,1,0,0:0:0:0:
320,192,154745,1,0,0:0:0:0:
192,192,154745,1,0,0:0:0:0:
448,192,154806,1,0,0:0:0:0:
64,192,154866,1,0,0:0:0:0:
320,192,154927,1,0,0:0:0:0:
192,192,154987,1,0,0:0:0:0:
448,192,155048,1,0,0:0:0:0:
320,192,155109,1,0,0:0:0:0:
64,192,155169,1,0,0:0:0:0:
192,192,155230,1,0,0:0:0:0:
320,192,155290,1,0,0:0:0:0:
64,192,155351,5,0,0:0:0:0:
192,192,155351,1,0,0:0:0:0:
448,192,155351,1,0,0:0:0:0:
320,192,155402,1,0,0:0:0:0:
64,192,155452,1,0,0:0:0:0:
320,192,155503,1,0,0:0:0:0:
192,192,155553,1,0,0:0:0:0:
448,192,155604,1,0,0:0:0:0:
64,192,155654,1,0,0:0:0:0:
320,192,155654,1,0,0:0:0:0:
192,192,155705,1,0,0:0:0:0:
448,192,155755,1,0,0:0:0:0:
192,192,155806,1,0,0:0:0:0:
320,192,155856,1,0,0:0:0:0:
64,192,155907,1,0,0:0:0:0:
448,192,155957,1,0,0:0:0:0:
192,192,155957,1,0,0:0:0:0:
320,192,156008,1,0,0:0:0:0:
64,192,156058,1,0,0:0:0:0:
320,192,156109,1,0,0:0:0:0:
192,192,156159,1,0,0:0:0:0:
448,192,156210,1,0,0:0:0:0:
320,192,156260,1,0,0:0:0:0:
64,192,156260,1,0,0:0:0:0:
192,192,156311,1,0,0:0:0:0:
448,192,156361,1,0,0:0:0:0:
64,192,156412,1,0,0:0:0:0:
320,192,156462,1,0,0:0:0:0:
192,192,156513,1,0,0:0:0:0:
64,192,156563,1,0,0:0:0:0:
448,192,156563,1,0,0:0:0:0:
320,192,156563,1,0,0:0:0:0:
192,192,156614,1,0,0:0:0:0:
448,192,156650,1,0,0:0:0:0:
320,192,156693,1,0,0:0:0:0:
64,192,156736,1,0,0:0:0:0:
192,192,156780,1,0,0:0:0:0:
448,192,156823,1,0,0:0:0:0:
320,192,156866,1,0,0:0:0:0:
64,192,156866,1,0,0:0:0:0:
192,192,156909,1,0,0:0:0:0:
448,192,156953,1,0,0:0:0:0:
64,192,156996,1,0,0:0:0:0:
192,192,157039,1,0,0:0:0:0:
320,192,157083,1,0,0:0:0:0:
64,192,157126,1,0,0:0:0:0:
192,192,157169,1,0,0:0:0:0:
448,192,157169,1,0,0:0:0:0:
320,192,157212,1,0,0:0:0:0:
64,192,157256,1,0,0:0:0:0:
448,192,157299,1,0,0:0:0:0:
320,192,157342,1,0,0:0:0:0:
192,192,157386,1,0,0:0:0:0:
448,192,157429,1,0,0:0:0:0:
64,192,157472,1,0,0:0:0:0:
320,192,157472,1,0,0:0:0:0:
192,192,157516,1,0,0:0:0:0:
448,192,157559,1,0,0:0:0:0:
64,192,157602,1,0,0:0:0:0:
192,192,157645,1,0,0:0:0:0:
320,192,157689,1,0,0:0:0:0:
64,192,157732,1,0,0:0:0:0:
448,192,157775,5,0,0:0:0:0:
192,192,157775,1,0,0:0:0:0:
320,192,157813,1,0,0:0:0:0:
64,192,157851,1,0,0:0:0:0:
448,192,157889,1,0,0:0:0:0:
192,192,157927,1,0,0:0:0:0:
320,192,157965,1,0,0:0:0:0:
64,192,158003,1,0,0:0:0:0:
448,192,158040,1,0,0:0:0:0:
192,192,158078,1,0,0:0:0:0:
320,192,158116,1,0,0:0:0:0:
64,192,158154,1,0,0:0:0:0:
448,192,158192,1,0,0:0:0:0:
192,192,158230,1,0,0:0:0:0:
320,192,158268,1,0,0:0:0:0:
64,192,158306,1,0,0:0:0:0:
448,192,158343,1,0,0:0:0:0:
192,192,158381,1,0,0:0:0:0:
320,192,158419,1,0,0:0:0:0:
64,192,158457,1,0,0:0:0:0:
448,192,158495,1,0,0:0:0:0:
192,192,158533,1,0,0:0:0:0:
320,192,158571,5,0,0:0:0:0:
64,192,158609,1,0,0:0:0:0:
448,192,158646,1,0,0:0:0:0:
192,192,158684,5,0,0:0:0:0:
320,192,158722,1,0,0:0:0:0:
64,192,158760,1,0,0:0:0:0:
448,192,158798,1,0,0:0:0:0:
192,192,158836,1,0,0:0:0:0:
320,192,158874,1,0,0:0:0:0:
64,192,158912,1,0,0:0:0:0:
448,192,158949,1,0,0:0:0:0:
320,192,158987,1,0,0:0:0:0:
192,192,158987,1,0,0:0:0:0:
64,192,158987,1,0,0:0:0:0:
192,192,159215,1,0,0:0:0:0:
320,192,159215,1,0,0:0:0:0:
64,192,159215,1,0,0:0:0:0:
192,192,159442,1,0,0:0:0:0:
320,192,159442,1,0,0:0:0:0:
64,192,159442,1,0,0:0:0:0:
320,192,159593,1,0,0:0:0:0:
192,192,159593,1,0,0:0:0:0:
192,192,159745,5,0,0:0:0:0:
448,192,159821,1,0,0:0:0:0:
192,192,159896,1,0,0:0:0:0:
320,192,159972,1,0,0:0:0:0:
64,192,160048,1,0,0:0:0:0:
320,192,160124,1,0,0:0:0:0:
448,192,160199,1,0,0:0:0:0:
192,192,160199,1,0,0:0:0:0:
64,192,160199,1,0,0:0:0:0:
64,192,160275,1,0,0:0:0:0:
192,192,160275,1,0,0:0:0:0:
320,192,160351,1,0,0:0:0:0:
448,192,160351,1,0,0:0:0:0:
320,192,160427,1,0,0:0:0:0:
448,192,160427,1,0,0:0:0:0:
320,192,160503,1,0,0:0:0:0:
192,192,160503,1,0,0:0:0:0:
64,192,160503,1,0,0:0:0:0:
448,192,160578,1,0,0:0:0:0:
192,192,160654,1,0,0:0:0:0:
64,192,160654,1,0,0:0:0:0:
192,192,160730,1,0,0:0:0:0:
64,192,160730,1,0,0:0:0:0:
448,192,160806,1,0,0:0:0:0:
64,192,160806,1,0,0:0:0:0:
320,192,160806,1,0,0:0:0:0:
448,192,160881,1,0,0:0:0:0:
320,192,160881,1,0,0:0:0:0:
192,192,160957,1,0,0:0:0:0:
64,192,160957,1,0,0:0:0:0:
448,192,161033,1,0,0:0:0:0:
64,192,161109,1,0,0:0:0:0:
192,192,161109,1,0,0:0:0:0:
320,192,161109,1,0,0:0:0:0:
64,192,161184,1,0,0:0:0:0:
192,192,161184,1,0,0:0:0:0:
448,192,161260,1,0,0:0:0:0:
320,192,161260,1,0,0:0:0:0:
448,192,161336,1,0,0:0:0:0:
320,192,161336,1,0,0:0:0:0:
64,192,161412,1,0,0:0:0:0:
192,192,161412,1,0,0:0:0:0:
448,192,161412,1,0,0:0:0:0:
320,192,161487,1,0,0:0:0:0:
64,192,161563,1,0,0:0:0:0:
320,192,161639,1,0,0:0:0:0:
448,192,161639,1,0,0:0:0:0:
448,192,161715,1,0,0:0:0:0:
192,192,161715,1,0,0:0:0:0:
320,192,161790,1,0,0:0:0:0:
64,192,161866,1,0,0:0:0:0:
192,192,161866,1,0,0:0:0:0:
192,192,161942,1,0,0:0:0:0:
320,192,162018,1,0,0:0:0:0:
64,192,162018,1,0,0:0:0:0:
320,192,162093,1,0,0:0:0:0:
448,192,162093,1,0,0:0:0:0:
192,192,162169,1,0,0:0:0:0:
64,192,162245,1,0,0:0:0:0:
320,192,162321,1,0,0:0:0:0:
192,192,162321,1,0,0:0:0:0:
448,192,162321,1,0,0:0:0:0:
448,192,162396,1,0,0:0:0:0:
192,192,162472,1,0,0:0:0:0:
64,192,162472,1,0,0:0:0:0:
64,192,162548,1,0,0:0:0:0:
320,192,162624,1,0,0:0:0:0:
448,192,162624,1,0,0:0:0:0:
192,192,162624,1,0,0:0:0:0:
320,192,162699,1,0,0:0:0:0:
64,192,162775,1,0,0:0:0:0:
448,192,162775,1,0,0:0:0:0:
192,192,162851,1,0,0:0:0:0:
320,192,162927,1,0,0:0:0:0:
64,192,162927,1,0,0:0:0:0:
448,192,162927,1,0,0:0:0:0:
192,192,163003,1,0,0:0:0:0:
448,192,163078,1,0,0:0:0:0:
320,192,163154,1,0,0:0:0:0:
192,192,163230,1,0,0:0:0:0:
64,192,163230,1,0,0:0:0:0:
448,192,163230,1,0,0:0:0:0:
64,192,163306,1,0,0:0:0:0:
320,192,163381,1,0,0:0:0:0:
448,192,163381,1,0,0:0:0:0:
448,192,163457,1,0,0:0:0:0:
192,192,163533,1,0,0:0:0:0:
64,192,163533,1,0,0:0:0:0:
320,192,163533,1,0,0:0:0:0:
192,192,163609,1,0,0:0:0:0:
320,192,163684,1,0,0:0:0:0:
448,192,163684,1,0,0:0:0:0:
320,192,163760,1,0,0:0:0:0:
64,192,163836,1,0,0:0:0:0:
192,192,163836,1,0,0:0:0:0:
448,192,163836,1,0,0:0:0:0:
192,192,163912,1,0,0:0:0:0:
64,192,163987,1,0,0:0:0:0:
320,192,164063,1,0,0:0:0:0:
448,192,164063,1,0,0:0:0:0:
448,192,164139,1,0,0:0:0:0:
192,192,164139,1,0,0:0:0:0:
320,192,164215,1,0,0:0:0:0:
64,192,164290,1,0,0:0:0:0:
192,192,164290,1,0,0:0:0:0:
64,192,164366,1,0,0:0:0:0:
448,192,164442,1,0,0:0:0:0:
192,192,164442,1,0,0:0:0:0:
320,192,164518,1,0,0:0:0:0:
192,192,164593,1,0,0:0:0:0:
64,192,164593,1,0,0:0:0:0:
320,192,164669,1,0,0:0:0:0:
448,192,164669,1,0,0:0:0:0:
192,192,164745,1,0,0:0:0:0:
320,192,164745,1,0,0:0:0:0:
64,192,164745,1,0,0:0:0:0:
64,192,164821,1,0,0:0:0:0:
192,192,164821,1,0,0:0:0:0:
448,192,164896,1,0,0:0:0:0:
320,192,164896,1,0,0:0:0:0:
64,192,164972,1,0,0:0:0:0:
192,192,164972,1,0,0:0:0:0:
448,192,165048,1,0,0:0:0:0:
320,192,165048,1,0,0:0:0:0:
192,192,165048,1,0,0:0:0:0:
448,192,165124,1,0,0:0:0:0:
192,192,165199,1,0,0:0:0:0:
448,192,165275,1,0,0:0:0:0:
320,192,165351,1,0,0:0:0:0:
192,192,165351,1,0,0:0:0:0:
64,192,165351,1,0,0:0:0:0:
64,192,165427,1,0,0:0:0:0:
448,192,165503,1,0,0:0:0:0:
320,192,165578,1,0,0:0:0:0:
448,192,165654,1,0,0:0:0:0:
64,192,165654,1,0,0:0:0:0:
192,192,165730,1,0,0:0:0:0:
448,192,165806,1,0,0:0:0:0:
320,192,165806,1,0,0:0:0:0:
64,192,165881,1,0,0:0:0:0:
192,192,165881,1,0,0:0:0:0:
64,192,165957,1,0,0:0:0:0:
448,192,165957,1,0,0:0:0:0:
320,192,165957,1,0,0:0:0:0:
448,192,166033,1,0,0:0:0:0:
320,192,166033,1,0,0:0:0:0:
64,192,166109,1,0,0:0:0:0:
192,192,166109,1,0,0:0:0:0:
448,192,166184,1,0,0:0:0:0:
320,192,166184,1,0,0:0:0:0:
192,192,166260,1,0,0:0:0:0:
64,192,166260,1,0,0:0:0:0:
448,192,166260,1,0,0:0:0:0:
192,192,166336,1,0,0:0:0:0:
320,192,166412,1,0,0:0:0:0:
192,192,166487,1,0,0:0:0:0:
64,192,166563,1,0,0:0:0:0:
320,192,166563,1,0,0:0:0:0:
448,192,166563,1,0,0:0:0:0:
320,192,166639,1,0,0:0:0:0:
192,192,166715,1,0,0:0:0:0:
64,192,166790,1,0,0:0:0:0:
192,192,166866,1,0,0:0:0:0:
448,192,166866,1,0,0:0:0:0:
64,192,166942,1,0,0:0:0:0:
320,192,167018,1,0,0:0:0:0:
448,192,167018,1,0,0:0:0:0:
192,192,167093,1,0,0:0:0:0:
64,192,167093,1,0,0:0:0:0:
320,192,167169,1,0,0:0:0:0:
64,192,167169,1,0,0:0:0:0:
448,192,167169,1,0,0:0:0:0:
448,192,167245,1,0,0:0:0:0:
320,192,167245,1,0,0:0:0:0:
192,192,167321,1,0,0:0:0:0:
64,192,167321,1,0,0:0:0:0:
448,192,167396,1,0,0:0:0:0:
320,192,167396,1,0,0:0:0:0:
64,192,167472,1,0,0:0:0:0:
192,192,167472,1,0,0:0:0:0:
320,192,167472,1,0,0:0:0:0:
64,192,167548,1,0,0:0:0:0:
192,192,167624,1,0,0:0:0:0:
448,192,167699,1,0,0:0:0:0:
320,192,167699,1,0,0:0:0:0:
64,192,167775,1,0,0:0:0:0:
320,192,167775,1,0,0:0:0:0:
448,192,167851,1,0,0:0:0:0:
192,192,167927,1,0,0:0:0:0:
64,192,167927,1,0,0:0:0:0:
192,192,168003,1,0,0:0:0:0:
320,192,168078,1,0,0:0:0:0:
448,192,168078,1,0,0:0:0:0:
64,192,168078,1,0,0:0:0:0:
448,192,168154,1,0,0:0:0:0:
192,192,168230,1,0,0:0:0:0:
320,192,168306,1,0,0:0:0:0:
192,192,168381,1,0,0:0:0:0:
64,192,168381,1,0,0:0:0:0:
448,192,168381,1,0,0:0:0:0:
64,192,168457,1,0,0:0:0:0:
320,192,168533,1,0,0:0:0:0:
192,192,168609,1,0,0:0:0:0:
64,192,168684,1,0,0:0:0:0:
320,192,168684,1,0,0:0:0:0:
448,192,168684,1,0,0:0:0:0:
64,192,168760,1,0,0:0:0:0:
192,192,168760,1,0,0:0:0:0:
320,192,168836,1,0,0:0:0:0:
448,192,168836,1,0,0:0:0:0:
192,192,168912,1,0,0:0:0:0:
320,192,168912,1,0,0:0:0:0:
448,192,168987,1,0,0:0:0:0:
192,192,168987,1,0,0:0:0:0:
64,192,168987,1,0,0:0:0:0:
320,192,169063,1,0,0:0:0:0:
448,192,169063,1,0,0:0:0:0:
192,192,169139,1,0,0:0:0:0:
64,192,169139,1,0,0:0:0:0:
192,192,169215,1,0,0:0:0:0:
320,192,169215,1,0,0:0:0:0:
448,192,169290,1,0,0:0:0:0:
320,192,169290,1,0,0:0:0:0:
192,192,169366,1,0,0:0:0:0:
448,192,169366,1,0,0:0:0:0:
64,192,169442,1,0,0:0:0:0:
192,192,169442,1,0,0:0:0:0:
320,192,169518,1,0,0:0:0:0:
64,192,169518,1,0,0:0:0:0:
320,192,169593,1,0,0:0:0:0:
448,192,169593,1,0,0:0:0:0:
448,192,169669,1,0,0:0:0:0:
192,192,169669,1,0,0:0:0:0:
320,192,169745,1,0,0:0:0:0:
64,192,169745,1,0,0:0:0:0:
192,192,169821,1,0,0:0:0:0:
64,192,169821,1,0,0:0:0:0:
320,192,169896,1,0,0:0:0:0:
448,192,169896,1,0,0:0:0:0:
192,192,169896,1,0,0:0:0:0:
320,192,169972,1,0,0:0:0:0:
448,192,169972,1,0,0:0:0:0:
192,192,170048,1,0,0:0:0:0:
64,192,170048,1,0,0:0:0:0:
64,192,170124,1,0,0:0:0:0:
192,192,170124,1,0,0:0:0:0:
320,192,170199,1,0,0:0:0:0:
448,192,170199,1,0,0:0:0:0:
64,192,170199,1,0,0:0:0:0:
192,192,170275,1,0,0:0:0:0:
320,192,170351,1,0,0:0:0:0:
448,192,170351,1,0,0:0:0:0:
448,192,170427,1,0,0:0:0:0:
320,192,170427,1,0,0:0:0:0:
64,192,170503,1,0,0:0:0:0:
192,192,170503,1,0,0:0:0:0:
320,192,170503,1,0,0:0:0:0:
64,192,170578,1,0,0:0:0:0:
192,192,170578,1,0,0:0:0:0:
320,192,170654,1,0,0:0:0:0:
448,192,170654,1,0,0:0:0:0:
192,192,170730,1,0,0:0:0:0:
320,192,170806,1,0,0:0:0:0:
448,192,170806,1,0,0:0:0:0:
64,192,170806,1,0,0:0:0:0:
448,192,170881,1,0,0:0:0:0:
320,192,170881,1,0,0:0:0:0:
64,192,170957,1,0,0:0:0:0:
192,192,170957,1,0,0:0:0:0:
192,192,171033,1,0,0:0:0:0:
64,192,171033,1,0,0:0:0:0:
320,192,171109,1,0,0:0:0:0:
448,192,171109,1,0,0:0:0:0:
192,192,171109,1,0,0:0:0:0:
64,192,171336,1,0,0:0:0:0:
192,192,171336,1,0,0:0:0:0:
448,192,171336,1,0,0:0:0:0:
320,192,171563,1,0,0:0:0:0:
448,192,171563,1,0,0:0:0:0:
64,192,171563,1,0,0:0:0:0:
64,192,171790,1,0,0:0:0:0:
192,192,171790,1,0,0:0:0:0:
320,192,171790,1,0,0:0:0:0:
320,192,172018,1,0,0:0:0:0:
448,192,172018,1,0,0:0:0:0:
192,192,172018,1,0,0:0:0:0:
64,192,172169,1,0,0:0:0:0:
192,192,172169,1,0,0:0:0:0:
448,192,172169,1,0,0:0:0:0:
320,192,172321,1,0,0:0:0:0:
448,192,172321,1,0,0:0:0:0:
192,192,172321,1,0,0:0:0:0:
64,192,172381,1,0,0:0:0:0:
192,192,172442,1,0,0:0:0:0:
320,192,172503,1,0,0:0:0:0:
448,192,172563,1,0,0:0:0:0:
192,192,172624,1,0,0:0:0:0:
64,192,172624,1,0,0:0:0:0:
320,192,172624,1,0,0:0:0:0:
448,192,172699,1,0,0:0:0:0:
448,192,172775,1,0,0:0:0:0:
320,192,172775,1,0,0:0:0:0:
192,192,172851,1,0,0:0:0:0:
64,192,172851,1,0,0:0:0:0:
320,192,172927,1,0,0:0:0:0:
448,192,172927,1,0,0:0:0:0:
192,192,172927,1,0,0:0:0:0:
320,192,173003,1,0,0:0:0:0:
192,192,173078,1,0,0:0:0:0:
64,192,173078,1,0,0:0:0:0:
448,192,173078,1,0,0:0:0:0:
192,192,173154,1,0,0:0:0:0:
320,192,173230,1,0,0:0:0:0:
448,192,173230,1,0,0:0:0:0:
448,192,173306,1,0,0:0:0:0:
192,192,173381,1,0,0:0:0:0:
64,192,173381,1,0,0:0:0:0:
64,192,173457,1,0,0:0:0:0:
192,192,173533,1,0,0:0:0:0:
320,192,173533,1,0,0:0:0:0:
448,192,173533,1,0,0:0:0:0:
448,192,173609,1,0,0:0:0:0:
320,192,173684,1,0,0:0:0:0:
64,192,173760,1,0,0:0:0:0:
192,192,173760,1,0,0:0:0:0:
448,192,173760,1,0,0:0:0:0:
192,192,173836,1,0,0:0:0:0:
64,192,173912,1,0,0:0:0:0:
320,192,173987,1,0,0:0:0:0:
192,192,173987,1,0,0:0:0:0:
448,192,173987,1,0,0:0:0:0:
320,192,174063,1,0,0:0:0:0:
64,192,174139,1,0,0:0:0:0:
192,192,174215,1,0,0:0:0:0:
320,192,174290,1,0,0:0:0:0:
448,192,174290,1,0,0:0:0:0:
64,192,174290,1,0,0:0:0:0:
192,192,174366,1,0,0:0:0:0:
64,192,174366,1,0,0:0:0:0:
192,192,174442,1,0,0:0:0:0:
448,192,174442,1,0,0:0:0:0:
320,192,174442,1,0,0:0:0:0:
448,192,174518,1,0,0:0:0:0:
320,192,174518,1,0,0:0:0:0:
64,192,174593,1,0,0:0:0:0:
192,192,174593,1,0,0:0:0:0:
448,192,174669,1,0,0:0:0:0:
320,192,174669,1,0,0:0:0:0:
192,192,174745,1,0,0:0:0:0:
64,192,174745,1,0,0:0:0:0:
448,192,174745,1,0,0:0:0:0:
64,192,174821,1,0,0:0:0:0:
320,192,174896,1,0,0:0:0:0:
192,192,174972,1,0,0:0:0:0:
320,192,175048,1,0,0:0:0:0:
64,192,175048,1,0,0:0:0:0:
448,192,175048,1,0,0:0:0:0:
320,192,175124,1,0,0:0:0:0:
192,192,175199,1,0,0:0:0:0:
64,192,175275,1,0,0:0:0:0:
192,192,175351,1,0,0:0:0:0:
448,192,175351,1,0,0:0:0:0:
64,192,175427,1,0,0:0:0:0:
448,192,175503,1,0,0:0:0:0:
320,192,175503,1,0,0:0:0:0:
192,192,175578,1,0,0:0:0:0:
64,192,175578,1,0,0:0:0:0:
64,192,175654,1,0,0:0:0:0:
448,192,175654,1,0,0:0:0:0:
320,192,175654,1,0,0:0:0:0:
192,192,175730,1,0,0:0:0:0:
320,192,175730,1,0,0:0:0:0:
64,192,175806,1,0,0:0:0:0:
192,192,175806,1,0,0:0:0:0:
320,192,175881,1,0,0:0:0:0:
448,192,175881,1,0,0:0:0:0:
448,192,175957,1,0,0:0:0:0:
192,192,175957,1,0,0:0:0:0:
64,192,175957,1,0,0:0:0:0:
192,192,176033,1,0,0:0:0:0:
448,192,176109,1,0,0:0:0:0:
320,192,176184,1,0,0:0:0:0:
448,192,176260,1,0,0:0:0:0:
192,192,176260,1,0,0:0:0:0:
64,192,176260,1,0,0:0:0:0:
64,192,176336,1,0,0:0:0:0:
320,192,176412,1,0,0:0:0:0:
448,192,176487,1,0,0:0:0:0:
320,192,176563,1,0,0:0:0:0:
64,192,176563,1,0,0:0:0:0:
448,192,176639,1,0,0:0:0:0:
64,192,176715,1,0,0:0:0:0:
192,192,176715,1,0,0:0:0:0:
320,192,176790,1,0,0:0:0:0:
448,192,176790,1,0,0:0:0:0:
192,192,176866,1,0,0:0:0:0:
448,192,176866,1,0,0:0:0:0:
64,192,176866,1,0,0:0:0:0:
192,192,176942,1,0,0:0:0:0:
320,192,176942,1,0,0:0:0:0:
320,192,177018,1,0,0:0:0:0:
448,192,177018,1,0,0:0:0:0:
192,192,177093,1,0,0:0:0:0:
64,192,177093,1,0,0:0:0:0:
448,192,177169,1,0,0:0:0:0:
192,192,177169,1,0,0:0:0:0:
320,192,177169,1,0,0:0:0:0:
448,192,177245,1,0,0:0:0:0:
64,192,177321,1,0,0:0:0:0:
192,192,177396,1,0,0:0:0:0:
448,192,177472,1,0,0:0:0:0:
320,192,177472,1,0,0:0:0:0:
64,192,177472,1,0,0:0:0:0:
320,192,177548,1,0,0:0:0:0:
192,192,177624,1,0,0:0:0:0:
64,192,177699,1,0,0:0:0:0:
192,192,177775,1,0,0:0:0:0:
320,192,177775,1,0,0:0:0:0:
64,192,177851,1,0,0:0:0:0:
448,192,177927,1,0,0:0:0:0:
320,192,177927,1,0,0:0:0:0:
192,192,178003,1,0,0:0:0:0:
64,192,178003,1,0,0:0:0:0:
448,192,178078,1,0,0:0:0:0:
64,192,178078,1,0,0:0:0:0:
320,192,178078,1,0,0:0:0:0:
192,192,178154,1,0,0:0:0:0:
320,192,178154,1,0,0:0:0:0:
64,192,178230,1,0,0:0:0:0:
192,192,178230,1,0,0:0:0:0:
448,192,178306,1,0,0:0:0:0:
320,192,178306,1,0,0:0:0:0:
448,192,178381,1,0,0:0:0:0:
64,192,178381,1,0,0:0:0:0:
192,192,178381,1,0,0:0:0:0:
192,192,178457,1,0,0:0:0:0:
448,192,178533,1,0,0:0:0:0:
320,192,178609,1,0,0:0:0:0:
192,192,178684,1,0,0:0:0:0:
64,192,178684,1,0,0:0:0:0:
448,192,178684,1,0,0:0:0:0:
64,192,178760,1,0,0:0:0:0:
320,192,178836,1,0,0:0:0:0:
448,192,178912,1,0,0:0:0:0:
320,192,178987,1,0,0:0:0:0:
192,192,178987,1,0,0:0:0:0:
448,192,179063,1,0,0:0:0:0:
64,192,179139,1,0,0:0:0:0:
192,192,179139,1,0,0:0:0:0:
320,192,179215,1,0,0:0:0:0:
448,192,179215,1,0,0:0:0:0:
192,192,179290,1,0,0:0:0:0:
448,192,179290,1,0,0:0:0:0:
64,192,179290,1,0,0:0:0:0:
192,192,179366,1,0,0:0:0:0:
320,192,179366,1,0,0:0:0:0:
320,192,179442,1,0,0:0:0:0:
448,192,179442,1,0,0:0:0:0:
192,192,179518,1,0,0:0:0:0:
64,192,179518,1,0,0:0:0:0:
448,192,179593,1,0,0:0:0:0:
320,192,179593,1,0,0:0:0:0:
64,192,179593,1,0,0:0:0:0:
320,192,179669,1,0,0:0:0:0:
192,192,179745,1,0,0:0:0:0:
320,192,179821,1,0,0:0:0:0:
448,192,179821,1,0,0:0:0:0:
448,192,179896,1,0,0:0:0:0:
64,192,179896,1,0,0:0:0:0:
320,192,179972,1,0,0:0:0:0:
64,192,180048,1,0,0:0:0:0:
192,192,180048,1,0,0:0:0:0:
192,192,180124,1,0,0:0:0:0:
320,192,180199,1,0,0:0:0:0:
448,192,180199,1,0,0:0:0:0:
64,192,180199,1,0,0:0:0:0:
320,192,180275,1,0,0:0:0:0:
192,192,180351,1,0,0:0:0:0:
448,192,180427,1,0,0:0:0:0:
320,192,180503,1,0,0:0:0:0:
192,192,180503,1,0,0:0:0:0:
64,192,180503,1,0,0:0:0:0:
64,192,180578,1,0,0:0:0:0:
448,192,180654,1,0,0:0:0:0:
192,192,180730,1,0,0:0:0:0:
320,192,180806,1,0,0:0:0:0:
448,192,180806,1,0,0:0:0:0:
64,192,180806,1,0,0:0:0:0:
320,192,180881,1,0,0:0:0:0:
192,192,180957,1,0,0:0:0:0:
448,192,181033,1,0,0:0:0:0:
320,192,181109,1,0,0:0:0:0:
64,192,181109,1,0,0:0:0:0:
192,192,181184,1,0,0:0:0:0:
448,192,181260,1,0,0:0:0:0:
320,192,181260,1,0,0:0:0:0:
64,192,181336,1,0,0:0:0:0:
320,192,181336,1,0,0:0:0:0:
448,192,181412,1,0,0:0:0:0:
64,192,181412,1,0,0:0:0:0:
192,192,181412,1,0,0:0:0:0:
320,192,181487,1,0,0:0:0:0:
448,192,181487,1,0,0:0:0:0:
192,192,181563,1,0,0:0:0:0:
64,192,181563,1,0,0:0:0:0:
64,192,181639,1,0,0:0:0:0:
320,192,181639,1,0,0:0:0:0:
320,192,181715,1,0,0:0:0:0:
192,192,181715,1,0,0:0:0:0:
448,192,181715,1,0,0:0:0:0:
64,192,181790,1,0,0:0:0:0:
192,192,181790,1,0,0:0:0:0:
320,192,181866,1,0,0:0:0:0:
448,192,181866,1,0,0:0:0:0:
64,192,181942,1,0,0:0:0:0:
448,192,181942,1,0,0:0:0:0:
192,192,182018,1,0,0:0:0:0:
64,192,182018,1,0,0:0:0:0:
320,192,182018,1,0,0:0:0:0:
320,192,182093,1,0,0:0:0:0:
192,192,182169,1,0,0:0:0:0:
192,192,182245,1,0,0:0:0:0:
320,192,182321,1,0,0:0:0:0:
320,192,182396,1,0,0:0:0:0:
192,192,182472,1,0,0:0:0:0:
192,192,182548,1,0,0:0:0:0:
320,192,182624,1,0,0:0:0:0:
320,192,182699,1,0,0:0:0:0:
192,192,182775,1,0,0:0:0:0:
192,192,182851,1,0,0:0:0:0:
320,192,182927,1,0,0:0:0:0:
320,192,183003,1,0,0:0:0:0:
192,192,183078,1,0,0:0:0:0:
192,192,183154,1,0,0:0:0:0:
448,192,183230,1,0,0:0:0:0:
448,192,183533,1,0,0:0:0:0:
448,192,183836,1,0,0:0:0:0:
448,192,183912,1,0,0:0:0:0:
64,192,183987,1,0,0:0:0:0:
320,192,183987,1,0,0:0:0:0:
64,192,184063,1,0,0:0:0:0:
192,192,184139,1,0,0:0:0:0:
448,192,184139,1,0,0:0:0:0:
320,192,184442,1,0,0:0:0:0:
192,192,184442,1,0,0:0:0:0:
64,192,184442,1,0,0:0:0:0:
448,192,184518,1,0,0:0:0:0:
64,192,184593,1,0,0:0:0:0:
192,192,184593,1,0,0:0:0:0:
64,192,184669,1,0,0:0:0:0:
320,192,184745,1,0,0:0:0:0:
448,192,184745,1,0,0:0:0:0:
192,192,184745,1,0,0:0:0:0:
64,192,184821,1,0,0:0:0:0:
320,192,184896,1,0,0:0:0:0:
448,192,184896,1,0,0:0:0:0:
320,192,184972,1,0,0:0:0:0:
448,192,185048,1,0,0:0:0:0:
192,192,185048,1,0,0:0:0:0:
64,192,185048,1,0,0:0:0:0:
320,192,185124,1,0,0:0:0:0:
192,192,185199,1,0,0:0:0:0:
64,192,185199,1,0,0:0:0:0:
192,192,185275,1,0,0:0:0:0:
320,192,185351,1,0,0:0:0:0:
448,192,185351,1,0,0:0:0:0:
64,192,185351,1,0,0:0:0:0:
192,192,185427,1,0,0:0:0:0:
448,192,185503,1,0,0:0:0:0:
320,192,185503,1,0,0:0:0:0:
448,192,185578,1,0,0:0:0:0:
320,192,185654,1,0,0:0:0:0:
64,192,185654,1,0,0:0:0:0:
192,192,185654,1,0,0:0:0:0:
448,192,185730,1,0,0:0:0:0:
192,192,185806,1,0,0:0:0:0:
64,192,185806,1,0,0:0:0:0:
192,192,185881,1,0,0:0:0:0:
320,192,185957,1,0,0:0:0:0:
448,192,185957,1,0,0:0:0:0:
64,192,185957,1,0,0:0:0:0:
192,192,186033,1,0,0:0:0:0:
320,192,186109,1,0,0:0:0:0:
448,192,186109,1,0,0:0:0:0:
320,192,186184,1,0,0:0:0:0:
448,192,186260,1,0,0:0:0:0:
64,192,186260,1,0,0:0:0:0:
192,192,186260,1,0,0:0:0:0:
320,192,186336,1,0,0:0:0:0:
64,192,186412,1,0,0:0:0:0:
192,192,186412,1,0,0:0:0:0:
64,192,186487,1,0,0:0:0:0:
320,192,186563,1,0,0:0:0:0:
448,192,186563,1,0,0:0:0:0:
192,192,186563,1,0,0:0:0:0:
64,192,186639,1,0,0:0:0:0:
448,192,186715,1,0,0:0:0:0:
320,192,186715,1,0,0:0:0:0:
448,192,186790,1,0,0:0:0:0:
320,192,186866,1,0,0:0:0:0:
192,192,186866,1,0,0:0:0:0:
64,192,186866,1,0,0:0:0:0:
448,192,186942,1,0,0:0:0:0:
64,192,187018,1,0,0:0:0:0:
192,192,187018,1,0,0:0:0:0:
64,192,187093,1,0,0:0:0:0:
448,192,187169,1,0,0:0:0:0:
320,192,187169,1,0,0:0:0:0:
192,192,187169,1,0,0:0:0:0:
64,192,187245,1,0,0:0:0:0:
448,192,187321,1,0,0:0:0:0:
320,192,187321,1,0,0:0:0:0:
448,192,187396,1,0,0:0:0:0:
320,192,187472,1,0,0:0:0:0:
192,192,187472,1,0,0:0:0:0:
64,192,187472,1,0,0:0:0:0:
448,192,187548,1,0,0:0:0:0:
192,192,187624,1,0,0:0:0:0:
64,192,187624,1,0,0:0:0:0:
192,192,187699,1,0,0:0:0:0:
448,192,187775,1,0,0:0:0:0:
320,192,187775,1,0,0:0:0:0:
64,192,187775,1,0,0:0:0:0:
192,192,187851,1,0,0:0:0:0:
320,192,187927,1,0,0:0:0:0:
448,192,187927,1,0,0:0:0:0:
320,192,188003,1,0,0:0:0:0:
448,192,188078,1,0,0:0:0:0:
192,192,188078,1,0,0:0:0:0:
64,192,188078,1,0,0:0:0:0:
320,192,188154,1,0,0:0:0:0:
64,192,188230,1,0,0:0:0:0:
192,192,188230,1,0,0:0:0:0:
64,192,188306,1,0,0:0:0:0:
448,192,188381,1,0,0:0:0:0:
320,192,188381,1,0,0:0:0:0:
192,192,188381,1,0,0:0:0:0:
64,192,188457,1,0,0:0:0:0:
448,192,188533,1,0,0:0:0:0:
320,192,188533,1,0,0:0:0:0:
448,192,188609,1,0,0:0:0:0:
320,192,188684,1,0,0:0:0:0:
192,192,188684,1,0,0:0:0:0:
64,192,188684,1,0,0:0:0:0:
448,192,188735,1,0,0:0:0:0:
192,192,188785,1,0,0:0:0:0:
64,192,188785,1,0,0:0:0:0:
448,192,188836,1,0,0:0:0:0:
320,192,188836,1,0,0:0:0:0:
192,192,188912,1,0,0:0:0:0:
448,192,188987,1,0,0:0:0:0:
320,192,188987,1,0,0:0:0:0:
320,192,189063,1,0,0:0:0:0:
64,192,189139,1,0,0:0:0:0:
192,192,189139,1,0,0:0:0:0:
192,192,189215,1,0,0:0:0:0:
64,192,189290,1,0,0:0:0:0:
448,192,189290,1,0,0:0:0:0:
320,192,189290,1,0,0:0:0:0:
320,192,189366,1,0,0:0:0:0:
192,192,189442,1,0,0:0:0:0:
64,192,189442,1,0,0:0:0:0:
320,192,189518,1,0,0:0:0:0:
64,192,189518,1,0,0:0:0:0:
320,192,189593,1,0,0:0:0:0:
448,192,189593,1,0,0:0:0:0:
192,192,189669,1,0,0:0:0:0:
64,192,189745,1,0,0:0:0:0:
320,192,189745,1,0,0:0:0:0:
448,192,189745,1,0,0:0:0:0:
320,192,189821,1,0,0:0:0:0:
64,192,189896,1,0,0:0:0:0:
192,192,189896,1,0,0:0:0:0:
320,192,189972,1,0,0:0:0:0:
64,192,189972,1,0,0:0:0:0:
320,192,190048,1,0,0:0:0:0:
448,192,190048,1,0,0:0:0:0:
192,192,190199,1,0,0:0:0:0:
192,192,190275,1,0,0:0:0:0:
64,192,190351,1,0,0:0:0:0:
64,192,190503,1,0,0:0:0:0:
192,192,190503,1,0,0:0:0:0:
448,192,190503,1,0,0:0:0:0:
192,192,190578,1,0,0:0:0:0:
320,192,190654,1,0,0:0:0:0:
448,192,190654,1,0,0:0:0:0:
192,192,190730,1,0,0:0:0:0:
448,192,190730,1,0,0:0:0:0:
192,192,190806,1,0,0:0:0:0:
64,192,190806,1,0,0:0:0:0:
320,192,190881,1,0,0:0:0:0:
64,192,190957,1,0,0:0:0:0:
192,192,190957,1,0,0:0:0:0:
448,192,190957,1,0,0:0:0:0:
192,192,191033,1,0,0:0:0:0:
448,192,191109,1,0,0:0:0:0:
320,192,191109,1,0,0:0:0:0:
192,192,191184,1,0,0:0:0:0:
448,192,191184,1,0,0:0:0:0:
64,192,191260,1,0,0:0:0:0:
192,192,191260,1,0,0:0:0:0:
320,192,191412,1,0,0:0:0:0:
320,192,191487,1,0,0:0:0:0:
448,192,191563,1,0,0:0:0:0:
448,192,191639,1,0,0:0:0:0:
320,192,191715,1,0,0:0:0:0:
192,192,191715,1,0,0:0:0:0:
64,192,191715,1,0,0:0:0:0:
320,192,191790,1,0,0:0:0:0:
192,192,191866,1,0,0:0:0:0:
448,192,191866,1,0,0:0:0:0:
320,192,191942,1,0,0:0:0:0:
64,192,191942,1,0,0:0:0:0:
192,192,192018,1,0,0:0:0:0:
320,192,192018,1,0,0:0:0:0:
192,192,192093,1,0,0:0:0:0:
64,192,192169,1,0,0:0:0:0:
320,192,192169,1,0,0:0:0:0:
64,192,192245,1,0,0:0:0:0:
192,192,192321,1,0,0:0:0:0:
448,192,192321,1,0,0:0:0:0:
320,192,192321,1,0,0:0:0:0:
192,192,192396,1,0,0:0:0:0:
64,192,192472,1,0,0:0:0:0:
320,192,192472,1,0,0:0:0:0:
192,192,192548,1,0,0:0:0:0:
448,192,192548,1,0,0:0:0:0:
320,192,192624,1,0,0:0:0:0:
192,192,192624,1,0,0:0:0:0:
320,192,192699,1,0,0:0:0:0:
448,192,192775,1,0,0:0:0:0:
192,192,192775,1,0,0:0:0:0:
448,192,192851,1,0,0:0:0:0:
64,192,192927,5,0,0:0:0:0:
192,192,192927,1,0,0:0:0:0:
320,192,192927,1,0,0:0:0:0:
448,192,193003,5,0,0:0:0:0:
192,192,193078,1,0,0:0:0:0:
320,192,193154,1,0,0:0:0:0:
64,192,193230,1,0,0:0:0:0:
192,192,193280,1,0,0:0:0:0:
448,192,193331,1,0,0:0:0:0:
320,192,193381,1,0,0:0:0:0:
320,192,193533,1,0,0:0:0:0:
448,192,193552,1,0,0:0:0:0:
192,192,193684,1,0,0:0:0:0:
320,192,193760,1,0,0:0:0:0:
64,192,193912,1,0,0:0:0:0:
448,192,193987,1,0,0:0:0:0:
320,192,194139,5,0,0:0:0:0:
64,192,194139,1,0,0:0:0:0:
192,192,194139,1,0,0:0:0:0:
192,192,194215,1,0,0:0:0:0:
448,192,194290,1,0,0:0:0:0:
448,192,194366,1,0,0:0:0:0:
192,192,194366,1,0,0:0:0:0:
64,192,194366,1,0,0:0:0:0:
64,192,194442,1,0,0:0:0:0:
320,192,194518,1,0,0:0:0:0:
192,192,194593,1,0,0:0:0:0:
64,192,194593,1,0,0:0:0:0:
320,192,194593,1,0,0:0:0:0:
192,192,194669,1,0,0:0:0:0:
448,192,194745,1,0,0:0:0:0:
448,192,194821,1,0,0:0:0:0:
192,192,194821,1,0,0:0:0:0:
64,192,194821,1,0,0:0:0:0:
64,192,194896,1,0,0:0:0:0:
320,192,194972,1,0,0:0:0:0:
192,192,195048,1,0,0:0:0:0:
448,192,195048,1,0,0:0:0:0:
320,192,195048,1,0,0:0:0:0:
448,192,195124,1,0,0:0:0:0:
192,192,195199,1,0,0:0:0:0:
64,192,195199,1,0,0:0:0:0:
320,192,195199,1,0,0:0:0:0:
64,192,195275,1,0,0:0:0:0:
192,192,195351,1,0,0:0:0:0:
448,192,195351,1,0,0:0:0:0:
320,192,195351,1,0,0:0:0:0:
320,192,195427,1,0,0:0:0:0:
64,192,195503,1,0,0:0:0:0:
448,192,195578,1,0,0:0:0:0:
320,192,195578,1,0,0:0:0:0:
64,192,195578,1,0,0:0:0:0:
448,192,195654,1,0,0:0:0:0:
192,192,195730,1,0,0:0:0:0:
448,192,195806,1,0,0:0:0:0:
320,192,195806,1,0,0:0:0:0:
192,192,195806,1,0,0:0:0:0:
320,192,195881,1,0,0:0:0:0:
64,192,195957,1,0,0:0:0:0:
448,192,196033,1,0,0:0:0:0:
320,192,196033,1,0,0:0:0:0:
192,192,196033,1,0,0:0:0:0:
64,192,196071,1,0,0:0:0:0:
448,192,196109,1,0,0:0:0:0:
192,192,196146,1,0,0:0:0:0:
320,192,196184,1,0,0:0:0:0:
448,192,196260,1,0,0:0:0:0:
64,192,196260,1,0,0:0:0:0:
192,192,196260,1,0,0:0:0:0:
320,192,196298,1,0,0:0:0:0:
192,192,196336,1,0,0:0:0:0:
448,192,196412,1,0,0:0:0:0:
320,192,196412,1,0,0:0:0:0:
64,192,196412,1,0,0:0:0:0:
192,192,196449,1,0,0:0:0:0:
320,192,196487,1,0,0:0:0:0:
64,192,196563,1,0,0:0:0:0:
192,192,196563,1,0,0:0:0:0:
448,192,196563,1,0,0:0:0:0:
64,192,196639,1,0,0:0:0:0:
320,192,196715,1,0,0:0:0:0:
64,192,196790,1,0,0:0:0:0:
192,192,196790,1,0,0:0:0:0:
320,192,196790,1,0,0:0:0:0:
192,192,196866,1,0,0:0:0:0:
448,192,196942,1,0,0:0:0:0:
64,192,197018,1,0,0:0:0:0:
192,192,197018,1,0,0:0:0:0:
448,192,197018,1,0,0:0:0:0:
64,192,197093,1,0,0:0:0:0:
320,192,197169,1,0,0:0:0:0:
64,192,197245,1,0,0:0:0:0:
192,192,197245,1,0,0:0:0:0:
320,192,197245,1,0,0:0:0:0:
192,192,197321,1,0,0:0:0:0:
448,192,197396,1,0,0:0:0:0:
320,192,197472,1,0,0:0:0:0:
448,192,197472,1,0,0:0:0:0:
64,192,197472,1,0,0:0:0:0:
320,192,197548,1,0,0:0:0:0:
64,192,197624,1,0,0:0:0:0:
192,192,197624,1,0,0:0:0:0:
448,192,197624,1,0,0:0:0:0:
192,192,197699,1,0,0:0:0:0:
320,192,197775,1,0,0:0:0:0:
448,192,197775,1,0,0:0:0:0:
64,192,197775,1,0,0:0:0:0:
448,192,197851,1,0,0:0:0:0:
192,192,197927,1,0,0:0:0:0:
320,192,198003,1,0,0:0:0:0:
448,192,198003,1,0,0:0:0:0:
192,192,198003,1,0,0:0:0:0:
320,192,198078,1,0,0:0:0:0:
64,192,198154,1,0,0:0:0:0:
320,192,198230,1,0,0:0:0:0:
448,192,198230,1,0,0:0:0:0:
64,192,198230,1,0,0:0:0:0:
448,192,198306,1,0,0:0:0:0:
192,192,198381,1,0,0:0:0:0:
320,192,198457,1,0,0:0:0:0:
448,192,198457,1,0,0:0:0:0:
192,192,198457,1,0,0:0:0:0:
320,192,198533,1,0,0:0:0:0:
64,192,198609,1,0,0:0:0:0:
64,192,198684,1,0,0:0:0:0:
192,192,198684,1,0,0:0:0:0:
448,192,198684,1,0,0:0:0:0:
320,192,198735,1,0,0:0:0:0:
192,192,198785,1,0,0:0:0:0:
320,192,198836,1,0,0:0:0:0:
448,192,198836,1,0,0:0:0:0:
64,192,198874,1,0,0:0:0:0:
448,192,198912,1,0,0:0:0:0:
64,192,198987,1,0,0:0:0:0:
192,192,198987,1,0,0:0:0:0:
320,192,198987,1,0,0:0:0:0:
64,192,199063,1,0,0:0:0:0:
448,192,199139,1,0,0:0:0:0:
64,192,199215,1,0,0:0:0:0:
192,192,199215,1,0,0:0:0:0:
448,192,199215,1,0,0:0:0:0:
192,192,199290,1,0,0:0:0:0:
320,192,199366,1,0,0:0:0:0:
64,192,199442,1,0,0:0:0:0:
192,192,199442,1,0,0:0:0:0:
320,192,199442,1,0,0:0:0:0:
64,192,199518,1,0,0:0:0:0:
448,192,199593,1,0,0:0:0:0:
64,192,199669,1,0,0:0:0:0:
192,192,199669,1,0,0:0:0:0:
448,192,199669,1,0,0:0:0:0:
192,192,199745,1,0,0:0:0:0:
320,192,199821,1,0,0:0:0:0:
448,192,199896,1,0,0:0:0:0:
320,192,199896,1,0,0:0:0:0:
64,192,199896,1,0,0:0:0:0:
448,192,199972,1,0,0:0:0:0:
64,192,200048,1,0,0:0:0:0:
192,192,200048,1,0,0:0:0:0:
320,192,200048,1,0,0:0:0:0:
192,192,200124,1,0,0:0:0:0:
320,192,200199,1,0,0:0:0:0:
448,192,200199,1,0,0:0:0:0:
64,192,200199,1,0,0:0:0:0:
320,192,200275,1,0,0:0:0:0:
192,192,200351,1,0,0:0:0:0:
320,192,200427,1,0,0:0:0:0:
448,192,200427,1,0,0:0:0:0:
192,192,200427,1,0,0:0:0:0:
448,192,200503,1,0,0:0:0:0:
64,192,200578,1,0,0:0:0:0:
320,192,200654,1,0,0:0:0:0:
448,192,200654,1,0,0:0:0:0:
64,192,200654,1,0,0:0:0:0:
320,192,200730,1,0,0:0:0:0:
192,192,200806,1,0,0:0:0:0:
320,192,200881,1,0,0:0:0:0:
448,192,200881,1,0,0:0:0:0:
192,192,200881,1,0,0:0:0:0:
64,192,200919,1,0,0:0:0:0:
448,192,200957,1,0,0:0:0:0:
192,192,200995,1,0,0:0:0:0:
320,192,201033,1,0,0:0:0:0:
64,192,201109,1,0,0:0:0:0:
192,192,201109,1,0,0:0:0:0:
448,192,201109,1,0,0:0:0:0:
320,192,201146,1,0,0:0:0:0:
192,192,201184,1,0,0:0:0:0:
320,192,201260,1,0,0:0:0:0:
448,192,201260,1,0,0:0:0:0:
64,192,201260,1,0,0:0:0:0:
192,192,201298,1,0,0:0:0:0:
320,192,201336,1,0,0:0:0:0:
64,192,201412,1,0,0:0:0:0:
192,192,201412,1,0,0:0:0:0:
448,192,201412,1,0,0:0:0:0:
320,192,201487,1,0,0:0:0:0:
448,192,201563,1,0,0:0:0:0:
64,192,201639,1,0,0:0:0:0:
448,192,201639,1,0,0:0:0:0:
320,192,201639,1,0,0:0:0:0:
192,192,201715,1,0,0:0:0:0:
64,192,201790,1,0,0:0:0:0:
64,192,201866,1,0,0:0:0:0:
192,192,201866,1,0,0:0:0:0:
320,192,201866,1,0,0:0:0:0:
448,192,201942,1,0,0:0:0:0:
320,192,202018,1,0,0:0:0:0:
192,192,202093,1,0,0:0:0:0:
320,192,202093,1,0,0:0:0:0:
448,192,202093,1,0,0:0:0:0:
64,192,202169,1,0,0:0:0:0:
192,192,202245,1,0,0:0:0:0:
64,192,202321,1,0,0:0:0:0:
192,192,202321,1,0,0:0:0:0:
320,192,202321,1,0,0:0:0:0:
320,192,202396,1,0,0:0:0:0:
64,192,202472,1,0,0:0:0:0:
192,192,202472,1,0,0:0:0:0:
448,192,202472,1,0,0:0:0:0:
192,192,202548,1,0,0:0:0:0:
448,192,202624,1,0,0:0:0:0:
64,192,202624,1,0,0:0:0:0:
192,192,202662,1,0,0:0:0:0:
448,192,202699,1,0,0:0:0:0:
64,192,202775,1,0,0:0:0:0:
320,192,202775,1,0,0:0:0:0:
192,192,202813,1,0,0:0:0:0:
320,192,202851,1,0,0:0:0:0:
64,192,202927,1,0,0:0:0:0:
448,192,202927,1,0,0:0:0:0:
320,192,202965,1,0,0:0:0:0:
64,192,203003,1,0,0:0:0:0:
192,192,203078,1,0,0:0:0:0:
448,192,203078,1,0,0:0:0:0:
320,192,203116,1,0,0:0:0:0:
192,192,203154,1,0,0:0:0:0:
64,192,203230,1,0,0:0:0:0:
448,192,203280,1,0,0:0:0:0:
192,192,203331,1,0,0:0:0:0:
320,192,203381,1,0,0:0:0:0:
448,192,203432,1,0,0:0:0:0:
64,192,203482,1,0,0:0:0:0:
448,192,203533,1,0,0:0:0:0:
192,192,203533,1,0,0:0:0:0:
320,192,203583,1,0,0:0:0:0:
192,192,203634,1,0,0:0:0:0:
448,192,203684,1,0,0:0:0:0:
320,192,203684,1,0,0:0:0:0:
64,192,203760,1,0,0:0:0:0:
192,192,203836,5,0,0:0:0:0:
448,192,203836,1,0,0:0:0:0:
320,192,203836,1,0,0:0:0:0:
320,192,203912,1,0,0:0:0:0:
64,192,203987,1,0,0:0:0:0:
64,192,204063,1,0,0:0:0:0:
320,192,204063,1,0,0:0:0:0:
448,192,204063,1,0,0:0:0:0:
448,192,204139,1,0,0:0:0:0:
192,192,204215,1,0,0:0:0:0:
320,192,204290,1,0,0:0:0:0:
448,192,204290,1,0,0:0:0:0:
192,192,204290,1,0,0:0:0:0:
320,192,204366,1,0,0:0:0:0:
64,192,204442,1,0,0:0:0:0:
64,192,204518,1,0,0:0:0:0:
320,192,204518,1,0,0:0:0:0:
448,192,204518,1,0,0:0:0:0:
448,192,204593,1,0,0:0:0:0:
192,192,204669,1,0,0:0:0:0:
320,192,204745,1,0,0:0:0:0:
64,192,204745,1,0,0:0:0:0:
192,192,204745,1,0,0:0:0:0:
64,192,204821,1,0,0:0:0:0:
320,192,204896,1,0,0:0:0:0:
448,192,204896,1,0,0:0:0:0:
192,192,204896,1,0,0:0:0:0:
320,192,204972,1,0,0:0:0:0:
64,192,205048,1,0,0:0:0:0:
192,192,205048,1,0,0:0:0:0:
448,192,205086,1,0,0:0:0:0:
192,192,205124,1,0,0:0:0:0:
320,192,205162,1,0,0:0:0:0:
64,192,205199,1,0,0:0:0:0:
448,192,205275,1,0,0:0:0:0:
320,192,205275,1,0,0:0:0:0:
64,192,205313,1,0,0:0:0:0:
320,192,205351,1,0,0:0:0:0:
192,192,205389,1,0,0:0:0:0:
448,192,205427,1,0,0:0:0:0:
192,192,205503,1,0,0:0:0:0:
64,192,205503,1,0,0:0:0:0:
320,192,205540,1,0,0:0:0:0:
192,192,205578,1,0,0:0:0:0:
64,192,205654,1,0,0:0:0:0:
448,192,205730,1,0,0:0:0:0:
320,192,205730,1,0,0:0:0:0:
64,192,205806,1,0,0:0:0:0:
320,192,205806,1,0,0:0:0:0:
192,192,205881,1,0,0:0:0:0:
448,192,205957,1,0,0:0:0:0:
64,192,205957,1,0,0:0:0:0:
320,192,206008,1,0,0:0:0:0:
192,192,206058,1,0,0:0:0:0:
64,192,206109,1,0,0:0:0:0:
448,192,206109,1,0,0:0:0:0:
64,192,206184,1,0,0:0:0:0:
448,192,206260,1,0,0:0:0:0:
320,192,206260,1,0,0:0:0:0:
192,192,206260,1,0,0:0:0:0:
320,192,206336,1,0,0:0:0:0:
64,192,206412,1,0,0:0:0:0:
448,192,206487,1,0,0:0:0:0:
320,192,206487,1,0,0:0:0:0:
64,192,206487,1,0,0:0:0:0:
448,192,206563,1,0,0:0:0:0:
192,192,206639,1,0,0:0:0:0:
448,192,206715,1,0,0:0:0:0:
320,192,206715,1,0,0:0:0:0:
192,192,206715,1,0,0:0:0:0:
320,192,206790,1,0,0:0:0:0:
64,192,206866,1,0,0:0:0:0:
448,192,206942,1,0,0:0:0:0:
320,192,206942,1,0,0:0:0:0:
64,192,206942,1,0,0:0:0:0:
448,192,207018,1,0,0:0:0:0:
192,192,207093,1,0,0:0:0:0:
192,192,207169,1,0,0:0:0:0:
64,192,207169,1,0,0:0:0:0:
320,192,207169,1,0,0:0:0:0:
64,192,207245,1,0,0:0:0:0:
448,192,207321,1,0,0:0:0:0:
320,192,207321,1,0,0:0:0:0:
192,192,207321,1,0,0:0:0:0:
448,192,207396,1,0,0:0:0:0:
192,192,207472,1,0,0:0:0:0:
64,192,207472,1,0,0:0:0:0:
320,192,207472,1,0,0:0:0:0:
448,192,207510,1,0,0:0:0:0:
192,192,207548,1,0,0:0:0:0:
320,192,207586,1,0,0:0:0:0:
64,192,207624,1,0,0:0:0:0:
192,192,207699,1,0,0:0:0:0:
320,192,207699,1,0,0:0:0:0:
448,192,207699,1,0,0:0:0:0:
64,192,207775,1,0,0:0:0:0:
448,192,207775,1,0,0:0:0:0:
320,192,207851,1,0,0:0:0:0:
192,192,207927,1,0,0:0:0:0:
64,192,207927,1,0,0:0:0:0:
320,192,207927,1,0,0:0:0:0:
448,192,207965,1,0,0:0:0:0:
64,192,208003,1,0,0:0:0:0:
320,192,208040,1,0,0:0:0:0:
192,192,208078,1,0,0:0:0:0:
448,192,208154,1,0,0:0:0:0:
320,192,208154,1,0,0:0:0:0:
192,192,208192,1,0,0:0:0:0:
448,192,208230,1,0,0:0:0:0:
64,192,208230,1,0,0:0:0:0:
192,192,208306,1,0,0:0:0:0:
320,192,208343,1,0,0:0:0:0:
64,192,208381,1,0,0:0:0:0:
448,192,208381,1,0,0:0:0:0:
320,192,208457,1,0,0:0:0:0:
192,192,208495,1,0,0:0:0:0:
64,192,208533,1,0,0:0:0:0:
448,192,208533,1,0,0:0:0:0:
320,192,208583,1,0,0:0:0:0:
192,192,208634,1,0,0:0:0:0:
448,192,208684,1,0,0:0:0:0:
320,192,208684,1,0,0:0:0:0:
64,192,208684,1,0,0:0:0:0:
448,192,208760,1,0,0:0:0:0:
64,192,208836,1,0,0:0:0:0:
448,192,208912,1,0,0:0:0:0:
320,192,208912,1,0,0:0:0:0:
64,192,208912,1,0,0:0:0:0:
448,192,208987,1,0,0:0:0:0:
192,192,209063,1,0,0:0:0:0:
448,192,209139,1,0,0:0:0:0:
320,192,209139,1,0,0:0:0:0:
192,192,209139,1,0,0:0:0:0:
320,192,209215,1,0,0:0:0:0:
64,192,209290,1,0,0:0:0:0:
448,192,209366,1,0,0:0:0:0:
320,192,209366,1,0,0:0:0:0:
64,192,209366,1,0,0:0:0:0:
448,192,209442,1,0,0:0:0:0:
192,192,209518,1,0,0:0:0:0:
64,192,209593,1,0,0:0:0:0:
192,192,209593,1,0,0:0:0:0:
320,192,209593,1,0,0:0:0:0:
64,192,209669,1,0,0:0:0:0:
448,192,209745,1,0,0:0:0:0:
320,192,209745,1,0,0:0:0:0:
192,192,209745,1,0,0:0:0:0:
448,192,209821,1,0,0:0:0:0:
192,192,209896,1,0,0:0:0:0:
64,192,209896,1,0,0:0:0:0:
320,192,209934,1,0,0:0:0:0:
448,192,209972,1,0,0:0:0:0:
320,192,210010,1,0,0:0:0:0:
192,192,210048,1,0,0:0:0:0:
64,192,210086,1,0,0:0:0:0:
448,192,210124,1,0,0:0:0:0:
320,192,210124,1,0,0:0:0:0:
192,192,210162,1,0,0:0:0:0:
64,192,210199,1,0,0:0:0:0:
192,192,210237,1,0,0:0:0:0:
320,192,210275,1,0,0:0:0:0:
448,192,210313,1,0,0:0:0:0:
192,192,210351,1,0,0:0:0:0:
64,192,210351,1,0,0:0:0:0:
320,192,210389,1,0,0:0:0:0:
448,192,210427,1,0,0:0:0:0:
320,192,210465,1,0,0:0:0:0:
192,192,210503,1,0,0:0:0:0:
64,192,210540,1,0,0:0:0:0:
448,192,210578,1,0,0:0:0:0:
320,192,210578,1,0,0:0:0:0:
192,192,210616,1,0,0:0:0:0:
64,192,210654,1,0,0:0:0:0:
192,192,210692,1,0,0:0:0:0:
320,192,210730,1,0,0:0:0:0:
448,192,210768,1,0,0:0:0:0:
192,192,210806,1,0,0:0:0:0:
64,192,210806,1,0,0:0:0:0:
320,192,210843,1,0,0:0:0:0:
448,192,210881,1,0,0:0:0:0:
320,192,210919,1,0,0:0:0:0:
192,192,210957,1,0,0:0:0:0:
64,192,210957,1,0,0:0:0:0:
448,192,210995,1,0,0:0:0:0:
320,192,211033,1,0,0:0:0:0:
192,192,211071,1,0,0:0:0:0:
64,192,211109,1,0,0:0:0:0:
448,192,211109,1,0,0:0:0:0:
320,192,211184,1,0,0:0:0:0:
192,192,211260,1,0,0:0:0:0:
448,192,211336,1,0,0:0:0:0:
320,192,211336,1,0,0:0:0:0:
192,192,211412,1,0,0:0:0:0:
320,192,211487,1,0,0:0:0:0:
64,192,211563,1,0,0:0:0:0:
192,192,211563,1,0,0:0:0:0:
320,192,211639,1,0,0:0:0:0:
192,192,211715,1,0,0:0:0:0:
448,192,211790,1,0,0:0:0:0:
320,192,211790,1,0,0:0:0:0:
192,192,211866,1,0,0:0:0:0:
320,192,211942,1,0,0:0:0:0:
192,192,212018,1,0,0:0:0:0:
64,192,212018,1,0,0:0:0:0:
448,192,212093,1,0,0:0:0:0:
320,192,212093,1,0,0:0:0:0:
192,192,212169,1,0,0:0:0:0:
64,192,212169,1,0,0:0:0:0:
448,192,212245,1,0,0:0:0:0:
320,192,212245,1,0,0:0:0:0:
192,192,212321,1,0,0:0:0:0:
64,192,212321,1,0,0:0:0:0:
448,192,212396,1,0,0:0:0:0:
64,192,212472,1,0,0:0:0:0:
448,192,212548,1,0,0:0:0:0:
320,192,212548,1,0,0:0:0:0:
64,192,212624,1,0,0:0:0:0:
448,192,212699,1,0,0:0:0:0:
64,192,212775,1,0,0:0:0:0:
192,192,212775,1,0,0:0:0:0:
448,192,212851,1,0,0:0:0:0:
64,192,212927,1,0,0:0:0:0:
192,192,212927,1,0,0:0:0:0:
448,192,213003,1,0,0:0:0:0:
64,192,213078,1,0,0:0:0:0:
448,192,213154,1,0,0:0:0:0:
64,192,213230,1,0,0:0:0:0:
192,192,213230,1,0,0:0:0:0:
448,192,213306,1,0,0:0:0:0:
64,192,213381,1,0,0:0:0:0:
448,192,213457,1,0,0:0:0:0:
64,192,213533,1,0,0:0:0:0:
192,192,213533,1,0,0:0:0:0:
320,192,213533,1,0,0:0:0:0:
448,192,213684,1,0,0:0:0:0:
64,192,213836,1,0,0:0:0:0:
448,192,213987,1,0,0:0:0:0:
320,192,214063,1,0,0:0:0:0:
192,192,214139,1,0,0:0:0:0:
448,192,214290,1,0,0:0:0:0:
320,192,214442,1,0,0:0:0:0:
192,192,214593,1,0,0:0:0:0:
64,192,214745,1,0,0:0:0:0:
320,192,214896,5,0,0:0:0:0:
64,192,214896,1,0,0:0:0:0:
448,192,215048,1,0,0:0:0:0:
192,192,215048,1,0,0:0:0:0:
448,192,215199,1,0,0:0:0:0:
192,192,215199,1,0,0:0:0:0:
320,192,215351,1,0,0:0:0:0:
64,192,215351,1,0,0:0:0:0:
64,192,215427,1,0,0:0:0:0:
192,192,215503,1,0,0:0:0:0:
448,192,215503,1,0,0:0:0:0:
448,192,215578,1,0,0:0:0:0:
64,192,215654,1,0,0:0:0:0:
192,192,215705,1,0,0:0:0:0:
448,192,215755,1,0,0:0:0:0:
320,192,215806,1,0,0:0:0:0:
64,192,215856,1,0,0:0:0:0:
192,192,215907,1,0,0:0:0:0:
448,192,215957,1,0,0:0:0:0:
320,192,215957,1,0,0:0:0:0:
64,192,215957,1,0,0:0:0:0:
448,192,216033,1,0,0:0:0:0:
192,192,216109,1,0,0:0:0:0:
64,192,216184,1,0,0:0:0:0:
448,192,216260,1,0,0:0:0:0:
320,192,216311,1,0,0:0:0:0:
192,192,216361,1,0,0:0:0:0:
64,192,216412,1,0,0:0:0:0:
448,192,216412,1,0,0:0:0:0:
320,192,216487,1,0,0:0:0:0:
192,192,216487,1,0,0:0:0:0:
448,192,216563,1,0,0:0:0:0:
64,192,216563,1,0,0:0:0:0:
64,192,216639,1,0,0:0:0:0:
448,192,216715,1,0,0:0:0:0:
320,192,216790,1,0,0:0:0:0:
64,192,216866,1,0,0:0:0:0:
192,192,216917,1,0,0:0:0:0:
320,192,216967,1,0,0:0:0:0:
448,192,217018,1,0,0:0:0:0:
64,192,217093,1,0,0:0:0:0:
192,192,217169,1,0,0:0:0:0:
448,192,217245,1,0,0:0:0:0:
64,192,217321,1,0,0:0:0:0:
192,192,217321,1,0,0:0:0:0:
320,192,217321,1,0,0:0:0:0:
320,192,217396,1,0,0:0:0:0:
448,192,217472,1,0,0:0:0:0:
192,192,217472,1,0,0:0:0:0:
64,192,217472,1,0,0:0:0:0:
320,192,217523,1,0,0:0:0:0:
192,192,217573,1,0,0:0:0:0:
448,192,217624,1,0,0:0:0:0:
64,192,217624,1,0,0:0:0:0:
320,192,217699,1,0,0:0:0:0:
192,192,217775,1,0,0:0:0:0:
64,192,217775,1,0,0:0:0:0:
192,192,217851,1,0,0:0:0:0:
448,192,217927,1,0,0:0:0:0:
320,192,218003,1,0,0:0:0:0:
448,192,218078,1,0,0:0:0:0:
64,192,218078,1,0,0:0:0:0:
192,192,218129,1,0,0:0:0:0:
320,192,218179,1,0,0:0:0:0:
64,192,218230,1,0,0:0:0:0:
448,192,218230,1,0,0:0:0:0:
192,192,218306,1,0,0:0:0:0:
448,192,218381,1,0,0:0:0:0:
320,192,218381,1,0,0:0:0:0:
64,192,218381,1,0,0:0:0:0:
64,192,218457,1,0,0:0:0:0:
320,192,218533,1,0,0:0:0:0:
448,192,218609,1,0,0:0:0:0:
64,192,218684,1,0,0:0:0:0:
192,192,218735,1,0,0:0:0:0:
320,192,218785,1,0,0:0:0:0:
448,192,218836,1,0,0:0:0:0:
64,192,218836,1,0,0:0:0:0:
192,192,218912,1,0,0:0:0:0:
320,192,218912,1,0,0:0:0:0:
64,192,218987,1,0,0:0:0:0:
448,192,218987,1,0,0:0:0:0:
448,192,219063,1,0,0:0:0:0:
64,192,219139,1,0,0:0:0:0:
192,192,219215,1,0,0:0:0:0:
448,192,219290,1,0,0:0:0:0:
320,192,219341,1,0,0:0:0:0:
192,192,219391,1,0,0:0:0:0:
64,192,219442,1,0,0:0:0:0:
448,192,219518,1,0,0:0:0:0:
320,192,219593,1,0,0:0:0:0:
64,192,219669,1,0,0:0:0:0:
448,192,219745,1,0,0:0:0:0:
320,192,219745,1,0,0:0:0:0:
192,192,219745,1,0,0:0:0:0:
192,192,219821,1,0,0:0:0:0:
64,192,219896,1,0,0:0:0:0:
320,192,219896,1,0,0:0:0:0:
448,192,219896,1,0,0:0:0:0:
192,192,219947,1,0,0:0:0:0:
320,192,219997,1,0,0:0:0:0:
64,192,220048,1,0,0:0:0:0:
448,192,220048,1,0,0:0:0:0:
192,192,220124,1,0,0:0:0:0:
320,192,220199,1,0,0:0:0:0:
448,192,220199,1,0,0:0:0:0:
320,192,220275,1,0,0:0:0:0:
64,192,220351,1,0,0:0:0:0:
448,192,220351,1,0,0:0:0:0:
192,192,220427,1,0,0:0:0:0:
64,192,220503,1,0,0:0:0:0:
448,192,220503,1,0,0:0:0:0:
320,192,220553,1,0,0:0:0:0:
192,192,220604,1,0,0:0:0:0:
448,192,220654,1,0,0:0:0:0:
64,192,220654,1,0,0:0:0:0:
320,192,220730,1,0,0:0:0:0:
448,192,220806,1,0,0:0:0:0:
192,192,220806,1,0,0:0:0:0:
64,192,220806,1,0,0:0:0:0:
448,192,220881,1,0,0:0:0:0:
192,192,220957,1,0,0:0:0:0:
64,192,221033,1,0,0:0:0:0:
448,192,221109,1,0,0:0:0:0:
320,192,221159,1,0,0:0:0:0:
192,192,221210,1,0,0:0:0:0:
64,192,221260,1,0,0:0:0:0:
448,192,221260,1,0,0:0:0:0:
320,192,221336,1,0,0:0:0:0:
192,192,221336,1,0,0:0:0:0:
448,192,221412,1,0,0:0:0:0:
64,192,221412,1,0,0:0:0:0:
64,192,221487,1,0,0:0:0:0:
448,192,221563,1,0,0:0:0:0:
192,192,221563,1,0,0:0:0:0:
320,192,221639,1,0,0:0:0:0:
64,192,221715,1,0,0:0:0:0:
448,192,221715,1,0,0:0:0:0:
192,192,221765,1,0,0:0:0:0:
320,192,221816,1,0,0:0:0:0:
448,192,221866,1,0,0:0:0:0:
64,192,221866,1,0,0:0:0:0:
192,192,221942,1,0,0:0:0:0:
320,192,222018,1,0,0:0:0:0:
64,192,222018,1,0,0:0:0:0:
448,192,222093,1,0,0:0:0:0:
64,192,222169,1,0,0:0:0:0:
192,192,222169,1,0,0:0:0:0:
320,192,222169,1,0,0:0:0:0:
448,192,222245,1,0,0:0:0:0:
448,192,222321,1,0,0:0:0:0:
192,192,222321,1,0,0:0:0:0:
64,192,222321,1,0,0:0:0:0:
320,192,222371,1,0,0:0:0:0:
192,192,222422,1,0,0:0:0:0:
448,192,222472,1,0,0:0:0:0:
64,192,222472,1,0,0:0:0:0:
320,192,222548,1,0,0:0:0:0:
448,192,222624,1,0,0:0:0:0:
192,192,222624,1,0,0:0:0:0:
64,192,222624,1,0,0:0:0:0:
192,192,222775,1,0,0:0:0:0:
320,192,222775,1,0,0:0:0:0:
192,192,222927,1,0,0:0:0:0:
64,192,222927,1,0,0:0:0:0:
320,192,223078,1,0,0:0:0:0:
448,192,223078,1,0,0:0:0:0:
448,192,223230,1,0,0:0:0:0:
320,192,223230,1,0,0:0:0:0:
192,192,223230,1,0,0:0:0:0:
448,192,223306,1,0,0:0:0:0:
64,192,223381,1,0,0:0:0:0:
320,192,223381,1,0,0:0:0:0:
64,192,223457,1,0,0:0:0:0:
448,192,223533,1,0,0:0:0:0:
192,192,223533,1,0,0:0:0:0:
448,192,223609,1,0,0:0:0:0:
192,192,223684,1,0,0:0:0:0:
64,192,223684,1,0,0:0:0:0:
320,192,223684,1,0,0:0:0:0:
192,192,223760,1,0,0:0:0:0:
64,192,223760,1,0,0:0:0:0:
448,192,223836,1,0,0:0:0:0:
320,192,223836,1,0,0:0:0:0:
192,192,223836,1,0,0:0:0:0:
320,192,223912,1,0,0:0:0:0:
192,192,223987,1,0,0:0:0:0:
448,192,223987,1,0,0:0:0:0:
192,192,224063,1,0,0:0:0:0:
320,192,224139,1,0,0:0:0:0:
64,192,224139,1,0,0:0:0:0:
320,192,224215,1,0,0:0:0:0:
192,192,224290,1,0,0:0:0:0:
448,192,224290,1,0,0:0:0:0:
192,192,224366,1,0,0:0:0:0:
320,192,224442,1,0,0:0:0:0:
64,192,224442,1,0,0:0:0:0:
320,192,224518,1,0,0:0:0:0:
448,192,224593,1,0,0:0:0:0:
64,192,224593,1,0,0:0:0:0:
192,192,224593,1,0,0:0:0:0:
64,192,224669,1,0,0:0:0:0:
448,192,224745,1,0,0:0:0:0:
320,192,224745,1,0,0:0:0:0:
192,192,224745,1,0,0:0:0:0:
320,192,224821,1,0,0:0:0:0:
448,192,224896,1,0,0:0:0:0:
64,192,224896,1,0,0:0:0:0:
192,192,224896,1,0,0:0:0:0:
192,192,224972,1,0,0:0:0:0:
320,192,225048,1,0,0:0:0:0:
64,192,225048,1,0,0:0:0:0:
448,192,225048,1,0,0:0:0:0:
448,192,225124,1,0,0:0:0:0:
64,192,225199,1,0,0:0:0:0:
192,192,225199,1,0,0:0:0:0:
320,192,225199,1,0,0:0:0:0:
64,192,225275,1,0,0:0:0:0:
448,192,225351,1,0,0:0:0:0:
320,192,225351,1,0,0:0:0:0:
192,192,225351,1,0,0:0:0:0:
448,192,225427,1,0,0:0:0:0:
192,192,225503,1,0,0:0:0:0:
64,192,225503,1,0,0:0:0:0:
320,192,225503,1,0,0:0:0:0:
192,192,225578,1,0,0:0:0:0:
448,192,225654,1,0,0:0:0:0:
64,192,225654,1,0,0:0:0:0:
320,192,225654,1,0,0:0:0:0:
320,192,225730,1,0,0:0:0:0:
64,192,225806,1,0,0:0:0:0:
448,192,225806,1,0,0:0:0:0:
64,192,225881,1,0,0:0:0:0:
192,192,225957,1,0,0:0:0:0:
320,192,225957,1,0,0:0:0:0:
192,192,226033,1,0,0:0:0:0:
448,192,226109,1,0,0:0:0:0:
320,192,226109,1,0,0:0:0:0:
64,192,226109,1,0,0:0:0:0:
448,192,226184,1,0,0:0:0:0:
320,192,226184,1,0,0:0:0:0:
448,192,226260,1,0,0:0:0:0:
192,192,226260,1,0,0:0:0:0:
64,192,226260,1,0,0:0:0:0:
192,192,226336,1,0,0:0:0:0:
448,192,226412,1,0,0:0:0:0:
64,192,226412,1,0,0:0:0:0:
448,192,226487,1,0,0:0:0:0:
192,192,226563,1,0,0:0:0:0:
320,192,226563,1,0,0:0:0:0:
320,192,226639,1,0,0:0:0:0:
448,192,226715,1,0,0:0:0:0:
192,192,226715,1,0,0:0:0:0:
192,192,226790,1,0,0:0:0:0:
64,192,226866,1,0,0:0:0:0:
192,192,226904,1,0,0:0:0:0:
320,192,226942,1,0,0:0:0:0:
64,192,226980,1,0,0:0:0:0:
448,192,227018,1,0,0:0:0:0:
192,192,227018,1,0,0:0:0:0:
320,192,227093,1,0,0:0:0:0:
64,192,227169,1,0,0:0:0:0:
448,192,227169,1,0,0:0:0:0:
320,192,227207,1,0,0:0:0:0:
192,192,227245,1,0,0:0:0:0:
448,192,227283,1,0,0:0:0:0:
320,192,227321,1,0,0:0:0:0:
64,192,227321,1,0,0:0:0:0:
192,192,227396,1,0,0:0:0:0:
448,192,227472,1,0,0:0:0:0:
64,192,227472,1,0,0:0:0:0:
192,192,227510,1,0,0:0:0:0:
320,192,227548,1,0,0:0:0:0:
64,192,227586,1,0,0:0:0:0:
192,192,227624,1,0,0:0:0:0:
320,192,227699,1,0,0:0:0:0:
448,192,227775,1,0,0:0:0:0:
64,192,227775,1,0,0:0:0:0:
320,192,227813,1,0,0:0:0:0:
192,192,227851,1,0,0:0:0:0:
64,192,227889,1,0,0:0:0:0:
320,192,227927,1,0,0:0:0:0:
448,192,227927,1,0,0:0:0:0:
320,192,228003,1,0,0:0:0:0:
64,192,228078,1,0,0:0:0:0:
192,192,228078,1,0,0:0:0:0:
448,192,228078,1,0,0:0:0:0:
64,192,228154,1,0,0:0:0:0:
448,192,228230,1,0,0:0:0:0:
192,192,228230,1,0,0:0:0:0:
448,192,228306,1,0,0:0:0:0:
64,192,228381,1,0,0:0:0:0:
320,192,228381,1,0,0:0:0:0:
64,192,228457,1,0,0:0:0:0:
448,192,228533,1,0,0:0:0:0:
320,192,228533,1,0,0:0:0:0:
192,192,228533,1,0,0:0:0:0:
448,192,228609,1,0,0:0:0:0:
320,192,228609,1,0,0:0:0:0:
448,192,228684,1,0,0:0:0:0:
64,192,228684,1,0,0:0:0:0:
192,192,228684,1,0,0:0:0:0:
192,192,228760,1,0,0:0:0:0:
320,192,228836,1,0,0:0:0:0:
64,192,228836,1,0,0:0:0:0:
320,192,228912,1,0,0:0:0:0:
64,192,228987,1,0,0:0:0:0:
192,192,228987,1,0,0:0:0:0:
448,192,228987,1,0,0:0:0:0:
192,192,229063,1,0,0:0:0:0:
320,192,229139,1,0,0:0:0:0:
64,192,229139,1,0,0:0:0:0:
320,192,229215,1,0,0:0:0:0:
448,192,229290,1,0,0:0:0:0:
192,192,229290,1,0,0:0:0:0:
64,192,229290,1,0,0:0:0:0:
448,192,229366,1,0,0:0:0:0:
320,192,229442,1,0,0:0:0:0:
192,192,229442,1,0,0:0:0:0:
192,192,229518,1,0,0:0:0:0:
448,192,229593,1,0,0:0:0:0:
64,192,229593,1,0,0:0:0:0:
448,192,229669,1,0,0:0:0:0:
64,192,229745,5,0,0:0:0:0:
192,192,229745,1,0,0:0:0:0:
320,192,229745,1,0,0:0:0:0:
64,192,229821,1,0,0:0:0:0:
192,192,229821,1,0,0:0:0:0:
448,192,229896,1,0,0:0:0:0:
320,192,229896,1,0,0:0:0:0:
64,192,229896,1,0,0:0:0:0:
448,192,229972,1,0,0:0:0:0:
192,192,230048,1,0,0:0:0:0:
320,192,230048,1,0,0:0:0:0:
192,192,230124,1,0,0:0:0:0:
448,192,230199,1,0,0:0:0:0:
320,192,230199,1,0,0:0:0:0:
64,192,230199,1,0,0:0:0:0:
448,192,230275,1,0,0:0:0:0:
192,192,230351,1,0,0:0:0:0:
320,192,230351,1,0,0:0:0:0:
192,192,230427,1,0,0:0:0:0:
320,192,230503,5,0,0:0:0:0:
448,192,230503,1,0,0:0:0:0:
320,192,230578,1,0,0:0:0:0:
192,192,230654,1,0,0:0:0:0:
64,192,230730,5,0,0:0:0:0:
192,192,230730,1,0,0:0:0:0:
192,192,230806,1,0,0:0:0:0:
64,192,230957,1,0,0:0:0:0:
192,192,230957,1,0,0:0:0:0:
448,192,230957,1,0,0:0:0:0:
448,192,231109,1,0,0:0:0:0:
320,192,231109,1,0,0:0:0:0:
64,192,231109,1,0,0:0:0:0:
448,192,231412,1,0,0:0:0:0:
192,192,231412,1,0,0:0:0:0:
64,192,231412,1,0,0:0:0:0:
448,192,231563,1,0,0:0:0:0:
320,192,231639,1,0,0:0:0:0:
64,192,231715,5,0,0:0:0:0:
192,192,231715,1,0,0:0:0:0:
320,192,231715,1,0,0:0:0:0:
448,192,231715,1,0,0:0:0:0:
64,192,231790,1,0,0:0:0:0:
448,192,231866,1,0,0:0:0:0:
320,192,231866,1,0,0:0:0:0:
192,192,231866,1,0,0:0:0:0:
64,192,231866,1,0,0:0:0:0:
448,192,231942,1,0,0:0:0:0:
320,192,232018,1,0,0:0:0:0:
192,192,232093,1,0,0:0:0:0:
448,192,232169,1,0,0:0:0:0:
64,192,232169,1,0,0:0:0:0:
320,192,232169,1,0,0:0:0:0:
192,192,232169,1,0,0:0:0:0:
448,192,232245,1,0,0:0:0:0:
64,192,232321,1,0,0:0:0:0:
320,192,232321,1,0,0:0:0:0:
192,192,232321,1,0,0:0:0:0:
448,192,232321,1,0,0:0:0:0:
64,192,232396,1,0,0:0:0:0:
192,192,232472,1,0,0:0:0:0:
448,192,232548,1,0,0:0:0:0:
64,192,232548,1,0,0:0:0:0:
320,192,232548,1,0,0:0:0:0:
192,192,232548,1,0,0:0:0:0:
448,192,232624,1,0,0:0:0:0:
320,192,232699,1,0,0:0:0:0:
64,192,232775,1,0,0:0:0:0:
448,192,232775,1,0,0:0:0:0:
192,192,232775,1,0,0:0:0:0:
320,192,232775,1,0,0:0:0:0:
64,192,232851,1,0,0:0:0:0:
192,192,232927,1,0,0:0:0:0:
320,192,233003,1,0,0:0:0:0:
448,192,233078,1,0,0:0:0:0:
192,192,233078,1,0,0:0:0:0:
64,192,233078,1,0,0:0:0:0:
320,192,233078,1,0,0:0:0:0:
64,192,233154,1,0,0:0:0:0:
320,192,233230,1,0,0:0:0:0:
448,192,233230,1,0,0:0:0:0:
192,192,233230,1,0,0:0:0:0:
64,192,233230,1,0,0:0:0:0:
448,192,233306,1,0,0:0:0:0:
320,192,233381,1,0,0:0:0:0:
448,192,233457,1,0,0:0:0:0:
192,192,233457,1,0,0:0:0:0:
64,192,233457,1,0,0:0:0:0:
320,192,233457,1,0,0:0:0:0:
64,192,233533,1,0,0:0:0:0:
192,192,233609,1,0,0:0:0:0:
64,192,233684,1,0,0:0:0:0:
320,192,233684,1,0,0:0:0:0:
448,192,233684,1,0,0:0:0:0:
192,192,233684,1,0,0:0:0:0:
448,192,233760,1,0,0:0:0:0:
320,192,233836,1,0,0:0:0:0:
448,192,233912,1,0,0:0:0:0:
192,192,233912,1,0,0:0:0:0:
64,192,233912,1,0,0:0:0:0:
320,192,233912,1,0,0:0:0:0:
64,192,233987,1,0,0:0:0:0:
192,192,233987,1,0,0:0:0:0:
448,192,234063,1,0,0:0:0:0:
320,192,234063,1,0,0:0:0:0:
64,192,234139,1,0,0:0:0:0:
320,192,234139,1,0,0:0:0:0:
448,192,234139,1,0,0:0:0:0:
192,192,234139,1,0,0:0:0:0:
64,192,234215,1,0,0:0:0:0:
320,192,234290,1,0,0:0:0:0:
448,192,234290,1,0,0:0:0:0:
192,192,234290,1,0,0:0:0:0:
64,192,234290,1,0,0:0:0:0:
448,192,234366,1,0,0:0:0:0:
320,192,234442,1,0,0:0:0:0:
192,192,234518,1,0,0:0:0:0:
448,192,234593,1,0,0:0:0:0:
64,192,234593,1,0,0:0:0:0:
320,192,234593,1,0,0:0:0:0:
192,192,234593,1,0,0:0:0:0:
448,192,234669,1,0,0:0:0:0:
64,192,234745,1,0,0:0:0:0:
320,192,234745,1,0,0:0:0:0:
192,192,234745,1,0,0:0:0:0:
448,192,234745,1,0,0:0:0:0:
64,192,234821,1,0,0:0:0:0:
192,192,234896,1,0,0:0:0:0:
448,192,234972,1,0,0:0:0:0:
64,192,234972,1,0,0:0:0:0:
320,192,234972,1,0,0:0:0:0:
192,192,234972,1,0,0:0:0:0:
448,192,235048,1,0,0:0:0:0:
320,192,235124,1,0,0:0:0:0:
64,192,235199,1,0,0:0:0:0:
448,192,235199,1,0,0:0:0:0:
192,192,235199,1,0,0:0:0:0:
320,192,235199,1,0,0:0:0:0:
64,192,235275,1,0,0:0:0:0:
192,192,235351,1,0,0:0:0:0:
448,192,235427,5,0,0:0:0:0:
64,192,235427,1,0,0:0:0:0:
320,192,235427,1,0,0:0:0:0:
192,192,235427,1,0,0:0:0:0:
448,192,235503,1,0,0:0:0:0:
320,192,235578,1,0,0:0:0:0:
64,192,235654,1,0,0:0:0:0:
448,192,235654,1,0,0:0:0:0:
192,192,235654,1,0,0:0:0:0:
320,192,235654,1,0,0:0:0:0:
64,192,235730,1,0,0:0:0:0:
192,192,235806,1,0,0:0:0:0:
448,192,235881,1,0,0:0:0:0:
64,192,235881,1,0,0:0:0:0:
320,192,235881,1,0,0:0:0:0:
192,192,235881,1,0,0:0:0:0:
448,192,235957,1,0,0:0:0:0:
320,192,236033,1,0,0:0:0:0:
64,192,236109,1,0,0:0:0:0:
448,192,236109,1,0,0:0:0:0:
192,192,236109,1,0,0:0:0:0:
320,192,236109,1,0,0:0:0:0:
64,192,236184,1,0,0:0:0:0:
320,192,236260,1,0,0:0:0:0:
448,192,236260,1,0,0:0:0:0:
192,192,236260,1,0,0:0:0:0:
64,192,236260,1,0,0:0:0:0:
448,192,236336,1,0,0:0:0:0:
320,192,236412,1,0,0:0:0:0:
192,192,236563,5,0,0:0:0:0:
192,192,236866,1,0,0:0:0:0:
448,192,237018,1,0,0:0:0:0:
448,192,237321,1,0,0:0:0:0:
320,192,237472,1,0,0:0:0:0:
320,192,237775,1,0,0:0:0:0:
64,192,237927,1,0,0:0:0:0:
448,192,238230,1,0,0:0:0:0:
448,192,238533,1,0,0:0:0:0:
64,192,238684,1,0,0:0:0:0:
192,192,238987,1,0,0:0:0:0:
192,192,239290,1,0,0:0:0:0:
448,192,239442,1,0,0:0:0:0:
448,192,239745,1,0,0:0:0:0:
320,192,239896,1,0,0:0:0:0:
320,192,240199,1,0,0:0:0:0:
64,192,240351,1,0,0:0:0:0:
448,192,240654,1,0,0:0:0:0:
448,192,240957,1,0,0:0:0:0:
64,192,241109,1,0,0:0:0:0:
64,192,241412,1,0,0:0:0:0:
