osu file format v14

[General]
AudioFilename: audio.mp3
AudioLeadIn: 0
PreviewTime: 159740
Countdown: 0
SampleSet: Normal
StackLeniency: 0.7
Mode: 1
LetterboxInBreaks: 0
WidescreenStoryboard: 1

[Editor]
Bookmarks: 63301,82695,92392,184513,211180,231786,236483
DistanceSpacing: 0.6
BeatDivisor: 4
GridSize: 32
TimelineZoom: 2.699999

[Metadata]
Title:POLYBIUS GB SPEEDRUN (Glitchless 100% WR in 0:03:57)
TitleUnicode:POLYBIUS GB SPEEDRUN (Glitchless 100% WR in 0:03:57)
Artist:Camellia
ArtistUnicode:かめりあ
Creator:KTYN
Version:ler's Oni
Source:
Tags:ler1211 Rinze u.u.f.o. uufo ctcd-021/22 かめるかめりあ kamelcamellia cametek electronic fa instrumental chiptune hardcore speedcore osu!taiko featured artist cup #1 o!tfac#1
BeatmapID:3798744
BeatmapSetID:1726042

[Difficulty]
HPDrainRate:6
CircleSize:5
OverallDifficulty:6
ApproachRate:5
SliderMultiplier:1.4
SliderTickRate:1

[Events]
//Background and Video events
0,0,"suzuka.jpg",0,60
//Break Periods
//Storyboard Layer 0 (Background)
//Storyboard Layer 1 (Fail)
//Storyboard Layer 2 (Pass)
//Storyboard Layer 3 (Foreground)
//Storyboard Layer 4 (Overlay)
//Storyboard Sound Samples

[TimingPoints]
195,303.030303030303,4,1,0,80,1,0
4891,-111.111111111111,4,1,0,80,0,0
24285,-83.3333333333333,4,1,0,100,0,0
24437,-83.3333333333333,4,1,0,100,0,1
25498,-83.3333333333333,4,1,0,100,0,0
25573,-83.3333333333333,4,1,0,90,0,0
25725,-100,4,1,0,90,0,0
26710,-83.3333333333333,4,1,0,100,0,0
26861,-83.3333333333333,4,1,0,100,0,1
28149,-83.3333333333333,4,1,0,100,0,0
28225,-100,4,1,0,90,0,0
29210,-83.3333333333333,4,1,0,100,0,0
29285,-83.3333333333333,4,1,0,100,0,1
30346,-83.3333333333333,4,1,0,100,0,0
30422,-83.3333333333333,4,1,0,90,0,0
30574,-100,4,1,0,90,0,0
31558,-83.3333333333333,4,1,0,100,0,0
31710,-83.3333333333333,4,1,0,100,0,1
33225,-83.3333333333333,4,1,0,100,0,0
34131,-125,4,1,0,80,0,0
34283,-124.21057924624,4,1,0,80,0,0
34434,-123.426143973493,4,1,0,80,0,0
34586,-122.646662696619,4,1,0,80,0,0
34737,-121.872104129323,4,1,0,81,0,0
34889,-121.10243718289,4,1,0,81,0,0
35040,-120.337630964946,4,1,0,81,0,0
35192,-119.57765477821,4,1,0,81,0,0
35343,-118.822478119268,4,1,0,81,0,0
35495,-118.072070677344,4,1,0,81,0,0
35646,-117.326402333087,4,1,0,82,0,0
35798,-116.585443157362,4,1,0,82,0,0
35949,-115.849163410044,4,1,0,82,0,0
36101,-115.117533538832,4,1,0,82,0,0
36252,-114.390524178055,4,1,0,82,0,0
36404,-113.668106147498,4,1,0,82,0,0
36555,-112.950250451231,4,1,0,83,0,0
36707,-112.236928276442,4,1,0,83,0,0
36858,-111.528110992285,4,1,0,83,0,0
37010,-110.823770148726,4,1,0,83,0,0
37161,-110.123877475404,4,1,0,83,0,0
37313,-109.428404880495,4,1,0,83,0,0
37464,-108.737324449588,4,1,0,83,0,0
37616,-108.050608444557,4,1,0,84,0,0
37767,-107.368229302457,4,1,0,84,0,0
37919,-106.690159634411,4,1,0,84,0,0
38070,-106.016372224513,4,1,0,84,0,0
38222,-105.346840028734,4,1,0,84,0,0
38373,-104.681536173841,4,1,0,84,0,0
38525,-104.020433956312,4,1,0,85,0,0
38676,-103.363506841271,4,1,0,85,0,0
38828,-102.710728461416,4,1,0,85,0,0
38979,-102.062072615966,4,1,0,85,0,0
39131,-101.417513269608,4,1,0,85,0,0
39283,-100.77702455145,4,1,0,85,0,0
39434,-100.140580753986,4,1,0,85,0,0
39586,-99.5081563320601,4,1,0,86,0,0
39737,-98.8797259018451,4,1,0,86,0,0
39889,-98.2552642398213,4,1,0,86,0,0
40040,-97.6347462817649,4,1,0,86,0,0
40192,-97.0181471217419,4,1,0,86,0,0
40343,-96.4054420111084,4,1,0,86,0,0
40495,-95.7966063575169,4,1,0,87,0,0
40646,-95.19161572393,4,1,0,87,0,0
40798,-94.590445827639,4,1,0,87,0,0
40949,-93.9930725392894,4,1,0,87,0,0
41101,-93.3994718819122,4,1,0,87,0,0
41252,-92.8096200299621,4,1,0,87,0,0
41404,-92.2234933083606,4,1,0,88,0,0
41555,-91.641068191546,4,1,0,88,0,0
41707,-91.0623213025292,4,1,0,88,0,0
41858,-90.4872294119553,4,1,0,88,0,0
42010,-89.9157694371713,4,1,0,88,0,0
42161,-89.3479184412996,4,1,0,88,0,0
42313,-88.7836536323174,4,1,0,88,0,0
42464,-88.2229523621418,4,1,0,89,0,0
42616,-87.6657921257209,4,1,0,89,0,0
42767,-87.1121505601304,4,1,0,89,0,0
42919,-86.562005443676,4,1,0,89,0,0
43070,-86.0153346950017,4,1,0,89,0,0
43222,-85.4721163722033,4,1,0,89,0,0
43373,-84.9323286719475,4,1,0,90,0,0
43525,-84.3959499285974,4,1,0,90,0,0
43676,-83.8629586133423,4,1,0,90,0,0
43828,-100,4,1,0,90,0,0
58373,-100,4,1,0,90,0,0
58449,-99.709252777513,4,1,0,90,0,0
58525,-99.4193508944999,4,1,0,90,0,0
58600,-99.1302918931596,4,1,0,90,0,0
58676,-98.842073322837,4,1,0,90,0,0
58752,-98.5546927400023,4,1,0,90,0,0
58828,-98.2681477082301,4,1,0,90,0,0
58903,-97.9824357981791,4,1,0,90,0,0
58979,-97.6975545875708,4,1,0,90,0,0
59055,-97.4135016611697,4,1,0,90,0,0
59131,-97.1302746107625,4,1,0,90,0,0
59206,-96.8478710351378,4,1,0,90,0,0
59282,-96.5662885400654,4,1,0,90,0,0
59358,-96.2855247382764,4,1,0,90,0,0
59434,-96.0055772494428,4,1,0,90,0,0
59509,-95.7264437001575,4,1,0,90,0,0
59585,-95.4481217239137,4,1,0,90,0,0
59661,-95.1706089610854,4,1,0,90,0,0
59737,-94.8939030589071,4,1,0,90,0,0
59812,-94.6180016714539,4,1,0,90,0,0
59888,-94.3429024596214,4,1,0,90,0,0
59964,-94.0686030911065,4,1,0,90,0,0
60040,-93.7951012403868,4,1,0,90,0,0
60115,-93.5223945887015,4,1,0,90,0,0
60191,-93.2504808240316,4,1,0,90,0,0
60267,-92.9793576410799,4,1,0,90,0,0
60343,-92.7090227412523,4,1,0,90,0,0
60418,-92.4394738326373,4,1,0,90,0,0
60494,-92.1707086299873,4,1,0,90,0,0
60570,-91.902724854699,4,1,0,90,0,0
60646,-91.6355202347942,4,1,0,90,0,0
60721,-91.3690925049,4,1,0,90,0,0
60797,-91.1034394062305,4,1,0,90,0,0
60873,-90.8385586865667,4,1,0,90,0,0
60949,-90.5744481002383,4,1,0,90,0,0
61025,-90.311105408104,4,1,0,90,0,0
61100,-90.0485283775326,4,1,0,90,0,0
61176,-89.7867147823846,4,1,0,90,0,0
61252,-89.5256624029925,4,1,0,90,0,0
61328,-89.2653690261427,4,1,0,90,0,0
61403,-89.0058324450565,4,1,0,90,0,0
61479,-88.747050459371,4,1,0,90,0,0
61555,-88.4890208751213,4,1,0,90,0,0
61631,-88.231741504721,4,1,0,90,0,0
61706,-87.9752101669441,4,1,0,90,0,0
61782,-87.7194246869066,4,1,0,90,0,0
61858,-87.4643828960479,4,1,0,90,0,0
61934,-87.2100826321123,4,1,0,90,0,0
62009,-86.9565217391308,4,1,0,90,0,0
63206,-100,4,1,0,100,0,0
91102,-100,4,1,0,100,0,0
91178,-100.660676122253,4,1,0,100,0,0
91254,-101.325717173891,4,1,0,100,0,0
91329,-101.995151992961,4,1,0,100,0,0
91405,-102.669009608034,4,1,0,100,0,0
91481,-103.347319239468,4,1,0,100,0,0
91557,-104.030110300672,4,1,0,100,0,0
91632,-104.717412399382,4,1,0,100,0,0
91708,-105.409255338946,4,1,0,100,0,0
91784,-106.105669119615,4,1,0,100,0,0
91860,-106.806683939845,4,1,0,100,0,0
91935,-107.512330197606,4,1,0,100,0,0
92011,-108.2226384917,4,1,0,100,0,0
92087,-108.937639623087,4,1,0,100,0,0
92163,-109.657364596222,4,1,0,100,0,0
92238,-110.381844620402,4,1,0,100,0,0
92314,-111.111111111111,4,1,0,100,0,0
97088,-111.111111111111,4,1,0,100,0,0
97240,-111.111111111111,4,1,0,80,0,0
97259,-110.978819400927,4,1,0,80,0,0
97278,-110.846842335858,4,1,0,80,0,0
97297,-110.715178794699,4,1,0,80,0,0
97316,-110.583827661567,4,1,0,80,0,0
97335,-110.45278782587,4,1,0,81,0,0
97354,-110.322058182271,4,1,0,81,0,0
97373,-110.191637630662,4,1,0,81,0,0
97391,-110.068365444375,4,1,0,81,0,0
97410,-109.93854367124,4,1,0,81,0,0
97429,-109.809027777778,4,1,0,81,0,0
97448,-109.679816684214,4,1,0,81,0,0
97467,-109.550909315848,4,1,0,81,0,0
97486,-109.422304603027,4,1,0,81,0,0
97505,-109.294001481116,4,1,0,81,0,0
97524,-109.165998890464,4,1,0,82,0,0
97543,-109.038295776382,4,1,0,82,0,0
97562,-108.910891089109,4,1,0,82,0,0
97581,-108.783783783784,4,1,0,82,0,0
97600,-108.656972820418,4,1,0,82,0,0
97619,-108.530457163868,4,1,0,82,0,0
97638,-108.404235783804,4,1,0,82,0,0
97657,-108.278307654683,4,1,0,82,0,0
97676,-108.152671755725,4,1,0,82,0,0
97694,-108.033916915757,4,1,0,83,0,0
97713,-107.908847184987,4,1,0,83,0,0
97732,-107.784066703183,4,1,0,83,0,0
97751,-107.659574468085,4,1,0,83,0,0
97770,-107.535369482057,4,1,0,83,0,0
97789,-107.411450752062,4,1,0,83,0,0
97808,-107.287817289635,4,1,0,83,0,0
97827,-107.164468110856,4,1,0,83,0,0
97846,-107.041402236325,4,1,0,83,0,0
97865,-106.918618691137,4,1,0,84,0,0
97884,-106.796116504854,4,1,0,84,0,0
97903,-106.673894711481,4,1,0,84,0,0
97922,-106.551952349437,4,1,0,84,0,0
97941,-106.430288461538,4,1,0,84,0,0
97960,-106.308902094964,4,1,0,84,0,0
97979,-106.187792301235,4,1,0,84,0,0
97998,-106.066958136192,4,1,0,84,0,0
98016,-105.952737062519,4,1,0,84,0,0
98035,-105.832436954703,4,1,0,84,0,0
98054,-105.712409717663,4,1,0,85,0,0
98073,-105.59265442404,4,1,0,85,0,0
98092,-105.473170150676,4,1,0,85,0,0
98111,-105.353955978584,4,1,0,85,0,0
98130,-105.235010992929,4,1,0,85,0,0
98149,-105.116334283001,4,1,0,85,0,0
98168,-104.997924942195,4,1,0,85,0,0
98187,-104.879782067985,4,1,0,85,0,0
98206,-104.761904761905,4,1,0,85,0,0
98225,-104.64429212952,4,1,0,86,0,0
98244,-104.526943280411,4,1,0,86,0,0
98263,-104.409857328145,4,1,0,86,0,0
98282,-104.29303339026,4,1,0,86,0,0
98301,-104.176470588235,4,1,0,86,0,0
98319,-104.066282759431,4,1,0,86,0,0
98338,-103.950225978752,4,1,0,86,0,0
98357,-103.834427767355,4,1,0,86,0,0
98376,-103.718887262079,4,1,0,86,0,0
98395,-103.603603603604,4,1,0,87,0,0
98414,-103.488575936423,4,1,0,87,0,0
98433,-103.373803408826,4,1,0,87,0,0
98452,-103.259285172876,4,1,0,87,0,0
98471,-103.145020384391,4,1,0,87,0,0
98490,-103.03100820292,4,1,0,87,0,0
98509,-102.917247791725,4,1,0,87,0,0
98528,-102.803738317757,4,1,0,87,0,0
98547,-102.690478951641,4,1,0,87,0,0
98566,-102.577468867651,4,1,0,87,0,0
98585,-102.464707243694,4,1,0,88,0,0
98604,-102.352193261284,4,1,0,88,0,0
98623,-102.239926105531,4,1,0,88,0,0
98641,-102.133794694348,4,1,0,88,0,0
98660,-102.022005875915,4,1,0,88,0,0
98679,-101.91046150305,4,1,0,88,0,0
98698,-101.799160774846,4,1,0,88,0,0
98717,-101.688102893891,4,1,0,88,0,0
98736,-101.577287066246,4,1,0,88,0,0
98755,-101.466712501432,4,1,0,89,0,0
98774,-101.356378412408,4,1,0,89,0,0
98793,-101.24628401555,4,1,0,89,0,0
98812,-101.136428530638,4,1,0,89,0,0
98831,-101.026811180833,4,1,0,89,0,0
98850,-100.917431192661,4,1,0,89,0,0
98869,-100.808287795993,4,1,0,89,0,0
98888,-100.699380224029,4,1,0,89,0,0
98907,-100.59070771328,4,1,0,89,0,0
98926,-100.482269503546,4,1,0,90,0,0
98944,-100.379754010089,4,1,0,90,0,0
98963,-100.271769901483,4,1,0,90,0,0
98982,-100.164017872292,4,1,0,90,0,0
99001,-100.056497175141,4,1,0,90,0,0
99020,-99.949207065862,4,1,0,90,0,0
99039,-99.842146803473,4,1,0,90,0,0
99058,-99.735315650166,4,1,0,90,0,0
99077,-99.628712871287,4,1,0,90,0,0
99096,-99.522337735319,4,1,0,90,0,0
99115,-99.416189513865,4,1,0,91,0,0
99134,-99.310267481635,4,1,0,91,0,0
99153,-99.204570916424,4,1,0,91,0,0
99172,-99.099099099099,4,1,0,91,0,0
99191,-98.993851313583,4,1,0,91,0,0
99210,-98.888826846837,4,1,0,91,0,0
99229,-98.784024988844,4,1,0,91,0,0
99248,-98.679445032596,4,1,0,91,0,0
99266,-98.580573337044,4,1,0,91,0,0
99285,-98.476423487544,4,1,0,92,0,0
99304,-98.37249347331,4,1,0,92,0,0
99323,-98.268782599046,4,1,0,92,0,0
99342,-98.165290172385,4,1,0,92,0,0
99361,-98.062015503876,4,1,0,92,0,0
99380,-97.958957906964,4,1,0,92,0,0
99399,-97.856116697978,4,1,0,92,0,0
99418,-97.753491196114,4,1,0,92,0,0
99437,-97.651080723423,4,1,0,92,0,0
99456,-97.548884604792,4,1,0,93,0,0
99475,-97.446902167932,4,1,0,93,0,0
99494,-97.345132743363,4,1,0,93,0,0
99513,-97.243575664397,4,1,0,93,0,0
99532,-97.142230267127,4,1,0,93,0,0
99551,-97.041095890411,4,1,0,93,0,0
99569,-96.945478432231,4,1,0,93,0,0
99588,-96.844753103297,4,1,0,93,0,0
99607,-96.744236862231,4,1,0,93,0,0
99626,-96.643929058663,4,1,0,93,0,0
99645,-96.543829044919,4,1,0,94,0,0
99664,-96.443936176006,4,1,0,94,0,0
99683,-96.344249809596,4,1,0,94,0,0
99702,-96.244769306016,4,1,0,94,0,0
99721,-96.14549402823,4,1,0,94,0,0
99740,-96.04642334183,4,1,0,94,0,0
99759,-95.947556615018,4,1,0,94,0,0
99778,-95.848893218596,4,1,0,94,0,0
99797,-95.750432525952,4,1,0,94,0,0
99816,-95.652173913043,4,1,0,95,0,0
99835,-95.55411675839,4,1,0,95,0,0
99854,-95.456260443055,4,1,0,95,0,0
99873,-95.358604350635,4,1,0,95,0,0
99891,-95.266272189349,4,1,0,95,0,0
99910,-95.169004245258,4,1,0,95,0,0
99929,-95.071934721924,4,1,0,95,0,0
99948,-94.975063012817,4,1,0,95,0,0
99967,-94.878388513875,4,1,0,95,0,0
99986,-94.781910623495,4,1,0,96,0,0
100005,-94.685628742515,4,1,0,96,0,0
100024,-94.589542274208,4,1,0,96,0,0
100043,-94.493650624266,4,1,0,96,0,0
100062,-94.397953200789,4,1,0,96,0,0
100081,-94.30244941427,4,1,0,96,0,0
100100,-94.207138677589,4,1,0,96,0,0
100119,-94.112020405994,4,1,0,96,0,0
100138,-94.017094017094,4,1,0,96,0,0
100157,-93.922358930844,4,1,0,96,0,0
100176,-93.827814569536,4,1,0,97,0,0
100194,-93.738421637644,4,1,0,97,0,0
100213,-93.644247038917,4,1,0,97,0,0
100232,-93.550261475886,4,1,0,97,0,0
100251,-93.456464379947,4,1,0,97,0,0
100270,-93.362855184775,4,1,0,97,0,0
100289,-93.269433326311,4,1,0,97,0,0
100308,-93.176198242753,4,1,0,97,0,0
100327,-93.08314937454,4,1,0,97,0,0
100346,-92.990286164348,4,1,0,98,0,0
100365,-92.897608057071,4,1,0,98,0,0
100384,-92.805114499817,4,1,0,98,0,0
100403,-92.712804941891,4,1,0,98,0,0
100422,-92.620678834789,4,1,0,98,0,0
100441,-92.528735632184,4,1,0,98,0,0
100460,-92.436974789916,4,1,0,98,0,0
100479,-92.345395765982,4,1,0,98,0,0
100498,-92.253998020524,4,1,0,98,0,0
100516,-92.167577413479,4,1,0,98,0,0
100535,-92.076531142768,4,1,0,99,0,0
100554,-91.985664571755,4,1,0,99,0,0
100573,-91.89497716895,4,1,0,99,0,0
100592,-91.804468404956,4,1,0,99,0,0
100611,-91.71413775246,4,1,0,99,0,0
100630,-91.623984686223,4,1,0,99,0,0
100649,-91.534008683068,4,1,0,99,0,0
100668,-91.444209221872,4,1,0,99,0,0
100687,-91.354585783555,4,1,0,99,0,0
100706,-91.265137851069,4,1,0,100,0,0
100725,-91.17586490939,4,1,0,100,0,0
100744,-91.086766445507,4,1,0,100,0,0
100763,-90.997841948412,4,1,0,100,0,0
100782,-90.909090909091,4,1,0,100,0,0
100801,-90.909090909091,4,1,0,100,0,1
101407,-100,4,1,0,75,0,0
102013,-125,4,1,0,100,0,1
102543,-125,4,1,0,90,0,1
104361,-125,4,1,0,100,0,1
104967,-125,4,1,0,90,0,1
106785,-125,4,1,0,100,0,1
107391,-125,4,1,0,90,0,1
109210,-125,4,1,0,100,0,1
109816,-125,4,1,0,90,0,1
111104,-125,4,1,0,90,0,0
111634,-125,4,1,0,100,0,0
111710,-125,4,1,0,100,0,1
112240,-125,4,1,0,90,0,1
114058,-125,4,1,0,100,0,1
114664,-125,4,1,0,90,0,1
116255,-125,4,1,0,90,0,0
116482,-125,4,1,0,100,0,0
116558,-117.647058823529,4,1,0,100,0,1
116785,-117.647058823529,4,1,0,90,0,1
116861,-117.647058823529,4,1,0,90,0,0
117694,-111.111111111111,4,1,0,100,0,0
117770,-111.111111111111,4,1,0,100,0,1
117998,-111.111111111111,4,1,0,90,0,1
118073,-111.111111111111,4,1,0,90,0,0
118907,-100,4,1,0,100,0,0
118982,-100,4,1,0,100,0,1
119285,-100,4,1,0,100,0,0
119588,-90.9090909090909,4,1,0,100,0,1
119891,-90.9090909090909,4,1,0,100,0,0
120194,-83.3333333333333,4,1,0,100,0,1
121331,-71.4285714285714,4,1,0,60,0,0
122316,-100,4,1,0,60,0,0
123528,-125,4,1,0,60,0,0
124740,-142.857142857143,4,1,0,60,0,0
131028,-125,4,1,0,75,0,0
140649,-83.3333333333333,4,1,0,100,0,0
140801,-83.3333333333333,4,1,0,100,0,1
141861,-83.3333333333333,4,1,0,100,0,0
141937,-83.3333333333333,4,1,0,90,0,0
142089,-100,4,1,0,90,0,0
143074,-83.3333333333333,4,1,0,100,0,0
143225,-83.3333333333333,4,1,0,100,0,1
144513,-83.3333333333333,4,1,0,100,0,0
144589,-100,4,1,0,90,0,0
145573,-83.3333333333333,4,1,0,100,0,0
145649,-83.3333333333333,4,1,0,100,0,1
146710,-83.3333333333333,4,1,0,100,0,0
146786,-83.3333333333333,4,1,0,90,0,0
146938,-100,4,1,0,90,0,0
147922,-83.3333333333333,4,1,0,100,0,0
148073,-83.3333333333333,4,1,0,100,0,1
149588,-83.3333333333333,4,1,0,100,0,0
150346,-125,4,1,0,85,0,0
155343,-125,4,1,0,85,0,0
155419,-124.173438332525,4,1,0,85,0,0
155495,-123.352342298572,4,1,0,85,0,0
155570,-122.536675756674,4,1,0,85,0,0
155646,-121.726402804352,4,1,0,85,0,0
155722,-120.92148777653,4,1,0,85,0,0
155798,-120.12189524397,4,1,0,85,0,0
155873,-119.327590011705,4,1,0,85,0,0
155949,-118.538537117498,4,1,0,85,0,0
156025,-117.754701830299,4,1,0,85,0,0
156101,-116.976049648717,4,1,0,85,0,0
156176,-116.202546299499,4,1,0,85,0,0
156252,-115.434157736026,4,1,0,85,0,0
156328,-114.670850136811,4,1,0,85,0,0
156404,-113.912589904012,4,1,0,85,0,0
156479,-113.159343661953,4,1,0,85,0,0
156555,-112.411078255652,4,1,0,85,0,0
156631,-111.667760749367,4,1,0,85,0,0
156707,-110.929358425142,4,1,0,85,0,0
156782,-110.195838781367,4,1,0,85,0,0
156858,-109.467169531352,4,1,0,85,0,0
156934,-108.7433186019,4,1,0,85,0,0
157010,-108.024254131897,4,1,0,85,0,0
157085,-107.309944470913,4,1,0,85,0,0
157161,-106.600358177805,4,1,0,85,0,0
157237,-105.895464019334,4,1,0,85,0,0
157313,-105.195230968791,4,1,0,85,0,0
157388,-104.499628204632,4,1,0,85,0,0
157464,-103.808625109117,4,1,0,85,0,0
157540,-103.12219126697,4,1,0,85,0,0
157616,-102.440296464031,4,1,0,85,0,0
157691,-101.762910685936,4,1,0,85,0,0
157767,-101.090004116787,4,1,0,85,0,0
157843,-100.421547137844,4,1,0,85,0,0
157919,-99.7575103262232,4,1,0,85,0,0
157995,-99.0978644535962,4,1,0,85,0,0
158070,-98.4425804849085,4,1,0,85,0,0
158146,-97.7916295770995,4,1,0,85,0,0
158222,-97.1449830778329,4,1,0,85,0,0
158298,-96.502612524236,4,1,0,85,0,0
158373,-95.8644896416463,4,1,0,85,0,0
158449,-95.2305863423678,4,1,0,85,0,0
158525,-94.6008747244338,4,1,0,85,0,0
158601,-93.9753270703794,4,1,0,85,0,0
158676,-93.3539158460212,4,1,0,85,0,0
158752,-92.7366136992452,4,1,0,85,0,0
158828,-92.1233934588035,4,1,0,85,0,0
158904,-91.5142281331176,4,1,0,85,0,0
158979,-90.9090909090906,4,1,0,85,0,0
158982,-83.3333333333333,4,1,0,100,0,1
159588,-83.3333333333333,4,1,0,100,0,0
159740,-100,4,1,0,90,0,0
160119,-100,4,1,0,100,0,0
160194,-100,4,1,0,100,0,1
172316,-100,4,1,0,100,0,0
172619,-100,4,1,0,100,0,1
174285,-100,4,1,0,100,0,0
174740,-100,4,1,0,100,0,1
175649,-100,4,1,0,100,0,0
175952,-100,4,1,0,100,0,1
176861,-100,4,1,0,100,0,0
177164,-100,4,1,0,100,0,1
178073,-100,4,1,0,100,0,0
178376,-100,4,1,0,100,0,1
179285,-100,4,1,0,100,0,0
179588,-100,4,1,0,100,0,1
182013,-100,4,1,0,100,0,0
183206,-111.111111111111,4,1,0,90,0,0
184361,-100,4,1,0,100,0,0
189285,-100,4,1,0,100,0,1
189494,-99.377015137439,4,1,0,100,0,1
189721,-98.764426340801,4,1,0,100,0,1
189948,-98.159343625175,4,1,0,100,0,1
190194,-98.159343625175,4,1,0,100,0,0
190498,-96.772476917755,4,1,0,100,0,1
190706,-96.191483734462,4,1,0,100,0,1
190933,-95.617425138681,4,1,0,100,0,1
191160,-95.050177712733,4,1,0,100,0,1
191407,-95.050177712733,4,1,0,100,0,0
191710,-93.749194483825,4,1,0,100,0,1
191937,-93.203833734816,4,1,0,100,0,0
192316,-92.307301845131,4,1,0,100,0,1
192543,-91.778540425961,4,1,0,100,0,0
192903,-90.909090909091,4,1,0,100,0,0
192998,-90.909090909091,4,1,0,90,0,0
194058,-90.909090909091,4,1,0,100,0,0
194134,-111.111111111111,4,1,0,100,0,1
201407,-111.111111111111,4,1,0,100,0,0
201480,-110.745877585881,4,1,0,100,0,0
201556,-110.381844620402,4,1,0,100,0,0
201631,-110.019008268312,4,1,0,100,0,0
201707,-109.657364596222,4,1,0,100,0,0
201783,-109.296909683672,4,1,0,100,0,0
201859,-108.937639623087,4,1,0,100,0,0
201934,-108.579550519738,4,1,0,100,0,0
202010,-108.2226384917,4,1,0,100,0,0
202086,-107.866899669805,4,1,0,100,0,0
202162,-107.512330197606,4,1,0,100,0,0
202237,-107.158926231332,4,1,0,100,0,0
202313,-106.806683939845,4,1,0,100,0,0
202389,-106.455599504604,4,1,0,100,0,0
202465,-106.105669119615,4,1,0,100,0,0
202540,-105.7568889914,4,1,0,100,0,0
202616,-105.409255338946,4,1,0,100,0,0
202692,-105.062764393672,4,1,0,100,0,0
202768,-104.717412399382,4,1,0,100,0,0
202843,-104.373195612229,4,1,0,100,0,0
202919,-104.030110300672,4,1,0,100,0,0
202995,-103.688152745435,4,1,0,100,0,0
203071,-103.347319239468,4,1,0,100,0,0
203146,-103.007606087908,4,1,0,100,0,0
203222,-102.669009608034,4,1,0,100,0,0
203298,-102.331526129235,4,1,0,100,0,0
203374,-101.995151992961,4,1,0,100,0,0
203449,-101.659883552692,4,1,0,100,0,0
203525,-101.325717173891,4,1,0,100,0,0
203601,-100.992649233972,4,1,0,100,0,0
203677,-100.660676122253,4,1,0,100,0,0
203752,-100.329794239923,4,1,0,100,0,0
203831,-100,4,1,0,100,0,1
205952,-100,4,1,0,100,0,0
206255,-100,4,1,0,100,0,1
208376,-100,4,1,0,100,0,0
208679,-100,4,1,0,100,0,1
211104,-100,4,1,0,100,0,0
211179,-100,4,1,0,90,0,0
213376,-111.111111111111,4,1,0,90,0,0
214721,-111.111111111111,4,1,0,90,0,0
214873,-109.593995840492,4,1,0,91,0,0
215024,-108.108108108108,4,1,0,93,0,0
215176,-106.671360675937,4,1,0,94,0,0
215327,-105.263157894737,4,1,0,95,0,0
215403,-104.572907679034,4,1,0,96,0,0
215479,-103.891650951483,4,1,0,96,0,0
215630,-102.564102564103,4,1,0,98,0,0
215952,-111.111111111111,4,1,0,100,0,1
222619,-111.111111111111,4,1,0,100,0,0
223225,-100,4,1,0,100,0,1
230422,-83.3333333333333,4,1,0,90,0,1
230498,-83.3333333333333,4,1,0,90,0,0
231634,-83.3333333333333,4,1,0,100,0,0
231710,-83.3333333333333,4,1,0,100,0,1
236255,-83.3333333333333,4,1,0,100,0,0
236407,-83.3333333333333,4,1,0,100,0,0
236426,-83.3333333333333,4,1,0,100,0,0
236444,-83.3333333333333,4,1,0,100,0,0
236463,-83.3333333333333,4,1,0,100,0,0
236482,-83.3333333333333,4,1,0,100,0,0
236501,-83.3333333333333,4,1,0,99,0,0
236520,-83.3333333333333,4,1,0,99,0,0
236539,-83.3333333333333,4,1,0,99,0,0
236558,-83.3333333333333,4,1,0,99,0,0
236577,-83.3333333333333,4,1,0,99,0,0
236596,-83.3333333333333,4,1,0,99,0,0
236615,-83.3333333333333,4,1,0,99,0,0
236634,-83.3333333333333,4,1,0,99,0,0
236653,-83.3333333333333,4,1,0,99,0,0
236672,-91.349228099023,4,1,0,98,0,0
236691,-91.380948899773,4,1,0,98,0,0
236710,-91.412691738121,4,1,0,98,0,0
236729,-91.444456637039,4,1,0,98,0,0
236748,-91.476243619532,4,1,0,98,0,0
236766,-91.506377994546,4,1,0,98,0,0
236785,-91.538208048039,4,1,0,98,0,0
236804,-91.5700602531,4,1,0,98,0,0
236823,-91.601934632859,4,1,0,98,0,0
236842,-91.633831210483,4,1,0,97,0,0
236861,-91.665750009167,4,1,0,97,0,0
236880,-91.697691052139,4,1,0,97,0,0
236899,-91.729654362662,4,1,0,97,0,0
236918,-91.761639964029,4,1,0,97,0,0
236937,-91.793647879567,4,1,0,97,0,0
236956,-91.825678132633,4,1,0,97,0,0
236975,-91.85773074662,4,1,0,97,0,0
236994,-91.889805744951,4,1,0,96,0,0
237013,-91.921903151083,4,1,0,96,0,0
237032,-91.954022988506,4,1,0,96,0,0
237051,-91.986165280742,4,1,0,96,0,0
237069,-92.016636607899,4,1,0,96,0,0
237088,-92.048822695558,4,1,0,96,0,0
237107,-92.081031307551,4,1,0,96,0,0
237126,-92.11326246753,4,1,0,96,0,0
237145,-92.145516199182,4,1,0,96,0,0
237164,-92.177792526225,4,1,0,95,0,0
237183,-92.210091472411,4,1,0,95,0,0
237202,-92.242413061526,4,1,0,95,0,0
237221,-92.274757317388,4,1,0,95,0,0
237240,-92.307124263851,4,1,0,95,0,0
237259,-92.339513924799,4,1,0,95,0,0
237278,-92.371926324152,4,1,0,95,0,0
237297,-92.404361485862,4,1,0,95,0,0
237316,-92.436819433917,4,1,0,95,0,0
237335,-92.469300192336,4,1,0,94,0,0
237354,-92.501803785174,4,1,0,94,0,0
237373,-92.534330236518,4,1,0,94,0,0
237391,-92.565165876777,4,1,0,94,0,0
237410,-92.59773691131,4,1,0,94,0,0
237429,-92.630330875542,4,1,0,94,0,0
237448,-92.662947793695,4,1,0,94,0,0
237467,-92.695587690026,4,1,0,94,0,0
237486,-92.728250588824,4,1,0,94,0,0
237505,-92.760936514415,4,1,0,93,0,0
237524,-92.793645491157,4,1,0,93,0,0
237543,-92.826377543443,4,1,0,93,0,0
237562,-92.859132695701,4,1,0,93,0,0
237581,-92.891910972393,4,1,0,93,0,0
237600,-92.924712398015,4,1,0,93,0,0
237619,-92.9575369971,4,1,0,93,0,0
237638,-92.990384794212,4,1,0,93,0,0
237657,-93.023255813953,4,1,0,93,0,0
237676,-93.056150080959,4,1,0,92,0,0
237694,-93.087334537263,4,1,0,92,0,0
237713,-93.120274146087,4,1,0,92,0,0
237732,-93.153237074988,4,1,0,92,0,0
237751,-93.18622334874,4,1,0,92,0,0
237770,-93.219232992151,4,1,0,92,0,0
237789,-93.252266030065,4,1,0,92,0,0
237808,-93.28532248736,4,1,0,92,0,0
237827,-93.318402388951,4,1,0,91,0,0
237846,-93.351505759788,4,1,0,91,0,0
237865,-93.384632624855,4,1,0,91,0,0
237884,-93.417783009174,4,1,0,91,0,0
237903,-93.450956937799,4,1,0,91,0,0
237922,-93.484154435823,4,1,0,91,0,0
237941,-93.517375528373,4,1,0,91,0,0
237960,-93.550620240612,4,1,0,91,0,0
237979,-93.583888597739,4,1,0,91,0,0
237998,-93.617180624988,4,1,0,90,0,0
238016,-93.648742297391,4,1,0,90,0,0
238035,-93.682080491644,4,1,0,90,0,0
238054,-93.715442430604,4,1,0,90,0,0
238073,-93.748828139648,4,1,0,90,0,0
238092,-93.78223764419,4,1,0,90,0,0
238111,-93.815670969679,4,1,0,90,0,0
238130,-93.8491281416,4,1,0,90,0,0
238149,-93.882609185474,4,1,0,90,0,0
238168,-93.916114126862,4,1,0,89,0,0
238187,-93.949642991357,4,1,0,89,0,0
238206,-93.98319580459,4,1,0,89,0,0
238225,-94.01677259223,4,1,0,89,0,0
238244,-94.050373379982,4,1,0,89,0,0
238263,-94.083998193587,4,1,0,89,0,0
238282,-94.117647058824,4,1,0,89,0,0
238301,-94.151320001506,4,1,0,89,0,0
238319,-94.18324291742,4,1,0,89,0,0
238338,-94.216962821986,4,1,0,88,0,0
238357,-94.250706880302,4,1,0,88,0,0
238376,-94.284475118327,4,1,0,88,0,0
238395,-94.318267562061,4,1,0,88,0,0
238414,-94.352084237541,4,1,0,88,0,0
238433,-94.385925170839,4,1,0,88,0,0
238452,-94.419790388065,4,1,0,88,0,0
238471,-94.453679915369,4,1,0,88,0,0
238490,-94.487593778937,4,1,0,88,0,0
238509,-94.521532004991,4,1,0,87,0,0
238528,-94.555494619792,4,1,0,87,0,0
238547,-94.589481649641,4,1,0,87,0,0
238566,-94.623493120872,4,1,0,87,0,0
238585,-94.657529059861,4,1,0,87,0,0
238604,-94.691589493021,4,1,0,87,0,0
238623,-94.725674446802,4,1,0,87,0,0
238641,-94.757988098397,4,1,0,87,0,0
238660,-94.792120878913,4,1,0,86,0,0
238679,-94.826278258231,4,1,0,86,0,0
238698,-94.860460262953,4,1,0,86,0,0
238717,-94.894666919719,4,1,0,86,0,0
238736,-94.928898255207,4,1,0,86,0,0
238755,-94.963154296133,4,1,0,86,0,0
238774,-94.997435069253,4,1,0,86,0,0
238793,-95.031740601361,4,1,0,86,0,0
238812,-95.066070919289,4,1,0,86,0,0
238831,-95.100426049909,4,1,0,85,0,0
238850,-95.134806020131,4,1,0,85,0,0
238869,-95.169210856904,4,1,0,85,0,0
238888,-95.203640587216,4,1,0,85,0,0
238907,-95.238095238095,4,1,0,85,0,0
238926,-95.272574836608,4,1,0,85,0,0
238944,-95.305262756609,4,1,0,85,0,0
238963,-95.339791015178,4,1,0,85,0,0
238982,-95.374344301383,4,1,0,85,0,0
239001,-95.408922642446,4,1,0,84,0,0
239020,-95.443526065627,4,1,0,84,0,0
239039,-95.478154598228,4,1,0,84,0,0
239058,-95.512808267589,4,1,0,84,0,0
239077,-95.547487101089,4,1,0,84,0,0
239096,-95.582191126149,4,1,0,84,0,0
239115,-95.616920370229,4,1,0,84,0,0
239134,-95.651674860827,4,1,0,84,0,0
239153,-95.686454625483,4,1,0,84,0,0
239172,-95.721259691778,4,1,0,83,0,0
239191,-95.75609008733,4,1,0,83,0,0
239210,-95.790945839799,4,1,0,83,0,0
239229,-95.825826976887,4,1,0,83,0,0
239248,-95.860733526333,4,1,0,83,0,0
239266,-95.893826355459,4,1,0,83,0,0
239285,-95.928782471893,4,1,0,83,0,0
239304,-95.963764082682,4,1,0,83,0,0
239323,-95.998771215728,4,1,0,83,0,0
239342,-96.033803898972,4,1,0,82,0,0
239361,-96.068862160397,4,1,0,82,0,0
239380,-96.103946028024,4,1,0,82,0,0
239399,-96.139055529918,4,1,0,82,0,0
239418,-96.174190694185,4,1,0,82,0,0
239437,-96.209351548971,4,1,0,82,0,0
239456,-96.244538122462,4,1,0,82,0,0
239475,-96.279750442887,4,1,0,82,0,0
239494,-96.314988538516,4,1,0,81,0,0
239513,-96.350252437661,4,1,0,81,0,0
239532,-96.385542168675,4,1,0,81,0,0
239551,-96.420857759951,4,1,0,81,0,0
239569,-96.454338516146,4,1,0,81,0,0
239588,-96.489704548525,4,1,0,81,0,0
239607,-96.525096525097,4,1,0,81,0,0
239626,-96.560514474421,4,1,0,81,0,0
239645,-96.595958425099,4,1,0,81,0,0
239664,-96.631428405775,4,1,0,80,0,0
239683,-96.666924445132,4,1,0,80,0,0
239702,-96.702446571898,4,1,0,80,0,0
239721,-96.737994814843,4,1,0,80,0,0
239740,-96.773569202779,4,1,0,80,0,0
239759,-96.80916976456,4,1,0,80,0,0
239778,-96.844796529082,4,1,0,80,0,0
239797,-96.880449525286,4,1,0,80,0,0
239816,-96.916128782152,4,1,0,80,0,0
239835,-96.951834328706,4,1,0,79,0,0
239854,-96.987566194014,4,1,0,79,0,0
239873,-97.023324407187,4,1,0,79,0,0
239891,-97.057224939825,4,1,0,79,0,0
239910,-97.093034545702,4,1,0,79,0,0
239929,-97.128870585493,4,1,0,79,0,0
239948,-97.164733088478,4,1,0,79,0,0
239967,-97.200622083981,4,1,0,79,0,0
239986,-97.236537601369,4,1,0,79,0,0
240005,-97.272479670052,4,1,0,78,0,0
240024,-97.308448319483,4,1,0,78,0,0
240043,-97.34444357916,4,1,0,78,0,0
240062,-97.380465478625,4,1,0,78,0,0
240081,-97.416514047461,4,1,0,78,0,0
240100,-97.452589315298,4,1,0,78,0,0
240119,-97.488691311808,4,1,0,78,0,0
240138,-97.524820066707,4,1,0,78,0,0
240157,-97.560975609756,4,1,0,78,0,0
240176,-97.59715797076,4,1,0,77,0,0
240194,-97.631460761916,4,1,0,77,0,0
240213,-97.667695433059,4,1,0,77,0,0
240232,-97.703957010259,4,1,0,77,0,0
240251,-97.740245523497,4,1,0,77,0,0
240270,-97.776561002796,4,1,0,77,0,0
240289,-97.812903478227,4,1,0,77,0,0
240308,-97.849272979902,4,1,0,77,0,0
240327,-97.88566953798,4,1,0,76,0,0
240346,-97.922093182664,4,1,0,76,0,0
240365,-97.958543944203,4,1,0,76,0,0
240384,-97.99502185289,4,1,0,76,0,0
240403,-98.031526939064,4,1,0,76,0,0
240422,-98.068059233108,4,1,0,76,0,0
240441,-98.104618765451,4,1,0,76,0,0
240460,-98.141205566569,4,1,0,76,0,0
240479,-98.177819666981,4,1,0,76,0,0
240498,-98.214461097252,4,1,0,75,0,0
240516,-98.249199269026,4,1,0,75,0,0
240535,-98.285894008492,4,1,0,75,0,0
240554,-98.322616168171,4,1,0,75,0,0
240573,-98.359365778809,4,1,0,75,0,0
240592,-98.396142871199,4,1,0,75,0,0
240611,-98.432947476179,4,1,0,75,0,0
240630,-98.469779624633,4,1,0,75,0,0
240649,-98.506639347492,4,1,0,75,0,0
240668,-98.543526675733,4,1,0,74,0,0
240687,-98.580441640379,4,1,0,74,0,0
240706,-98.6173842725,4,1,0,74,0,0
240725,-98.654354603212,4,1,0,74,0,0
240744,-98.69135266368,4,1,0,74,0,0
240763,-98.728378485112,4,1,0,74,0,0
240782,-98.765432098765,4,1,0,74,0,0
240801,-98.802513535944,4,1,0,74,0,0
240819,-98.837669012414,4,1,0,74,0,0
240838,-98.874804722261,4,1,0,73,0,0
240857,-98.91196834817,4,1,0,73,0,0
240876,-98.949159921632,4,1,0,73,0,0
240895,-98.986379474184,4,1,0,73,0,0
240914,-99.023627037411,4,1,0,73,0,0
240933,-99.060902642945,4,1,0,73,0,0
240952,-99.098206322466,4,1,0,73,0,0
240971,-99.135538107701,4,1,0,73,0,0
240990,-99.172898030426,4,1,0,73,0,0
241009,-99.210286122465,4,1,0,72,0,0
241028,-99.247702415689,4,1,0,72,0,0
241047,-99.285146942017,4,1,0,72,0,0
241066,-99.322619733418,4,1,0,72,0,0
241085,-99.360120821907,4,1,0,72,0,0
241104,-99.397650239548,4,1,0,72,0,0
241123,-99.435208018455,4,1,0,72,0,0
241141,-99.470815262802,4,1,0,72,0,0
241160,-99.508428363882,4,1,0,71,0,0
241179,-99.54606992116,4,1,0,71,0,0
241198,-99.583739966938,4,1,0,71,0,0
241217,-99.621438533572,4,1,0,71,0,0
241236,-99.659165653465,4,1,0,71,0,0
241255,-99.696921359068,4,1,0,71,0,0
241274,-99.734705682884,4,1,0,71,0,0
241293,-99.772518657461,4,1,0,71,0,0
241312,-99.810360315401,4,1,0,71,0,0
241331,-99.848230689352,4,1,0,70,0,0
241350,-99.886129812014,4,1,0,70,0,0
241369,-99.924057716136,4,1,0,70,0,0
241388,-99.962014434515,4,1,0,70,0,0
241407,-100,4,1,0,70,0,0

[HitObjects]
171,167,5043,5,0,0:0:0:0:
171,167,5346,1,0,0:0:0:0:
171,167,5649,1,8,0:0:0:0:
171,167,6255,1,8,0:0:0:0:
171,167,6558,1,8,0:0:0:0:
171,167,6861,1,0,0:0:0:0:
171,167,7013,1,0,0:0:0:0:
154,198,7164,1,8,0:0:0:0:
171,167,7467,1,0,0:0:0:0:
171,167,7770,1,8,0:0:0:0:
171,167,8073,1,0,0:0:0:0:
171,167,8376,1,8,0:0:0:0:
171,167,8679,1,0,0:0:0:0:
146,172,8982,1,0,0:0:0:0:
171,167,9285,1,8,0:0:0:0:
171,167,9740,1,0,0:0:0:0:
208,127,9816,1,0,0:0:0:0:
171,167,9891,1,0,0:0:0:0:
171,167,10195,1,8,0:0:0:0:
146,172,10498,1,8,0:0:0:0:
146,172,11104,1,0,0:0:0:0:
146,172,11407,1,0,0:0:0:0:
146,172,11710,1,8,0:0:0:0:
181,143,12013,1,8,0:0:0:0:
151,133,12164,1,0,0:0:0:0:
181,143,12240,1,8,0:0:0:0:
146,172,12316,1,0,0:0:0:0:
181,143,12922,1,8,0:0:0:0:
181,143,13073,1,8,0:0:0:0:
181,143,13225,1,0,0:0:0:0:
181,143,13452,1,8,0:0:0:0:
238,156,13528,1,0,0:0:0:0:
209,178,13679,1,0,0:0:0:0:
209,178,13831,1,8,0:0:0:0:
209,178,14134,1,8,0:0:0:0:
209,178,14361,1,0,0:0:0:0:
209,178,14437,1,8,0:0:0:0:
208,127,14588,1,8,0:0:0:0:
171,167,14740,1,0,0:0:0:0:
171,167,15346,1,8,0:0:0:0:
171,167,15573,1,0,0:0:0:0:
178,170,15649,1,8,0:0:0:0:
126,173,15801,1,0,0:0:0:0:
171,167,15952,1,8,0:0:0:0:
171,167,16104,1,8,0:0:0:0:
171,167,16255,1,0,0:0:0:0:
171,167,16558,1,8,0:0:0:0:
154,198,16710,1,0,0:0:0:0:
154,198,16861,1,8,0:0:0:0:
171,167,17013,1,8,0:0:0:0:
171,167,17164,1,0,0:0:0:0:
202,190,17467,1,0,0:0:0:0:
171,167,17770,1,8,0:0:0:0:
208,127,18073,1,0,0:0:0:0:
202,190,18225,1,8,0:0:0:0:
171,167,18528,1,8,0:0:0:0:
146,172,18679,1,0,0:0:0:0:
184,102,18831,1,0,0:0:0:0:
171,167,18982,1,8,0:0:0:0:
171,167,19285,1,0,0:0:0:0:
171,167,19437,1,8,0:0:0:0:
171,167,19588,1,0,0:0:0:0:
202,190,19891,1,8,0:0:0:0:
202,190,20043,1,8,0:0:0:0:
150,82,20194,1,0,0:0:0:0:
202,190,20422,1,0,0:0:0:0:
166,163,20498,1,8,0:0:0:0:
202,190,20649,1,8,0:0:0:0:
146,172,20801,1,0,0:0:0:0:
146,172,21104,1,0,0:0:0:0:
146,172,21407,1,8,0:0:0:0:
161,85,21558,1,8,0:0:0:0:
181,143,21710,1,0,0:0:0:0:
166,163,21861,1,0,0:0:0:0:
146,172,22013,1,8,0:0:0:0:
166,163,22316,1,0,0:0:0:0:
166,163,22467,1,8,0:0:0:0:
181,143,22619,1,0,0:0:0:0:
166,163,22770,1,0,0:0:0:0:
168,132,22922,1,8,0:0:0:0:
168,132,23073,1,8,0:0:0:0:
256,192,23225,8,0,24134,0:0:0:0:
123,169,24437,5,4,0:0:0:0:
191,159,24588,1,12,0:0:0:0:
191,159,24891,1,4,0:0:0:0:
191,159,25043,1,12,0:0:0:0:
142,143,25270,1,12,0:0:0:0:
156,127,25498,1,4,0:0:0:0:
210,135,26104,1,0,0:0:0:0:
210,135,26255,1,8,0:0:0:0:
156,117,26407,1,0,0:0:0:0:
161,121,26558,1,8,0:0:0:0:
163,155,26861,1,12,0:0:0:0:
163,155,27013,1,4,0:0:0:0:
163,155,27316,1,12,0:0:0:0:
163,155,27467,1,4,0:0:0:0:
164,108,27694,1,12,0:0:0:0:
164,108,27922,1,4,0:0:0:0:
121,112,28149,1,4,0:0:0:0:
209,135,28528,1,0,0:0:0:0:
209,135,28679,1,8,0:0:0:0:
136,101,28831,1,8,0:0:0:0:
161,121,28982,1,0,0:0:0:0:
136,101,29134,1,8,0:0:0:0:
164,91,29285,1,4,0:0:0:0:
191,159,29436,1,12,0:0:0:0:
191,159,29739,1,4,0:0:0:0:
191,159,29891,1,12,0:0:0:0:
142,143,30118,1,12,0:0:0:0:
156,127,30346,1,4,0:0:0:0:
151,148,30952,1,0,0:0:0:0:
151,148,31104,1,8,0:0:0:0:
145,120,31255,1,0,0:0:0:0:
151,148,31407,1,8,0:0:0:0:
163,155,31709,1,12,0:0:0:0:
163,155,31861,1,4,0:0:0:0:
163,155,32164,1,12,0:0:0:0:
163,155,32315,1,4,0:0:0:0:
164,108,32542,1,12,0:0:0:0:
164,108,32770,1,4,0:0:0:0:
121,112,32997,1,4,0:0:0:0:
256,192,33225,8,0,33831,0:0:0:0:
174,160,34134,5,8,0:0:0:0:
161,122,34437,1,0,0:0:0:0:
161,122,34740,1,0,0:0:0:0:
161,122,35043,1,0,0:0:0:0:
161,122,35346,1,0,0:0:0:0:
161,122,35649,1,0,0:0:0:0:
161,122,35952,1,0,0:0:0:0:
150,45,36255,1,0,0:0:0:0:
161,122,36558,1,8,0:0:0:0:
142,112,36861,1,0,0:0:0:0:
142,112,37164,1,0,0:0:0:0:
141,102,37467,1,0,0:0:0:0:
141,102,37770,1,0,0:0:0:0:
144,122,38073,1,0,0:0:0:0:
155,91,38376,1,0,0:0:0:0:
189,133,38679,1,0,0:0:0:0:
189,133,38982,1,8,0:0:0:0:
200,59,39285,1,8,0:0:0:0:
193,129,39588,1,8,0:0:0:0:
193,129,39891,1,8,0:0:0:0:
193,129,40194,1,8,0:0:0:0:
200,59,40498,1,8,0:0:0:0:
193,129,40801,1,8,0:0:0:0:
193,129,41104,1,8,0:0:0:0:
193,129,41407,1,8,0:0:0:0:
198,145,41558,1,0,0:0:0:0:
198,145,41710,1,8,0:0:0:0:
198,145,41861,1,0,0:0:0:0:
198,145,42013,1,8,0:0:0:0:
222,107,42164,1,0,0:0:0:0:
217,138,42316,1,8,0:0:0:0:
73,190,42467,1,0,0:0:0:0:
198,145,42619,1,8,0:0:0:0:
133,123,42770,1,8,0:0:0:0:
133,123,42922,1,8,0:0:0:0:
133,123,43225,1,0,0:0:0:0:
196,112,43528,1,8,0:0:0:0:
196,112,43831,1,4,0:0:0:0:
188,69,44134,1,8,0:0:0:0:
196,112,44285,1,8,0:0:0:0:
64,208,44437,1,0,0:0:0:0:
81,196,44513,1,0,0:0:0:0:
98,185,44588,1,0,0:0:0:0:
136,110,44740,1,0,0:0:0:0:
136,110,44891,1,8,0:0:0:0:
198,145,45194,1,8,0:0:0:0:
171,82,45346,1,0,0:0:0:0:
198,145,45498,1,0,0:0:0:0:
198,145,45649,1,8,0:0:0:0:
203,112,45801,1,0,0:0:0:0:
203,112,45876,1,0,0:0:0:0:
198,145,45952,1,8,0:0:0:0:
125,117,46104,1,0,0:0:0:0:
203,112,46407,1,0,0:0:0:0:
188,69,46558,1,8,0:0:0:0:
203,112,46710,1,8,0:0:0:0:
125,117,46861,1,0,0:0:0:0:
163,101,47013,1,8,0:0:0:0:
163,101,47088,1,8,0:0:0:0:
146,107,47164,1,0,0:0:0:0:
188,69,47316,1,8,0:0:0:0:
203,112,47467,1,0,0:0:0:0:
201,80,47619,1,0,0:0:0:0:
211,81,47770,1,8,0:0:0:0:
203,112,47922,1,0,0:0:0:0:
352,135,48073,1,8,0:0:0:0:
330,134,48149,1,8,0:0:0:0:
309,133,48225,1,8,0:0:0:0:
273,132,48376,1,0,0:0:0:0:
88,278,48528,1,0,0:0:0:0:
184,106,48831,1,8,0:0:0:0:
149,156,48982,1,0,0:0:0:0:
149,156,49134,1,8,0:0:0:0:
145,67,49285,1,0,0:0:0:0:
149,156,49361,1,0,0:0:0:0:
149,156,49437,1,8,0:0:0:0:
132,134,49588,1,0,0:0:0:0:
149,156,49740,1,8,0:0:0:0:
149,156,50043,1,8,0:0:0:0:
149,156,50194,1,0,0:0:0:0:
149,156,50346,1,0,0:0:0:0:
149,156,50498,1,8,0:0:0:0:
149,156,50649,1,8,0:0:0:0:
149,156,50801,1,0,0:0:0:0:
166,120,50952,1,8,0:0:0:0:
149,156,51255,1,0,0:0:0:0:
149,156,51407,1,8,0:0:0:0:
149,156,51558,1,8,0:0:0:0:
149,156,51634,1,8,0:0:0:0:
149,156,51710,1,0,0:0:0:0:
149,156,51861,1,0,0:0:0:0:
149,156,52013,1,8,0:0:0:0:
149,156,52316,1,0,0:0:0:0:
149,156,52467,1,0,0:0:0:0:
149,156,52619,1,8,0:0:0:0:
149,156,52770,1,0,0:0:0:0:
149,156,52846,1,0,0:0:0:0:
149,156,52998,1,0,0:0:0:0:
157,72,53073,1,0,0:0:0:0:
149,156,53225,1,8,0:0:0:0:
148,97,53528,1,4,0:0:0:0:
188,69,53831,1,8,0:0:0:0:
196,112,53982,1,8,0:0:0:0:
64,208,54134,1,0,0:0:0:0:
81,196,54210,1,0,0:0:0:0:
98,185,54285,1,0,0:0:0:0:
136,110,54437,1,8,0:0:0:0:
136,110,54588,1,0,0:0:0:0:
177,104,54664,1,0,0:0:0:0:
177,104,54740,1,8,0:0:0:0:
198,145,54891,1,8,0:0:0:0:
171,82,55043,1,0,0:0:0:0:
198,145,55195,1,0,0:0:0:0:
198,145,55346,1,8,0:0:0:0:
177,104,55422,1,8,0:0:0:0:
203,112,55498,1,0,0:0:0:0:
203,112,55573,1,0,0:0:0:0:
198,145,55649,1,8,0:0:0:0:
125,117,55801,1,0,0:0:0:0:
203,112,56104,1,0,0:0:0:0:
188,69,56255,1,8,0:0:0:0:
203,112,56407,1,8,0:0:0:0:
125,117,56558,1,0,0:0:0:0:
163,101,56710,1,8,0:0:0:0:
163,101,56785,1,8,0:0:0:0:
146,107,56861,1,0,0:0:0:0:
188,69,57013,1,8,0:0:0:0:
203,112,57164,1,4,0:0:0:0:
352,135,57316,1,8,0:0:0:0:
203,112,57619,1,8,0:0:0:0:
309,133,57922,1,8,0:0:0:0:
88,278,58225,1,8,0:0:0:0:
309,133,58376,1,0,0:0:0:0:
309,133,58452,1,0,0:0:0:0:
309,133,58528,1,8,0:0:0:0:
309,133,58679,1,0,0:0:0:0:
309,133,58831,1,8,0:0:0:0:
309,133,58907,1,8,0:0:0:0:
309,133,58982,1,0,0:0:0:0:
309,133,59134,1,8,0:0:0:0:
320,128,59210,1,0,0:0:0:0:
309,133,59285,1,0,0:0:0:0:
309,133,59437,1,8,0:0:0:0:
309,133,59588,1,0,0:0:0:0:
309,133,59891,1,0,0:0:0:0:
309,133,60043,1,8,0:0:0:0:
256,192,60119,1,8,0:0:0:0:
256,192,60194,1,0,0:0:0:0:
256,192,60346,1,8,0:0:0:0:
256,192,60498,1,0,0:0:0:0:
256,192,60649,1,8,0:0:0:0:
256,192,60801,1,0,0:0:0:0:
256,192,60876,1,0,0:0:0:0:
256,192,60952,1,0,0:0:0:0:
256,192,61028,1,0,0:0:0:0:
256,192,61104,1,8,0:0:0:0:
256,192,61255,1,0,0:0:0:0:
256,192,61331,1,0,0:0:0:0:
256,192,61407,1,8,0:0:0:0:
256,192,61558,1,8,0:0:0:0:
256,192,61710,1,0,0:0:0:0:
256,192,61785,1,0,0:0:0:0:
256,192,61861,1,0,0:0:0:0:
256,192,62013,8,0,62922,0:0:0:0:
182,133,63225,5,4,0:0:0:0:
119,135,63528,1,8,0:0:0:0:
192,128,63755,1,0,0:0:0:0:
192,128,63831,1,8,0:0:0:0:
119,135,63982,1,0,0:0:0:0:
119,135,64134,1,8,0:0:0:0:
119,135,64437,1,0,0:0:0:0:
192,128,64588,1,0,0:0:0:0:
119,135,64740,1,8,0:0:0:0:
192,128,64967,1,0,0:0:0:0:
119,135,65043,1,8,0:0:0:0:
119,135,65194,1,0,0:0:0:0:
119,135,65346,1,8,0:0:0:0:
119,135,65498,1,8,0:0:0:0:
98,189,65649,1,0,0:0:0:0:
193,138,65952,1,8,0:0:0:0:
193,138,66179,1,0,0:0:0:0:
193,138,66255,1,8,0:0:0:0:
193,138,66331,1,8,0:0:0:0:
193,138,66407,1,0,0:0:0:0:
193,138,66558,1,8,0:0:0:0:
193,138,66710,1,8,0:0:0:0:
193,138,66861,1,0,0:0:0:0:
193,138,67164,1,8,0:0:0:0:
119,179,67316,1,8,0:0:0:0:
162,154,67467,1,0,0:0:0:0:
193,138,67543,1,8,0:0:0:0:
161,174,67695,1,8,0:0:0:0:
161,181,67770,1,0,0:0:0:0:
207,166,67922,1,8,0:0:0:0:
160,181,68073,1,0,0:0:0:0:
178,151,68376,1,8,0:0:0:0:
192,160,68528,1,0,0:0:0:0:
192,160,68604,1,8,0:0:0:0:
192,160,68679,1,8,0:0:0:0:
178,151,68831,1,0,0:0:0:0:
178,151,68982,1,8,0:0:0:0:
178,151,69285,1,0,0:0:0:0:
192,160,69437,1,0,0:0:0:0:
123,165,69588,1,8,0:0:0:0:
160,160,69664,1,8,0:0:0:0:
123,165,69740,1,8,0:0:0:0:
154,76,69891,1,0,0:0:0:0:
178,151,70043,1,0,0:0:0:0:
160,160,70119,1,0,0:0:0:0:
178,151,70195,1,8,0:0:0:0:
160,160,70346,1,8,0:0:0:0:
154,76,70498,1,0,0:0:0:0:
154,76,70801,1,0,0:0:0:0:
192,64,70952,1,8,0:0:0:0:
207,166,71028,1,8,0:0:0:0:
150,60,71104,1,8,0:0:0:0:
123,200,71255,1,0,0:0:0:0:
123,200,71407,1,8,0:0:0:0:
221,96,71558,1,8,0:0:0:0:
221,96,71710,1,0,0:0:0:0:
221,96,72013,1,8,0:0:0:0:
224,160,72164,1,0,0:0:0:0:
221,96,72316,1,8,0:0:0:0:
224,160,72391,1,8,0:0:0:0:
224,160,72467,1,0,0:0:0:0:
224,160,72543,1,0,0:0:0:0:
209,58,72619,1,8,0:0:0:0:
224,160,72770,1,8,0:0:0:0:
182,133,72922,1,4,0:0:0:0:
119,135,73225,1,8,0:0:0:0:
192,128,73452,1,0,0:0:0:0:
192,128,73528,1,8,0:0:0:0:
119,135,73679,1,0,0:0:0:0:
119,135,73831,1,8,0:0:0:0:
119,135,74134,1,0,0:0:0:0:
192,128,74285,1,0,0:0:0:0:
119,135,74437,1,8,0:0:0:0:
192,128,74664,1,0,0:0:0:0:
119,135,74740,1,8,0:0:0:0:
119,135,74891,1,0,0:0:0:0:
119,135,75043,1,8,0:0:0:0:
119,135,75195,1,8,0:0:0:0:
98,189,75346,1,0,0:0:0:0:
193,138,75649,1,8,0:0:0:0:
192,160,75801,1,0,0:0:0:0:
193,138,75876,1,8,0:0:0:0:
193,138,75952,1,8,0:0:0:0:
193,138,76104,1,0,0:0:0:0:
193,138,76255,1,8,0:0:0:0:
193,138,76407,1,8,0:0:0:0:
193,138,76558,1,0,0:0:0:0:
193,138,76861,1,8,0:0:0:0:
119,179,77013,1,8,0:0:0:0:
162,154,77164,1,0,0:0:0:0:
193,138,77316,1,8,0:0:0:0:
161,174,77392,1,8,0:0:0:0:
161,181,77467,1,0,0:0:0:0:
207,166,77619,1,8,0:0:0:0:
160,181,77770,1,0,0:0:0:0:
178,151,78073,1,8,0:0:0:0:
192,160,78225,1,0,0:0:0:0:
192,160,78301,1,0,0:0:0:0:
192,160,78376,1,8,0:0:0:0:
178,151,78528,1,8,0:0:0:0:
178,151,78679,1,0,0:0:0:0:
178,151,78982,1,0,0:0:0:0:
192,160,79134,1,8,0:0:0:0:
160,160,79210,1,0,0:0:0:0:
123,165,79285,1,8,0:0:0:0:
123,165,79437,1,8,0:0:0:0:
154,76,79588,1,0,0:0:0:0:
160,160,79664,1,0,0:0:0:0:
178,151,79740,1,0,0:0:0:0:
178,151,79892,1,8,0:0:0:0:
160,160,80043,1,8,0:0:0:0:
154,76,80195,1,0,0:0:0:0:
154,76,80498,1,8,0:0:0:0:
192,64,80649,1,0,0:0:0:0:
207,166,80725,1,0,0:0:0:0:
150,60,80801,1,8,0:0:0:0:
123,200,80952,1,8,0:0:0:0:
123,200,81104,1,0,0:0:0:0:
224,160,81179,1,8,0:0:0:0:
221,96,81331,1,8,0:0:0:0:
221,96,81407,1,0,0:0:0:0:
224,160,81558,1,0,0:0:0:0:
221,96,81710,1,8,0:0:0:0:
224,160,81861,1,8,0:0:0:0:
221,96,82013,1,0,0:0:0:0:
224,160,82088,1,0,0:0:0:0:
224,160,82164,1,8,0:0:0:0:
224,160,82240,1,8,0:0:0:0:
209,58,82316,1,0,0:0:0:0:
224,160,82467,1,8,0:0:0:0:
182,133,82619,1,4,0:0:0:0:
224,160,82922,1,8,0:0:0:0:
148,96,83073,1,8,0:0:0:0:
148,96,83225,1,0,0:0:0:0:
203,49,83528,1,0,0:0:0:0:
192,96,83679,1,0,0:0:0:0:
203,49,83831,1,8,0:0:0:0:
176,116,84058,1,0,0:0:0:0:
192,96,84134,1,8,0:0:0:0:
181,96,84285,1,0,0:0:0:0:
176,116,84437,1,8,0:0:0:0:
144,77,84740,1,0,0:0:0:0:
172,87,84891,1,0,0:0:0:0:
181,96,85043,1,8,0:0:0:0:
176,116,85119,1,0,0:0:0:0:
181,96,85270,1,0,0:0:0:0:
192,128,85346,1,8,0:0:0:0:
140,291,85498,1,8,0:0:0:0:
140,291,85649,1,0,0:0:0:0:
192,160,85952,1,8,0:0:0:0:
168,163,86104,1,0,0:0:0:0:
192,160,86179,1,0,0:0:0:0:
181,96,86255,1,8,0:0:0:0:
192,160,86407,1,0,0:0:0:0:
181,96,86558,1,8,0:0:0:0:
192,160,86710,1,8,0:0:0:0:
181,96,86861,1,0,0:0:0:0:
192,160,86937,1,0,0:0:0:0:
192,160,87013,1,0,0:0:0:0:
181,96,87164,1,8,0:0:0:0:
181,96,87467,1,0,0:0:0:0:
192,160,87619,1,0,0:0:0:0:
192,160,87770,1,8,0:0:0:0:
181,96,87922,1,8,0:0:0:0:
192,160,87998,1,8,0:0:0:0:
181,96,88073,1,0,0:0:0:0:
181,96,88376,1,0,0:0:0:0:
181,96,88528,1,0,0:0:0:0:
181,96,88679,1,8,0:0:0:0:
192,160,88755,1,0,0:0:0:0:
192,160,88907,1,0,0:0:0:0:
192,160,88982,1,8,0:0:0:0:
181,96,89134,1,0,0:0:0:0:
181,96,89285,1,8,0:0:0:0:
181,96,89588,1,8,0:0:0:0:
192,96,89740,1,8,0:0:0:0:
181,96,89891,1,0,0:0:0:0:
175,90,90194,1,0,0:0:0:0:
154,54,90346,1,0,0:0:0:0:
181,96,90498,1,8,0:0:0:0:
181,96,90573,1,8,0:0:0:0:
181,96,90649,1,0,0:0:0:0:
181,96,90801,1,8,0:0:0:0:
192,96,90952,1,0,0:0:0:0:
181,96,91104,1,8,0:0:0:0:
181,96,91179,1,8,0:0:0:0:
181,96,91255,1,8,0:0:0:0:
160,96,91331,1,8,0:0:0:0:
181,96,91407,1,0,0:0:0:0:
181,96,91558,1,0,0:0:0:0:
181,96,91710,1,8,0:0:0:0:
160,96,91785,1,0,0:0:0:0:
153,72,91937,1,0,0:0:0:0:
160,96,92013,1,8,0:0:0:0:
153,72,92164,1,8,0:0:0:0:
145,123,92316,1,0,0:0:0:0:
148,92,92619,1,8,0:0:0:0:
181,193,93073,1,0,0:0:0:0:
144,141,93225,1,8,0:0:0:0:
181,193,93528,1,0,0:0:0:0:
181,193,93679,1,0,0:0:0:0:
144,141,93831,1,8,0:0:0:0:
144,141,94285,1,0,0:0:0:0:
144,141,94437,1,8,0:0:0:0:
169,166,94588,1,0,0:0:0:0:
144,141,94740,1,0,0:0:0:0:
144,141,95043,1,8,0:0:0:0:
181,193,95498,1,0,0:0:0:0:
144,141,95649,1,8,0:0:0:0:
181,193,95952,1,0,0:0:0:0:
181,193,96104,1,0,0:0:0:0:
144,141,96255,1,8,0:0:0:0:
160,192,96407,1,0,0:0:0:0:
144,141,96710,1,0,0:0:0:0:
144,141,96861,1,8,0:0:0:0:
169,166,97013,1,8,0:0:0:0:
256,192,97164,8,0,100498,0:0:0:0:
109,136,100801,5,12,0:0:0:0:
109,136,100952,1,12,0:0:0:0:
109,136,101104,1,12,0:0:0:0:
109,136,101255,1,12,0:0:0:0:
111,110,102013,1,4,0:0:0:0:
192,192,102316,1,8,0:0:0:0:
174,166,102467,1,0,0:0:0:0:
186,183,102619,1,8,0:0:0:0:
169,166,102922,1,0,0:0:0:0:
169,166,103073,1,8,0:0:0:0:
186,183,103376,1,0,0:0:0:0:
186,183,103528,1,0,0:0:0:0:
186,183,103831,1,8,0:0:0:0:
186,183,104134,1,8,0:0:0:0:
186,183,104285,1,8,0:0:0:0:
152,197,104437,1,4,0:0:0:0:
192,160,104740,1,8,0:0:0:0:
192,160,104891,1,0,0:0:0:0:
186,183,105043,1,8,0:0:0:0:
187,159,105346,1,0,0:0:0:0:
187,159,105498,1,8,0:0:0:0:
192,160,105573,1,8,0:0:0:0:
192,160,105649,1,8,0:0:0:0:
186,183,105801,1,0,0:0:0:0:
186,183,105952,1,0,0:0:0:0:
186,183,106255,1,8,0:0:0:0:
186,183,106407,1,0,0:0:0:0:
186,183,106482,1,0,0:0:0:0:
186,183,106558,1,8,0:0:0:0:
186,183,106710,1,8,0:0:0:0:
152,197,106861,1,4,0:0:0:0:
186,183,107164,1,0,0:0:0:0:
192,192,107316,1,0,0:0:0:0:
186,183,107467,1,8,0:0:0:0:
192,192,107619,1,0,0:0:0:0:
192,192,107694,1,0,0:0:0:0:
187,159,107770,1,8,0:0:0:0:
140,140,107922,1,0,0:0:0:0:
190,169,108073,1,8,0:0:0:0:
186,183,108225,1,0,0:0:0:0:
186,183,108376,1,0,0:0:0:0:
186,183,108679,1,8,0:0:0:0:
187,159,108831,1,0,0:0:0:0:
186,183,108982,1,8,0:0:0:0:
192,192,109058,1,8,0:0:0:0:
186,183,109134,1,8,0:0:0:0:
164,124,109285,1,4,0:0:0:0:
192,192,109588,1,8,0:0:0:0:
192,192,109740,1,0,0:0:0:0:
186,183,109891,1,8,0:0:0:0:
192,192,109967,1,0,0:0:0:0:
192,192,110043,1,0,0:0:0:0:
187,159,110194,1,8,0:0:0:0:
140,140,110498,1,0,0:0:0:0:
186,183,110649,1,8,0:0:0:0:
186,183,110801,1,8,0:0:0:0:
187,159,110952,1,8,0:0:0:0:
186,183,111104,1,0,0:0:0:0:
186,183,111255,1,8,0:0:0:0:
186,183,111331,1,8,0:0:0:0:
186,183,111558,1,8,0:0:0:0:
164,124,111710,1,4,0:0:0:0:
186,183,112013,1,8,0:0:0:0:
186,183,112164,1,0,0:0:0:0:
186,183,112316,1,8,0:0:0:0:
186,183,112467,1,8,0:0:0:0:
186,183,112619,1,0,0:0:0:0:
186,183,112846,1,0,0:0:0:0:
186,183,112922,1,8,0:0:0:0:
186,183,113073,1,0,0:0:0:0:
186,183,113225,1,8,0:0:0:0:
187,159,113376,1,0,0:0:0:0:
192,160,113452,1,0,0:0:0:0:
186,183,113528,1,8,0:0:0:0:
192,160,113679,1,8,0:0:0:0:
186,183,113831,1,0,0:0:0:0:
186,183,113982,1,8,0:0:0:0:
129,154,114134,1,4,0:0:0:0:
192,160,114437,1,8,0:0:0:0:
160,160,114588,1,0,0:0:0:0:
129,149,114740,1,8,0:0:0:0:
160,160,114891,1,0,0:0:0:0:
160,160,114967,1,0,0:0:0:0:
129,149,115043,1,8,0:0:0:0:
160,160,115119,1,0,0:0:0:0:
160,160,115270,1,0,0:0:0:0:
140,140,115346,1,8,0:0:0:0:
129,149,115498,1,0,0:0:0:0:
129,149,115649,1,8,0:0:0:0:
129,149,115952,1,0,0:0:0:0:
129,149,116104,1,8,0:0:0:0:
129,149,116255,1,0,0:0:0:0:
132,149,116331,1,0,0:0:0:0:
129,149,116407,1,0,0:0:0:0:
163,111,116558,1,12,0:0:0:0:
115,87,116861,1,0,0:0:0:0:
192,160,116937,1,0,0:0:0:0:
192,160,117013,1,8,0:0:0:0:
86,187,117164,1,0,0:0:0:0:
115,87,117316,1,0,0:0:0:0:
115,87,117467,1,8,0:0:0:0:
129,154,117770,1,12,0:0:0:0:
205,181,118073,1,0,0:0:0:0:
205,181,118149,1,0,0:0:0:0:
192,160,118225,1,8,0:0:0:0:
86,187,118376,1,0,0:0:0:0:
205,181,118528,1,8,0:0:0:0:
205,181,118679,1,0,0:0:0:0:
121,132,118982,1,12,0:0:0:0:
205,181,119285,1,0,0:0:0:0:
121,132,119588,1,12,0:0:0:0:
205,181,119891,1,0,0:0:0:0:
121,132,120194,1,12,0:0:0:0:
205,181,120346,1,0,0:0:0:0:
268,113,120498,1,12,0:0:0:0:
267,113,120801,1,0,0:0:0:0:
268,113,120952,1,0,0:0:0:0:
183,178,121104,1,8,0:0:0:0:
256,192,121407,8,0,126255,0:0:0:0:
243,169,131104,5,0,0:0:0:0:
201,173,131407,1,8,0:0:0:0:
256,160,131558,1,0,0:0:0:0:
201,173,131861,1,0,0:0:0:0:
201,173,132013,1,8,0:0:0:0:
201,173,132316,1,0,0:0:0:0:
201,173,132467,1,0,0:0:0:0:
201,173,132619,1,8,0:0:0:0:
146,156,132770,1,0,0:0:0:0:
201,173,133073,1,0,0:0:0:0:
169,157,133225,1,8,0:0:0:0:
161,131,133376,1,0,0:0:0:0:
169,157,133528,1,0,0:0:0:0:
169,157,133831,1,8,0:0:0:0:
160,160,133982,1,8,0:0:0:0:
160,160,134134,1,0,0:0:0:0:
169,157,134285,1,0,0:0:0:0:
169,157,134437,1,8,0:0:0:0:
178,166,134740,1,0,0:0:0:0:
169,157,134891,1,0,0:0:0:0:
169,157,135043,1,8,0:0:0:0:
169,157,135195,1,0,0:0:0:0:
169,157,135498,1,0,0:0:0:0:
169,157,135649,1,8,0:0:0:0:
169,157,135801,1,0,0:0:0:0:
169,157,135952,1,0,0:0:0:0:
126,140,136255,1,8,0:0:0:0:
176,115,136407,1,0,0:0:0:0:
169,157,136710,1,0,0:0:0:0:
169,157,136861,1,8,0:0:0:0:
160,160,137013,1,8,0:0:0:0:
169,157,137164,1,0,0:0:0:0:
162,124,137316,1,0,0:0:0:0:
169,157,137467,1,8,0:0:0:0:
169,157,137619,1,0,0:0:0:0:
162,124,137922,1,0,0:0:0:0:
162,124,138073,1,8,0:0:0:0:
85,200,138225,1,0,0:0:0:0:
169,72,138376,1,0,0:0:0:0:
161,141,138679,1,8,0:0:0:0:
167,121,138831,1,8,0:0:0:0:
109,174,139134,1,0,0:0:0:0:
161,141,139285,1,8,0:0:0:0:
167,121,139437,1,8,0:0:0:0:
93,162,139588,1,0,0:0:0:0:
93,162,139664,1,0,0:0:0:0:
93,162,139740,1,8,0:0:0:0:
93,162,139891,1,0,0:0:0:0:
161,141,139967,1,0,0:0:0:0:
166,121,140043,1,8,0:0:0:0:
166,121,140195,1,0,0:0:0:0:
181,94,140498,1,8,0:0:0:0:
123,169,140801,1,4,0:0:0:0:
191,159,140952,1,12,0:0:0:0:
191,159,141255,1,4,0:0:0:0:
191,159,141407,1,12,0:0:0:0:
142,143,141634,1,12,0:0:0:0:
156,127,141862,1,4,0:0:0:0:
210,135,142468,1,0,0:0:0:0:
210,135,142619,1,8,0:0:0:0:
156,117,142771,1,0,0:0:0:0:
161,121,142922,1,8,0:0:0:0:
163,155,143225,1,12,0:0:0:0:
163,155,143377,1,4,0:0:0:0:
163,155,143680,1,12,0:0:0:0:
163,155,143831,1,4,0:0:0:0:
164,108,144058,1,12,0:0:0:0:
164,108,144286,1,4,0:0:0:0:
121,112,144513,1,4,0:0:0:0:
209,135,144892,1,0,0:0:0:0:
209,135,145043,1,8,0:0:0:0:
136,101,145195,1,8,0:0:0:0:
161,121,145346,1,0,0:0:0:0:
136,101,145498,1,8,0:0:0:0:
164,91,145649,1,4,0:0:0:0:
191,159,145800,1,12,0:0:0:0:
191,159,146103,1,4,0:0:0:0:
191,159,146255,1,12,0:0:0:0:
142,143,146482,1,12,0:0:0:0:
156,127,146710,1,4,0:0:0:0:
151,148,147316,1,0,0:0:0:0:
151,148,147468,1,8,0:0:0:0:
145,120,147619,1,0,0:0:0:0:
151,148,147771,1,8,0:0:0:0:
163,155,148073,1,12,0:0:0:0:
163,155,148225,1,4,0:0:0:0:
163,155,148528,1,12,0:0:0:0:
163,155,148679,1,4,0:0:0:0:
164,108,148906,1,12,0:0:0:0:
164,108,149134,1,4,0:0:0:0:
121,112,149361,1,4,0:0:0:0:
256,192,149589,12,0,150195,0:0:0:0:
174,160,150498,5,4,0:0:0:0:
177,133,151104,1,0,0:0:0:0:
177,133,151710,1,8,0:0:0:0:
196,146,152164,1,8,0:0:0:0:
157,136,152468,1,0,0:0:0:0:
157,142,152619,1,8,0:0:0:0:
170,128,152922,1,0,0:0:0:0:
170,128,153528,1,0,0:0:0:0:
208,154,153831,1,0,0:0:0:0:
208,154,154134,1,8,0:0:0:0:
173,133,154588,1,0,0:0:0:0:
173,133,154740,1,8,0:0:0:0:
197,141,155043,1,8,0:0:0:0:
153,138,155346,1,4,0:0:0:0:
200,59,155649,1,8,0:0:0:0:
193,129,155952,1,8,0:0:0:0:
193,129,156255,1,8,0:0:0:0:
181,121,156558,1,4,0:0:0:0:
200,59,156861,1,8,0:0:0:0:
193,129,157164,1,8,0:0:0:0:
193,129,157467,1,8,0:0:0:0:
172,120,157770,1,0,0:0:0:0:
172,130,157922,1,8,0:0:0:0:
198,145,158073,1,0,0:0:0:0:
172,127,158149,1,0,0:0:0:0:
198,145,158225,1,0,0:0:0:0:
192,160,158301,1,0,0:0:0:0:
198,145,158376,1,8,0:0:0:0:
172,126,158452,1,8,0:0:0:0:
172,126,158528,1,8,0:0:0:0:
192,128,158604,1,8,0:0:0:0:
171,100,158679,1,0,0:0:0:0:
192,128,158831,1,0,0:0:0:0:
202,109,158982,1,12,0:0:0:0:
202,109,159210,1,12,0:0:0:0:
202,109,159437,1,12,0:0:0:0:
202,109,159588,1,0,0:0:0:0:
184,122,160194,1,4,0:0:0:0:
186,126,160498,1,8,0:0:0:0:
192,135,160649,1,0,0:0:0:0:
191,128,160725,1,0,0:0:0:0:
123,115,160801,1,0,0:0:0:0:
186,126,160952,1,8,0:0:0:0:
101,147,161104,1,0,0:0:0:0:
192,135,161179,1,0,0:0:0:0:
125,87,161255,1,0,0:0:0:0:
125,87,161407,1,8,0:0:0:0:
101,118,161634,1,8,0:0:0:0:
210,146,161710,1,0,0:0:0:0:
158,69,161861,1,8,0:0:0:0:
210,146,162013,1,0,0:0:0:0:
153,188,162088,1,8,0:0:0:0:
210,146,162240,1,8,0:0:0:0:
184,165,162316,1,0,0:0:0:0:
186,131,162467,1,0,0:0:0:0:
186,131,162619,1,8,0:0:0:0:
182,135,162922,1,0,0:0:0:0:
186,131,163073,1,8,0:0:0:0:
182,135,163149,1,8,0:0:0:0:
186,131,163225,1,0,0:0:0:0:
151,145,163376,1,0,0:0:0:0:
191,128,163452,1,0,0:0:0:0:
175,69,163528,1,8,0:0:0:0:
167,114,163679,1,0,0:0:0:0:
151,145,163831,1,8,0:0:0:0:
156,131,163907,1,0,0:0:0:0:
170,131,164058,1,8,0:0:0:0:
156,131,164134,1,0,0:0:0:0:
170,131,164285,1,8,0:0:0:0:
156,127,164437,1,0,0:0:0:0:
156,127,164588,1,0,0:0:0:0:
156,127,164664,1,0,0:0:0:0:
149,107,164740,1,8,0:0:0:0:
177,131,164891,1,8,0:0:0:0:
170,131,164967,1,8,0:0:0:0:
170,131,165043,1,0,0:0:0:0:
147,133,165346,1,8,0:0:0:0:
173,30,165498,1,8,0:0:0:0:
98,96,165649,1,0,0:0:0:0:
98,96,165801,1,8,0:0:0:0:
98,96,165876,1,8,0:0:0:0:
98,96,165952,1,0,0:0:0:0:
154,129,166028,1,0,0:0:0:0:
98,96,166104,1,8,0:0:0:0:
147,133,166255,1,0,0:0:0:0:
147,133,166558,1,8,0:0:0:0:
171,77,166710,1,0,0:0:0:0:
152,133,166785,1,0,0:0:0:0:
93,78,166861,1,8,0:0:0:0:
152,133,167013,1,8,0:0:0:0:
152,133,167088,1,8,0:0:0:0:
163,72,167164,1,0,0:0:0:0:
152,133,167316,1,0,0:0:0:0:
144,138,167467,1,8,0:0:0:0:
152,133,167543,1,0,0:0:0:0:
144,138,167694,1,8,0:0:0:0:
152,133,167770,1,0,0:0:0:0:
192,2,167922,1,0,0:0:0:0:
144,138,168073,1,8,0:0:0:0:
145,141,168149,1,0,0:0:0:0:
153,149,168225,1,0,0:0:0:0:
144,138,168376,1,8,0:0:0:0:
144,138,168679,1,0,0:0:0:0:
153,148,168831,1,8,0:0:0:0:
93,149,168982,1,0,0:0:0:0:
155,148,169058,1,0,0:0:0:0:
97,166,169134,1,8,0:0:0:0:
97,165,169285,1,0,0:0:0:0:
153,188,169361,1,0,0:0:0:0:
166,36,169437,1,8,0:0:0:0:
181,132,169513,1,8,0:0:0:0:
144,138,169588,1,0,0:0:0:0:
144,138,169740,1,8,0:0:0:0:
139,129,169891,1,0,0:0:0:0:
186,126,170195,1,8,0:0:0:0:
181,132,170346,1,0,0:0:0:0:
181,132,170422,1,8,0:0:0:0:
123,115,170498,1,0,0:0:0:0:
186,126,170649,1,8,0:0:0:0:
101,147,170801,1,0,0:0:0:0:
181,132,170876,1,8,0:0:0:0:
181,132,170952,1,0,0:0:0:0:
125,87,171104,1,12,0:0:0:0:
101,118,171331,1,12,0:0:0:0:
182,159,171558,1,4,0:0:0:0:
153,188,171785,1,4,0:0:0:0:
184,165,172013,1,12,0:0:0:0:
188,171,172164,1,0,0:0:0:0:
125,163,172619,1,4,0:0:0:0:
158,178,172922,1,8,0:0:0:0:
158,178,173073,1,0,0:0:0:0:
158,178,173149,1,0,0:0:0:0:
135,73,173225,1,8,0:0:0:0:
161,70,173376,1,0,0:0:0:0:
136,190,173528,1,12,0:0:0:0:
136,195,173755,1,12,0:0:0:0:
135,198,173982,1,4,0:0:0:0:
170,145,174285,1,0,0:0:0:0:
170,145,174437,1,8,0:0:0:0:
115,188,174740,1,4,0:0:0:0:
170,145,175043,1,8,0:0:0:0:
158,79,175194,1,0,0:0:0:0:
146,125,175498,1,0,0:0:0:0:
164,133,175649,1,8,0:0:0:0:
164,133,175725,1,8,0:0:0:0:
174,65,175801,1,8,0:0:0:0:
115,188,175952,1,4,0:0:0:0:
121,174,176255,1,8,0:0:0:0:
191,98,176407,1,8,0:0:0:0:
146,125,176558,1,0,0:0:0:0:
164,133,176710,1,8,0:0:0:0:
164,133,176785,1,0,0:0:0:0:
144,75,176861,1,8,0:0:0:0:
164,133,177013,1,8,0:0:0:0:
115,188,177164,1,4,0:0:0:0:
188,60,177467,1,8,0:0:0:0:
188,60,177619,1,0,0:0:0:0:
147,129,177770,1,8,0:0:0:0:
144,121,177922,1,0,0:0:0:0:
144,121,177998,1,0,0:0:0:0:
144,121,178073,1,8,0:0:0:0:
186,52,178225,1,8,0:0:0:0:
115,188,178376,1,4,0:0:0:0:
137,117,178679,1,8,0:0:0:0:
159,78,178831,1,8,0:0:0:0:
140,32,178982,1,0,0:0:0:0:
144,121,179134,1,8,0:0:0:0:
144,121,179210,1,8,0:0:0:0:
166,198,179285,1,8,0:0:0:0:
144,121,179437,1,0,0:0:0:0:
140,62,179588,1,8,0:0:0:0:
144,121,179664,1,0,0:0:0:0:
192,70,179816,1,8,0:0:0:0:
144,121,179891,1,0,0:0:0:0:
136,143,180043,1,8,0:0:0:0:
143,187,180194,1,0,0:0:0:0:
148,131,180270,1,0,0:0:0:0:
144,121,180346,1,8,0:0:0:0:
144,121,180422,1,8,0:0:0:0:
149,105,180498,1,0,0:0:0:0:
136,154,180801,1,8,0:0:0:0:
142,121,180952,1,0,0:0:0:0:
136,143,181104,1,8,0:0:0:0:
131,143,181255,1,0,0:0:0:0:
144,121,181331,1,0,0:0:0:0:
132,107,181407,1,8,0:0:0:0:
213,95,181558,1,0,0:0:0:0:
131,143,181634,1,8,0:0:0:0:
213,95,181710,1,0,0:0:0:0:
211,108,181861,1,8,0:0:0:0:
256,192,182013,8,0,182922,0:0:0:0:
116,133,183225,5,0,0:0:0:0:
160,127,183528,1,8,0:0:0:0:
160,127,183831,1,0,0:0:0:0:
160,127,183982,1,0,0:0:0:0:
160,127,184134,1,8,0:0:0:0:
196,112,184437,1,4,0:0:0:0:
124,133,184740,1,8,0:0:0:0:
196,112,184891,1,8,0:0:0:0:
149,138,185194,1,0,0:0:0:0:
176,52,185346,1,8,0:0:0:0:
147,82,185498,1,8,0:0:0:0:
198,145,185649,1,0,0:0:0:0:
192,146,185952,1,8,0:0:0:0:
195,140,186104,1,8,0:0:0:0:
198,145,186255,1,0,0:0:0:0:
195,140,186407,1,8,0:0:0:0:
198,145,186558,1,0,0:0:0:0:
192,146,186710,1,0,0:0:0:0:
134,100,186861,1,8,0:0:0:0:
134,100,187164,1,8,0:0:0:0:
131,172,187316,1,0,0:0:0:0:
182,105,187619,1,0,0:0:0:0:
181,120,187770,1,8,0:0:0:0:
203,112,188073,1,0,0:0:0:0:
182,105,188225,1,0,0:0:0:0:
211,81,188376,1,8,0:0:0:0:
137,112,188528,1,8,0:0:0:0:
211,81,188679,1,0,0:0:0:0:
196,146,188755,1,0,0:0:0:0:
186,82,188831,1,8,0:0:0:0:
137,112,188982,1,0,0:0:0:0:
196,146,189134,1,8,0:0:0:0:
126,164,189285,1,4,0:0:0:0:
126,164,189513,1,4,0:0:0:0:
194,153,189740,1,12,0:0:0:0:
126,164,189967,1,12,0:0:0:0:
194,153,190498,1,12,0:0:0:0:
194,153,190725,1,12,0:0:0:0:
194,153,190952,1,4,0:0:0:0:
194,153,191179,1,4,0:0:0:0:
100,146,191710,1,12,0:0:0:0:
100,146,191937,1,4,0:0:0:0:
100,146,192316,1,12,0:0:0:0:
154,174,192543,1,4,0:0:0:0:
256,192,192922,8,0,193831,0:0:0:0:
157,95,194134,5,4,0:0:0:0:
246,93,194361,1,8,0:0:0:0:
159,32,194588,1,8,0:0:0:0:
246,93,194816,1,8,0:0:0:0:
119,151,195043,1,0,0:0:0:0:
144,110,195194,1,0,0:0:0:0:
213,61,195346,1,8,0:0:0:0:
177,112,195573,1,0,0:0:0:0:
226,125,195649,1,8,0:0:0:0:
164,80,195801,1,0,0:0:0:0:
226,125,195876,1,0,0:0:0:0:
119,151,196028,1,8,0:0:0:0:
226,125,196255,1,8,0:0:0:0:
119,151,196407,1,8,0:0:0:0:
119,151,196558,1,0,0:0:0:0:
226,125,196785,1,0,0:0:0:0:
171,115,197013,1,0,0:0:0:0:
174,71,197240,1,8,0:0:0:0:
119,151,197467,1,0,0:0:0:0:
119,151,197619,1,0,0:0:0:0:
213,61,197770,1,8,0:0:0:0:
183,52,197998,1,0,0:0:0:0:
193,110,198073,1,8,0:0:0:0:
119,151,198225,1,0,0:0:0:0:
192,114,198376,1,8,0:0:0:0:
121,143,198452,1,8,0:0:0:0:
198,120,198528,1,0,0:0:0:0:
191,111,198679,1,8,0:0:0:0:
121,143,198982,1,0,0:0:0:0:
171,115,199210,1,8,0:0:0:0:
144,67,199437,1,8,0:0:0:0:
144,67,199664,1,8,0:0:0:0:
169,112,199891,1,0,0:0:0:0:
169,112,200043,1,0,0:0:0:0:
211,60,200194,1,8,0:0:0:0:
296,306,200422,1,8,0:0:0:0:
169,112,200498,1,0,0:0:0:0:
296,306,200649,1,8,0:0:0:0:
169,112,200801,1,0,0:0:0:0:
169,112,200876,1,8,0:0:0:0:
169,112,200952,1,0,0:0:0:0:
169,112,201104,1,8,0:0:0:0:
169,112,201255,1,8,0:0:0:0:
169,112,201407,1,4,0:0:0:0:
169,112,201634,1,4,0:0:0:0:
169,112,201861,1,4,0:0:0:0:
169,112,202088,1,4,0:0:0:0:
169,112,202316,1,8,0:0:0:0:
113,178,202467,1,8,0:0:0:0:
169,112,202619,1,0,0:0:0:0:
170,116,202694,1,0,0:0:0:0:
169,112,202770,1,0,0:0:0:0:
169,112,202922,1,8,0:0:0:0:
170,116,203073,1,0,0:0:0:0:
169,112,203225,1,8,0:0:0:0:
171,116,203301,1,8,0:0:0:0:
169,112,203376,1,0,0:0:0:0:
169,112,203528,1,8,0:0:0:0:
173,116,203604,1,8,0:0:0:0:
170,116,203679,1,8,0:0:0:0:
157,95,203831,1,4,0:0:0:0:
180,93,204134,1,8,0:0:0:0:
81,141,204285,1,0,0:0:0:0:
164,106,204361,1,0,0:0:0:0:
81,141,204437,1,8,0:0:0:0:
181,51,204588,1,8,0:0:0:0:
119,151,204740,1,0,0:0:0:0:
144,110,204816,1,0,0:0:0:0:
144,110,204891,1,0,0:0:0:0:
213,61,205043,1,8,0:0:0:0:
136,88,205270,1,0,0:0:0:0:
210,147,205346,1,8,0:0:0:0:
119,151,205498,1,8,0:0:0:0:
119,151,205649,1,0,0:0:0:0:
210,147,205801,1,8,0:0:0:0:
216,142,205876,1,8,0:0:0:0:
208,141,205952,1,0,0:0:0:0:
163,57,206104,1,0,0:0:0:0:
221,197,206255,1,12,0:0:0:0:
222,73,206558,1,0,0:0:0:0:
124,62,206710,1,8,0:0:0:0:
101,170,206861,1,0,0:0:0:0:
124,62,207013,1,0,0:0:0:0:
217,69,207088,1,0,0:0:0:0:
124,62,207164,1,8,0:0:0:0:
119,151,207316,1,8,0:0:0:0:
213,61,207467,1,0,0:0:0:0:
214,142,207543,1,0,0:0:0:0:
214,142,207619,1,0,0:0:0:0:
146,112,207770,1,8,0:0:0:0:
119,151,207922,1,0,0:0:0:0:
121,143,208073,1,8,0:0:0:0:
163,106,208149,1,0,0:0:0:0:
163,106,208225,1,8,0:0:0:0:
214,142,208301,1,8,0:0:0:0:
208,141,208376,1,0,0:0:0:0:
173,85,208528,1,0,0:0:0:0:
221,197,208679,1,12,0:0:0:0:
164,92,208982,1,0,0:0:0:0:
137,75,209134,1,8,0:0:0:0:
165,92,209210,1,8,0:0:0:0:
137,75,209285,1,0,0:0:0:0:
169,42,209437,1,8,0:0:0:0:
169,112,209588,1,0,0:0:0:0:
164,115,209664,1,0,0:0:0:0:
169,112,209740,1,0,0:0:0:0:
211,60,209891,1,8,0:0:0:0:
165,115,210043,1,8,0:0:0:0:
169,112,210195,1,0,0:0:0:0:
169,112,210346,1,0,0:0:0:0:
181,112,210422,1,0,0:0:0:0:
169,112,210498,1,8,0:0:0:0:
173,85,210649,1,0,0:0:0:0:
169,112,210801,1,8,0:0:0:0:
169,112,210952,1,8,0:0:0:0:
256,192,211104,8,0,213225,0:0:0:0:
168,161,213528,5,4,0:0:0:0:
192,250,214740,1,0,0:0:0:0:
173,178,214891,1,0,0:0:0:0:
173,178,215043,1,8,0:0:0:0:
173,178,215194,1,8,0:0:0:0:
173,178,215346,1,0,0:0:0:0:
173,178,215422,1,0,0:0:0:0:
173,178,215498,1,0,0:0:0:0:
173,178,215649,1,8,0:0:0:0:
111,110,215952,1,4,0:0:0:0:
187,179,216407,1,0,0:0:0:0:
186,183,216558,1,8,0:0:0:0:
187,179,216710,1,8,0:0:0:0:
169,166,216861,1,0,0:0:0:0:
169,166,217164,1,8,0:0:0:0:
186,183,217315,1,8,0:0:0:0:
186,183,217467,1,0,0:0:0:0:
168,182,217543,1,0,0:0:0:0:
168,182,217619,1,0,0:0:0:0:
186,183,217770,1,8,0:0:0:0:
168,182,217922,1,0,0:0:0:0:
168,182,217998,1,0,0:0:0:0:
186,183,218073,1,8,0:0:0:0:
186,183,218224,1,8,0:0:0:0:
152,197,218376,1,4,0:0:0:0:
187,186,218831,1,0,0:0:0:0:
186,183,218982,1,8,0:0:0:0:
186,183,219134,1,0,0:0:0:0:
186,183,219210,1,0,0:0:0:0:
187,159,219285,1,8,0:0:0:0:
187,186,219361,1,0,0:0:0:0:
187,186,219513,1,0,0:0:0:0:
187,159,219588,1,8,0:0:0:0:
186,183,219740,1,0,0:0:0:0:
186,183,219891,1,8,0:0:0:0:
179,171,220043,1,0,0:0:0:0:
179,171,220119,1,0,0:0:0:0:
186,183,220194,1,8,0:0:0:0:
169,115,220346,1,0,0:0:0:0:
169,115,220498,1,8,0:0:0:0:
162,123,220573,1,8,0:0:0:0:
169,115,220649,1,8,0:0:0:0:
152,197,220800,1,4,0:0:0:0:
241,121,221104,1,8,0:0:0:0:
241,121,221255,1,0,0:0:0:0:
241,121,221331,1,0,0:0:0:0:
241,121,221407,1,8,0:0:0:0:
241,121,221558,1,8,0:0:0:0:
241,121,221710,1,0,0:0:0:0:
241,121,221785,1,8,0:0:0:0:
241,121,221937,1,8,0:0:0:0:
241,121,222013,1,0,0:0:0:0:
241,121,222164,1,8,0:0:0:0:
241,121,222316,1,0,0:0:0:0:
241,121,222391,1,0,0:0:0:0:
241,121,222467,1,0,0:0:0:0:
241,121,222619,1,8,0:0:0:0:
241,121,222770,1,8,0:0:0:0:
241,121,222922,1,0,0:0:0:0:
241,121,223073,1,8,0:0:0:0:
241,121,223225,1,4,0:0:0:0:
241,121,223528,1,8,0:0:0:0:
156,86,223679,1,0,0:0:0:0:
241,121,223755,1,0,0:0:0:0:
186,183,223830,1,8,0:0:0:0:
192,143,223982,1,8,0:0:0:0:
157,84,224134,1,0,0:0:0:0:
241,121,224210,1,0,0:0:0:0:
156,86,224285,1,0,0:0:0:0:
140,140,224437,1,8,0:0:0:0:
183,108,224513,1,8,0:0:0:0:
183,108,224588,1,8,0:0:0:0:
186,183,224740,1,0,0:0:0:0:
157,84,224891,1,0,0:0:0:0:
186,183,225043,1,8,0:0:0:0:
177,108,225119,1,0,0:0:0:0:
156,86,225270,1,8,0:0:0:0:
177,108,225346,1,0,0:0:0:0:
196,90,225498,1,8,0:0:0:0:
173,88,225649,1,0,0:0:0:0:
177,108,225952,1,8,0:0:0:0:
173,88,226104,1,0,0:0:0:0:
177,108,226179,1,0,0:0:0:0:
173,88,226255,1,8,0:0:0:0:
173,88,226407,1,8,0:0:0:0:
173,88,226558,1,0,0:0:0:0:
183,108,226710,1,0,0:0:0:0:
186,183,226861,1,8,0:0:0:0:
173,88,226937,1,8,0:0:0:0:
161,52,227013,1,8,0:0:0:0:
186,183,227164,1,0,0:0:0:0:
171,76,227316,1,8,0:0:0:0:
175,114,227391,1,0,0:0:0:0:
166,82,227467,1,0,0:0:0:0:
164,87,227619,1,8,0:0:0:0:
175,114,227694,1,8,0:0:0:0:
161,92,227770,1,0,0:0:0:0:
164,145,227922,1,0,0:0:0:0:
176,138,228073,1,8,0:0:0:0:
208,158,228376,1,8,0:0:0:0:
208,158,228528,1,0,0:0:0:0:
187,155,228679,1,8,0:0:0:0:
208,158,228755,1,8,0:0:0:0:
185,77,228831,1,0,0:0:0:0:
208,158,228907,1,0,0:0:0:0:
185,77,228982,1,8,0:0:0:0:
187,155,229134,1,8,0:0:0:0:
187,155,229285,1,0,0:0:0:0:
187,155,229361,1,0,0:0:0:0:
187,155,229437,1,0,0:0:0:0:
208,158,229588,1,8,0:0:0:0:
208,158,229740,1,8,0:0:0:0:
208,158,229891,1,0,0:0:0:0:
208,158,229967,1,0,0:0:0:0:
208,158,230043,1,8,0:0:0:0:
208,158,230194,1,0,0:0:0:0:
207,165,230346,1,8,0:0:0:0:
256,192,230498,8,0,231407,0:0:0:0:
146,118,231710,5,12,0:0:0:0:
166,84,231861,1,4,0:0:0:0:
166,84,232164,1,12,0:0:0:0:
166,84,232316,1,4,0:0:0:0:
166,84,232543,1,12,0:0:0:0:
166,84,232770,1,12,0:0:0:0:
180,133,233073,1,4,0:0:0:0:
180,133,233225,1,12,0:0:0:0:
180,133,233452,1,4,0:0:0:0:
156,136,233679,1,4,0:0:0:0:
167,135,233907,1,4,0:0:0:0:
189,136,234134,1,12,0:0:0:0:
189,138,234285,1,12,0:0:0:0:
172,126,234588,1,12,0:0:0:0:
189,137,234740,1,12,0:0:0:0:
171,144,234967,1,4,0:0:0:0:
171,144,235194,1,4,0:0:0:0:
171,144,235422,1,12,0:0:0:0:
171,147,235649,1,12,0:0:0:0:
171,149,235876,1,12,0:0:0:0:
171,152,236104,1,4,0:0:0:0:
160,92,236255,1,12,0:0:0:0:
256,192,236407,8,0,241407,0:0:0:0:
