osu file format v14

[General]
AudioFilename: audio.mp3
AudioLeadIn: 0
PreviewTime: 319761
Countdown: 1
SampleSet: Soft
StackLeniency: 0.7
Mode: 3
LetterboxInBreaks: 0
SpecialStyle: 0
WidescreenStoryboard: 1

[Editor]
DistanceSpacing: 2
BeatDivisor: 8
GridSize: 8
TimelineZoom: 2.800005

[Metadata]
Title:PLANET//SHAPER
TitleUnicode:PLANET//SHAPER
Artist:Camellia
ArtistUnicode:かめりあ
Creator:_nekoraku
Version:NEW PLANET
Source:
Tags:
BeatmapID:1464017
BeatmapSetID:649141

[Difficulty]
HPDrainRate:0
CircleSize:7
OverallDifficulty:6.2
ApproachRate:5
SliderMultiplier:1.3
SliderTickRate:1

[Events]
//Background and Video events
0,0,"maxresdefault.jpg",0,0
//Break Periods
2,194859,195908
2,223839,228969
//Storyboard Layer 0 (Background)
//Storyboard Layer 1 (Fail)
//Storyboard Layer 2 (Pass)
//Storyboard Layer 3 (Foreground)
//Storyboard Sound Samples

[TimingPoints]
374,408.163265306122,4,2,1,100,1,0
320373,12,4,2,1,100,1,0
320374,500,4,2,1,100,1,0
320578,12,4,2,1,100,1,0
320579,500,4,2,1,100,1,0
320782,12,4,2,1,100,1,0
320783,500,4,2,1,100,1,0
320986,12,4,2,1,100,1,0
320987,500,4,2,1,100,1,0
321190,12,4,2,1,100,1,0
321191,500,4,2,1,100,1,0
321394,408.163265306122,4,2,1,100,1,0

[HitObjects]
182,192,2006,128,0,2108:0:0:0:0:
402,192,2618,128,0,2720:0:0:0:0:
36,192,3639,128,0,3741:0:0:0:0:
256,192,4251,128,0,4353:0:0:0:0:
402,192,5271,128,0,5373:0:0:0:0:
182,192,5884,128,0,5986:0:0:0:0:
402,192,6904,128,0,7006:0:0:0:0:
36,192,7516,128,0,7618:0:0:0:0:
36,192,8537,128,0,8639:0:0:0:0:
182,192,8639,128,0,8741:0:0:0:0:
329,192,8741,128,0,8843:0:0:0:0:
402,192,8843,128,0,8945:0:0:0:0:
475,192,8945,128,0,9047:0:0:0:0:
36,192,9047,128,0,9149:0:0:0:0:
182,192,9149,128,0,9353:0:0:0:0:
109,192,9149,128,0,9659:0:0:0:0:
329,192,9251,128,0,9353:0:0:0:0:
402,192,9353,128,0,9455:0:0:0:0:
475,192,9455,128,0,9557:0:0:0:0:
182,192,9455,128,0,9659:0:0:0:0:
329,192,9557,128,0,9659:0:0:0:0:
256,192,9659,128,0,9761:0:0:0:0:
329,192,9761,128,0,9863:0:0:0:0:
402,192,9863,128,0,9965:0:0:0:0:
475,192,9965,128,0,10067:0:0:0:0:
256,192,10067,128,0,10169:0:0:0:0:
182,192,10169,128,0,10271:0:0:0:0:
329,192,10169,128,0,10271:0:0:0:0:
109,192,10271,128,0,10373:0:0:0:0:
36,192,10373,128,0,10476:0:0:0:0:
402,192,10476,128,0,10578:0:0:0:0:
329,192,10578,128,0,10680:0:0:0:0:
256,192,10680,128,0,10782:0:0:0:0:
182,192,10782,128,0,10884:0:0:0:0:
402,192,10782,128,0,10884:0:0:0:0:
109,192,10884,128,0,10986:0:0:0:0:
475,192,10986,128,0,11088:0:0:0:0:
329,192,11088,128,0,11190:0:0:0:0:
256,192,11190,128,0,11292:0:0:0:0:
109,192,11292,128,0,11394:0:0:0:0:
36,192,11394,128,0,11496:0:0:0:0:
182,192,11496,128,0,11598:0:0:0:0:
402,192,11598,128,0,11700:0:0:0:0:
256,192,11700,128,0,11802:0:0:0:0:
109,192,11802,128,0,11904:0:0:0:0:
36,192,11904,128,0,12006:0:0:0:0:
182,192,12006,128,0,12108:0:0:0:0:
256,192,12108,128,0,12210:0:0:0:0:
329,192,12210,128,0,12312:0:0:0:0:
182,192,12312,128,0,12414:0:0:0:0:
475,192,12414,128,0,12822:0:0:0:0:
402,192,12414,128,0,12618:0:0:0:0:
36,192,12516,128,0,12618:0:0:0:0:
109,192,12618,128,0,12720:0:0:0:0:
182,192,12720,128,0,12822:0:0:0:0:
402,192,12720,128,0,12822:0:0:0:0:
256,192,12822,128,0,12925:0:0:0:0:
36,192,12925,128,0,13027:0:0:0:0:
182,192,13027,128,0,13129:0:0:0:0:
329,192,13129,128,0,13231:0:0:0:0:
402,192,13231,128,0,13333:0:0:0:0:
475,192,13333,128,0,13435:0:0:0:0:
256,192,13435,128,0,13537:0:0:0:0:
182,192,13537,128,0,13639:0:0:0:0:
109,192,13639,128,0,13741:0:0:0:0:
36,192,13741,128,0,13843:0:0:0:0:
256,192,13843,128,0,13945:0:0:0:0:
475,192,13945,128,0,14047:0:0:0:0:
402,192,14047,128,0,14149:0:0:0:0:
329,192,14047,128,0,14149:0:0:0:0:
256,192,14149,128,0,14251:0:0:0:0:
182,192,14149,128,0,14557:0:0:0:0:
109,192,14251,128,0,14353:0:0:0:0:
36,192,14353,128,0,14455:0:0:0:0:
329,192,14455,128,0,14557:0:0:0:0:
475,192,14455,128,0,14557:0:0:0:0:
109,192,14557,128,0,14659:0:0:0:0:
182,192,14659,128,0,14761:0:0:0:0:
256,192,14761,128,0,14863:0:0:0:0:
329,192,14863,128,0,14965:0:0:0:0:
402,192,14965,128,0,15067:0:0:0:0:
36,192,15067,128,0,15169:0:0:0:0:
182,192,15067,128,0,15169:0:0:0:0:
109,192,15169,128,0,15271:0:0:0:0:
329,192,15169,128,0,15271:0:0:0:0:
475,192,15271,128,0,15373:0:0:0:0:
402,192,15271,128,0,15373:0:0:0:0:
182,192,15373,128,0,15476:0:0:0:0:
256,192,15373,128,0,15476:0:0:0:0:
329,192,15476,128,0,15578:0:0:0:0:
36,192,15476,128,0,15578:0:0:0:0:
402,192,15578,128,0,15680:0:0:0:0:
109,192,15578,128,0,15680:0:0:0:0:
475,192,15680,128,0,15782:0:0:0:0:
182,192,15680,128,0,15782:0:0:0:0:
329,192,15782,128,0,15884:0:0:0:0:
256,192,15782,128,0,15884:0:0:0:0:
402,192,15884,128,0,15986:0:0:0:0:
109,192,15884,128,0,15986:0:0:0:0:
475,192,15986,128,0,16088:0:0:0:0:
182,192,15986,128,0,16088:0:0:0:0:
36,192,16088,128,0,16190:0:0:0:0:
256,192,16088,128,0,16190:0:0:0:0:
109,192,16190,128,0,16292:0:0:0:0:
329,192,16190,128,0,16292:0:0:0:0:
182,192,16292,128,0,16394:0:0:0:0:
402,192,16292,128,0,16394:0:0:0:0:
256,192,16394,128,0,16496:0:0:0:0:
475,192,16394,128,0,16496:0:0:0:0:
329,192,16496,128,0,16598:0:0:0:0:
109,192,16598,128,0,16700:0:0:0:0:
36,192,16700,128,0,16802:0:0:0:0:
182,192,16700,128,0,16802:0:0:0:0:
475,192,16802,128,0,16904:0:0:0:0:
256,192,16802,128,0,16904:0:0:0:0:
402,192,16904,128,0,17006:0:0:0:0:
182,192,16904,128,0,17006:0:0:0:0:
329,192,17006,128,0,17108:0:0:0:0:
109,192,17006,128,0,17108:0:0:0:0:
475,192,17108,128,0,17210:0:0:0:0:
256,192,17108,128,0,17210:0:0:0:0:
182,192,17210,128,0,17312:0:0:0:0:
36,192,17210,128,0,17312:0:0:0:0:
402,192,17312,128,0,17414:0:0:0:0:
329,192,17312,128,0,17414:0:0:0:0:
36,192,17414,128,0,17516:0:0:0:0:
256,192,17516,128,0,17618:0:0:0:0:
475,192,17516,128,0,17618:0:0:0:0:
182,192,17618,128,0,17720:0:0:0:0:
402,192,17618,128,0,17720:0:0:0:0:
329,192,17720,128,0,17822:0:0:0:0:
36,192,17720,128,0,17822:0:0:0:0:
109,192,17822,128,0,17925:0:0:0:0:
256,192,17822,128,0,17925:0:0:0:0:
182,192,17925,128,0,18027:0:0:0:0:
402,192,17925,128,0,18027:0:0:0:0:
36,192,18027,128,0,18129:0:0:0:0:
256,192,18129,128,0,18231:0:0:0:0:
402,192,18231,128,0,18333:0:0:0:0:
329,192,18333,128,0,18435:0:0:0:0:
475,192,18333,128,0,18435:0:0:0:0:
182,192,18435,128,0,18537:0:0:0:0:
109,192,18537,128,0,18639:0:0:0:0:
36,192,18639,128,0,18741:0:0:0:0:
402,192,18741,128,0,18843:0:0:0:0:
329,192,18843,128,0,18945:0:0:0:0:
182,192,18945,128,0,19047:0:0:0:0:
256,192,18945,128,0,19047:0:0:0:0:
36,192,19047,128,0,19149:0:0:0:0:
402,192,19047,128,0,19455:0:0:0:0:
475,192,19149,128,0,19251:0:0:0:0:
182,192,19251,128,0,19353:0:0:0:0:
109,192,19353,128,0,19455:0:0:0:0:
329,192,19353,128,0,19455:0:0:0:0:
36,192,19455,128,0,19557:0:0:0:0:
256,192,19557,128,0,19659:0:0:0:0:
109,192,19557,128,0,19659:0:0:0:0:
329,192,19659,128,0,19761:0:0:0:0:
402,192,19761,128,0,19863:0:0:0:0:
182,192,19761,128,0,19863:0:0:0:0:
475,192,19863,128,0,19965:0:0:0:0:
256,192,19863,128,0,19965:0:0:0:0:
109,192,19965,128,0,20067:0:0:0:0:
182,192,19965,128,0,20067:0:0:0:0:
256,192,20067,128,0,20169:0:0:0:0:
36,192,20067,128,0,20169:0:0:0:0:
329,192,20169,128,0,20271:0:0:0:0:
109,192,20169,128,0,20271:0:0:0:0:
402,192,20271,128,0,20373:0:0:0:0:
182,192,20271,128,0,20373:0:0:0:0:
475,192,20373,128,0,20476:0:0:0:0:
256,192,20373,128,0,20476:0:0:0:0:
36,192,20578,128,0,20680:0:0:0:0:
109,192,20578,128,0,20680:0:0:0:0:
329,192,20578,128,0,20680:0:0:0:0:
182,192,20680,128,0,20782:0:0:0:0:
256,192,20782,128,0,20884:0:0:0:0:
329,192,20884,128,0,20986:0:0:0:0:
402,192,20986,128,0,21088:0:0:0:0:
182,192,20986,128,0,21088:0:0:0:0:
475,192,21088,128,0,21190:0:0:0:0:
256,192,21088,128,0,21190:0:0:0:0:
329,192,21190,128,0,21292:0:0:0:0:
402,192,21292,128,0,21394:0:0:0:0:
36,192,21292,128,0,21394:0:0:0:0:
109,192,21292,128,0,21394:0:0:0:0:
182,192,21394,128,0,21496:0:0:0:0:
256,192,21394,128,0,21496:0:0:0:0:
329,192,21496,128,0,21598:0:0:0:0:
475,192,21496,128,0,21598:0:0:0:0:
402,192,21598,128,0,21700:0:0:0:0:
109,192,21598,128,0,21700:0:0:0:0:
182,192,21700,128,0,21802:0:0:0:0:
475,192,21802,128,0,21904:0:0:0:0:
329,192,21904,128,0,22006:0:0:0:0:
256,192,22006,128,0,22108:0:0:0:0:
402,192,22006,128,0,22108:0:0:0:0:
182,192,22108,128,0,22210:0:0:0:0:
329,192,22108,128,0,22210:0:0:0:0:
36,192,22210,128,0,22312:0:0:0:0:
109,192,22210,128,0,22312:0:0:0:0:
402,192,22312,128,0,22414:0:0:0:0:
475,192,22312,128,0,22618:0:0:0:0:
182,192,22312,128,0,22414:0:0:0:0:
329,192,22414,128,0,22516:0:0:0:0:
36,192,22414,128,0,22516:0:0:0:0:
256,192,22516,128,0,22618:0:0:0:0:
182,192,22516,128,0,22618:0:0:0:0:
109,192,22618,128,0,22720:0:0:0:0:
329,192,22618,128,0,22720:0:0:0:0:
36,192,22720,128,0,22822:0:0:0:0:
182,192,22822,128,0,22925:0:0:0:0:
402,192,22822,128,0,22925:0:0:0:0:
256,192,22925,128,0,23027:0:0:0:0:
475,192,22925,128,0,23027:0:0:0:0:
329,192,23027,128,0,23129:0:0:0:0:
36,192,23027,128,0,23129:0:0:0:0:
402,192,23129,128,0,23231:0:0:0:0:
182,192,23129,128,0,23231:0:0:0:0:
475,192,23231,128,0,23333:0:0:0:0:
109,192,23231,128,0,23333:0:0:0:0:
329,192,23333,128,0,23435:0:0:0:0:
402,192,23333,128,0,23435:0:0:0:0:
256,192,23435,128,0,23537:0:0:0:0:
36,192,23435,128,0,23537:0:0:0:0:
182,192,23537,128,0,23639:0:0:0:0:
475,192,23537,128,0,23639:0:0:0:0:
109,192,23639,128,0,23741:0:0:0:0:
329,192,23639,128,0,23741:0:0:0:0:
36,192,23741,128,0,23843:0:0:0:0:
256,192,23741,128,0,23843:0:0:0:0:
402,192,23843,128,0,23945:0:0:0:0:
475,192,23843,128,0,23945:0:0:0:0:
329,192,23945,128,0,24047:0:0:0:0:
182,192,23945,128,0,24047:0:0:0:0:
36,192,24047,128,0,24149:0:0:0:0:
256,192,24047,128,0,24149:0:0:0:0:
109,192,24149,128,0,24251:0:0:0:0:
402,192,24149,128,0,24251:0:0:0:0:
182,192,24251,128,0,24353:0:0:0:0:
475,192,24251,128,0,24353:0:0:0:0:
256,192,24353,128,0,24455:0:0:0:0:
475,192,24455,1,0,0:0:0:0:
402,192,24455,1,0,0:0:0:0:
36,192,24455,1,0,0:0:0:0:
109,192,24455,1,0,0:0:0:0:
182,192,24455,1,0,0:0:0:0:
329,192,24455,1,0,0:0:0:0:
36,192,24863,128,0,25373:0:0:0:0:
182,192,24863,128,0,25373:0:0:0:0:
256,192,24863,128,0,25373:0:0:0:0:
402,192,24863,128,0,25373:0:0:0:0:
475,192,24863,128,0,25373:0:0:0:0:
36,192,25476,128,0,26088:0:0:0:0:
182,192,25476,128,0,26088:0:0:0:0:
256,192,25476,128,0,26088:0:0:0:0:
329,192,25476,128,0,26088:0:0:0:0:
475,192,25476,128,0,26088:0:0:0:0:
475,192,26292,128,0,26394:0:0:0:0:
402,192,26292,128,0,26394:0:0:0:0:
329,192,26292,128,0,26394:0:0:0:0:
256,192,26292,128,0,26394:0:0:0:0:
182,192,26292,128,0,26394:0:0:0:0:
402,192,26496,128,0,26700:0:0:0:0:
329,192,26496,128,0,26700:0:0:0:0:
256,192,26496,128,0,26700:0:0:0:0:
182,192,26496,128,0,26700:0:0:0:0:
109,192,26496,128,0,26700:0:0:0:0:
329,192,26802,128,0,27006:0:0:0:0:
256,192,26802,128,0,27006:0:0:0:0:
182,192,26802,128,0,27006:0:0:0:0:
109,192,26802,128,0,27006:0:0:0:0:
36,192,26802,128,0,27006:0:0:0:0:
109,192,27108,128,0,27312:0:0:0:0:
256,192,27108,128,0,27312:0:0:0:0:
329,192,27108,128,0,27312:0:0:0:0:
402,192,27108,128,0,27312:0:0:0:0:
475,192,27108,128,0,27312:0:0:0:0:
402,192,27414,128,0,27618:0:0:0:0:
256,192,27414,128,0,27618:0:0:0:0:
182,192,27414,128,0,27618:0:0:0:0:
109,192,27414,128,0,27618:0:0:0:0:
36,192,27414,128,0,27618:0:0:0:0:
475,192,27720,128,0,28027:0:0:0:0:
402,192,27720,128,0,28027:0:0:0:0:
256,192,27720,128,0,28027:0:0:0:0:
109,192,27720,128,0,28027:0:0:0:0:
36,192,27720,128,0,28027:0:0:0:0:
36,192,28129,1,0,0:0:0:0:
109,192,28129,1,0,0:0:0:0:
256,192,28129,1,0,0:0:0:0:
402,192,28129,1,0,0:0:0:0:
475,192,28129,1,0,0:0:0:0:
402,192,28231,1,0,0:0:0:0:
475,192,28231,1,0,0:0:0:0:
329,192,28333,1,0,0:0:0:0:
109,192,28333,1,0,0:0:0:0:
182,192,28333,1,0,0:0:0:0:
36,192,28333,1,0,0:0:0:0:
109,192,28435,1,0,0:0:0:0:
36,192,28435,1,0,0:0:0:0:
402,192,28537,1,0,0:0:0:0:
329,192,28537,1,0,0:0:0:0:
256,192,28537,1,0,0:0:0:0:
182,192,28537,1,0,0:0:0:0:
329,192,28639,1,0,0:0:0:0:
402,192,28639,1,0,0:0:0:0:
182,192,28741,1,0,0:0:0:0:
109,192,28741,1,0,0:0:0:0:
36,192,28741,1,0,0:0:0:0:
475,192,28741,1,0,0:0:0:0:
182,192,28843,1,0,0:0:0:0:
109,192,28843,1,0,0:0:0:0:
475,192,28945,1,0,0:0:0:0:
329,192,28945,1,0,0:0:0:0:
256,192,28945,1,0,0:0:0:0:
402,192,28945,1,0,0:0:0:0:
329,192,29047,1,0,0:0:0:0:
402,192,29047,1,0,0:0:0:0:
256,192,29149,1,0,0:0:0:0:
36,192,29149,1,0,0:0:0:0:
182,192,29149,1,0,0:0:0:0:
109,192,29149,1,0,0:0:0:0:
182,192,29251,1,0,0:0:0:0:
256,192,29251,1,0,0:0:0:0:
402,192,29353,1,0,0:0:0:0:
475,192,29353,1,0,0:0:0:0:
36,192,29353,1,0,0:0:0:0:
329,192,29353,1,0,0:0:0:0:
402,192,29455,1,0,0:0:0:0:
475,192,29455,1,0,0:0:0:0:
329,192,29455,1,0,0:0:0:0:
109,192,29557,1,0,0:0:0:0:
36,192,29557,1,0,0:0:0:0:
256,192,29557,1,0,0:0:0:0:
182,192,29557,1,0,0:0:0:0:
36,192,29659,1,0,0:0:0:0:
109,192,29659,1,0,0:0:0:0:
182,192,29659,1,0,0:0:0:0:
402,192,29761,1,0,0:0:0:0:
329,192,29761,1,0,0:0:0:0:
475,192,29761,1,0,0:0:0:0:
256,192,29761,1,0,0:0:0:0:
475,192,29863,1,0,0:0:0:0:
402,192,29863,1,0,0:0:0:0:
109,192,29965,1,0,0:0:0:0:
36,192,29965,1,0,0:0:0:0:
182,192,29965,1,0,0:0:0:0:
329,192,29965,1,0,0:0:0:0:
36,192,30067,1,0,0:0:0:0:
109,192,30067,1,0,0:0:0:0:
475,192,30169,1,0,0:0:0:0:
402,192,30169,1,0,0:0:0:0:
256,192,30169,1,0,0:0:0:0:
329,192,30169,1,0,0:0:0:0:
402,192,30271,1,0,0:0:0:0:
475,192,30271,1,0,0:0:0:0:
256,192,30373,1,0,0:0:0:0:
182,192,30373,1,0,0:0:0:0:
36,192,30373,1,0,0:0:0:0:
36,192,30476,1,0,0:0:0:0:
256,192,30476,1,0,0:0:0:0:
182,192,30476,1,0,0:0:0:0:
402,192,30578,1,0,0:0:0:0:
475,192,30578,1,0,0:0:0:0:
109,192,30578,1,0,0:0:0:0:
329,192,30578,1,0,0:0:0:0:
36,192,30680,1,0,0:0:0:0:
256,192,30680,1,0,0:0:0:0:
182,192,30680,1,0,0:0:0:0:
329,192,30782,1,0,0:0:0:0:
475,192,30782,1,0,0:0:0:0:
109,192,30782,1,0,0:0:0:0:
256,192,30884,1,0,0:0:0:0:
182,192,30884,1,0,0:0:0:0:
36,192,30884,1,0,0:0:0:0:
402,192,30884,1,0,0:0:0:0:
329,192,30986,1,0,0:0:0:0:
109,192,30986,1,0,0:0:0:0:
256,192,31088,1,0,0:0:0:0:
182,192,31088,1,0,0:0:0:0:
402,192,31190,1,0,0:0:0:0:
475,192,31190,1,0,0:0:0:0:
402,192,31292,1,0,0:0:0:0:
475,192,31292,1,0,0:0:0:0:
329,192,31394,1,0,0:0:0:0:
182,192,31394,1,0,0:0:0:0:
109,192,31394,1,0,0:0:0:0:
36,192,31394,1,0,0:0:0:0:
182,192,31496,1,0,0:0:0:0:
36,192,31496,1,0,0:0:0:0:
475,192,31598,1,0,0:0:0:0:
329,192,31598,1,0,0:0:0:0:
402,192,31598,1,0,0:0:0:0:
256,192,31598,1,0,0:0:0:0:
329,192,31700,1,0,0:0:0:0:
475,192,31700,1,0,0:0:0:0:
109,192,31802,1,0,0:0:0:0:
36,192,31802,1,0,0:0:0:0:
182,192,31802,1,0,0:0:0:0:
256,192,31802,1,0,0:0:0:0:
36,192,31904,1,0,0:0:0:0:
182,192,31904,1,0,0:0:0:0:
256,192,32006,1,0,0:0:0:0:
475,192,32006,1,0,0:0:0:0:
402,192,32006,1,0,0:0:0:0:
402,192,32108,1,0,0:0:0:0:
475,192,32108,1,0,0:0:0:0:
182,192,32210,1,0,0:0:0:0:
36,192,32210,1,0,0:0:0:0:
109,192,32210,1,0,0:0:0:0:
256,192,32210,1,0,0:0:0:0:
329,192,32312,1,0,0:0:0:0:
402,192,32312,1,0,0:0:0:0:
109,192,32312,1,0,0:0:0:0:
36,192,32312,1,0,0:0:0:0:
475,192,32389,1,0,0:0:0:0:
256,192,32414,1,0,0:0:0:0:
182,192,32414,1,0,0:0:0:0:
256,192,32516,1,0,0:0:0:0:
182,192,32516,1,0,0:0:0:0:
36,192,32516,1,0,0:0:0:0:
329,192,32618,1,0,0:0:0:0:
402,192,32618,1,0,0:0:0:0:
475,192,32618,1,0,0:0:0:0:
402,192,32720,1,0,0:0:0:0:
475,192,32720,1,0,0:0:0:0:
329,192,32720,1,0,0:0:0:0:
36,192,32822,1,0,0:0:0:0:
475,192,32822,1,0,0:0:0:0:
402,192,32822,1,0,0:0:0:0:
109,192,32822,1,0,0:0:0:0:
256,192,32822,1,0,0:0:0:0:
36,192,32925,1,0,0:0:0:0:
109,192,32925,1,0,0:0:0:0:
402,192,33027,1,0,0:0:0:0:
475,192,33027,1,0,0:0:0:0:
256,192,33027,1,0,0:0:0:0:
329,192,33027,1,0,0:0:0:0:
402,192,33129,1,0,0:0:0:0:
475,192,33129,1,0,0:0:0:0:
36,192,33231,1,0,0:0:0:0:
109,192,33231,1,0,0:0:0:0:
256,192,33231,1,0,0:0:0:0:
329,192,33231,1,0,0:0:0:0:
109,192,33333,1,0,0:0:0:0:
36,192,33333,1,0,0:0:0:0:
329,192,33435,1,0,0:0:0:0:
402,192,33435,1,0,0:0:0:0:
475,192,33435,1,0,0:0:0:0:
182,192,33435,1,0,0:0:0:0:
402,192,33537,1,0,0:0:0:0:
329,192,33537,1,0,0:0:0:0:
475,192,33537,1,0,0:0:0:0:
256,192,33639,1,0,0:0:0:0:
109,192,33639,1,0,0:0:0:0:
182,192,33639,1,0,0:0:0:0:
36,192,33639,1,0,0:0:0:0:
182,192,33741,1,0,0:0:0:0:
109,192,33741,1,0,0:0:0:0:
36,192,33741,1,0,0:0:0:0:
475,192,33843,1,0,0:0:0:0:
402,192,33877,1,0,0:0:0:0:
329,192,33911,1,0,0:0:0:0:
256,192,33945,1,0,0:0:0:0:
182,192,33996,1,0,0:0:0:0:
36,192,34047,1,0,0:0:0:0:
475,192,34047,1,0,0:0:0:0:
402,192,34098,1,0,0:0:0:0:
256,192,34149,1,0,0:0:0:0:
182,192,34200,1,0,0:0:0:0:
475,192,34251,1,0,0:0:0:0:
109,192,34251,1,0,0:0:0:0:
402,192,34285,1,0,0:0:0:0:
329,192,34319,1,0,0:0:0:0:
36,192,34353,1,0,0:0:0:0:
182,192,34353,1,0,0:0:0:0:
475,192,34404,1,0,0:0:0:0:
402,192,34455,1,0,0:0:0:0:
329,192,34506,1,0,0:0:0:0:
256,192,34557,1,0,0:0:0:0:
36,192,34608,1,0,0:0:0:0:
109,192,34634,1,0,0:0:0:0:
402,192,34659,1,0,0:0:0:0:
475,192,34659,1,0,0:0:0:0:
329,192,34659,1,0,0:0:0:0:
182,192,34659,1,0,0:0:0:0:
402,192,34761,1,0,0:0:0:0:
475,192,34761,1,0,0:0:0:0:
36,192,34863,1,0,0:0:0:0:
402,192,34863,1,0,0:0:0:0:
182,192,34863,1,0,0:0:0:0:
475,192,34863,1,0,0:0:0:0:
36,192,34965,1,0,0:0:0:0:
182,192,34965,1,0,0:0:0:0:
329,192,35067,1,0,0:0:0:0:
475,192,35067,1,0,0:0:0:0:
256,192,35067,1,0,0:0:0:0:
402,192,35067,1,0,0:0:0:0:
329,192,35169,1,0,0:0:0:0:
402,192,35169,1,0,0:0:0:0:
256,192,35271,1,0,0:0:0:0:
182,192,35271,1,0,0:0:0:0:
36,192,35271,1,0,0:0:0:0:
475,192,35271,1,0,0:0:0:0:
182,192,35373,1,0,0:0:0:0:
256,192,35373,1,0,0:0:0:0:
329,192,35476,1,0,0:0:0:0:
402,192,35476,1,0,0:0:0:0:
475,192,35476,1,0,0:0:0:0:
36,192,35476,1,0,0:0:0:0:
329,192,35578,1,0,0:0:0:0:
402,192,35578,1,0,0:0:0:0:
109,192,35680,1,0,0:0:0:0:
182,192,35680,1,0,0:0:0:0:
475,192,35680,1,0,0:0:0:0:
256,192,35680,1,0,0:0:0:0:
182,192,35782,1,0,0:0:0:0:
109,192,35782,1,0,0:0:0:0:
256,192,35884,1,0,0:0:0:0:
329,192,35884,1,0,0:0:0:0:
36,192,35884,1,0,0:0:0:0:
475,192,35884,1,0,0:0:0:0:
256,192,35986,1,0,0:0:0:0:
329,192,35986,1,0,0:0:0:0:
36,192,36088,1,0,0:0:0:0:
109,192,36088,1,0,0:0:0:0:
182,192,36088,1,0,0:0:0:0:
402,192,36088,1,0,0:0:0:0:
109,192,36190,1,0,0:0:0:0:
36,192,36190,1,0,0:0:0:0:
256,192,36292,1,0,0:0:0:0:
475,192,36292,1,0,0:0:0:0:
182,192,36292,1,0,0:0:0:0:
329,192,36292,1,0,0:0:0:0:
329,192,36394,1,0,0:0:0:0:
475,192,36394,1,0,0:0:0:0:
256,192,36496,1,0,0:0:0:0:
182,192,36496,1,0,0:0:0:0:
36,192,36496,1,0,0:0:0:0:
182,192,36598,1,0,0:0:0:0:
36,192,36598,1,0,0:0:0:0:
475,192,36700,1,0,0:0:0:0:
329,192,36700,1,0,0:0:0:0:
256,192,36700,1,0,0:0:0:0:
402,192,36700,1,0,0:0:0:0:
182,192,36802,1,0,0:0:0:0:
109,192,36802,1,0,0:0:0:0:
402,192,36802,1,0,0:0:0:0:
475,192,36802,1,0,0:0:0:0:
256,192,36904,1,0,0:0:0:0:
36,192,36904,1,0,0:0:0:0:
329,192,36904,1,0,0:0:0:0:
475,192,36904,1,0,0:0:0:0:
402,192,36904,1,0,0:0:0:0:
402,192,37006,1,0,0:0:0:0:
475,192,37006,1,0,0:0:0:0:
109,192,37108,1,0,0:0:0:0:
182,192,37108,1,0,0:0:0:0:
256,192,37108,1,0,0:0:0:0:
329,192,37108,1,0,0:0:0:0:
402,192,37210,1,0,0:0:0:0:
475,192,37210,1,0,0:0:0:0:
329,192,37210,1,0,0:0:0:0:
329,192,37312,1,0,0:0:0:0:
402,192,37312,1,0,0:0:0:0:
475,192,37312,1,0,0:0:0:0:
36,192,37414,1,0,0:0:0:0:
109,192,37414,1,0,0:0:0:0:
182,192,37414,1,0,0:0:0:0:
256,192,37516,1,0,0:0:0:0:
329,192,37516,1,0,0:0:0:0:
402,192,37516,1,0,0:0:0:0:
475,192,37516,1,0,0:0:0:0:
402,192,37720,128,0,37925:0:0:0:0:
329,192,37720,128,0,37925:0:0:0:0:
256,192,37925,1,0,0:0:0:0:
36,192,37925,1,0,0:0:0:0:
109,192,37925,1,0,0:0:0:0:
329,192,38027,1,0,0:0:0:0:
256,192,38027,1,0,0:0:0:0:
475,192,38129,1,0,0:0:0:0:
402,192,38129,1,0,0:0:0:0:
182,192,38129,1,0,0:0:0:0:
109,192,38129,1,0,0:0:0:0:
109,192,38231,1,0,0:0:0:0:
182,192,38231,1,0,0:0:0:0:
256,192,38333,1,0,0:0:0:0:
329,192,38333,1,0,0:0:0:0:
36,192,38333,1,0,0:0:0:0:
402,192,38333,1,0,0:0:0:0:
402,192,38435,1,0,0:0:0:0:
329,192,38435,1,0,0:0:0:0:
36,192,38537,1,0,0:0:0:0:
109,192,38537,1,0,0:0:0:0:
182,192,38537,1,0,0:0:0:0:
475,192,38537,1,0,0:0:0:0:
182,192,38639,1,0,0:0:0:0:
36,192,38639,1,0,0:0:0:0:
256,192,38741,1,0,0:0:0:0:
329,192,38741,1,0,0:0:0:0:
475,192,38741,1,0,0:0:0:0:
109,192,38741,1,0,0:0:0:0:
329,192,38843,1,0,0:0:0:0:
475,192,38843,1,0,0:0:0:0:
256,192,38945,1,0,0:0:0:0:
182,192,38945,1,0,0:0:0:0:
36,192,38945,1,0,0:0:0:0:
402,192,38945,1,0,0:0:0:0:
182,192,39047,1,0,0:0:0:0:
36,192,39047,1,0,0:0:0:0:
109,192,39149,1,0,0:0:0:0:
256,192,39149,1,0,0:0:0:0:
329,192,39149,1,0,0:0:0:0:
402,192,39149,1,0,0:0:0:0:
329,192,39251,1,0,0:0:0:0:
402,192,39251,1,0,0:0:0:0:
475,192,39353,1,0,0:0:0:0:
256,192,39353,1,0,0:0:0:0:
182,192,39353,1,0,0:0:0:0:
109,192,39353,1,0,0:0:0:0:
256,192,39455,1,0,0:0:0:0:
109,192,39455,1,0,0:0:0:0:
329,192,39557,1,0,0:0:0:0:
402,192,39557,1,0,0:0:0:0:
36,192,39557,1,0,0:0:0:0:
329,192,39659,1,0,0:0:0:0:
402,192,39659,1,0,0:0:0:0:
109,192,39761,1,0,0:0:0:0:
182,192,39761,1,0,0:0:0:0:
256,192,39761,1,0,0:0:0:0:
475,192,39761,1,0,0:0:0:0:
182,192,39863,1,0,0:0:0:0:
109,192,39863,1,0,0:0:0:0:
329,192,39965,1,0,0:0:0:0:
402,192,39965,1,0,0:0:0:0:
475,192,39965,1,0,0:0:0:0:
36,192,39965,1,0,0:0:0:0:
182,192,40067,1,0,0:0:0:0:
109,192,40067,1,0,0:0:0:0:
475,192,40067,1,0,0:0:0:0:
402,192,40067,1,0,0:0:0:0:
329,192,40169,1,0,0:0:0:0:
256,192,40169,1,0,0:0:0:0:
36,192,40169,1,0,0:0:0:0:
256,192,40271,1,0,0:0:0:0:
329,192,40271,1,0,0:0:0:0:
402,192,40373,1,0,0:0:0:0:
475,192,40373,1,0,0:0:0:0:
109,192,40373,1,0,0:0:0:0:
36,192,40373,1,0,0:0:0:0:
329,192,40408,1,0,0:0:0:0:
182,192,40442,1,0,0:0:0:0:
109,192,40476,1,0,0:0:0:0:
256,192,40476,1,0,0:0:0:0:
36,192,40510,1,0,0:0:0:0:
329,192,40544,1,0,0:0:0:0:
402,192,40578,1,0,0:0:0:0:
475,192,40578,1,0,0:0:0:0:
182,192,40612,1,0,0:0:0:0:
109,192,40646,1,0,0:0:0:0:
36,192,40680,1,0,0:0:0:0:
256,192,40680,1,0,0:0:0:0:
329,192,40714,1,0,0:0:0:0:
402,192,40748,1,0,0:0:0:0:
475,192,40782,1,0,0:0:0:0:
182,192,40782,1,0,0:0:0:0:
109,192,40816,1,0,0:0:0:0:
36,192,40850,1,0,0:0:0:0:
256,192,40884,1,0,0:0:0:0:
329,192,40884,1,0,0:0:0:0:
402,192,40918,1,0,0:0:0:0:
475,192,40952,1,0,0:0:0:0:
109,192,40986,1,0,0:0:0:0:
182,192,40986,1,0,0:0:0:0:
256,192,41020,1,0,0:0:0:0:
329,192,41054,1,0,0:0:0:0:
475,192,41088,1,0,0:0:0:0:
36,192,41088,1,0,0:0:0:0:
402,192,41122,1,0,0:0:0:0:
329,192,41156,1,0,0:0:0:0:
256,192,41190,1,0,0:0:0:0:
182,192,41190,1,0,0:0:0:0:
109,192,41190,1,0,0:0:0:0:
109,192,41292,1,0,0:0:0:0:
182,192,41292,1,0,0:0:0:0:
256,192,41292,1,0,0:0:0:0:
329,192,41394,1,0,0:0:0:0:
402,192,41394,1,0,0:0:0:0:
475,192,41394,1,0,0:0:0:0:
329,192,41496,1,0,0:0:0:0:
475,192,41496,1,0,0:0:0:0:
402,192,41496,1,0,0:0:0:0:
109,192,41496,1,0,0:0:0:0:
256,192,41598,1,0,0:0:0:0:
182,192,41598,1,0,0:0:0:0:
36,192,41598,1,0,0:0:0:0:
256,192,41700,1,0,0:0:0:0:
36,192,41700,1,0,0:0:0:0:
182,192,41700,1,0,0:0:0:0:
329,192,41802,1,0,0:0:0:0:
402,192,41802,1,0,0:0:0:0:
475,192,41802,1,0,0:0:0:0:
329,192,41904,1,0,0:0:0:0:
402,192,41904,1,0,0:0:0:0:
475,192,41904,1,0,0:0:0:0:
109,192,42006,1,0,0:0:0:0:
36,192,42006,1,0,0:0:0:0:
182,192,42006,1,0,0:0:0:0:
256,192,42006,1,0,0:0:0:0:
182,192,42108,1,0,0:0:0:0:
109,192,42108,1,0,0:0:0:0:
36,192,42108,1,0,0:0:0:0:
256,192,42210,1,0,0:0:0:0:
402,192,42210,1,0,0:0:0:0:
475,192,42210,1,0,0:0:0:0:
475,192,42312,1,0,0:0:0:0:
402,192,42312,1,0,0:0:0:0:
256,192,42312,1,0,0:0:0:0:
182,192,42414,1,0,0:0:0:0:
109,192,42414,1,0,0:0:0:0:
36,192,42414,1,0,0:0:0:0:
109,192,42516,1,0,0:0:0:0:
402,192,42618,1,0,0:0:0:0:
402,192,42720,1,0,0:0:0:0:
182,192,42822,1,0,0:0:0:0:
109,192,42822,1,0,0:0:0:0:
36,192,42822,1,0,0:0:0:0:
475,192,42822,1,0,0:0:0:0:
182,192,42925,1,0,0:0:0:0:
109,192,42925,1,0,0:0:0:0:
36,192,42925,1,0,0:0:0:0:
329,192,43027,1,0,0:0:0:0:
475,192,43027,1,0,0:0:0:0:
402,192,43027,1,0,0:0:0:0:
329,192,43129,1,0,0:0:0:0:
475,192,43129,1,0,0:0:0:0:
402,192,43129,1,0,0:0:0:0:
182,192,43231,1,0,0:0:0:0:
36,192,43231,1,0,0:0:0:0:
109,192,43231,1,0,0:0:0:0:
182,192,43333,1,0,0:0:0:0:
109,192,43333,1,0,0:0:0:0:
36,192,43333,1,0,0:0:0:0:
402,192,43435,1,0,0:0:0:0:
475,192,43435,1,0,0:0:0:0:
329,192,43435,1,0,0:0:0:0:
329,192,43537,1,0,0:0:0:0:
475,192,43537,1,0,0:0:0:0:
402,192,43537,1,0,0:0:0:0:
256,192,43639,1,0,0:0:0:0:
182,192,43639,1,0,0:0:0:0:
109,192,43639,1,0,0:0:0:0:
36,192,43639,1,0,0:0:0:0:
256,192,43741,1,0,0:0:0:0:
109,192,43741,1,0,0:0:0:0:
182,192,43741,1,0,0:0:0:0:
329,192,43843,1,0,0:0:0:0:
402,192,43843,1,0,0:0:0:0:
475,192,43843,1,0,0:0:0:0:
329,192,43945,1,0,0:0:0:0:
402,192,43945,1,0,0:0:0:0:
475,192,43945,1,0,0:0:0:0:
256,192,44047,1,0,0:0:0:0:
36,192,44047,1,0,0:0:0:0:
256,192,44149,1,0,0:0:0:0:
36,192,44149,1,0,0:0:0:0:
402,192,44251,1,0,0:0:0:0:
402,192,44353,1,0,0:0:0:0:
109,192,44455,1,0,0:0:0:0:
36,192,44455,1,0,0:0:0:0:
182,192,44455,1,0,0:0:0:0:
256,192,44455,1,0,0:0:0:0:
182,192,44557,1,0,0:0:0:0:
109,192,44557,1,0,0:0:0:0:
36,192,44557,1,0,0:0:0:0:
475,192,44659,1,0,0:0:0:0:
329,192,44659,1,0,0:0:0:0:
256,192,44659,1,0,0:0:0:0:
475,192,44761,1,0,0:0:0:0:
329,192,44761,1,0,0:0:0:0:
256,192,44761,1,0,0:0:0:0:
109,192,44863,1,0,0:0:0:0:
36,192,44863,1,0,0:0:0:0:
402,192,44863,1,0,0:0:0:0:
109,192,44965,1,0,0:0:0:0:
36,192,44965,1,0,0:0:0:0:
402,192,44965,1,0,0:0:0:0:
182,192,45067,1,0,0:0:0:0:
256,192,45067,1,0,0:0:0:0:
329,192,45067,1,0,0:0:0:0:
182,192,45169,1,0,0:0:0:0:
256,192,45169,1,0,0:0:0:0:
329,192,45169,1,0,0:0:0:0:
109,192,45271,1,0,0:0:0:0:
36,192,45271,1,0,0:0:0:0:
475,192,45271,1,0,0:0:0:0:
402,192,45271,1,0,0:0:0:0:
109,192,45373,1,0,0:0:0:0:
36,192,45373,1,0,0:0:0:0:
475,192,45373,1,0,0:0:0:0:
256,192,45476,1,0,0:0:0:0:
402,192,45476,1,0,0:0:0:0:
329,192,45476,1,0,0:0:0:0:
329,192,45578,1,0,0:0:0:0:
402,192,45578,1,0,0:0:0:0:
256,192,45578,1,0,0:0:0:0:
182,192,45680,1,0,0:0:0:0:
109,192,45680,1,0,0:0:0:0:
182,192,45782,1,0,0:0:0:0:
109,192,45782,1,0,0:0:0:0:
109,192,45884,1,0,0:0:0:0:
182,192,45884,1,0,0:0:0:0:
109,192,45986,1,0,0:0:0:0:
182,192,45986,1,0,0:0:0:0:
256,192,46088,1,0,0:0:0:0:
329,192,46088,1,0,0:0:0:0:
402,192,46088,1,0,0:0:0:0:
475,192,46088,1,0,0:0:0:0:
256,192,46190,1,0,0:0:0:0:
402,192,46190,1,0,0:0:0:0:
475,192,46190,1,0,0:0:0:0:
329,192,46190,1,0,0:0:0:0:
329,192,46292,1,0,0:0:0:0:
402,192,46292,1,0,0:0:0:0:
182,192,46292,1,0,0:0:0:0:
109,192,46292,1,0,0:0:0:0:
36,192,46292,1,0,0:0:0:0:
109,192,46394,1,0,0:0:0:0:
36,192,46394,1,0,0:0:0:0:
182,192,46394,1,0,0:0:0:0:
329,192,46394,1,0,0:0:0:0:
402,192,46496,1,0,0:0:0:0:
475,192,46496,1,0,0:0:0:0:
109,192,46496,1,0,0:0:0:0:
36,192,46496,1,0,0:0:0:0:
402,192,46598,1,0,0:0:0:0:
475,192,46598,1,0,0:0:0:0:
329,192,46700,1,0,0:0:0:0:
256,192,46700,1,0,0:0:0:0:
109,192,46700,1,0,0:0:0:0:
36,192,46700,1,0,0:0:0:0:
182,192,46700,1,0,0:0:0:0:
256,192,46802,1,0,0:0:0:0:
329,192,46802,1,0,0:0:0:0:
182,192,46802,1,0,0:0:0:0:
475,192,46904,1,0,0:0:0:0:
402,192,46904,1,0,0:0:0:0:
36,192,46904,1,0,0:0:0:0:
109,192,46904,1,0,0:0:0:0:
329,192,46938,1,0,0:0:0:0:
256,192,46972,1,0,0:0:0:0:
182,192,47006,1,0,0:0:0:0:
36,192,47040,1,0,0:0:0:0:
475,192,47074,1,0,0:0:0:0:
402,192,47108,1,0,0:0:0:0:
329,192,47142,1,0,0:0:0:0:
256,192,47176,1,0,0:0:0:0:
109,192,47210,1,0,0:0:0:0:
182,192,47210,1,0,0:0:0:0:
475,192,47261,1,0,0:0:0:0:
402,192,47312,1,0,0:0:0:0:
36,192,47312,1,0,0:0:0:0:
256,192,47363,1,0,0:0:0:0:
182,192,47414,1,0,0:0:0:0:
109,192,47465,1,0,0:0:0:0:
329,192,47516,1,0,0:0:0:0:
256,192,47516,1,0,0:0:0:0:
402,192,47550,1,0,0:0:0:0:
475,192,47584,1,0,0:0:0:0:
36,192,47618,1,0,0:0:0:0:
109,192,47652,1,0,0:0:0:0:
402,192,47686,1,0,0:0:0:0:
329,192,47720,1,0,0:0:0:0:
182,192,47720,1,0,0:0:0:0:
256,192,47720,1,0,0:0:0:0:
182,192,47822,1,0,0:0:0:0:
256,192,47822,1,0,0:0:0:0:
329,192,47822,1,0,0:0:0:0:
402,192,47925,1,0,0:0:0:0:
475,192,47925,1,0,0:0:0:0:
36,192,47925,1,0,0:0:0:0:
109,192,47925,1,0,0:0:0:0:
36,192,48027,1,0,0:0:0:0:
109,192,48027,1,0,0:0:0:0:
402,192,48027,1,0,0:0:0:0:
475,192,48027,1,0,0:0:0:0:
109,192,48129,1,0,0:0:0:0:
182,192,48129,1,0,0:0:0:0:
256,192,48129,1,0,0:0:0:0:
329,192,48129,1,0,0:0:0:0:
402,192,48231,1,0,0:0:0:0:
475,192,48231,1,0,0:0:0:0:
36,192,48333,1,0,0:0:0:0:
109,192,48333,1,0,0:0:0:0:
256,192,48333,1,0,0:0:0:0:
402,192,48435,1,0,0:0:0:0:
475,192,48435,1,0,0:0:0:0:
182,192,48435,1,0,0:0:0:0:
329,192,48435,1,0,0:0:0:0:
402,192,48537,1,0,0:0:0:0:
475,192,48537,1,0,0:0:0:0:
182,192,48639,1,0,0:0:0:0:
329,192,48639,1,0,0:0:0:0:
36,192,48639,1,0,0:0:0:0:
109,192,48639,1,0,0:0:0:0:
256,192,48741,1,0,0:0:0:0:
402,192,48741,1,0,0:0:0:0:
475,192,48741,1,0,0:0:0:0:
182,192,48843,1,0,0:0:0:0:
109,192,48843,1,0,0:0:0:0:
36,192,48843,1,0,0:0:0:0:
329,192,48843,1,0,0:0:0:0:
475,192,48945,1,0,0:0:0:0:
36,192,48945,1,0,0:0:0:0:
109,192,48945,1,0,0:0:0:0:
256,192,48945,1,0,0:0:0:0:
182,192,49047,1,0,0:0:0:0:
329,192,49047,1,0,0:0:0:0:
402,192,49047,1,0,0:0:0:0:
329,192,49149,1,0,0:0:0:0:
402,192,49149,1,0,0:0:0:0:
36,192,49149,1,0,0:0:0:0:
109,192,49149,1,0,0:0:0:0:
475,192,49251,1,0,0:0:0:0:
182,192,49251,1,0,0:0:0:0:
256,192,49251,1,0,0:0:0:0:
109,192,49353,1,0,0:0:0:0:
329,192,49353,1,0,0:0:0:0:
402,192,49353,1,0,0:0:0:0:
36,192,49353,1,0,0:0:0:0:
256,192,49455,1,0,0:0:0:0:
475,192,49455,1,0,0:0:0:0:
182,192,49455,1,0,0:0:0:0:
182,192,49557,1,0,0:0:0:0:
256,192,49557,1,0,0:0:0:0:
329,192,49557,1,0,0:0:0:0:
402,192,49557,1,0,0:0:0:0:
109,192,49659,1,0,0:0:0:0:
36,192,49659,1,0,0:0:0:0:
475,192,49659,1,0,0:0:0:0:
182,192,49761,1,0,0:0:0:0:
402,192,49761,1,0,0:0:0:0:
256,192,49761,1,0,0:0:0:0:
329,192,49761,1,0,0:0:0:0:
36,192,49863,1,0,0:0:0:0:
109,192,49863,1,0,0:0:0:0:
475,192,49863,1,0,0:0:0:0:
182,192,49965,1,0,0:0:0:0:
256,192,49965,1,0,0:0:0:0:
329,192,49965,1,0,0:0:0:0:
402,192,49965,1,0,0:0:0:0:
109,192,50067,1,0,0:0:0:0:
402,192,50067,1,0,0:0:0:0:
329,192,50067,1,0,0:0:0:0:
36,192,50067,1,0,0:0:0:0:
475,192,50169,1,0,0:0:0:0:
182,192,50169,1,0,0:0:0:0:
256,192,50169,1,0,0:0:0:0:
182,192,50271,1,0,0:0:0:0:
256,192,50271,1,0,0:0:0:0:
329,192,50271,1,0,0:0:0:0:
402,192,50271,1,0,0:0:0:0:
109,192,50373,1,0,0:0:0:0:
36,192,50373,1,0,0:0:0:0:
475,192,50373,1,0,0:0:0:0:
109,192,50476,1,0,0:0:0:0:
36,192,50476,1,0,0:0:0:0:
256,192,50476,1,0,0:0:0:0:
329,192,50476,1,0,0:0:0:0:
475,192,50578,1,0,0:0:0:0:
402,192,50578,1,0,0:0:0:0:
256,192,50578,1,0,0:0:0:0:
329,192,50578,1,0,0:0:0:0:
182,192,50680,1,0,0:0:0:0:
109,192,50680,1,0,0:0:0:0:
36,192,50680,1,0,0:0:0:0:
402,192,50680,1,0,0:0:0:0:
36,192,50782,1,0,0:0:0:0:
182,192,50782,1,0,0:0:0:0:
109,192,50782,1,0,0:0:0:0:
402,192,50782,1,0,0:0:0:0:
329,192,50884,1,0,0:0:0:0:
256,192,50884,1,0,0:0:0:0:
475,192,50986,1,0,0:0:0:0:
36,192,50986,1,0,0:0:0:0:
109,192,50986,1,0,0:0:0:0:
402,192,50986,1,0,0:0:0:0:
182,192,51088,1,0,0:0:0:0:
329,192,51088,1,0,0:0:0:0:
256,192,51190,1,0,0:0:0:0:
402,192,51190,1,0,0:0:0:0:
475,192,51292,1,0,0:0:0:0:
109,192,51368,1,0,0:0:0:0:
182,192,51394,1,0,0:0:0:0:
329,192,51394,1,0,0:0:0:0:
109,192,51496,1,0,0:0:0:0:
402,192,51496,1,0,0:0:0:0:
109,192,51598,1,0,0:0:0:0:
402,192,51598,1,0,0:0:0:0:
329,192,51700,1,0,0:0:0:0:
256,192,51700,1,0,0:0:0:0:
36,192,51802,1,0,0:0:0:0:
256,192,51904,1,0,0:0:0:0:
402,192,51904,1,0,0:0:0:0:
329,192,51938,1,0,0:0:0:0:
182,192,51938,1,0,0:0:0:0:
475,192,52006,1,0,0:0:0:0:
109,192,52006,1,0,0:0:0:0:
329,192,52108,1,0,0:0:0:0:
256,192,52108,1,0,0:0:0:0:
36,192,52210,1,0,0:0:0:0:
109,192,52210,1,0,0:0:0:0:
109,192,52312,1,0,0:0:0:0:
36,192,52312,1,0,0:0:0:0:
109,192,52414,1,0,0:0:0:0:
36,192,52414,1,0,0:0:0:0:
109,192,52516,1,0,0:0:0:0:
36,192,52516,1,0,0:0:0:0:
182,192,52618,1,0,0:0:0:0:
256,192,52618,1,0,0:0:0:0:
329,192,52618,1,0,0:0:0:0:
475,192,52618,1,0,0:0:0:0:
402,192,52822,1,0,0:0:0:0:
36,192,52822,1,0,0:0:0:0:
109,192,52822,1,0,0:0:0:0:
182,192,53027,1,0,0:0:0:0:
329,192,53027,1,0,0:0:0:0:
475,192,53027,1,0,0:0:0:0:
256,192,53027,1,0,0:0:0:0:
109,192,53231,128,0,53435:0:0:0:0:
182,192,53282,128,0,53435:0:0:0:0:
256,192,53333,128,0,53435:0:0:0:0:
329,192,53384,128,0,53486:0:0:0:0:
402,192,53435,128,0,53537:0:0:0:0:
475,192,53435,128,0,53588:0:0:0:0:
36,192,53435,128,0,53639:0:0:0:0:
109,192,53486,128,0,53639:0:0:0:0:
182,192,53537,128,0,53690:0:0:0:0:
256,192,53588,128,0,53690:0:0:0:0:
329,192,53639,128,0,53843:0:0:0:0:
402,192,53639,128,0,53843:0:0:0:0:
475,192,53639,128,0,53843:0:0:0:0:
36,192,53843,128,0,54047:0:0:0:0:
109,192,53843,128,0,54047:0:0:0:0:
256,192,53843,128,0,54047:0:0:0:0:
182,192,54047,128,0,54251:0:0:0:0:
329,192,54047,128,0,54251:0:0:0:0:
475,192,54047,128,0,54251:0:0:0:0:
402,192,54251,1,0,0:0:0:0:
256,192,54251,1,0,0:0:0:0:
109,192,54251,1,0,0:0:0:0:
36,192,54251,1,0,0:0:0:0:
256,192,54455,1,0,0:0:0:0:
109,192,54455,1,0,0:0:0:0:
402,192,54455,1,0,0:0:0:0:
329,192,54455,1,0,0:0:0:0:
475,192,54455,1,0,0:0:0:0:
36,192,54659,1,0,0:0:0:0:
109,192,54659,1,0,0:0:0:0:
329,192,54659,1,0,0:0:0:0:
182,192,54659,1,0,0:0:0:0:
256,192,54659,1,0,0:0:0:0:
475,192,54659,1,0,0:0:0:0:
182,192,54761,1,0,0:0:0:0:
329,192,54761,1,0,0:0:0:0:
256,192,54863,1,0,0:0:0:0:
109,192,54863,1,0,0:0:0:0:
475,192,54863,1,0,0:0:0:0:
402,192,54965,1,0,0:0:0:0:
182,192,54965,1,0,0:0:0:0:
36,192,54965,1,0,0:0:0:0:
475,192,55067,1,0,0:0:0:0:
109,192,55067,1,0,0:0:0:0:
329,192,55067,1,0,0:0:0:0:
256,192,55067,1,0,0:0:0:0:
36,192,55271,1,0,0:0:0:0:
182,192,55271,1,0,0:0:0:0:
182,192,55373,1,0,0:0:0:0:
36,192,55373,1,0,0:0:0:0:
256,192,55373,1,0,0:0:0:0:
402,192,55373,1,0,0:0:0:0:
36,192,55476,1,0,0:0:0:0:
182,192,55476,1,0,0:0:0:0:
329,192,55476,1,0,0:0:0:0:
475,192,55476,1,0,0:0:0:0:
402,192,55476,1,0,0:0:0:0:
109,192,55476,1,0,0:0:0:0:
256,192,55680,128,0,55884:0:0:0:0:
109,192,55680,128,0,55884:0:0:0:0:
182,192,55884,1,0,0:0:0:0:
36,192,55884,1,0,0:0:0:0:
402,192,55884,1,0,0:0:0:0:
329,192,55884,1,0,0:0:0:0:
475,192,55884,1,0,0:0:0:0:
475,192,55986,1,0,0:0:0:0:
402,192,55986,1,0,0:0:0:0:
329,192,56088,1,0,0:0:0:0:
256,192,56088,1,0,0:0:0:0:
182,192,56088,1,0,0:0:0:0:
36,192,56088,1,0,0:0:0:0:
329,192,56190,1,0,0:0:0:0:
256,192,56190,1,0,0:0:0:0:
109,192,56292,1,0,0:0:0:0:
402,192,56292,1,0,0:0:0:0:
475,192,56292,1,0,0:0:0:0:
36,192,56292,1,0,0:0:0:0:
256,192,56292,1,0,0:0:0:0:
329,192,56292,1,0,0:0:0:0:
402,192,56394,1,0,0:0:0:0:
475,192,56394,1,0,0:0:0:0:
36,192,56496,1,0,0:0:0:0:
182,192,56496,1,0,0:0:0:0:
256,192,56496,1,0,0:0:0:0:
329,192,56496,1,0,0:0:0:0:
109,192,56598,1,0,0:0:0:0:
402,192,56598,1,0,0:0:0:0:
475,192,56598,1,0,0:0:0:0:
329,192,56700,1,0,0:0:0:0:
256,192,56700,1,0,0:0:0:0:
182,192,56700,1,0,0:0:0:0:
36,192,56700,1,0,0:0:0:0:
475,192,56904,128,0,57108:0:0:0:0:
329,192,56904,1,0,0:0:0:0:
256,192,56904,1,0,0:0:0:0:
109,192,56904,1,0,0:0:0:0:
256,192,57006,1,0,0:0:0:0:
329,192,57006,1,0,0:0:0:0:
36,192,57108,1,0,0:0:0:0:
109,192,57108,1,0,0:0:0:0:
182,192,57108,1,0,0:0:0:0:
402,192,57108,1,0,0:0:0:0:
329,192,57108,1,0,0:0:0:0:
256,192,57108,1,0,0:0:0:0:
256,192,57312,128,0,57516:0:0:0:0:
329,192,57312,128,0,57516:0:0:0:0:
475,192,57312,128,0,57516:0:0:0:0:
402,192,57516,1,0,0:0:0:0:
182,192,57516,1,0,0:0:0:0:
109,192,57516,1,0,0:0:0:0:
36,192,57516,1,0,0:0:0:0:
36,192,57720,1,0,0:0:0:0:
109,192,57720,1,0,0:0:0:0:
182,192,57720,1,0,0:0:0:0:
256,192,57720,1,0,0:0:0:0:
475,192,57720,1,0,0:0:0:0:
402,192,57925,1,0,0:0:0:0:
329,192,57925,1,0,0:0:0:0:
256,192,57925,1,0,0:0:0:0:
182,192,57925,1,0,0:0:0:0:
36,192,57925,1,0,0:0:0:0:
109,192,58027,1,0,0:0:0:0:
475,192,58027,1,0,0:0:0:0:
256,192,58129,1,0,0:0:0:0:
402,192,58129,1,0,0:0:0:0:
36,192,58231,1,0,0:0:0:0:
109,192,58231,1,0,0:0:0:0:
182,192,58231,1,0,0:0:0:0:
475,192,58231,1,0,0:0:0:0:
182,192,58333,1,0,0:0:0:0:
109,192,58333,1,0,0:0:0:0:
402,192,58333,1,0,0:0:0:0:
329,192,58435,1,0,0:0:0:0:
475,192,58435,1,0,0:0:0:0:
329,192,58537,1,0,0:0:0:0:
475,192,58537,1,0,0:0:0:0:
256,192,58537,1,0,0:0:0:0:
36,192,58537,1,0,0:0:0:0:
109,192,58639,1,0,0:0:0:0:
182,192,58639,1,0,0:0:0:0:
109,192,58741,1,0,0:0:0:0:
182,192,58741,1,0,0:0:0:0:
329,192,58741,1,0,0:0:0:0:
402,192,58741,1,0,0:0:0:0:
475,192,58945,1,0,0:0:0:0:
36,192,58945,1,0,0:0:0:0:
109,192,58945,1,0,0:0:0:0:
402,192,58945,1,0,0:0:0:0:
402,192,59047,1,0,0:0:0:0:
109,192,59047,1,0,0:0:0:0:
36,192,59047,1,0,0:0:0:0:
475,192,59047,1,0,0:0:0:0:
36,192,59149,1,0,0:0:0:0:
182,192,59149,1,0,0:0:0:0:
329,192,59149,1,0,0:0:0:0:
475,192,59149,1,0,0:0:0:0:
402,192,59149,1,0,0:0:0:0:
109,192,59149,1,0,0:0:0:0:
36,192,59353,1,0,0:0:0:0:
109,192,59353,1,0,0:0:0:0:
256,192,59353,1,0,0:0:0:0:
402,192,59353,1,0,0:0:0:0:
402,192,59557,1,0,0:0:0:0:
475,192,59557,1,0,0:0:0:0:
256,192,59557,1,0,0:0:0:0:
109,192,59557,1,0,0:0:0:0:
329,192,59557,1,0,0:0:0:0:
182,192,59659,1,0,0:0:0:0:
36,192,59659,1,0,0:0:0:0:
256,192,59761,1,0,0:0:0:0:
402,192,59761,1,0,0:0:0:0:
475,192,59761,1,0,0:0:0:0:
402,192,59863,1,0,0:0:0:0:
475,192,59863,1,0,0:0:0:0:
329,192,59965,1,0,0:0:0:0:
256,192,59965,1,0,0:0:0:0:
182,192,59965,1,0,0:0:0:0:
109,192,59965,1,0,0:0:0:0:
36,192,59965,1,0,0:0:0:0:
402,192,60067,1,0,0:0:0:0:
475,192,60169,1,0,0:0:0:0:
256,192,60169,1,0,0:0:0:0:
109,192,60169,1,0,0:0:0:0:
329,192,60373,128,0,60578:0:0:0:0:
256,192,60578,1,0,0:0:0:0:
36,192,60578,1,0,0:0:0:0:
109,192,60578,1,0,0:0:0:0:
182,192,60782,1,0,0:0:0:0:
256,192,60782,1,0,0:0:0:0:
402,192,60782,1,0,0:0:0:0:
475,192,60782,1,0,0:0:0:0:
36,192,60782,1,0,0:0:0:0:
475,192,60986,1,0,0:0:0:0:
182,192,60986,1,0,0:0:0:0:
109,192,60986,1,0,0:0:0:0:
36,192,60986,1,0,0:0:0:0:
329,192,60986,1,0,0:0:0:0:
182,192,61190,1,0,0:0:0:0:
256,192,61190,1,0,0:0:0:0:
402,192,61190,1,0,0:0:0:0:
475,192,61190,1,0,0:0:0:0:
36,192,61190,1,0,0:0:0:0:
329,192,61292,1,0,0:0:0:0:
109,192,61292,1,0,0:0:0:0:
402,192,61394,1,0,0:0:0:0:
36,192,61394,1,0,0:0:0:0:
475,192,61496,1,0,0:0:0:0:
182,192,61496,1,0,0:0:0:0:
256,192,61496,1,0,0:0:0:0:
329,192,61598,1,0,0:0:0:0:
402,192,61598,1,0,0:0:0:0:
109,192,61598,1,0,0:0:0:0:
36,192,61598,1,0,0:0:0:0:
109,192,61700,1,0,0:0:0:0:
36,192,61700,1,0,0:0:0:0:
182,192,61802,1,0,0:0:0:0:
256,192,61802,1,0,0:0:0:0:
475,192,61802,1,0,0:0:0:0:
402,192,61802,1,0,0:0:0:0:
402,192,61904,1,0,0:0:0:0:
475,192,61904,1,0,0:0:0:0:
329,192,62006,1,0,0:0:0:0:
256,192,62006,1,0,0:0:0:0:
182,192,62006,1,0,0:0:0:0:
109,192,62006,1,0,0:0:0:0:
36,192,62006,1,0,0:0:0:0:
256,192,62210,128,0,62414:0:0:0:0:
402,192,62210,128,0,62414:0:0:0:0:
182,192,62210,128,0,62414:0:0:0:0:
475,192,62414,1,0,0:0:0:0:
329,192,62414,128,0,62618:0:0:0:0:
109,192,62414,128,0,62618:0:0:0:0:
36,192,62414,128,0,62618:0:0:0:0:
475,192,62618,128,0,62720:0:0:0:0:
402,192,62618,128,0,62822:0:0:0:0:
182,192,62618,128,0,62822:0:0:0:0:
329,192,62822,1,0,0:0:0:0:
256,192,62822,1,0,0:0:0:0:
109,192,62822,1,0,0:0:0:0:
36,192,62822,1,0,0:0:0:0:
475,192,62822,1,0,0:0:0:0:
36,192,63027,1,0,0:0:0:0:
109,192,63027,1,0,0:0:0:0:
329,192,63027,1,0,0:0:0:0:
402,192,63129,1,0,0:0:0:0:
475,192,63129,1,0,0:0:0:0:
256,192,63129,1,0,0:0:0:0:
109,192,63231,1,0,0:0:0:0:
36,192,63231,1,0,0:0:0:0:
182,192,63231,1,0,0:0:0:0:
329,192,63231,1,0,0:0:0:0:
256,192,63333,1,0,0:0:0:0:
402,192,63333,1,0,0:0:0:0:
475,192,63333,1,0,0:0:0:0:
109,192,63333,1,0,0:0:0:0:
36,192,63333,1,0,0:0:0:0:
329,192,63537,1,0,0:0:0:0:
182,192,63537,1,0,0:0:0:0:
402,192,63537,1,0,0:0:0:0:
109,192,63639,1,0,0:0:0:0:
36,192,63639,1,0,0:0:0:0:
402,192,63639,1,0,0:0:0:0:
329,192,63639,1,0,0:0:0:0:
256,192,63843,128,0,64251:0:0:0:0:
329,192,63843,128,0,64047:0:0:0:0:
109,192,63843,128,0,64251:0:0:0:0:
36,192,63843,128,0,64251:0:0:0:0:
402,192,64047,128,0,64149:0:0:0:0:
475,192,64047,128,0,64251:0:0:0:0:
182,192,64047,128,0,64455:0:0:0:0:
329,192,64251,128,0,64455:0:0:0:0:
109,192,64455,1,0,0:0:0:0:
402,192,64455,1,0,0:0:0:0:
475,192,64455,1,0,0:0:0:0:
256,192,64455,1,0,0:0:0:0:
36,192,64455,1,0,0:0:0:0:
329,192,64557,1,0,0:0:0:0:
182,192,64557,1,0,0:0:0:0:
256,192,64659,1,0,0:0:0:0:
109,192,64659,1,0,0:0:0:0:
36,192,64659,1,0,0:0:0:0:
329,192,64761,1,0,0:0:0:0:
402,192,64761,1,0,0:0:0:0:
475,192,64761,1,0,0:0:0:0:
256,192,64863,1,0,0:0:0:0:
182,192,64863,1,0,0:0:0:0:
36,192,64863,128,0,64914:0:0:0:0:
109,192,64863,128,0,64914:0:0:0:0:
109,192,64965,128,0,65016:0:0:0:0:
36,192,64965,128,0,65016:0:0:0:0:
109,192,65067,128,0,65118:0:0:0:0:
36,192,65067,128,0,65118:0:0:0:0:
475,192,65067,128,0,65169:0:0:0:0:
329,192,65067,128,0,65169:0:0:0:0:
256,192,65169,128,0,65271:0:0:0:0:
182,192,65169,128,0,65271:0:0:0:0:
402,192,65271,1,0,0:0:0:0:
329,192,65271,1,0,0:0:0:0:
109,192,65271,128,0,65322:0:0:0:0:
36,192,65271,128,0,65322:0:0:0:0:
256,192,65476,1,0,0:0:0:0:
182,192,65476,1,0,0:0:0:0:
402,192,65476,1,0,0:0:0:0:
475,192,65476,1,0,0:0:0:0:
109,192,65476,128,0,65527:0:0:0:0:
36,192,65476,128,0,65527:0:0:0:0:
329,192,65680,1,0,0:0:0:0:
402,192,65680,1,0,0:0:0:0:
256,192,65680,1,0,0:0:0:0:
475,192,65680,1,0,0:0:0:0:
182,192,65680,128,0,65782:0:0:0:0:
109,192,65782,128,0,65884:0:0:0:0:
36,192,65884,128,0,65986:0:0:0:0:
475,192,65986,128,0,66088:0:0:0:0:
402,192,66088,128,0,66190:0:0:0:0:
329,192,66190,128,0,66292:0:0:0:0:
256,192,66292,128,0,66394:0:0:0:0:
182,192,66394,128,0,66496:0:0:0:0:
109,192,66496,128,0,66598:0:0:0:0:
329,192,66598,128,0,66700:0:0:0:0:
402,192,66700,128,0,66802:0:0:0:0:
475,192,66802,128,0,66904:0:0:0:0:
109,192,66904,128,0,66955:0:0:0:0:
182,192,66904,128,0,66955:0:0:0:0:
182,192,67006,128,0,67057:0:0:0:0:
256,192,67006,128,0,67057:0:0:0:0:
36,192,67108,128,0,67312:0:0:0:0:
109,192,67108,128,0,67312:0:0:0:0:
475,192,67108,128,0,67312:0:0:0:0:
329,192,67108,128,0,67159:0:0:0:0:
256,192,67108,128,0,67261:0:0:0:0:
329,192,67210,128,0,67261:0:0:0:0:
182,192,67312,1,0,0:0:0:0:
256,192,67312,1,0,0:0:0:0:
402,192,67312,1,0,0:0:0:0:
109,192,67516,1,0,0:0:0:0:
182,192,67516,1,0,0:0:0:0:
256,192,67516,1,0,0:0:0:0:
402,192,67516,1,0,0:0:0:0:
329,192,67516,1,0,0:0:0:0:
475,192,67618,1,0,0:0:0:0:
109,192,67618,1,0,0:0:0:0:
182,192,67618,1,0,0:0:0:0:
329,192,67720,1,0,0:0:0:0:
402,192,67720,1,0,0:0:0:0:
36,192,67720,1,0,0:0:0:0:
109,192,67720,1,0,0:0:0:0:
256,192,67822,128,0,68129:0:0:0:0:
475,192,67925,1,0,0:0:0:0:
402,192,67925,1,0,0:0:0:0:
402,192,68027,1,0,0:0:0:0:
475,192,68027,1,0,0:0:0:0:
109,192,68129,1,0,0:0:0:0:
36,192,68129,1,0,0:0:0:0:
329,192,68129,1,0,0:0:0:0:
402,192,68129,1,0,0:0:0:0:
475,192,68129,1,0,0:0:0:0:
182,192,68231,1,0,0:0:0:0:
256,192,68231,1,0,0:0:0:0:
36,192,68231,1,0,0:0:0:0:
109,192,68333,1,0,0:0:0:0:
329,192,68333,1,0,0:0:0:0:
475,192,68333,1,0,0:0:0:0:
182,192,68435,1,0,0:0:0:0:
256,192,68435,1,0,0:0:0:0:
402,192,68435,1,0,0:0:0:0:
182,192,68537,1,0,0:0:0:0:
256,192,68537,1,0,0:0:0:0:
402,192,68537,1,0,0:0:0:0:
109,192,68537,1,0,0:0:0:0:
36,192,68537,1,0,0:0:0:0:
109,192,68741,128,0,68945:0:0:0:0:
182,192,68741,1,0,0:0:0:0:
402,192,68741,1,0,0:0:0:0:
256,192,68945,1,0,0:0:0:0:
36,192,68945,1,0,0:0:0:0:
182,192,68945,1,0,0:0:0:0:
475,192,68945,1,0,0:0:0:0:
109,192,69047,1,0,0:0:0:0:
256,192,69149,1,0,0:0:0:0:
475,192,69149,1,0,0:0:0:0:
329,192,69149,1,0,0:0:0:0:
402,192,69149,1,0,0:0:0:0:
182,192,69149,1,0,0:0:0:0:
36,192,69353,1,0,0:0:0:0:
182,192,69353,1,0,0:0:0:0:
329,192,69353,1,0,0:0:0:0:
475,192,69353,1,0,0:0:0:0:
109,192,69353,1,0,0:0:0:0:
256,192,69455,1,0,0:0:0:0:
402,192,69455,1,0,0:0:0:0:
329,192,69557,1,0,0:0:0:0:
109,192,69557,1,0,0:0:0:0:
256,192,69659,1,0,0:0:0:0:
475,192,69659,1,0,0:0:0:0:
36,192,69761,1,0,0:0:0:0:
109,192,69761,1,0,0:0:0:0:
402,192,69761,1,0,0:0:0:0:
182,192,69761,1,0,0:0:0:0:
109,192,69863,1,0,0:0:0:0:
36,192,69863,1,0,0:0:0:0:
256,192,69965,1,0,0:0:0:0:
402,192,69965,1,0,0:0:0:0:
475,192,69965,1,0,0:0:0:0:
329,192,69965,1,0,0:0:0:0:
402,192,70067,1,0,0:0:0:0:
329,192,70169,1,0,0:0:0:0:
182,192,70169,1,0,0:0:0:0:
109,192,70169,1,0,0:0:0:0:
36,192,70169,1,0,0:0:0:0:
402,192,70203,1,0,0:0:0:0:
475,192,70237,1,0,0:0:0:0:
256,192,70271,1,0,0:0:0:0:
329,192,70305,1,0,0:0:0:0:
402,192,70339,1,0,0:0:0:0:
36,192,70373,1,0,0:0:0:0:
475,192,70373,1,0,0:0:0:0:
182,192,70425,1,0,0:0:0:0:
256,192,70476,1,0,0:0:0:0:
329,192,70527,1,0,0:0:0:0:
36,192,70578,1,0,0:0:0:0:
475,192,70578,1,0,0:0:0:0:
402,192,70578,1,0,0:0:0:0:
109,192,70578,1,0,0:0:0:0:
109,192,70782,1,0,0:0:0:0:
182,192,70782,1,0,0:0:0:0:
256,192,70782,1,0,0:0:0:0:
402,192,70782,1,0,0:0:0:0:
475,192,70782,1,0,0:0:0:0:
329,192,70884,1,0,0:0:0:0:
36,192,70884,1,0,0:0:0:0:
109,192,70986,1,0,0:0:0:0:
475,192,70986,1,0,0:0:0:0:
182,192,70986,1,0,0:0:0:0:
256,192,70986,1,0,0:0:0:0:
402,192,70986,1,0,0:0:0:0:
182,192,71088,1,0,0:0:0:0:
109,192,71088,1,0,0:0:0:0:
256,192,71190,1,0,0:0:0:0:
329,192,71190,1,0,0:0:0:0:
475,192,71190,1,0,0:0:0:0:
36,192,71190,1,0,0:0:0:0:
182,192,71292,1,0,0:0:0:0:
109,192,71292,1,0,0:0:0:0:
475,192,71394,1,0,0:0:0:0:
36,192,71394,1,0,0:0:0:0:
402,192,71394,1,0,0:0:0:0:
109,192,71496,1,0,0:0:0:0:
329,192,71496,1,0,0:0:0:0:
475,192,71496,1,0,0:0:0:0:
402,192,71496,1,0,0:0:0:0:
256,192,71598,1,0,0:0:0:0:
182,192,71598,1,0,0:0:0:0:
36,192,71598,1,0,0:0:0:0:
109,192,71700,1,0,0:0:0:0:
402,192,71700,1,0,0:0:0:0:
329,192,71700,1,0,0:0:0:0:
182,192,71802,1,0,0:0:0:0:
256,192,71802,1,0,0:0:0:0:
329,192,71802,1,0,0:0:0:0:
402,192,71802,1,0,0:0:0:0:
36,192,71802,1,0,0:0:0:0:
475,192,72006,128,0,72312:0:0:0:0:
109,192,72312,128,0,72363:0:0:0:0:
36,192,72312,128,0,72363:0:0:0:0:
256,192,72312,128,0,72363:0:0:0:0:
329,192,72312,128,0,72363:0:0:0:0:
402,192,72312,128,0,72363:0:0:0:0:
402,192,72414,128,0,72567:0:0:0:0:
329,192,72414,128,0,72567:0:0:0:0:
256,192,72414,128,0,72567:0:0:0:0:
109,192,72414,128,0,72567:0:0:0:0:
36,192,72414,128,0,72567:0:0:0:0:
36,192,72618,128,0,72771:0:0:0:0:
109,192,72618,128,0,72771:0:0:0:0:
329,192,72618,128,0,72771:0:0:0:0:
402,192,72618,128,0,72771:0:0:0:0:
256,192,72618,128,0,72771:0:0:0:0:
475,192,72822,1,0,0:0:0:0:
402,192,72822,1,0,0:0:0:0:
36,192,72822,1,0,0:0:0:0:
329,192,72822,1,0,0:0:0:0:
109,192,72822,1,0,0:0:0:0:
182,192,72925,1,0,0:0:0:0:
256,192,72925,1,0,0:0:0:0:
109,192,73027,1,0,0:0:0:0:
36,192,73027,1,0,0:0:0:0:
329,192,73027,1,0,0:0:0:0:
475,192,73027,1,0,0:0:0:0:
109,192,73129,1,0,0:0:0:0:
402,192,73231,1,0,0:0:0:0:
182,192,73231,1,0,0:0:0:0:
402,192,73333,1,0,0:0:0:0:
109,192,73333,1,0,0:0:0:0:
182,192,73435,1,0,0:0:0:0:
256,192,73435,1,0,0:0:0:0:
329,192,73435,1,0,0:0:0:0:
36,192,73435,1,0,0:0:0:0:
475,192,73435,128,0,73843:0:0:0:0:
109,192,73435,128,0,73843:0:0:0:0:
402,192,73639,128,0,73843:0:0:0:0:
329,192,73639,128,0,73843:0:0:0:0:
36,192,73843,1,0,0:0:0:0:
182,192,73843,1,0,0:0:0:0:
256,192,73843,1,0,0:0:0:0:
256,192,74047,1,0,0:0:0:0:
36,192,74047,1,0,0:0:0:0:
109,192,74047,1,0,0:0:0:0:
329,192,74149,1,0,0:0:0:0:
182,192,74149,1,0,0:0:0:0:
256,192,74251,1,0,0:0:0:0:
109,192,74251,1,0,0:0:0:0:
36,192,74251,1,0,0:0:0:0:
402,192,74251,1,0,0:0:0:0:
475,192,74251,1,0,0:0:0:0:
402,192,74353,1,0,0:0:0:0:
475,192,74353,1,0,0:0:0:0:
329,192,74455,1,0,0:0:0:0:
256,192,74455,1,0,0:0:0:0:
109,192,74455,1,0,0:0:0:0:
109,192,74557,1,0,0:0:0:0:
256,192,74557,1,0,0:0:0:0:
36,192,74659,1,0,0:0:0:0:
182,192,74659,1,0,0:0:0:0:
329,192,74659,1,0,0:0:0:0:
402,192,74659,1,0,0:0:0:0:
475,192,74659,1,0,0:0:0:0:
36,192,74761,1,0,0:0:0:0:
182,192,74761,1,0,0:0:0:0:
256,192,74863,1,0,0:0:0:0:
475,192,74863,1,0,0:0:0:0:
402,192,74863,1,0,0:0:0:0:
256,192,74965,1,0,0:0:0:0:
402,192,74965,1,0,0:0:0:0:
475,192,74965,1,0,0:0:0:0:
182,192,75067,1,0,0:0:0:0:
109,192,75067,1,0,0:0:0:0:
36,192,75067,1,0,0:0:0:0:
402,192,75067,1,0,0:0:0:0:
475,192,75067,1,0,0:0:0:0:
256,192,75271,128,0,75476:0:0:0:0:
36,192,75476,1,0,0:0:0:0:
109,192,75476,1,0,0:0:0:0:
329,192,75476,1,0,0:0:0:0:
402,192,75476,1,0,0:0:0:0:
109,192,75680,1,0,0:0:0:0:
182,192,75680,1,0,0:0:0:0:
256,192,75680,1,0,0:0:0:0:
402,192,75680,1,0,0:0:0:0:
475,192,75680,1,0,0:0:0:0:
36,192,75884,1,0,0:0:0:0:
109,192,75884,1,0,0:0:0:0:
182,192,75884,1,0,0:0:0:0:
329,192,75884,1,0,0:0:0:0:
475,192,75884,1,0,0:0:0:0:
182,192,75986,1,0,0:0:0:0:
256,192,76088,1,0,0:0:0:0:
475,192,76088,1,0,0:0:0:0:
36,192,76088,1,0,0:0:0:0:
109,192,76088,1,0,0:0:0:0:
329,192,76190,1,0,0:0:0:0:
402,192,76190,1,0,0:0:0:0:
182,192,76190,1,0,0:0:0:0:
36,192,76292,1,0,0:0:0:0:
109,192,76292,1,0,0:0:0:0:
256,192,76292,1,0,0:0:0:0:
475,192,76292,1,0,0:0:0:0:
109,192,76394,1,0,0:0:0:0:
36,192,76394,1,0,0:0:0:0:
182,192,76496,1,0,0:0:0:0:
329,192,76496,1,0,0:0:0:0:
402,192,76496,1,0,0:0:0:0:
475,192,76496,1,0,0:0:0:0:
475,192,76598,1,0,0:0:0:0:
402,192,76598,1,0,0:0:0:0:
109,192,76598,1,0,0:0:0:0:
182,192,76700,1,0,0:0:0:0:
36,192,76700,1,0,0:0:0:0:
402,192,76700,1,0,0:0:0:0:
329,192,76700,1,0,0:0:0:0:
475,192,76700,1,0,0:0:0:0:
256,192,76700,1,0,0:0:0:0:
256,192,76904,128,0,77108:0:0:0:0:
182,192,77108,1,0,0:0:0:0:
329,192,77108,1,0,0:0:0:0:
109,192,77312,1,0,0:0:0:0:
36,192,77312,1,0,0:0:0:0:
402,192,77312,1,0,0:0:0:0:
329,192,77414,1,0,0:0:0:0:
475,192,77414,1,0,0:0:0:0:
256,192,77414,1,0,0:0:0:0:
402,192,77516,1,0,0:0:0:0:
109,192,77516,1,0,0:0:0:0:
36,192,77516,1,0,0:0:0:0:
329,192,77618,1,0,0:0:0:0:
182,192,77618,1,0,0:0:0:0:
256,192,77720,1,0,0:0:0:0:
109,192,77720,1,0,0:0:0:0:
182,192,77822,1,0,0:0:0:0:
36,192,77822,1,0,0:0:0:0:
256,192,77925,1,0,0:0:0:0:
329,192,77925,1,0,0:0:0:0:
475,192,77925,1,0,0:0:0:0:
182,192,78129,1,0,0:0:0:0:
402,192,78129,1,0,0:0:0:0:
109,192,78231,1,0,0:0:0:0:
475,192,78231,1,0,0:0:0:0:
182,192,78333,128,0,78537:0:0:0:0:
36,192,78333,128,0,78537:0:0:0:0:
182,192,78639,128,0,78843:0:0:0:0:
36,192,78639,128,0,78843:0:0:0:0:
182,192,78945,128,0,79149:0:0:0:0:
36,192,78945,128,0,79149:0:0:0:0:
182,192,79251,128,0,79455:0:0:0:0:
36,192,79251,128,0,79455:0:0:0:0:
182,192,79557,128,0,79608:0:0:0:0:
36,192,79557,128,0,79608:0:0:0:0:
109,192,79659,128,0,79710:0:0:0:0:
36,192,79659,128,0,79710:0:0:0:0:
109,192,79761,128,0,79812:0:0:0:0:
36,192,79761,128,0,79812:0:0:0:0:
109,192,79863,128,0,79914:0:0:0:0:
36,192,79863,128,0,79914:0:0:0:0:
329,192,79965,1,0,0:0:0:0:
402,192,79965,1,0,0:0:0:0:
109,192,79965,1,0,0:0:0:0:
36,192,79965,1,0,0:0:0:0:
475,192,79965,1,0,0:0:0:0:
256,192,80169,1,0,0:0:0:0:
182,192,80169,1,0,0:0:0:0:
329,192,80169,1,0,0:0:0:0:
36,192,80373,1,0,0:0:0:0:
109,192,80373,1,0,0:0:0:0:
256,192,80373,1,0,0:0:0:0:
402,192,80373,1,0,0:0:0:0:
475,192,80373,1,0,0:0:0:0:
329,192,80476,1,0,0:0:0:0:
182,192,80476,1,0,0:0:0:0:
256,192,80578,1,0,0:0:0:0:
36,192,80578,1,0,0:0:0:0:
475,192,80578,1,0,0:0:0:0:
402,192,80578,1,0,0:0:0:0:
402,192,80680,1,0,0:0:0:0:
475,192,80680,1,0,0:0:0:0:
329,192,80782,1,0,0:0:0:0:
256,192,80782,1,0,0:0:0:0:
109,192,80782,1,0,0:0:0:0:
182,192,80782,1,0,0:0:0:0:
36,192,80782,1,0,0:0:0:0:
182,192,80884,1,0,0:0:0:0:
109,192,80884,1,0,0:0:0:0:
36,192,80884,1,0,0:0:0:0:
256,192,80986,1,0,0:0:0:0:
329,192,80986,1,0,0:0:0:0:
402,192,80986,1,0,0:0:0:0:
475,192,80986,1,0,0:0:0:0:
182,192,81088,1,0,0:0:0:0:
475,192,81088,1,0,0:0:0:0:
402,192,81088,1,0,0:0:0:0:
36,192,81190,1,0,0:0:0:0:
109,192,81190,1,0,0:0:0:0:
256,192,81190,1,0,0:0:0:0:
182,192,81292,1,0,0:0:0:0:
475,192,81292,1,0,0:0:0:0:
402,192,81394,128,0,81598:0:0:0:0:
329,192,81394,1,0,0:0:0:0:
256,192,81394,1,0,0:0:0:0:
109,192,81394,1,0,0:0:0:0:
329,192,81496,1,0,0:0:0:0:
256,192,81496,1,0,0:0:0:0:
182,192,81598,1,0,0:0:0:0:
109,192,81598,1,0,0:0:0:0:
36,192,81598,1,0,0:0:0:0:
475,192,81598,1,0,0:0:0:0:
402,192,81802,1,0,0:0:0:0:
475,192,81802,1,0,0:0:0:0:
256,192,81802,1,0,0:0:0:0:
182,192,81802,1,0,0:0:0:0:
329,192,82006,1,0,0:0:0:0:
182,192,82006,1,0,0:0:0:0:
109,192,82006,1,0,0:0:0:0:
256,192,82006,1,0,0:0:0:0:
475,192,82006,1,0,0:0:0:0:
329,192,82108,1,0,0:0:0:0:
256,192,82108,1,0,0:0:0:0:
36,192,82210,1,0,0:0:0:0:
109,192,82210,1,0,0:0:0:0:
182,192,82210,1,0,0:0:0:0:
256,192,82312,1,0,0:0:0:0:
109,192,82312,1,0,0:0:0:0:
36,192,82312,1,0,0:0:0:0:
329,192,82414,1,0,0:0:0:0:
182,192,82414,1,0,0:0:0:0:
402,192,82414,1,0,0:0:0:0:
475,192,82414,1,0,0:0:0:0:
402,192,82516,1,0,0:0:0:0:
475,192,82516,1,0,0:0:0:0:
182,192,82618,1,0,0:0:0:0:
109,192,82618,1,0,0:0:0:0:
36,192,82618,1,0,0:0:0:0:
36,192,82720,1,0,0:0:0:0:
109,192,82720,1,0,0:0:0:0:
329,192,82822,1,0,0:0:0:0:
402,192,82822,1,0,0:0:0:0:
475,192,82822,1,0,0:0:0:0:
256,192,82822,1,0,0:0:0:0:
402,192,82925,1,0,0:0:0:0:
475,192,82925,1,0,0:0:0:0:
109,192,82925,1,0,0:0:0:0:
36,192,83027,128,0,83231:0:0:0:0:
329,192,83027,1,0,0:0:0:0:
182,192,83027,1,0,0:0:0:0:
256,192,83129,1,0,0:0:0:0:
402,192,83129,1,0,0:0:0:0:
475,192,83231,1,0,0:0:0:0:
182,192,83231,1,0,0:0:0:0:
109,192,83231,1,0,0:0:0:0:
329,192,83231,1,0,0:0:0:0:
182,192,83435,1,0,0:0:0:0:
402,192,83435,1,0,0:0:0:0:
109,192,83435,1,0,0:0:0:0:
256,192,83537,1,0,0:0:0:0:
329,192,83537,1,0,0:0:0:0:
475,192,83537,1,0,0:0:0:0:
36,192,83639,1,0,0:0:0:0:
109,192,83639,1,0,0:0:0:0:
182,192,83639,1,0,0:0:0:0:
402,192,83639,1,0,0:0:0:0:
475,192,83639,1,0,0:0:0:0:
109,192,83741,1,0,0:0:0:0:
36,192,83741,1,0,0:0:0:0:
182,192,83741,1,0,0:0:0:0:
475,192,83741,1,0,0:0:0:0:
109,192,83843,1,0,0:0:0:0:
182,192,83843,1,0,0:0:0:0:
329,192,83843,1,0,0:0:0:0:
402,192,83843,1,0,0:0:0:0:
329,192,83945,1,0,0:0:0:0:
402,192,83945,1,0,0:0:0:0:
36,192,84047,1,0,0:0:0:0:
109,192,84047,1,0,0:0:0:0:
402,192,84047,1,0,0:0:0:0:
475,192,84047,1,0,0:0:0:0:
329,192,84047,1,0,0:0:0:0:
256,192,84149,1,0,0:0:0:0:
182,192,84149,1,0,0:0:0:0:
109,192,84251,1,0,0:0:0:0:
36,192,84251,1,0,0:0:0:0:
402,192,84251,1,0,0:0:0:0:
475,192,84251,1,0,0:0:0:0:
329,192,84251,1,0,0:0:0:0:
329,192,84353,1,0,0:0:0:0:
402,192,84353,1,0,0:0:0:0:
256,192,84455,1,0,0:0:0:0:
182,192,84455,1,0,0:0:0:0:
36,192,84455,1,0,0:0:0:0:
329,192,84557,1,0,0:0:0:0:
109,192,84557,1,0,0:0:0:0:
182,192,84659,1,0,0:0:0:0:
256,192,84659,1,0,0:0:0:0:
36,192,84659,1,0,0:0:0:0:
475,192,84659,128,0,84863:0:0:0:0:
109,192,84761,1,0,0:0:0:0:
329,192,84761,1,0,0:0:0:0:
182,192,84863,1,0,0:0:0:0:
256,192,84863,1,0,0:0:0:0:
36,192,84863,1,0,0:0:0:0:
402,192,84863,1,0,0:0:0:0:
256,192,85067,128,0,85271:0:0:0:0:
182,192,85067,128,0,85271:0:0:0:0:
329,192,85169,1,0,0:0:0:0:
36,192,85271,1,0,0:0:0:0:
402,192,85271,1,0,0:0:0:0:
329,192,85271,1,0,0:0:0:0:
475,192,85271,1,0,0:0:0:0:
109,192,85271,128,0,85680:0:0:0:0:
182,192,85373,1,0,0:0:0:0:
256,192,85373,1,0,0:0:0:0:
329,192,85476,1,0,0:0:0:0:
475,192,85476,1,0,0:0:0:0:
402,192,85578,1,0,0:0:0:0:
256,192,85578,1,0,0:0:0:0:
36,192,85578,1,0,0:0:0:0:
182,192,85680,1,0,0:0:0:0:
329,192,85680,1,0,0:0:0:0:
475,192,85680,1,0,0:0:0:0:
256,192,85680,1,0,0:0:0:0:
402,192,85680,1,0,0:0:0:0:
109,192,85782,1,0,0:0:0:0:
109,192,85884,1,0,0:0:0:0:
256,192,85884,1,0,0:0:0:0:
182,192,85986,1,0,0:0:0:0:
329,192,85986,1,0,0:0:0:0:
402,192,85986,1,0,0:0:0:0:
475,192,85986,1,0,0:0:0:0:
36,192,86088,1,0,0:0:0:0:
109,192,86088,1,0,0:0:0:0:
256,192,86088,1,0,0:0:0:0:
109,192,86190,1,0,0:0:0:0:
36,192,86190,1,0,0:0:0:0:
402,192,86292,1,0,0:0:0:0:
475,192,86292,1,0,0:0:0:0:
256,192,86292,128,0,86496:0:0:0:0:
182,192,86292,128,0,86496:0:0:0:0:
329,192,86496,1,0,0:0:0:0:
402,192,86496,1,0,0:0:0:0:
475,192,86496,1,0,0:0:0:0:
109,192,86496,1,0,0:0:0:0:
36,192,86496,1,0,0:0:0:0:
182,192,86700,1,0,0:0:0:0:
256,192,86700,1,0,0:0:0:0:
402,192,86700,1,0,0:0:0:0:
475,192,86700,1,0,0:0:0:0:
36,192,86700,1,0,0:0:0:0:
182,192,86802,1,0,0:0:0:0:
109,192,86802,1,0,0:0:0:0:
329,192,86802,1,0,0:0:0:0:
402,192,86802,1,0,0:0:0:0:
329,192,86904,1,0,0:0:0:0:
256,192,86904,1,0,0:0:0:0:
109,192,86904,1,0,0:0:0:0:
36,192,86904,1,0,0:0:0:0:
475,192,86904,1,0,0:0:0:0:
182,192,87006,1,0,0:0:0:0:
402,192,87006,1,0,0:0:0:0:
329,192,87108,1,0,0:0:0:0:
256,192,87108,1,0,0:0:0:0:
109,192,87108,1,0,0:0:0:0:
475,192,87108,1,0,0:0:0:0:
36,192,87210,1,0,0:0:0:0:
182,192,87210,1,0,0:0:0:0:
109,192,87312,1,0,0:0:0:0:
256,192,87312,1,0,0:0:0:0:
329,192,87312,1,0,0:0:0:0:
402,192,87312,1,0,0:0:0:0:
475,192,87312,1,0,0:0:0:0:
402,192,87414,1,0,0:0:0:0:
475,192,87414,1,0,0:0:0:0:
329,192,87516,1,0,0:0:0:0:
182,192,87516,1,0,0:0:0:0:
109,192,87516,1,0,0:0:0:0:
36,192,87516,1,0,0:0:0:0:
109,192,87618,1,0,0:0:0:0:
182,192,87618,1,0,0:0:0:0:
329,192,87618,1,0,0:0:0:0:
402,192,87618,1,0,0:0:0:0:
256,192,87720,1,0,0:0:0:0:
475,192,87720,1,0,0:0:0:0:
402,192,87822,1,0,0:0:0:0:
36,192,87822,1,0,0:0:0:0:
109,192,87822,1,0,0:0:0:0:
256,192,87925,1,0,0:0:0:0:
329,192,87925,1,0,0:0:0:0:
109,192,87925,1,0,0:0:0:0:
36,192,87925,1,0,0:0:0:0:
182,192,88027,1,0,0:0:0:0:
402,192,88027,1,0,0:0:0:0:
475,192,88027,1,0,0:0:0:0:
329,192,88129,1,0,0:0:0:0:
256,192,88129,1,0,0:0:0:0:
109,192,88129,1,0,0:0:0:0:
36,192,88129,1,0,0:0:0:0:
402,192,88129,1,0,0:0:0:0:
475,192,88129,1,0,0:0:0:0:
182,192,88333,128,0,88537:0:0:0:0:
109,192,88435,128,0,88537:0:0:0:0:
256,192,88537,1,0,0:0:0:0:
329,192,88537,1,0,0:0:0:0:
36,192,88537,1,0,0:0:0:0:
402,192,88537,1,0,0:0:0:0:
329,192,88639,1,0,0:0:0:0:
402,192,88639,1,0,0:0:0:0:
256,192,88639,1,0,0:0:0:0:
36,192,88741,1,0,0:0:0:0:
109,192,88741,1,0,0:0:0:0:
182,192,88741,1,0,0:0:0:0:
36,192,88843,1,0,0:0:0:0:
109,192,88843,1,0,0:0:0:0:
182,192,88843,1,0,0:0:0:0:
402,192,88945,1,0,0:0:0:0:
475,192,88945,1,0,0:0:0:0:
329,192,88945,1,0,0:0:0:0:
36,192,88945,1,0,0:0:0:0:
109,192,88945,1,0,0:0:0:0:
402,192,89047,1,0,0:0:0:0:
475,192,89047,1,0,0:0:0:0:
329,192,89149,1,0,0:0:0:0:
256,192,89149,1,0,0:0:0:0:
109,192,89149,1,0,0:0:0:0:
36,192,89149,1,0,0:0:0:0:
182,192,89251,1,0,0:0:0:0:
475,192,89251,1,0,0:0:0:0:
402,192,89251,1,0,0:0:0:0:
256,192,89353,1,0,0:0:0:0:
329,192,89353,1,0,0:0:0:0:
36,192,89353,1,0,0:0:0:0:
109,192,89353,1,0,0:0:0:0:
182,192,89455,1,0,0:0:0:0:
402,192,89455,1,0,0:0:0:0:
256,192,89557,1,0,0:0:0:0:
329,192,89557,1,0,0:0:0:0:
109,192,89557,1,0,0:0:0:0:
475,192,89557,1,0,0:0:0:0:
329,192,89659,1,0,0:0:0:0:
475,192,89659,1,0,0:0:0:0:
256,192,89761,1,0,0:0:0:0:
182,192,89761,1,0,0:0:0:0:
109,192,89761,1,0,0:0:0:0:
36,192,89761,1,0,0:0:0:0:
402,192,89761,1,0,0:0:0:0:
256,192,90169,1,0,0:0:0:0:
475,192,90169,1,0,0:0:0:0:
402,192,90169,1,0,0:0:0:0:
109,192,90169,1,0,0:0:0:0:
329,192,90373,1,0,0:0:0:0:
182,192,90373,1,0,0:0:0:0:
36,192,90373,1,0,0:0:0:0:
109,192,90373,1,0,0:0:0:0:
402,192,90373,1,0,0:0:0:0:
475,192,90578,1,0,0:0:0:0:
402,192,90629,1,0,0:0:0:0:
329,192,90680,1,0,0:0:0:0:
36,192,90731,1,0,0:0:0:0:
109,192,90782,1,0,0:0:0:0:
182,192,90833,1,0,0:0:0:0:
329,192,90884,1,0,0:0:0:0:
402,192,90935,1,0,0:0:0:0:
475,192,90986,1,0,0:0:0:0:
36,192,90986,1,0,0:0:0:0:
109,192,90986,1,0,0:0:0:0:
182,192,91037,1,0,0:0:0:0:
256,192,91088,1,0,0:0:0:0:
329,192,91139,1,0,0:0:0:0:
402,192,91190,1,0,0:0:0:0:
475,192,91190,1,0,0:0:0:0:
182,192,91190,1,0,0:0:0:0:
109,192,91241,1,0,0:0:0:0:
36,192,91292,1,0,0:0:0:0:
475,192,91343,1,0,0:0:0:0:
402,192,91394,1,0,0:0:0:0:
329,192,91419,1,0,0:0:0:0:
256,192,91445,1,0,0:0:0:0:
182,192,91470,1,0,0:0:0:0:
36,192,91496,1,0,0:0:0:0:
475,192,91496,1,0,0:0:0:0:
402,192,91521,1,0,0:0:0:0:
329,192,91547,1,0,0:0:0:0:
109,192,91572,1,0,0:0:0:0:
36,192,91598,1,0,0:0:0:0:
256,192,91598,1,0,0:0:0:0:
475,192,92006,1,0,0:0:0:0:
402,192,92006,1,0,0:0:0:0:
256,192,92006,1,0,0:0:0:0:
475,192,92108,1,0,0:0:0:0:
402,192,92108,1,0,0:0:0:0:
256,192,92210,1,0,0:0:0:0:
182,192,92210,1,0,0:0:0:0:
109,192,92210,1,0,0:0:0:0:
36,192,92210,1,0,0:0:0:0:
475,192,92414,1,0,0:0:0:0:
402,192,92414,1,0,0:0:0:0:
256,192,92414,1,0,0:0:0:0:
475,192,92516,1,0,0:0:0:0:
402,192,92516,1,0,0:0:0:0:
329,192,92618,1,0,0:0:0:0:
256,192,92618,1,0,0:0:0:0:
182,192,92618,1,0,0:0:0:0:
36,192,92618,1,0,0:0:0:0:
109,192,92618,1,0,0:0:0:0:
475,192,92822,1,0,0:0:0:0:
402,192,92822,1,0,0:0:0:0:
256,192,92822,1,0,0:0:0:0:
329,192,92822,1,0,0:0:0:0:
475,192,92925,1,0,0:0:0:0:
402,192,92925,1,0,0:0:0:0:
329,192,92925,1,0,0:0:0:0:
256,192,93027,1,0,0:0:0:0:
182,192,93027,1,0,0:0:0:0:
109,192,93027,1,0,0:0:0:0:
36,192,93027,1,0,0:0:0:0:
109,192,93129,1,0,0:0:0:0:
36,192,93129,1,0,0:0:0:0:
475,192,93231,1,0,0:0:0:0:
402,192,93231,1,0,0:0:0:0:
475,192,93333,1,0,0:0:0:0:
402,192,93333,1,0,0:0:0:0:
402,192,93435,1,0,0:0:0:0:
475,192,93435,1,0,0:0:0:0:
329,192,93435,1,0,0:0:0:0:
256,192,93435,1,0,0:0:0:0:
109,192,93435,1,0,0:0:0:0:
36,192,93435,1,0,0:0:0:0:
36,192,93537,1,0,0:0:0:0:
109,192,93537,1,0,0:0:0:0:
256,192,93537,1,0,0:0:0:0:
182,192,93639,1,0,0:0:0:0:
329,192,93639,1,0,0:0:0:0:
402,192,93639,1,0,0:0:0:0:
475,192,93639,1,0,0:0:0:0:
256,192,93741,1,0,0:0:0:0:
109,192,93741,1,0,0:0:0:0:
36,192,93741,1,0,0:0:0:0:
182,192,93843,1,0,0:0:0:0:
329,192,93843,1,0,0:0:0:0:
402,192,93843,1,0,0:0:0:0:
475,192,93843,1,0,0:0:0:0:
402,192,93945,1,0,0:0:0:0:
475,192,93945,1,0,0:0:0:0:
329,192,94047,1,0,0:0:0:0:
256,192,94047,1,0,0:0:0:0:
182,192,94047,1,0,0:0:0:0:
36,192,94047,1,0,0:0:0:0:
182,192,94149,1,0,0:0:0:0:
256,192,94149,1,0,0:0:0:0:
36,192,94251,1,0,0:0:0:0:
402,192,94251,1,0,0:0:0:0:
109,192,94251,1,0,0:0:0:0:
182,192,94353,1,0,0:0:0:0:
256,192,94353,1,0,0:0:0:0:
329,192,94353,1,0,0:0:0:0:
475,192,94353,1,0,0:0:0:0:
402,192,94455,1,0,0:0:0:0:
36,192,94455,1,0,0:0:0:0:
109,192,94455,1,0,0:0:0:0:
36,192,94557,1,0,0:0:0:0:
109,192,94557,1,0,0:0:0:0:
182,192,94659,1,0,0:0:0:0:
256,192,94659,1,0,0:0:0:0:
402,192,94659,1,0,0:0:0:0:
475,192,94659,1,0,0:0:0:0:
329,192,94659,1,0,0:0:0:0:
36,192,94761,1,0,0:0:0:0:
109,192,94761,1,0,0:0:0:0:
182,192,94863,1,0,0:0:0:0:
475,192,94863,1,0,0:0:0:0:
402,192,94863,1,0,0:0:0:0:
256,192,94863,1,0,0:0:0:0:
329,192,94965,1,0,0:0:0:0:
109,192,94965,1,0,0:0:0:0:
256,192,95067,1,0,0:0:0:0:
182,192,95067,1,0,0:0:0:0:
36,192,95067,1,0,0:0:0:0:
475,192,95067,1,0,0:0:0:0:
182,192,95169,1,0,0:0:0:0:
36,192,95169,1,0,0:0:0:0:
256,192,95271,1,0,0:0:0:0:
329,192,95271,1,0,0:0:0:0:
402,192,95271,1,0,0:0:0:0:
109,192,95271,1,0,0:0:0:0:
329,192,95373,1,0,0:0:0:0:
402,192,95373,1,0,0:0:0:0:
182,192,95476,1,0,0:0:0:0:
109,192,95476,1,0,0:0:0:0:
36,192,95476,1,0,0:0:0:0:
475,192,95476,1,0,0:0:0:0:
256,192,95476,1,0,0:0:0:0:
36,192,95578,1,0,0:0:0:0:
109,192,95578,1,0,0:0:0:0:
182,192,95680,1,0,0:0:0:0:
256,192,95680,1,0,0:0:0:0:
256,192,95782,1,0,0:0:0:0:
475,192,95782,1,0,0:0:0:0:
329,192,95782,1,0,0:0:0:0:
402,192,95782,1,0,0:0:0:0:
402,192,95884,1,0,0:0:0:0:
475,192,95884,1,0,0:0:0:0:
36,192,95884,1,0,0:0:0:0:
109,192,95884,1,0,0:0:0:0:
182,192,95986,1,0,0:0:0:0:
329,192,95986,1,0,0:0:0:0:
256,192,96088,1,0,0:0:0:0:
109,192,96088,1,0,0:0:0:0:
475,192,96088,1,0,0:0:0:0:
109,192,96190,1,0,0:0:0:0:
36,192,96190,1,0,0:0:0:0:
329,192,96190,1,0,0:0:0:0:
475,192,96292,1,0,0:0:0:0:
182,192,96292,1,0,0:0:0:0:
109,192,96317,1,0,0:0:0:0:
402,192,96326,1,0,0:0:0:0:
36,192,96343,1,0,0:0:0:0:
329,192,96360,1,0,0:0:0:0:
256,192,96394,1,0,0:0:0:0:
182,192,96445,1,0,0:0:0:0:
109,192,96470,1,0,0:0:0:0:
36,192,96496,1,0,0:0:0:0:
475,192,96496,1,0,0:0:0:0:
402,192,96530,1,0,0:0:0:0:
329,192,96564,1,0,0:0:0:0:
256,192,96598,1,0,0:0:0:0:
109,192,96623,1,0,0:0:0:0:
36,192,96649,1,0,0:0:0:0:
402,192,96700,1,0,0:0:0:0:
329,192,96700,1,0,0:0:0:0:
475,192,96700,1,0,0:0:0:0:
182,192,96700,1,0,0:0:0:0:
256,192,96802,1,0,0:0:0:0:
182,192,96802,1,0,0:0:0:0:
109,192,96904,1,0,0:0:0:0:
36,192,96904,1,0,0:0:0:0:
475,192,96904,1,0,0:0:0:0:
402,192,96904,1,0,0:0:0:0:
109,192,97006,1,0,0:0:0:0:
36,192,97006,1,0,0:0:0:0:
182,192,97108,1,0,0:0:0:0:
329,192,97108,1,0,0:0:0:0:
402,192,97108,1,0,0:0:0:0:
475,192,97108,1,0,0:0:0:0:
402,192,97210,1,0,0:0:0:0:
475,192,97210,1,0,0:0:0:0:
329,192,97312,1,0,0:0:0:0:
109,192,97312,1,0,0:0:0:0:
256,192,97312,1,0,0:0:0:0:
36,192,97414,1,0,0:0:0:0:
256,192,97414,1,0,0:0:0:0:
329,192,97414,1,0,0:0:0:0:
109,192,97516,1,0,0:0:0:0:
402,192,97516,1,0,0:0:0:0:
475,192,97516,1,0,0:0:0:0:
182,192,97516,1,0,0:0:0:0:
36,192,97618,1,0,0:0:0:0:
256,192,97618,1,0,0:0:0:0:
329,192,97720,1,0,0:0:0:0:
182,192,97720,1,0,0:0:0:0:
402,192,97720,1,0,0:0:0:0:
256,192,97822,1,0,0:0:0:0:
475,192,97822,1,0,0:0:0:0:
402,192,97925,1,0,0:0:0:0:
329,192,97925,1,0,0:0:0:0:
109,192,97925,1,0,0:0:0:0:
36,192,97925,1,0,0:0:0:0:
256,192,98027,1,0,0:0:0:0:
182,192,98027,1,0,0:0:0:0:
109,192,98129,1,0,0:0:0:0:
36,192,98129,1,0,0:0:0:0:
329,192,98231,1,0,0:0:0:0:
182,192,98231,1,0,0:0:0:0:
402,192,98333,1,0,0:0:0:0:
475,192,98333,1,0,0:0:0:0:
402,192,98435,1,0,0:0:0:0:
475,192,98435,1,0,0:0:0:0:
182,192,98537,1,0,0:0:0:0:
109,192,98537,1,0,0:0:0:0:
109,192,98639,1,0,0:0:0:0:
182,192,98639,1,0,0:0:0:0:
109,192,98741,1,0,0:0:0:0:
182,192,98741,1,0,0:0:0:0:
402,192,98741,128,0,98945:0:0:0:0:
402,192,99047,128,0,99251:0:0:0:0:
182,192,99149,1,0,0:0:0:0:
109,192,99149,1,0,0:0:0:0:
402,192,99353,128,0,99506:0:0:0:0:
36,192,99557,128,0,99965:0:0:0:0:
475,192,99761,128,0,99965:0:0:0:0:
109,192,99965,1,0,0:0:0:0:
182,192,99965,1,0,0:0:0:0:
256,192,99965,1,0,0:0:0:0:
402,192,99965,1,0,0:0:0:0:
329,192,99965,1,0,0:0:0:0:
109,192,100373,1,0,0:0:0:0:
36,192,100373,1,0,0:0:0:0:
182,192,100373,1,0,0:0:0:0:
256,192,100373,1,0,0:0:0:0:
329,192,100373,1,0,0:0:0:0:
402,192,100373,1,0,0:0:0:0:
475,192,100373,1,0,0:0:0:0:
36,192,100476,1,0,0:0:0:0:
109,192,100476,1,0,0:0:0:0:
402,192,100476,1,0,0:0:0:0:
475,192,100476,1,0,0:0:0:0:
182,192,100578,1,0,0:0:0:0:
256,192,100578,1,0,0:0:0:0:
402,192,100578,1,0,0:0:0:0:
475,192,100578,1,0,0:0:0:0:
329,192,100680,1,0,0:0:0:0:
109,192,100680,1,0,0:0:0:0:
36,192,100680,1,0,0:0:0:0:
182,192,100782,1,0,0:0:0:0:
256,192,100782,1,0,0:0:0:0:
475,192,100782,1,0,0:0:0:0:
402,192,100782,1,0,0:0:0:0:
256,192,100884,1,0,0:0:0:0:
182,192,100884,1,0,0:0:0:0:
109,192,100986,1,0,0:0:0:0:
36,192,100986,1,0,0:0:0:0:
329,192,100986,1,0,0:0:0:0:
256,192,101088,1,0,0:0:0:0:
475,192,101088,1,0,0:0:0:0:
329,192,101190,1,0,0:0:0:0:
182,192,101190,1,0,0:0:0:0:
109,192,101190,1,0,0:0:0:0:
36,192,101190,1,0,0:0:0:0:
402,192,101190,1,0,0:0:0:0:
256,192,101292,1,0,0:0:0:0:
475,192,101292,1,0,0:0:0:0:
182,192,101394,1,0,0:0:0:0:
36,192,101394,1,0,0:0:0:0:
402,192,101394,128,0,101802:0:0:0:0:
329,192,101496,1,0,0:0:0:0:
109,192,101496,1,0,0:0:0:0:
182,192,101598,1,0,0:0:0:0:
36,192,101598,1,0,0:0:0:0:
475,192,101598,1,0,0:0:0:0:
256,192,101598,128,0,101802:0:0:0:0:
182,192,101802,1,0,0:0:0:0:
109,192,101802,1,0,0:0:0:0:
329,192,101802,1,0,0:0:0:0:
36,192,101802,1,0,0:0:0:0:
256,192,101904,1,0,0:0:0:0:
402,192,101904,1,0,0:0:0:0:
475,192,102006,1,0,0:0:0:0:
329,192,102006,1,0,0:0:0:0:
182,192,102006,1,0,0:0:0:0:
109,192,102006,1,0,0:0:0:0:
402,192,102108,1,0,0:0:0:0:
36,192,102108,1,0,0:0:0:0:
182,192,102210,1,0,0:0:0:0:
256,192,102210,1,0,0:0:0:0:
329,192,102210,1,0,0:0:0:0:
256,192,102312,1,0,0:0:0:0:
329,192,102312,1,0,0:0:0:0:
475,192,102414,1,0,0:0:0:0:
182,192,102414,1,0,0:0:0:0:
109,192,102414,1,0,0:0:0:0:
36,192,102414,1,0,0:0:0:0:
256,192,102516,1,0,0:0:0:0:
329,192,102516,1,0,0:0:0:0:
402,192,102516,1,0,0:0:0:0:
182,192,102618,1,0,0:0:0:0:
475,192,102618,1,0,0:0:0:0:
36,192,102618,1,0,0:0:0:0:
402,192,102720,1,0,0:0:0:0:
256,192,102720,1,0,0:0:0:0:
329,192,102822,1,0,0:0:0:0:
182,192,102822,1,0,0:0:0:0:
475,192,102822,1,0,0:0:0:0:
109,192,102822,1,0,0:0:0:0:
36,192,102925,1,0,0:0:0:0:
402,192,102925,1,0,0:0:0:0:
256,192,102925,1,0,0:0:0:0:
329,192,103027,1,0,0:0:0:0:
182,192,103027,1,0,0:0:0:0:
109,192,103027,1,0,0:0:0:0:
256,192,103129,1,0,0:0:0:0:
475,192,103129,1,0,0:0:0:0:
36,192,103129,1,0,0:0:0:0:
329,192,103231,1,0,0:0:0:0:
402,192,103231,1,0,0:0:0:0:
182,192,103231,1,0,0:0:0:0:
109,192,103231,1,0,0:0:0:0:
329,192,103435,1,0,0:0:0:0:
256,192,103435,1,0,0:0:0:0:
182,192,103435,1,0,0:0:0:0:
109,192,103537,1,0,0:0:0:0:
36,192,103537,1,0,0:0:0:0:
402,192,103537,1,0,0:0:0:0:
475,192,103537,1,0,0:0:0:0:
329,192,103843,1,0,0:0:0:0:
256,192,103843,1,0,0:0:0:0:
109,192,103843,1,0,0:0:0:0:
36,192,103843,1,0,0:0:0:0:
475,192,103843,1,0,0:0:0:0:
402,192,104047,1,0,0:0:0:0:
475,192,104047,1,0,0:0:0:0:
36,192,104047,1,0,0:0:0:0:
109,192,104047,1,0,0:0:0:0:
256,192,104047,1,0,0:0:0:0:
109,192,104251,1,0,0:0:0:0:
402,192,104251,1,0,0:0:0:0:
36,192,104251,1,0,0:0:0:0:
256,192,104251,1,0,0:0:0:0:
475,192,104353,1,0,0:0:0:0:
329,192,104353,1,0,0:0:0:0:
182,192,104353,1,0,0:0:0:0:
109,192,104353,1,0,0:0:0:0:
256,192,104659,1,0,0:0:0:0:
109,192,104659,1,0,0:0:0:0:
36,192,104659,1,0,0:0:0:0:
329,192,104659,1,0,0:0:0:0:
402,192,104659,1,0,0:0:0:0:
475,192,104863,1,0,0:0:0:0:
36,192,104863,1,0,0:0:0:0:
109,192,104863,1,0,0:0:0:0:
182,192,104897,1,0,0:0:0:0:
256,192,104931,1,0,0:0:0:0:
329,192,104965,1,0,0:0:0:0:
475,192,104999,1,0,0:0:0:0:
36,192,104999,1,0,0:0:0:0:
109,192,105033,1,0,0:0:0:0:
182,192,105067,1,0,0:0:0:0:
256,192,105101,1,0,0:0:0:0:
402,192,105135,1,0,0:0:0:0:
475,192,105169,1,0,0:0:0:0:
329,192,105169,1,0,0:0:0:0:
182,192,105203,1,0,0:0:0:0:
109,192,105237,1,0,0:0:0:0:
36,192,105271,1,0,0:0:0:0:
402,192,105271,1,0,0:0:0:0:
329,192,105305,1,0,0:0:0:0:
256,192,105339,1,0,0:0:0:0:
182,192,105373,1,0,0:0:0:0:
36,192,105408,1,0,0:0:0:0:
109,192,105442,1,0,0:0:0:0:
402,192,105476,1,0,0:0:0:0:
475,192,105476,1,0,0:0:0:0:
329,192,105476,1,0,0:0:0:0:
36,192,105578,1,0,0:0:0:0:
109,192,105578,1,0,0:0:0:0:
182,192,105578,1,0,0:0:0:0:
475,192,105680,1,0,0:0:0:0:
36,192,105680,1,0,0:0:0:0:
256,192,105680,1,0,0:0:0:0:
329,192,105680,1,0,0:0:0:0:
402,192,105782,1,0,0:0:0:0:
182,192,105782,1,0,0:0:0:0:
109,192,105884,1,0,0:0:0:0:
36,192,105884,1,0,0:0:0:0:
329,192,105884,1,0,0:0:0:0:
402,192,105986,1,0,0:0:0:0:
475,192,105986,1,0,0:0:0:0:
182,192,105986,1,0,0:0:0:0:
36,192,106088,1,0,0:0:0:0:
109,192,106088,1,0,0:0:0:0:
182,192,106122,1,0,0:0:0:0:
256,192,106156,1,0,0:0:0:0:
402,192,106190,1,0,0:0:0:0:
475,192,106224,1,0,0:0:0:0:
36,192,106224,1,0,0:0:0:0:
109,192,106258,1,0,0:0:0:0:
182,192,106292,1,0,0:0:0:0:
329,192,106326,1,0,0:0:0:0:
402,192,106360,1,0,0:0:0:0:
475,192,106394,1,0,0:0:0:0:
36,192,106394,1,0,0:0:0:0:
182,192,106428,1,0,0:0:0:0:
256,192,106462,1,0,0:0:0:0:
329,192,106496,1,0,0:0:0:0:
402,192,106496,1,0,0:0:0:0:
109,192,106496,1,0,0:0:0:0:
402,192,106598,1,0,0:0:0:0:
182,192,106598,1,0,0:0:0:0:
329,192,106700,1,0,0:0:0:0:
36,192,106700,1,0,0:0:0:0:
475,192,106802,1,0,0:0:0:0:
256,192,106802,1,0,0:0:0:0:
402,192,106904,1,0,0:0:0:0:
109,192,106904,1,0,0:0:0:0:
182,192,106904,1,0,0:0:0:0:
329,192,107006,1,0,0:0:0:0:
36,192,107006,1,0,0:0:0:0:
256,192,107108,1,0,0:0:0:0:
475,192,107108,1,0,0:0:0:0:
402,192,107210,1,0,0:0:0:0:
36,192,107210,1,0,0:0:0:0:
109,192,107312,1,0,0:0:0:0:
256,192,107312,1,0,0:0:0:0:
329,192,107312,1,0,0:0:0:0:
182,192,107414,1,0,0:0:0:0:
402,192,107414,1,0,0:0:0:0:
256,192,107516,1,0,0:0:0:0:
475,192,107516,1,0,0:0:0:0:
36,192,107618,1,0,0:0:0:0:
329,192,107618,1,0,0:0:0:0:
109,192,107720,1,0,0:0:0:0:
402,192,107720,1,0,0:0:0:0:
182,192,107720,1,0,0:0:0:0:
256,192,107822,1,0,0:0:0:0:
475,192,107822,1,0,0:0:0:0:
329,192,107925,1,0,0:0:0:0:
182,192,107925,1,0,0:0:0:0:
256,192,108027,1,0,0:0:0:0:
402,192,108027,1,0,0:0:0:0:
329,192,108129,1,0,0:0:0:0:
36,192,108129,1,0,0:0:0:0:
475,192,108129,1,0,0:0:0:0:
109,192,108231,1,0,0:0:0:0:
256,192,108231,1,0,0:0:0:0:
402,192,108333,1,0,0:0:0:0:
182,192,108333,1,0,0:0:0:0:
329,192,108435,1,0,0:0:0:0:
36,192,108435,1,0,0:0:0:0:
256,192,108537,1,0,0:0:0:0:
475,192,108537,1,0,0:0:0:0:
182,192,108537,1,0,0:0:0:0:
402,192,108639,1,0,0:0:0:0:
109,192,108639,1,0,0:0:0:0:
329,192,108741,1,0,0:0:0:0:
36,192,108741,1,0,0:0:0:0:
256,192,108843,1,0,0:0:0:0:
475,192,108843,1,0,0:0:0:0:
36,192,108945,1,0,0:0:0:0:
109,192,108945,1,0,0:0:0:0:
402,192,108945,1,0,0:0:0:0:
182,192,109047,1,0,0:0:0:0:
475,192,109047,1,0,0:0:0:0:
256,192,109149,1,0,0:0:0:0:
36,192,109149,1,0,0:0:0:0:
329,192,109251,1,0,0:0:0:0:
109,192,109251,1,0,0:0:0:0:
182,192,109353,1,0,0:0:0:0:
402,192,109353,1,0,0:0:0:0:
475,192,109353,1,0,0:0:0:0:
329,192,109455,1,0,0:0:0:0:
109,192,109455,1,0,0:0:0:0:
256,192,109557,1,0,0:0:0:0:
36,192,109557,1,0,0:0:0:0:
475,192,109557,1,0,0:0:0:0:
402,192,109659,1,0,0:0:0:0:
182,192,109659,1,0,0:0:0:0:
329,192,109761,1,0,0:0:0:0:
109,192,109761,1,0,0:0:0:0:
36,192,109761,1,0,0:0:0:0:
475,192,109863,1,0,0:0:0:0:
256,192,109863,1,0,0:0:0:0:
402,192,109965,1,0,0:0:0:0:
182,192,109965,1,0,0:0:0:0:
329,192,110067,1,0,0:0:0:0:
109,192,110067,1,0,0:0:0:0:
256,192,110169,1,0,0:0:0:0:
36,192,110169,1,0,0:0:0:0:
475,192,110169,1,0,0:0:0:0:
109,192,110271,1,0,0:0:0:0:
329,192,110271,1,0,0:0:0:0:
182,192,110373,1,0,0:0:0:0:
402,192,110373,1,0,0:0:0:0:
256,192,110476,1,0,0:0:0:0:
475,192,110476,1,0,0:0:0:0:
329,192,110578,1,0,0:0:0:0:
36,192,110578,1,0,0:0:0:0:
109,192,110578,1,0,0:0:0:0:
475,192,110680,1,0,0:0:0:0:
256,192,110680,1,0,0:0:0:0:
402,192,110782,1,0,0:0:0:0:
182,192,110782,1,0,0:0:0:0:
329,192,110884,1,0,0:0:0:0:
109,192,110884,1,0,0:0:0:0:
256,192,110986,1,0,0:0:0:0:
36,192,110986,1,0,0:0:0:0:
475,192,110986,1,0,0:0:0:0:
402,192,111088,1,0,0:0:0:0:
182,192,111088,1,0,0:0:0:0:
329,192,111190,1,0,0:0:0:0:
109,192,111190,1,0,0:0:0:0:
475,192,111190,1,0,0:0:0:0:
256,192,111292,1,0,0:0:0:0:
36,192,111292,1,0,0:0:0:0:
475,192,111394,1,0,0:0:0:0:
402,192,111394,1,0,0:0:0:0:
182,192,111394,1,0,0:0:0:0:
36,192,111496,1,0,0:0:0:0:
256,192,111496,1,0,0:0:0:0:
109,192,111598,1,0,0:0:0:0:
329,192,111598,1,0,0:0:0:0:
182,192,111700,1,0,0:0:0:0:
402,192,111700,1,0,0:0:0:0:
256,192,111802,1,0,0:0:0:0:
475,192,111802,1,0,0:0:0:0:
36,192,111802,1,0,0:0:0:0:
329,192,111904,1,0,0:0:0:0:
182,192,111904,1,0,0:0:0:0:
256,192,112006,1,0,0:0:0:0:
402,192,112006,1,0,0:0:0:0:
329,192,112108,1,0,0:0:0:0:
475,192,112108,1,0,0:0:0:0:
36,192,112210,1,0,0:0:0:0:
256,192,112210,1,0,0:0:0:0:
402,192,112210,1,0,0:0:0:0:
109,192,112312,1,0,0:0:0:0:
475,192,112312,1,0,0:0:0:0:
182,192,112414,1,0,0:0:0:0:
402,192,112414,1,0,0:0:0:0:
256,192,112516,1,0,0:0:0:0:
36,192,112516,1,0,0:0:0:0:
182,192,112618,1,0,0:0:0:0:
475,192,112618,1,0,0:0:0:0:
402,192,112618,1,0,0:0:0:0:
329,192,112720,1,0,0:0:0:0:
109,192,112720,1,0,0:0:0:0:
256,192,112822,1,0,0:0:0:0:
36,192,112822,1,0,0:0:0:0:
182,192,112822,1,0,0:0:0:0:
475,192,112925,1,0,0:0:0:0:
109,192,112925,1,0,0:0:0:0:
402,192,113027,1,0,0:0:0:0:
36,192,113027,1,0,0:0:0:0:
182,192,113027,1,0,0:0:0:0:
256,192,113129,1,0,0:0:0:0:
109,192,113129,1,0,0:0:0:0:
329,192,113231,1,0,0:0:0:0:
475,192,113231,1,0,0:0:0:0:
182,192,113231,1,0,0:0:0:0:
36,192,113333,1,0,0:0:0:0:
256,192,113333,1,0,0:0:0:0:
109,192,113435,1,0,0:0:0:0:
402,192,113435,1,0,0:0:0:0:
182,192,113537,1,0,0:0:0:0:
475,192,113537,1,0,0:0:0:0:
256,192,113639,1,0,0:0:0:0:
329,192,113639,1,0,0:0:0:0:
36,192,113639,1,0,0:0:0:0:
109,192,113741,1,0,0:0:0:0:
402,192,113741,1,0,0:0:0:0:
182,192,113843,1,0,0:0:0:0:
475,192,113843,1,0,0:0:0:0:
402,192,113945,1,0,0:0:0:0:
329,192,113945,1,0,0:0:0:0:
256,192,114047,1,0,0:0:0:0:
36,192,114047,1,0,0:0:0:0:
475,192,114149,1,0,0:0:0:0:
182,192,114149,1,0,0:0:0:0:
402,192,114251,1,0,0:0:0:0:
109,192,114251,1,0,0:0:0:0:
256,192,114251,1,0,0:0:0:0:
329,192,114353,1,0,0:0:0:0:
36,192,114353,1,0,0:0:0:0:
256,192,114455,1,0,0:0:0:0:
475,192,114455,1,0,0:0:0:0:
402,192,114557,1,0,0:0:0:0:
182,192,114557,1,0,0:0:0:0:
329,192,114659,1,0,0:0:0:0:
256,192,114659,1,0,0:0:0:0:
36,192,114659,1,0,0:0:0:0:
109,192,114761,1,0,0:0:0:0:
402,192,114761,1,0,0:0:0:0:
182,192,114863,1,0,0:0:0:0:
475,192,114863,1,0,0:0:0:0:
256,192,114965,1,0,0:0:0:0:
36,192,114965,1,0,0:0:0:0:
109,192,115067,1,0,0:0:0:0:
182,192,115067,1,0,0:0:0:0:
329,192,115067,1,0,0:0:0:0:
475,192,115169,1,0,0:0:0:0:
256,192,115169,1,0,0:0:0:0:
402,192,115271,1,0,0:0:0:0:
182,192,115271,1,0,0:0:0:0:
329,192,115373,1,0,0:0:0:0:
109,192,115373,1,0,0:0:0:0:
256,192,115476,1,0,0:0:0:0:
36,192,115476,1,0,0:0:0:0:
475,192,115476,1,0,0:0:0:0:
402,192,115578,1,0,0:0:0:0:
182,192,115578,1,0,0:0:0:0:
329,192,115680,1,0,0:0:0:0:
109,192,115680,1,0,0:0:0:0:
256,192,115782,1,0,0:0:0:0:
36,192,115782,1,0,0:0:0:0:
402,192,115884,1,0,0:0:0:0:
475,192,115884,1,0,0:0:0:0:
182,192,115884,1,0,0:0:0:0:
329,192,115986,1,0,0:0:0:0:
109,192,115986,1,0,0:0:0:0:
256,192,116088,1,0,0:0:0:0:
36,192,116088,1,0,0:0:0:0:
475,192,116190,1,0,0:0:0:0:
182,192,116190,1,0,0:0:0:0:
402,192,116292,1,0,0:0:0:0:
109,192,116292,1,0,0:0:0:0:
36,192,116292,1,0,0:0:0:0:
109,192,116394,1,0,0:0:0:0:
329,192,116496,1,0,0:0:0:0:
475,192,116496,1,0,0:0:0:0:
329,192,116598,1,0,0:0:0:0:
182,192,116700,1,0,0:0:0:0:
109,192,116700,1,0,0:0:0:0:
182,192,116802,1,0,0:0:0:0:
256,192,116904,1,0,0:0:0:0:
329,192,116904,1,0,0:0:0:0:
329,192,117006,1,0,0:0:0:0:
36,192,117108,1,0,0:0:0:0:
109,192,117108,1,0,0:0:0:0:
109,192,117210,1,0,0:0:0:0:
329,192,117312,1,0,0:0:0:0:
402,192,117312,1,0,0:0:0:0:
402,192,117414,1,0,0:0:0:0:
256,192,117516,1,0,0:0:0:0:
182,192,117516,1,0,0:0:0:0:
256,192,117618,1,0,0:0:0:0:
329,192,117720,1,0,0:0:0:0:
475,192,117720,1,0,0:0:0:0:
475,192,117822,1,0,0:0:0:0:
36,192,117925,1,0,0:0:0:0:
109,192,117925,1,0,0:0:0:0:
36,192,118027,1,0,0:0:0:0:
109,192,118027,1,0,0:0:0:0:
256,192,118129,1,0,0:0:0:0:
329,192,118129,1,0,0:0:0:0:
256,192,118231,1,0,0:0:0:0:
329,192,118231,1,0,0:0:0:0:
109,192,118333,1,0,0:0:0:0:
182,192,118333,1,0,0:0:0:0:
109,192,118435,1,0,0:0:0:0:
182,192,118435,1,0,0:0:0:0:
402,192,118537,1,0,0:0:0:0:
475,192,118537,1,0,0:0:0:0:
402,192,118639,1,0,0:0:0:0:
475,192,118639,1,0,0:0:0:0:
36,192,118741,1,0,0:0:0:0:
109,192,118741,1,0,0:0:0:0:
36,192,118843,1,0,0:0:0:0:
109,192,118843,1,0,0:0:0:0:
329,192,118945,1,0,0:0:0:0:
402,192,118945,1,0,0:0:0:0:
329,192,119047,1,0,0:0:0:0:
402,192,119047,1,0,0:0:0:0:
256,192,119149,1,0,0:0:0:0:
182,192,119149,1,0,0:0:0:0:
256,192,119251,1,0,0:0:0:0:
182,192,119251,1,0,0:0:0:0:
329,192,119353,1,0,0:0:0:0:
475,192,119353,1,0,0:0:0:0:
475,192,119455,1,0,0:0:0:0:
329,192,119455,1,0,0:0:0:0:
182,192,119557,1,0,0:0:0:0:
36,192,119557,1,0,0:0:0:0:
256,192,119557,1,0,0:0:0:0:
109,192,119557,1,0,0:0:0:0:
256,192,119659,1,0,0:0:0:0:
36,192,119659,1,0,0:0:0:0:
109,192,119659,1,0,0:0:0:0:
182,192,119761,1,0,0:0:0:0:
329,192,119761,1,0,0:0:0:0:
402,192,119761,1,0,0:0:0:0:
329,192,119863,1,0,0:0:0:0:
402,192,119863,1,0,0:0:0:0:
329,192,119965,1,0,0:0:0:0:
402,192,119965,1,0,0:0:0:0:
329,192,120169,1,0,0:0:0:0:
402,192,120169,1,0,0:0:0:0:
329,192,120373,1,0,0:0:0:0:
402,192,120373,1,0,0:0:0:0:
329,192,120476,1,0,0:0:0:0:
402,192,120476,1,0,0:0:0:0:
329,192,120578,1,0,0:0:0:0:
402,192,120578,1,0,0:0:0:0:
329,192,120782,1,0,0:0:0:0:
402,192,120782,1,0,0:0:0:0:
182,192,120782,1,0,0:0:0:0:
109,192,120782,1,0,0:0:0:0:
256,192,120884,1,0,0:0:0:0:
36,192,120884,1,0,0:0:0:0:
475,192,120986,1,0,0:0:0:0:
329,192,120986,1,0,0:0:0:0:
402,192,120986,1,0,0:0:0:0:
182,192,120986,1,0,0:0:0:0:
256,192,121088,1,0,0:0:0:0:
109,192,121088,1,0,0:0:0:0:
182,192,121190,1,0,0:0:0:0:
36,192,121190,1,0,0:0:0:0:
329,192,121190,1,0,0:0:0:0:
402,192,121190,1,0,0:0:0:0:
109,192,121394,1,0,0:0:0:0:
36,192,121394,1,0,0:0:0:0:
109,192,121598,1,0,0:0:0:0:
36,192,121598,1,0,0:0:0:0:
109,192,121802,1,0,0:0:0:0:
36,192,121802,1,0,0:0:0:0:
109,192,122006,1,0,0:0:0:0:
36,192,122006,1,0,0:0:0:0:
329,192,122006,1,0,0:0:0:0:
402,192,122006,1,0,0:0:0:0:
475,192,122006,1,0,0:0:0:0:
109,192,122108,1,0,0:0:0:0:
36,192,122108,1,0,0:0:0:0:
109,192,122210,1,0,0:0:0:0:
36,192,122210,1,0,0:0:0:0:
109,192,122312,1,0,0:0:0:0:
36,192,122312,1,0,0:0:0:0:
109,192,122414,1,0,0:0:0:0:
36,192,122414,1,0,0:0:0:0:
36,192,122618,1,0,0:0:0:0:
109,192,122618,1,0,0:0:0:0:
475,192,122618,1,0,0:0:0:0:
329,192,122618,1,0,0:0:0:0:
402,192,122720,1,0,0:0:0:0:
256,192,122720,1,0,0:0:0:0:
329,192,122822,1,0,0:0:0:0:
182,192,122822,1,0,0:0:0:0:
109,192,122822,1,0,0:0:0:0:
36,192,122822,1,0,0:0:0:0:
475,192,122822,1,0,0:0:0:0:
109,192,123027,1,0,0:0:0:0:
402,192,123027,1,0,0:0:0:0:
256,192,123027,1,0,0:0:0:0:
256,192,123129,1,0,0:0:0:0:
109,192,123129,1,0,0:0:0:0:
36,192,123231,1,0,0:0:0:0:
475,192,123231,1,0,0:0:0:0:
329,192,123231,1,0,0:0:0:0:
109,192,123231,1,0,0:0:0:0:
256,192,123231,1,0,0:0:0:0:
256,192,123435,1,0,0:0:0:0:
109,192,123435,1,0,0:0:0:0:
256,192,123639,1,0,0:0:0:0:
109,192,123639,1,0,0:0:0:0:
329,192,123639,1,0,0:0:0:0:
402,192,123639,1,0,0:0:0:0:
475,192,123639,1,0,0:0:0:0:
256,192,123741,1,0,0:0:0:0:
109,192,123741,1,0,0:0:0:0:
256,192,123843,1,0,0:0:0:0:
109,192,123843,1,0,0:0:0:0:
256,192,124047,1,0,0:0:0:0:
109,192,124047,1,0,0:0:0:0:
475,192,124149,1,0,0:0:0:0:
402,192,124149,1,0,0:0:0:0:
329,192,124251,1,0,0:0:0:0:
256,192,124251,1,0,0:0:0:0:
109,192,124353,1,0,0:0:0:0:
36,192,124353,1,0,0:0:0:0:
475,192,124353,1,0,0:0:0:0:
402,192,124353,1,0,0:0:0:0:
256,192,124455,1,0,0:0:0:0:
329,192,124455,1,0,0:0:0:0:
182,192,124455,1,0,0:0:0:0:
109,192,124455,1,0,0:0:0:0:
36,192,124455,1,0,0:0:0:0:
256,192,124659,1,0,0:0:0:0:
329,192,124659,1,0,0:0:0:0:
256,192,124863,1,0,0:0:0:0:
329,192,124863,1,0,0:0:0:0:
256,192,125067,1,0,0:0:0:0:
329,192,125067,1,0,0:0:0:0:
256,192,125271,1,0,0:0:0:0:
329,192,125271,1,0,0:0:0:0:
475,192,125271,1,0,0:0:0:0:
109,192,125271,1,0,0:0:0:0:
36,192,125271,1,0,0:0:0:0:
256,192,125373,1,0,0:0:0:0:
329,192,125373,1,0,0:0:0:0:
256,192,125476,1,0,0:0:0:0:
329,192,125476,1,0,0:0:0:0:
256,192,125578,1,0,0:0:0:0:
329,192,125578,1,0,0:0:0:0:
182,192,125680,1,0,0:0:0:0:
109,192,125680,1,0,0:0:0:0:
109,192,125782,1,0,0:0:0:0:
182,192,125782,1,0,0:0:0:0:
182,192,125884,1,0,0:0:0:0:
109,192,125884,1,0,0:0:0:0:
182,192,125986,1,0,0:0:0:0:
109,192,125986,1,0,0:0:0:0:
475,192,126088,1,0,0:0:0:0:
402,192,126088,1,0,0:0:0:0:
329,192,126088,1,0,0:0:0:0:
256,192,126088,1,0,0:0:0:0:
256,192,126190,1,0,0:0:0:0:
402,192,126190,1,0,0:0:0:0:
475,192,126190,1,0,0:0:0:0:
402,192,126292,1,0,0:0:0:0:
475,192,126292,1,0,0:0:0:0:
256,192,126292,1,0,0:0:0:0:
329,192,126394,1,0,0:0:0:0:
182,192,126394,1,0,0:0:0:0:
109,192,126394,1,0,0:0:0:0:
475,192,126496,1,0,0:0:0:0:
36,192,126496,1,0,0:0:0:0:
256,192,126496,1,0,0:0:0:0:
402,192,126496,1,0,0:0:0:0:
402,192,126598,1,0,0:0:0:0:
475,192,126598,1,0,0:0:0:0:
256,192,126598,1,0,0:0:0:0:
402,192,126700,1,0,0:0:0:0:
475,192,126700,1,0,0:0:0:0:
256,192,126700,1,0,0:0:0:0:
109,192,126802,1,0,0:0:0:0:
329,192,126802,1,0,0:0:0:0:
182,192,126802,1,0,0:0:0:0:
402,192,126904,1,0,0:0:0:0:
475,192,126904,1,0,0:0:0:0:
36,192,126904,1,0,0:0:0:0:
256,192,126904,1,0,0:0:0:0:
256,192,127006,1,0,0:0:0:0:
36,192,127006,1,0,0:0:0:0:
402,192,127006,1,0,0:0:0:0:
36,192,127108,1,0,0:0:0:0:
402,192,127108,1,0,0:0:0:0:
256,192,127108,1,0,0:0:0:0:
109,192,127108,1,0,0:0:0:0:
182,192,127210,1,0,0:0:0:0:
329,192,127210,1,0,0:0:0:0:
475,192,127210,1,0,0:0:0:0:
402,192,127312,1,0,0:0:0:0:
36,192,127312,1,0,0:0:0:0:
256,192,127312,1,0,0:0:0:0:
109,192,127312,1,0,0:0:0:0:
256,192,127414,1,0,0:0:0:0:
109,192,127414,1,0,0:0:0:0:
36,192,127414,1,0,0:0:0:0:
36,192,127516,1,0,0:0:0:0:
109,192,127516,1,0,0:0:0:0:
256,192,127516,1,0,0:0:0:0:
329,192,127618,1,0,0:0:0:0:
402,192,127618,1,0,0:0:0:0:
475,192,127618,1,0,0:0:0:0:
256,192,127720,1,0,0:0:0:0:
109,192,127720,1,0,0:0:0:0:
36,192,127720,1,0,0:0:0:0:
182,192,127720,1,0,0:0:0:0:
109,192,127822,1,0,0:0:0:0:
36,192,127822,1,0,0:0:0:0:
182,192,127822,1,0,0:0:0:0:
182,192,127925,1,0,0:0:0:0:
109,192,127925,1,0,0:0:0:0:
36,192,127925,1,0,0:0:0:0:
256,192,128027,1,0,0:0:0:0:
475,192,128027,1,0,0:0:0:0:
402,192,128027,1,0,0:0:0:0:
36,192,128129,1,0,0:0:0:0:
109,192,128129,1,0,0:0:0:0:
182,192,128129,1,0,0:0:0:0:
329,192,128129,1,0,0:0:0:0:
109,192,128231,1,0,0:0:0:0:
182,192,128231,1,0,0:0:0:0:
329,192,128231,1,0,0:0:0:0:
109,192,128333,1,0,0:0:0:0:
329,192,128333,1,0,0:0:0:0:
182,192,128333,1,0,0:0:0:0:
36,192,128435,1,0,0:0:0:0:
475,192,128435,1,0,0:0:0:0:
402,192,128435,1,0,0:0:0:0:
109,192,128537,1,0,0:0:0:0:
182,192,128537,1,0,0:0:0:0:
329,192,128537,1,0,0:0:0:0:
256,192,128537,1,0,0:0:0:0:
182,192,128639,1,0,0:0:0:0:
256,192,128639,1,0,0:0:0:0:
329,192,128639,1,0,0:0:0:0:
182,192,128741,1,0,0:0:0:0:
256,192,128741,1,0,0:0:0:0:
329,192,128741,1,0,0:0:0:0:
475,192,128843,1,0,0:0:0:0:
109,192,128843,1,0,0:0:0:0:
36,192,128843,1,0,0:0:0:0:
256,192,128945,1,0,0:0:0:0:
329,192,128945,1,0,0:0:0:0:
402,192,128945,1,0,0:0:0:0:
182,192,128945,1,0,0:0:0:0:
402,192,129047,1,0,0:0:0:0:
329,192,129047,1,0,0:0:0:0:
182,192,129047,1,0,0:0:0:0:
329,192,129149,1,0,0:0:0:0:
402,192,129149,1,0,0:0:0:0:
182,192,129149,1,0,0:0:0:0:
109,192,129251,1,0,0:0:0:0:
36,192,129251,1,0,0:0:0:0:
256,192,129251,1,0,0:0:0:0:
475,192,129353,1,0,0:0:0:0:
402,192,129353,1,0,0:0:0:0:
182,192,129387,1,0,0:0:0:0:
256,192,129421,1,0,0:0:0:0:
329,192,129455,1,0,0:0:0:0:
402,192,129489,1,0,0:0:0:0:
475,192,129523,1,0,0:0:0:0:
109,192,129523,1,0,0:0:0:0:
182,192,129557,1,0,0:0:0:0:
256,192,129591,1,0,0:0:0:0:
329,192,129625,1,0,0:0:0:0:
402,192,129659,1,0,0:0:0:0:
475,192,129693,1,0,0:0:0:0:
36,192,129693,1,0,0:0:0:0:
109,192,129727,1,0,0:0:0:0:
182,192,129761,1,0,0:0:0:0:
256,192,129795,1,0,0:0:0:0:
329,192,129829,1,0,0:0:0:0:
402,192,129863,1,0,0:0:0:0:
36,192,129863,1,0,0:0:0:0:
109,192,129897,1,0,0:0:0:0:
182,192,129931,1,0,0:0:0:0:
256,192,129965,1,0,0:0:0:0:
329,192,129999,1,0,0:0:0:0:
475,192,130033,1,0,0:0:0:0:
36,192,130033,1,0,0:0:0:0:
109,192,130067,1,0,0:0:0:0:
182,192,130101,1,0,0:0:0:0:
256,192,130135,1,0,0:0:0:0:
402,192,130169,1,0,0:0:0:0:
475,192,130203,1,0,0:0:0:0:
36,192,130203,1,0,0:0:0:0:
109,192,130237,1,0,0:0:0:0:
182,192,130271,1,0,0:0:0:0:
329,192,130305,1,0,0:0:0:0:
402,192,130339,1,0,0:0:0:0:
475,192,130373,1,0,0:0:0:0:
36,192,130373,1,0,0:0:0:0:
109,192,130408,1,0,0:0:0:0:
256,192,130442,1,0,0:0:0:0:
329,192,130476,1,0,0:0:0:0:
402,192,130510,1,0,0:0:0:0:
475,192,130544,1,0,0:0:0:0:
36,192,130544,1,0,0:0:0:0:
182,192,130578,1,0,0:0:0:0:
256,192,130612,1,0,0:0:0:0:
329,192,130646,1,0,0:0:0:0:
402,192,130680,1,0,0:0:0:0:
475,192,130714,1,0,0:0:0:0:
109,192,130714,1,0,0:0:0:0:
182,192,130748,1,0,0:0:0:0:
256,192,130782,1,0,0:0:0:0:
329,192,130816,1,0,0:0:0:0:
402,192,130850,1,0,0:0:0:0:
475,192,130884,1,0,0:0:0:0:
36,192,130884,1,0,0:0:0:0:
109,192,130918,1,0,0:0:0:0:
182,192,130952,1,0,0:0:0:0:
256,192,130986,128,0,131394:0:0:0:0:
329,192,130986,128,0,131394:0:0:0:0:
182,192,131088,128,0,131394:0:0:0:0:
475,192,131190,128,0,131598:0:0:0:0:
402,192,131190,128,0,131598:0:0:0:0:
109,192,131292,128,0,131598:0:0:0:0:
36,192,131292,128,0,131598:0:0:0:0:
329,192,131598,128,0,131904:0:0:0:0:
256,192,131598,128,0,131904:0:0:0:0:
182,192,131598,128,0,131904:0:0:0:0:
109,192,131904,128,0,132006:0:0:0:0:
256,192,132006,128,0,132108:0:0:0:0:
182,192,132108,128,0,132210:0:0:0:0:
402,192,132210,128,0,132414:0:0:0:0:
475,192,132210,128,0,132414:0:0:0:0:
36,192,132414,128,0,132618:0:0:0:0:
109,192,132414,128,0,132618:0:0:0:0:
182,192,132516,128,0,132618:0:0:0:0:
256,192,132516,128,0,132618:0:0:0:0:
402,192,132618,1,0,0:0:0:0:
475,192,132618,1,0,0:0:0:0:
329,192,132618,1,0,0:0:0:0:
475,192,132822,1,0,0:0:0:0:
256,192,132822,1,0,0:0:0:0:
109,192,132822,1,0,0:0:0:0:
36,192,132822,1,0,0:0:0:0:
182,192,133027,1,0,0:0:0:0:
402,192,133027,1,0,0:0:0:0:
36,192,133027,1,0,0:0:0:0:
256,192,133027,128,0,133231:0:0:0:0:
329,192,133129,128,0,133231:0:0:0:0:
109,192,133231,128,0,133435:0:0:0:0:
36,192,133231,128,0,133435:0:0:0:0:
402,192,133231,1,0,0:0:0:0:
475,192,133231,1,0,0:0:0:0:
182,192,133333,1,0,0:0:0:0:
256,192,133333,1,0,0:0:0:0:
329,192,133435,128,0,133639:0:0:0:0:
402,192,133435,128,0,133639:0:0:0:0:
256,192,133435,1,0,0:0:0:0:
182,192,133435,1,0,0:0:0:0:
475,192,133435,1,0,0:0:0:0:
36,192,133639,128,0,133843:0:0:0:0:
109,192,133639,128,0,133843:0:0:0:0:
256,192,133741,128,0,133843:0:0:0:0:
182,192,133741,128,0,133843:0:0:0:0:
402,192,133741,1,0,0:0:0:0:
475,192,133741,1,0,0:0:0:0:
329,192,133843,1,0,0:0:0:0:
402,192,133843,1,0,0:0:0:0:
475,192,133843,1,0,0:0:0:0:
475,192,133996,1,0,0:0:0:0:
402,192,134021,1,0,0:0:0:0:
36,192,134047,1,0,0:0:0:0:
329,192,134047,1,0,0:0:0:0:
109,192,134072,1,0,0:0:0:0:
182,192,134098,1,0,0:0:0:0:
475,192,134123,1,0,0:0:0:0:
36,192,134149,1,0,0:0:0:0:
402,192,134149,1,0,0:0:0:0:
256,192,134149,1,0,0:0:0:0:
329,192,134251,1,0,0:0:0:0:
109,192,134251,1,0,0:0:0:0:
36,192,134251,1,0,0:0:0:0:
402,192,134251,1,0,0:0:0:0:
256,192,134251,1,0,0:0:0:0:
182,192,134455,1,0,0:0:0:0:
475,192,134455,128,0,134863:0:0:0:0:
256,192,134455,1,0,0:0:0:0:
329,192,134455,1,0,0:0:0:0:
182,192,134659,1,0,0:0:0:0:
109,192,134659,1,0,0:0:0:0:
36,192,134659,1,0,0:0:0:0:
329,192,134761,1,0,0:0:0:0:
402,192,134761,1,0,0:0:0:0:
109,192,134863,1,0,0:0:0:0:
329,192,134863,1,0,0:0:0:0:
182,192,134863,1,0,0:0:0:0:
402,192,134863,1,0,0:0:0:0:
256,192,135067,1,0,0:0:0:0:
36,192,135067,1,0,0:0:0:0:
329,192,135067,1,0,0:0:0:0:
109,192,135169,1,0,0:0:0:0:
475,192,135169,1,0,0:0:0:0:
402,192,135169,1,0,0:0:0:0:
256,192,135271,1,0,0:0:0:0:
329,192,135271,1,0,0:0:0:0:
475,192,135373,1,0,0:0:0:0:
402,192,135373,1,0,0:0:0:0:
182,192,135476,1,0,0:0:0:0:
109,192,135476,1,0,0:0:0:0:
36,192,135476,1,0,0:0:0:0:
182,192,135578,1,0,0:0:0:0:
402,192,135680,1,0,0:0:0:0:
402,192,135782,1,0,0:0:0:0:
329,192,135884,1,0,0:0:0:0:
36,192,135884,1,0,0:0:0:0:
256,192,135884,1,0,0:0:0:0:
109,192,135884,1,0,0:0:0:0:
182,192,135884,1,0,0:0:0:0:
109,192,136088,1,0,0:0:0:0:
182,192,136088,1,0,0:0:0:0:
329,192,136139,1,0,0:0:0:0:
402,192,136139,1,0,0:0:0:0:
109,192,136190,1,0,0:0:0:0:
182,192,136190,1,0,0:0:0:0:
329,192,136241,1,0,0:0:0:0:
402,192,136241,1,0,0:0:0:0:
109,192,136292,1,0,0:0:0:0:
36,192,136292,1,0,0:0:0:0:
182,192,136292,1,0,0:0:0:0:
256,192,136292,1,0,0:0:0:0:
329,192,136496,1,0,0:0:0:0:
402,192,136496,1,0,0:0:0:0:
475,192,136496,1,0,0:0:0:0:
182,192,136496,1,0,0:0:0:0:
182,192,136598,1,0,0:0:0:0:
329,192,136598,1,0,0:0:0:0:
256,192,136700,1,0,0:0:0:0:
109,192,136700,1,0,0:0:0:0:
36,192,136700,1,0,0:0:0:0:
402,192,136700,1,0,0:0:0:0:
36,192,136802,1,0,0:0:0:0:
109,192,136802,1,0,0:0:0:0:
182,192,136904,1,0,0:0:0:0:
329,192,136904,1,0,0:0:0:0:
402,192,136904,1,0,0:0:0:0:
475,192,136904,1,0,0:0:0:0:
329,192,137006,1,0,0:0:0:0:
256,192,137108,1,0,0:0:0:0:
182,192,137108,1,0,0:0:0:0:
109,192,137108,1,0,0:0:0:0:
36,192,137108,1,0,0:0:0:0:
475,192,137210,128,0,137312:0:0:0:0:
402,192,137210,128,0,137312:0:0:0:0:
402,192,137414,1,0,0:0:0:0:
329,192,137414,1,0,0:0:0:0:
256,192,137516,1,0,0:0:0:0:
182,192,137516,1,0,0:0:0:0:
329,192,137516,1,0,0:0:0:0:
402,192,137516,1,0,0:0:0:0:
36,192,137516,1,0,0:0:0:0:
109,192,137720,1,0,0:0:0:0:
182,192,137720,1,0,0:0:0:0:
475,192,137720,1,0,0:0:0:0:
402,192,137771,1,0,0:0:0:0:
256,192,137771,1,0,0:0:0:0:
329,192,137822,1,0,0:0:0:0:
36,192,137822,1,0,0:0:0:0:
109,192,137873,1,0,0:0:0:0:
475,192,137873,1,0,0:0:0:0:
182,192,137925,1,0,0:0:0:0:
402,192,137925,1,0,0:0:0:0:
256,192,137925,1,0,0:0:0:0:
329,192,138027,1,0,0:0:0:0:
36,192,138027,1,0,0:0:0:0:
109,192,138027,1,0,0:0:0:0:
182,192,138129,1,0,0:0:0:0:
402,192,138129,1,0,0:0:0:0:
475,192,138129,1,0,0:0:0:0:
256,192,138129,1,0,0:0:0:0:
329,192,138333,1,0,0:0:0:0:
402,192,138333,1,0,0:0:0:0:
182,192,138333,1,0,0:0:0:0:
36,192,138333,1,0,0:0:0:0:
256,192,138435,1,0,0:0:0:0:
109,192,138435,1,0,0:0:0:0:
182,192,138537,1,0,0:0:0:0:
329,192,138537,1,0,0:0:0:0:
182,192,138639,1,0,0:0:0:0:
109,192,138639,1,0,0:0:0:0:
329,192,138741,1,0,0:0:0:0:
475,192,138741,1,0,0:0:0:0:
36,192,138741,1,0,0:0:0:0:
256,192,138766,1,0,0:0:0:0:
182,192,138792,1,0,0:0:0:0:
109,192,138817,1,0,0:0:0:0:
36,192,138843,1,0,0:0:0:0:
402,192,138843,1,0,0:0:0:0:
329,192,138868,1,0,0:0:0:0:
256,192,138894,1,0,0:0:0:0:
182,192,138919,1,0,0:0:0:0:
475,192,138945,1,0,0:0:0:0:
402,192,138945,1,0,0:0:0:0:
36,192,138996,1,0,0:0:0:0:
109,192,139013,1,0,0:0:0:0:
256,192,139047,1,0,0:0:0:0:
329,192,139081,1,0,0:0:0:0:
402,192,139115,1,0,0:0:0:0:
475,192,139149,1,0,0:0:0:0:
182,192,139149,1,0,0:0:0:0:
36,192,139149,1,0,0:0:0:0:
109,192,139149,1,0,0:0:0:0:
329,192,139353,1,0,0:0:0:0:
256,192,139353,1,0,0:0:0:0:
402,192,139353,1,0,0:0:0:0:
182,192,139455,1,0,0:0:0:0:
475,192,139455,1,0,0:0:0:0:
402,192,139557,1,0,0:0:0:0:
36,192,139557,1,0,0:0:0:0:
109,192,139659,1,0,0:0:0:0:
475,192,139659,1,0,0:0:0:0:
256,192,139659,128,0,139761:0:0:0:0:
182,192,139659,128,0,139761:0:0:0:0:
329,192,139761,1,0,0:0:0:0:
256,192,139863,128,0,139965:0:0:0:0:
182,192,139863,128,0,139965:0:0:0:0:
329,192,139965,1,0,0:0:0:0:
109,192,139965,1,0,0:0:0:0:
36,192,139965,1,0,0:0:0:0:
475,192,139965,1,0,0:0:0:0:
329,192,140169,128,0,140373:0:0:0:0:
402,192,140271,128,0,140373:0:0:0:0:
256,192,140373,1,0,0:0:0:0:
109,192,140373,1,0,0:0:0:0:
36,192,140373,1,0,0:0:0:0:
475,192,140373,1,0,0:0:0:0:
109,192,140527,1,0,0:0:0:0:
256,192,140552,1,0,0:0:0:0:
329,192,140578,1,0,0:0:0:0:
36,192,140603,1,0,0:0:0:0:
109,192,140629,1,0,0:0:0:0:
182,192,140654,1,0,0:0:0:0:
475,192,140680,1,0,0:0:0:0:
402,192,140705,1,0,0:0:0:0:
329,192,140731,1,0,0:0:0:0:
109,192,140756,1,0,0:0:0:0:
256,192,140756,1,0,0:0:0:0:
36,192,140782,1,0,0:0:0:0:
182,192,140782,1,0,0:0:0:0:
475,192,140782,1,0,0:0:0:0:
256,192,140986,1,0,0:0:0:0:
109,192,140986,1,0,0:0:0:0:
475,192,140986,1,0,0:0:0:0:
329,192,140986,1,0,0:0:0:0:
182,192,141190,1,0,0:0:0:0:
109,192,141190,1,0,0:0:0:0:
36,192,141190,1,0,0:0:0:0:
329,192,141190,1,0,0:0:0:0:
109,192,141394,1,0,0:0:0:0:
329,192,141394,1,0,0:0:0:0:
402,192,141394,1,0,0:0:0:0:
182,192,141394,1,0,0:0:0:0:
256,192,141496,1,0,0:0:0:0:
475,192,141496,1,0,0:0:0:0:
329,192,141598,1,0,0:0:0:0:
182,192,141598,1,0,0:0:0:0:
256,192,141700,1,0,0:0:0:0:
402,192,141700,1,0,0:0:0:0:
36,192,141700,1,0,0:0:0:0:
109,192,141700,1,0,0:0:0:0:
329,192,141802,1,0,0:0:0:0:
402,192,141904,1,0,0:0:0:0:
182,192,141904,1,0,0:0:0:0:
256,192,142006,1,0,0:0:0:0:
109,192,142006,1,0,0:0:0:0:
475,192,142006,1,0,0:0:0:0:
329,192,142006,1,0,0:0:0:0:
329,192,142108,1,0,0:0:0:0:
329,192,142210,1,0,0:0:0:0:
329,192,142312,1,0,0:0:0:0:
329,192,142414,1,0,0:0:0:0:
182,192,142414,1,0,0:0:0:0:
109,192,142414,1,0,0:0:0:0:
475,192,142414,1,0,0:0:0:0:
256,192,142516,1,0,0:0:0:0:
36,192,142516,1,0,0:0:0:0:
329,192,142618,1,0,0:0:0:0:
402,192,142618,1,0,0:0:0:0:
182,192,142669,1,0,0:0:0:0:
109,192,142669,1,0,0:0:0:0:
329,192,142720,1,0,0:0:0:0:
402,192,142720,1,0,0:0:0:0:
182,192,142771,1,0,0:0:0:0:
109,192,142771,1,0,0:0:0:0:
256,192,142822,1,0,0:0:0:0:
329,192,142822,1,0,0:0:0:0:
475,192,142822,1,0,0:0:0:0:
402,192,142822,1,0,0:0:0:0:
182,192,142925,1,0,0:0:0:0:
36,192,142925,1,0,0:0:0:0:
109,192,143027,1,0,0:0:0:0:
256,192,143027,1,0,0:0:0:0:
109,192,143129,1,0,0:0:0:0:
402,192,143129,1,0,0:0:0:0:
109,192,143231,1,0,0:0:0:0:
329,192,143231,1,0,0:0:0:0:
256,192,143231,1,0,0:0:0:0:
36,192,143231,1,0,0:0:0:0:
402,192,143333,1,0,0:0:0:0:
475,192,143333,1,0,0:0:0:0:
329,192,143435,1,0,0:0:0:0:
256,192,143435,1,0,0:0:0:0:
109,192,143435,1,0,0:0:0:0:
256,192,143537,1,0,0:0:0:0:
329,192,143537,1,0,0:0:0:0:
182,192,143639,1,0,0:0:0:0:
109,192,143639,1,0,0:0:0:0:
182,192,143741,1,0,0:0:0:0:
109,192,143741,1,0,0:0:0:0:
182,192,143843,1,0,0:0:0:0:
109,192,143843,1,0,0:0:0:0:
402,192,143945,1,0,0:0:0:0:
475,192,143945,1,0,0:0:0:0:
402,192,144047,1,0,0:0:0:0:
475,192,144047,1,0,0:0:0:0:
402,192,144149,1,0,0:0:0:0:
475,192,144149,1,0,0:0:0:0:
182,192,144251,1,0,0:0:0:0:
36,192,144251,1,0,0:0:0:0:
109,192,144251,1,0,0:0:0:0:
256,192,144557,1,0,0:0:0:0:
402,192,144557,1,0,0:0:0:0:
475,192,144557,1,0,0:0:0:0:
329,192,144863,1,0,0:0:0:0:
182,192,144863,1,0,0:0:0:0:
36,192,144863,1,0,0:0:0:0:
182,192,145169,1,0,0:0:0:0:
329,192,145169,1,0,0:0:0:0:
402,192,145169,1,0,0:0:0:0:
402,192,145271,1,0,0:0:0:0:
475,192,145271,1,0,0:0:0:0:
36,192,145271,1,0,0:0:0:0:
109,192,145373,1,0,0:0:0:0:
182,192,145373,1,0,0:0:0:0:
329,192,145373,1,0,0:0:0:0:
256,192,145476,1,0,0:0:0:0:
36,192,145476,1,0,0:0:0:0:
182,192,145578,1,0,0:0:0:0:
402,192,145578,1,0,0:0:0:0:
256,192,145680,1,0,0:0:0:0:
329,192,145680,1,0,0:0:0:0:
36,192,145680,1,0,0:0:0:0:
109,192,145680,1,0,0:0:0:0:
475,192,145680,1,0,0:0:0:0:
402,192,145782,1,0,0:0:0:0:
182,192,145782,1,0,0:0:0:0:
109,192,145884,1,0,0:0:0:0:
256,192,145986,1,0,0:0:0:0:
329,192,145986,1,0,0:0:0:0:
475,192,145986,1,0,0:0:0:0:
36,192,145986,1,0,0:0:0:0:
182,192,146088,1,0,0:0:0:0:
475,192,146088,1,0,0:0:0:0:
109,192,146190,1,0,0:0:0:0:
402,192,146190,1,0,0:0:0:0:
329,192,146190,1,0,0:0:0:0:
256,192,146292,1,0,0:0:0:0:
182,192,146292,1,0,0:0:0:0:
36,192,146292,1,0,0:0:0:0:
329,192,146394,1,0,0:0:0:0:
402,192,146496,1,0,0:0:0:0:
475,192,146496,1,0,0:0:0:0:
36,192,146496,1,0,0:0:0:0:
109,192,146496,1,0,0:0:0:0:
182,192,146598,1,0,0:0:0:0:
329,192,146598,1,0,0:0:0:0:
256,192,146700,1,0,0:0:0:0:
402,192,146700,1,0,0:0:0:0:
475,192,146700,1,0,0:0:0:0:
36,192,146802,1,0,0:0:0:0:
109,192,146802,1,0,0:0:0:0:
182,192,146904,1,0,0:0:0:0:
402,192,146904,1,0,0:0:0:0:
475,192,146904,1,0,0:0:0:0:
109,192,146904,1,0,0:0:0:0:
36,192,146904,1,0,0:0:0:0:
402,192,147006,1,0,0:0:0:0:
475,192,147006,1,0,0:0:0:0:
256,192,147108,1,0,0:0:0:0:
329,192,147108,1,0,0:0:0:0:
182,192,147134,1,0,0:0:0:0:
109,192,147159,1,0,0:0:0:0:
36,192,147185,1,0,0:0:0:0:
475,192,147210,1,0,0:0:0:0:
402,192,147236,1,0,0:0:0:0:
329,192,147261,1,0,0:0:0:0:
182,192,147287,1,0,0:0:0:0:
109,192,147312,1,0,0:0:0:0:
256,192,147312,1,0,0:0:0:0:
36,192,147312,1,0,0:0:0:0:
475,192,147312,1,0,0:0:0:0:
402,192,147414,1,0,0:0:0:0:
329,192,147516,1,0,0:0:0:0:
256,192,147516,1,0,0:0:0:0:
36,192,147516,1,0,0:0:0:0:
109,192,147516,1,0,0:0:0:0:
475,192,147618,1,0,0:0:0:0:
182,192,147618,1,0,0:0:0:0:
402,192,147720,1,0,0:0:0:0:
109,192,147720,1,0,0:0:0:0:
329,192,147720,1,0,0:0:0:0:
256,192,147720,1,0,0:0:0:0:
36,192,147822,1,0,0:0:0:0:
402,192,147822,1,0,0:0:0:0:
329,192,147822,1,0,0:0:0:0:
109,192,147925,1,0,0:0:0:0:
256,192,147925,1,0,0:0:0:0:
182,192,148027,1,0,0:0:0:0:
475,192,148027,1,0,0:0:0:0:
402,192,148129,1,0,0:0:0:0:
329,192,148129,1,0,0:0:0:0:
256,192,148129,1,0,0:0:0:0:
36,192,148129,1,0,0:0:0:0:
109,192,148231,1,0,0:0:0:0:
475,192,148231,1,0,0:0:0:0:
182,192,148333,1,0,0:0:0:0:
256,192,148435,1,0,0:0:0:0:
329,192,148435,1,0,0:0:0:0:
402,192,148435,1,0,0:0:0:0:
36,192,148435,1,0,0:0:0:0:
182,192,148537,1,0,0:0:0:0:
109,192,148537,1,0,0:0:0:0:
475,192,148537,1,0,0:0:0:0:
329,192,148639,1,0,0:0:0:0:
256,192,148639,1,0,0:0:0:0:
109,192,148741,1,0,0:0:0:0:
402,192,148792,1,0,0:0:0:0:
109,192,148843,1,0,0:0:0:0:
402,192,148894,1,0,0:0:0:0:
402,192,149047,1,0,0:0:0:0:
329,192,149047,1,0,0:0:0:0:
182,192,149098,1,0,0:0:0:0:
109,192,149098,1,0,0:0:0:0:
329,192,149149,1,0,0:0:0:0:
402,192,149149,1,0,0:0:0:0:
182,192,149217,1,0,0:0:0:0:
109,192,149217,1,0,0:0:0:0:
329,192,149285,1,0,0:0:0:0:
402,192,149285,1,0,0:0:0:0:
182,192,149353,1,0,0:0:0:0:
109,192,149353,1,0,0:0:0:0:
36,192,149353,1,0,0:0:0:0:
475,192,149353,1,0,0:0:0:0:
256,192,149455,1,0,0:0:0:0:
329,192,149557,1,0,0:0:0:0:
402,192,149557,1,0,0:0:0:0:
182,192,149659,1,0,0:0:0:0:
475,192,149659,1,0,0:0:0:0:
109,192,149761,1,0,0:0:0:0:
36,192,149761,1,0,0:0:0:0:
329,192,149761,1,0,0:0:0:0:
402,192,149761,1,0,0:0:0:0:
182,192,149863,1,0,0:0:0:0:
256,192,149965,1,0,0:0:0:0:
475,192,149965,128,0,150016:0:0:0:0:
329,192,150016,128,0,150067:0:0:0:0:
475,192,150067,128,0,150118:0:0:0:0:
36,192,150067,1,0,0:0:0:0:
109,192,150067,1,0,0:0:0:0:
329,192,150118,128,0,150169:0:0:0:0:
256,192,150169,1,0,0:0:0:0:
182,192,150169,1,0,0:0:0:0:
402,192,150169,1,0,0:0:0:0:
475,192,150169,1,0,0:0:0:0:
109,192,150271,1,0,0:0:0:0:
36,192,150373,1,0,0:0:0:0:
182,192,150373,1,0,0:0:0:0:
256,192,150373,1,0,0:0:0:0:
329,192,150476,1,0,0:0:0:0:
402,192,150476,1,0,0:0:0:0:
475,192,150476,1,0,0:0:0:0:
256,192,150578,1,0,0:0:0:0:
182,192,150578,1,0,0:0:0:0:
475,192,150578,1,0,0:0:0:0:
402,192,150578,1,0,0:0:0:0:
109,192,150578,1,0,0:0:0:0:
36,192,150680,1,0,0:0:0:0:
109,192,150782,1,0,0:0:0:0:
329,192,150782,1,0,0:0:0:0:
182,192,150833,1,0,0:0:0:0:
402,192,150833,1,0,0:0:0:0:
256,192,150884,1,0,0:0:0:0:
36,192,150884,1,0,0:0:0:0:
329,192,150935,1,0,0:0:0:0:
109,192,150935,1,0,0:0:0:0:
475,192,150986,1,0,0:0:0:0:
182,192,150986,1,0,0:0:0:0:
256,192,151037,1,0,0:0:0:0:
329,192,151088,1,0,0:0:0:0:
36,192,151088,1,0,0:0:0:0:
109,192,151088,1,0,0:0:0:0:
402,192,151190,1,0,0:0:0:0:
475,192,151292,1,0,0:0:0:0:
182,192,151292,1,0,0:0:0:0:
256,192,151292,1,0,0:0:0:0:
36,192,151292,1,0,0:0:0:0:
402,192,151394,1,0,0:0:0:0:
329,192,151496,1,0,0:0:0:0:
182,192,151496,1,0,0:0:0:0:
109,192,151496,1,0,0:0:0:0:
182,192,151598,1,0,0:0:0:0:
109,192,151598,1,0,0:0:0:0:
256,192,151700,1,0,0:0:0:0:
329,192,151700,1,0,0:0:0:0:
36,192,151700,1,0,0:0:0:0:
402,192,151802,1,0,0:0:0:0:
109,192,151802,1,0,0:0:0:0:
329,192,151904,1,0,0:0:0:0:
475,192,151904,1,0,0:0:0:0:
182,192,151904,1,0,0:0:0:0:
36,192,152006,1,0,0:0:0:0:
256,192,152006,1,0,0:0:0:0:
402,192,152006,1,0,0:0:0:0:
109,192,152210,1,0,0:0:0:0:
182,192,152210,1,0,0:0:0:0:
402,192,152210,1,0,0:0:0:0:
475,192,152210,1,0,0:0:0:0:
402,192,152312,1,0,0:0:0:0:
475,192,152312,1,0,0:0:0:0:
109,192,152414,1,0,0:0:0:0:
36,192,152414,1,0,0:0:0:0:
182,192,152414,1,0,0:0:0:0:
256,192,152516,1,0,0:0:0:0:
329,192,152516,1,0,0:0:0:0:
475,192,152618,1,0,0:0:0:0:
182,192,152618,1,0,0:0:0:0:
402,192,152720,1,0,0:0:0:0:
256,192,152720,1,0,0:0:0:0:
182,192,152822,1,0,0:0:0:0:
329,192,152822,1,0,0:0:0:0:
256,192,152925,1,0,0:0:0:0:
402,192,152925,1,0,0:0:0:0:
36,192,153027,1,0,0:0:0:0:
182,192,153027,1,0,0:0:0:0:
109,192,153129,1,0,0:0:0:0:
256,192,153129,1,0,0:0:0:0:
182,192,153231,1,0,0:0:0:0:
329,192,153231,1,0,0:0:0:0:
256,192,153333,1,0,0:0:0:0:
475,192,153333,1,0,0:0:0:0:
402,192,153435,1,0,0:0:0:0:
36,192,153435,1,0,0:0:0:0:
329,192,153537,1,0,0:0:0:0:
182,192,153537,1,0,0:0:0:0:
256,192,153639,1,0,0:0:0:0:
109,192,153639,1,0,0:0:0:0:
182,192,153741,1,0,0:0:0:0:
402,192,153741,1,0,0:0:0:0:
329,192,153843,1,0,0:0:0:0:
475,192,153843,1,0,0:0:0:0:
36,192,153843,1,0,0:0:0:0:
109,192,153843,1,0,0:0:0:0:
109,192,153945,1,0,0:0:0:0:
36,192,153945,1,0,0:0:0:0:
402,192,154047,1,0,0:0:0:0:
475,192,154047,1,0,0:0:0:0:
256,192,154047,1,0,0:0:0:0:
182,192,154149,1,0,0:0:0:0:
109,192,154149,1,0,0:0:0:0:
109,192,154251,1,0,0:0:0:0:
256,192,154251,1,0,0:0:0:0:
329,192,154353,1,0,0:0:0:0:
402,192,154353,1,0,0:0:0:0:
402,192,154455,1,0,0:0:0:0:
182,192,154455,1,0,0:0:0:0:
109,192,154557,1,0,0:0:0:0:
36,192,154557,1,0,0:0:0:0:
109,192,154659,1,0,0:0:0:0:
329,192,154659,1,0,0:0:0:0:
475,192,154761,1,0,0:0:0:0:
402,192,154761,1,0,0:0:0:0:
402,192,154863,1,0,0:0:0:0:
182,192,154863,1,0,0:0:0:0:
329,192,154965,1,0,0:0:0:0:
256,192,154965,1,0,0:0:0:0:
256,192,155067,1,0,0:0:0:0:
36,192,155067,1,0,0:0:0:0:
109,192,155169,1,0,0:0:0:0:
182,192,155169,1,0,0:0:0:0:
182,192,155271,1,0,0:0:0:0:
475,192,155271,1,0,0:0:0:0:
402,192,155373,1,0,0:0:0:0:
329,192,155373,1,0,0:0:0:0:
36,192,155476,1,0,0:0:0:0:
109,192,155476,1,0,0:0:0:0:
475,192,155476,1,0,0:0:0:0:
182,192,155510,1,0,0:0:0:0:
256,192,155544,1,0,0:0:0:0:
329,192,155578,1,0,0:0:0:0:
402,192,155612,1,0,0:0:0:0:
475,192,155646,1,0,0:0:0:0:
109,192,155680,1,0,0:0:0:0:
182,192,155680,1,0,0:0:0:0:
256,192,155680,1,0,0:0:0:0:
36,192,155714,1,0,0:0:0:0:
402,192,155748,1,0,0:0:0:0:
329,192,155782,1,0,0:0:0:0:
256,192,155816,1,0,0:0:0:0:
182,192,155850,1,0,0:0:0:0:
109,192,155884,1,0,0:0:0:0:
36,192,155884,1,0,0:0:0:0:
475,192,155884,1,0,0:0:0:0:
402,192,155918,1,0,0:0:0:0:
329,192,155952,1,0,0:0:0:0:
256,192,155986,1,0,0:0:0:0:
182,192,156020,1,0,0:0:0:0:
109,192,156054,1,0,0:0:0:0:
36,192,156088,1,0,0:0:0:0:
475,192,156088,1,0,0:0:0:0:
402,192,156088,1,0,0:0:0:0:
329,192,156122,1,0,0:0:0:0:
256,192,156156,1,0,0:0:0:0:
182,192,156190,1,0,0:0:0:0:
109,192,156224,1,0,0:0:0:0:
36,192,156258,1,0,0:0:0:0:
182,192,156292,1,0,0:0:0:0:
256,192,156292,1,0,0:0:0:0:
329,192,156326,1,0,0:0:0:0:
402,192,156360,1,0,0:0:0:0:
475,192,156394,1,0,0:0:0:0:
36,192,156428,1,0,0:0:0:0:
109,192,156462,1,0,0:0:0:0:
182,192,156496,1,0,0:0:0:0:
329,192,156496,1,0,0:0:0:0:
256,192,156496,1,0,0:0:0:0:
402,192,156530,1,0,0:0:0:0:
475,192,156564,1,0,0:0:0:0:
36,192,156598,1,0,0:0:0:0:
109,192,156632,1,0,0:0:0:0:
182,192,156666,1,0,0:0:0:0:
256,192,156700,1,0,0:0:0:0:
329,192,156700,1,0,0:0:0:0:
256,192,156802,1,0,0:0:0:0:
329,192,156802,1,0,0:0:0:0:
475,192,156904,1,0,0:0:0:0:
402,192,156904,1,0,0:0:0:0:
256,192,157006,1,0,0:0:0:0:
402,192,157006,1,0,0:0:0:0:
329,192,157006,1,0,0:0:0:0:
109,192,157006,1,0,0:0:0:0:
36,192,157006,1,0,0:0:0:0:
475,192,157006,1,0,0:0:0:0:
182,192,157006,1,0,0:0:0:0:
109,192,157108,1,0,0:0:0:0:
36,192,157108,1,0,0:0:0:0:
329,192,157210,1,0,0:0:0:0:
182,192,157210,1,0,0:0:0:0:
329,192,157312,1,0,0:0:0:0:
329,192,157414,1,0,0:0:0:0:
329,192,157618,1,0,0:0:0:0:
329,192,157720,1,0,0:0:0:0:
329,192,157925,1,0,0:0:0:0:
182,192,158129,1,0,0:0:0:0:
109,192,158129,1,0,0:0:0:0:
36,192,158129,1,0,0:0:0:0:
329,192,158129,1,0,0:0:0:0:
256,192,158333,1,0,0:0:0:0:
475,192,158333,1,0,0:0:0:0:
109,192,158333,1,0,0:0:0:0:
402,192,158333,1,0,0:0:0:0:
329,192,158537,1,0,0:0:0:0:
36,192,158537,1,0,0:0:0:0:
182,192,158537,1,0,0:0:0:0:
402,192,158537,1,0,0:0:0:0:
109,192,158741,1,0,0:0:0:0:
256,192,158741,1,0,0:0:0:0:
329,192,158741,1,0,0:0:0:0:
475,192,158741,128,0,158945:0:0:0:0:
402,192,158843,128,0,159047:0:0:0:0:
182,192,158843,1,0,0:0:0:0:
329,192,158945,128,0,159149:0:0:0:0:
109,192,158945,1,0,0:0:0:0:
36,192,159047,128,0,159251:0:0:0:0:
182,192,159149,128,0,159353:0:0:0:0:
109,192,159149,1,0,0:0:0:0:
402,192,159149,1,0,0:0:0:0:
256,192,159149,1,0,0:0:0:0:
256,192,159251,128,0,159455:0:0:0:0:
475,192,159251,1,0,0:0:0:0:
402,192,159353,128,0,159557:0:0:0:0:
109,192,159353,1,0,0:0:0:0:
475,192,159455,128,0,159659:0:0:0:0:
182,192,159455,1,0,0:0:0:0:
109,192,159557,128,0,159761:0:0:0:0:
36,192,159557,1,0,0:0:0:0:
256,192,159557,1,0,0:0:0:0:
329,192,159557,1,0,0:0:0:0:
182,192,159659,128,0,159863:0:0:0:0:
402,192,159659,1,0,0:0:0:0:
256,192,159761,128,0,159965:0:0:0:0:
475,192,159761,1,0,0:0:0:0:
402,192,159863,128,0,160067:0:0:0:0:
109,192,159863,1,0,0:0:0:0:
36,192,159965,128,0,160169:0:0:0:0:
182,192,159965,1,0,0:0:0:0:
475,192,159965,1,0,0:0:0:0:
329,192,159965,1,0,0:0:0:0:
109,192,160067,128,0,160271:0:0:0:0:
256,192,160067,1,0,0:0:0:0:
329,192,160169,128,0,160373:0:0:0:0:
402,192,160169,1,0,0:0:0:0:
475,192,160271,128,0,160476:0:0:0:0:
182,192,160271,1,0,0:0:0:0:
402,192,160373,128,0,160578:0:0:0:0:
256,192,160373,1,0,0:0:0:0:
109,192,160373,1,0,0:0:0:0:
36,192,160373,1,0,0:0:0:0:
329,192,160476,128,0,160680:0:0:0:0:
182,192,160476,1,0,0:0:0:0:
256,192,160578,128,0,160782:0:0:0:0:
36,192,160578,1,0,0:0:0:0:
109,192,160680,128,0,160884:0:0:0:0:
475,192,160680,1,0,0:0:0:0:
402,192,160782,128,0,160986:0:0:0:0:
36,192,160782,1,0,0:0:0:0:
329,192,160782,1,0,0:0:0:0:
182,192,160782,1,0,0:0:0:0:
475,192,160884,128,0,161088:0:0:0:0:
256,192,160884,1,0,0:0:0:0:
182,192,160986,128,0,161190:0:0:0:0:
109,192,160986,1,0,0:0:0:0:
256,192,161088,128,0,161292:0:0:0:0:
36,192,161088,1,0,0:0:0:0:
402,192,161190,128,0,161394:0:0:0:0:
109,192,161190,1,0,0:0:0:0:
475,192,161190,1,0,0:0:0:0:
329,192,161190,1,0,0:0:0:0:
36,192,161292,128,0,161496:0:0:0:0:
182,192,161292,1,0,0:0:0:0:
109,192,161394,128,0,161598:0:0:0:0:
256,192,161394,1,0,0:0:0:0:
182,192,161496,128,0,161700:0:0:0:0:
329,192,161496,1,0,0:0:0:0:
475,192,161598,128,0,161802:0:0:0:0:
256,192,161598,1,0,0:0:0:0:
402,192,161598,1,0,0:0:0:0:
36,192,161598,1,0,0:0:0:0:
109,192,161700,128,0,161904:0:0:0:0:
329,192,161700,1,0,0:0:0:0:
256,192,161802,128,0,162006:0:0:0:0:
182,192,161802,1,0,0:0:0:0:
402,192,161904,128,0,162108:0:0:0:0:
329,192,161904,1,0,0:0:0:0:
475,192,162006,128,0,162210:0:0:0:0:
36,192,162006,1,0,0:0:0:0:
182,192,162006,1,0,0:0:0:0:
109,192,162006,1,0,0:0:0:0:
329,192,162108,128,0,162312:0:0:0:0:
256,192,162108,1,0,0:0:0:0:
182,192,162210,128,0,162414:0:0:0:0:
109,192,162210,1,0,0:0:0:0:
256,192,162312,128,0,162516:0:0:0:0:
475,192,162312,1,0,0:0:0:0:
109,192,162414,128,0,162618:0:0:0:0:
329,192,162414,1,0,0:0:0:0:
402,192,162414,1,0,0:0:0:0:
36,192,162414,1,0,0:0:0:0:
475,192,162516,128,0,162720:0:0:0:0:
182,192,162516,1,0,0:0:0:0:
402,192,162618,128,0,162822:0:0:0:0:
256,192,162618,1,0,0:0:0:0:
329,192,162720,128,0,162925:0:0:0:0:
109,192,162720,1,0,0:0:0:0:
36,192,162822,128,0,163027:0:0:0:0:
256,192,162822,1,0,0:0:0:0:
475,192,162822,1,0,0:0:0:0:
182,192,162822,1,0,0:0:0:0:
109,192,162925,128,0,163129:0:0:0:0:
402,192,162925,1,0,0:0:0:0:
256,192,163027,128,0,163231:0:0:0:0:
475,192,163027,1,0,0:0:0:0:
329,192,163129,128,0,163333:0:0:0:0:
36,192,163129,1,0,0:0:0:0:
475,192,163231,128,0,163435:0:0:0:0:
402,192,163231,1,0,0:0:0:0:
182,192,163231,1,0,0:0:0:0:
109,192,163333,128,0,163537:0:0:0:0:
256,192,163333,1,0,0:0:0:0:
36,192,163435,128,0,163639:0:0:0:0:
329,192,163435,1,0,0:0:0:0:
402,192,163537,128,0,163741:0:0:0:0:
475,192,163537,1,0,0:0:0:0:
329,192,163639,128,0,163843:0:0:0:0:
109,192,163639,1,0,0:0:0:0:
182,192,163639,1,0,0:0:0:0:
256,192,163741,128,0,163945:0:0:0:0:
475,192,163741,1,0,0:0:0:0:
182,192,163843,128,0,164047:0:0:0:0:
402,192,163843,1,0,0:0:0:0:
36,192,163945,128,0,164149:0:0:0:0:
329,192,163945,1,0,0:0:0:0:
109,192,164047,128,0,164251:0:0:0:0:
256,192,164047,1,0,0:0:0:0:
402,192,164047,1,0,0:0:0:0:
475,192,164047,1,0,0:0:0:0:
329,192,164149,128,0,164353:0:0:0:0:
182,192,164149,1,0,0:0:0:0:
402,192,164251,128,0,164455:0:0:0:0:
256,192,164251,1,0,0:0:0:0:
475,192,164353,128,0,164557:0:0:0:0:
36,192,164353,1,0,0:0:0:0:
182,192,164455,128,0,164659:0:0:0:0:
256,192,164455,1,0,0:0:0:0:
329,192,164455,1,0,0:0:0:0:
109,192,164455,1,0,0:0:0:0:
36,192,164557,128,0,164761:0:0:0:0:
402,192,164557,1,0,0:0:0:0:
329,192,164659,128,0,164863:0:0:0:0:
475,192,164659,1,0,0:0:0:0:
256,192,164761,128,0,164965:0:0:0:0:
402,192,164761,1,0,0:0:0:0:
182,192,164863,128,0,165067:0:0:0:0:
36,192,164863,1,0,0:0:0:0:
475,192,164863,1,0,0:0:0:0:
109,192,164965,128,0,165169:0:0:0:0:
329,192,164965,1,0,0:0:0:0:
36,192,165067,128,0,165271:0:0:0:0:
256,192,165067,1,0,0:0:0:0:
182,192,165169,1,0,0:0:0:0:
329,192,165271,1,0,0:0:0:0:
475,192,165271,128,0,165476:0:0:0:0:
109,192,165271,1,0,0:0:0:0:
256,192,165271,1,0,0:0:0:0:
182,192,165373,1,0,0:0:0:0:
402,192,165373,128,0,165578:0:0:0:0:
109,192,165476,1,0,0:0:0:0:
329,192,165476,128,0,165680:0:0:0:0:
36,192,165578,128,0,165782:0:0:0:0:
402,192,165680,1,0,0:0:0:0:
256,192,165680,1,0,0:0:0:0:
182,192,165680,128,0,165884:0:0:0:0:
109,192,165680,1,0,0:0:0:0:
475,192,165782,1,0,0:0:0:0:
256,192,165782,128,0,165986:0:0:0:0:
109,192,165884,1,0,0:0:0:0:
402,192,165884,128,0,166088:0:0:0:0:
182,192,165986,1,0,0:0:0:0:
475,192,165986,128,0,166190:0:0:0:0:
256,192,166088,1,0,0:0:0:0:
329,192,166088,1,0,0:0:0:0:
109,192,166088,128,0,166292:0:0:0:0:
36,192,166088,1,0,0:0:0:0:
402,192,166190,1,0,0:0:0:0:
182,192,166190,128,0,166394:0:0:0:0:
475,192,166292,1,0,0:0:0:0:
256,192,166292,128,0,166496:0:0:0:0:
109,192,166394,1,0,0:0:0:0:
402,192,166394,128,0,166598:0:0:0:0:
475,192,166496,1,0,0:0:0:0:
329,192,166496,1,0,0:0:0:0:
36,192,166496,128,0,166700:0:0:0:0:
182,192,166496,1,0,0:0:0:0:
256,192,166598,1,0,0:0:0:0:
109,192,166598,128,0,166802:0:0:0:0:
402,192,166700,1,0,0:0:0:0:
329,192,166700,128,0,166904:0:0:0:0:
182,192,166802,1,0,0:0:0:0:
475,192,166802,128,0,167006:0:0:0:0:
109,192,166904,1,0,0:0:0:0:
36,192,166904,1,0,0:0:0:0:
402,192,166904,128,0,167108:0:0:0:0:
256,192,166904,1,0,0:0:0:0:
182,192,167006,1,0,0:0:0:0:
329,192,167006,128,0,167210:0:0:0:0:
36,192,167108,1,0,0:0:0:0:
256,192,167108,128,0,167312:0:0:0:0:
475,192,167210,1,0,0:0:0:0:
109,192,167210,128,0,167414:0:0:0:0:
329,192,167312,1,0,0:0:0:0:
182,192,167312,1,0,0:0:0:0:
402,192,167312,128,0,167516:0:0:0:0:
36,192,167312,1,0,0:0:0:0:
256,192,167414,1,0,0:0:0:0:
475,192,167414,128,0,167618:0:0:0:0:
109,192,167516,1,0,0:0:0:0:
182,192,167516,128,0,167720:0:0:0:0:
36,192,167618,1,0,0:0:0:0:
256,192,167618,128,0,167822:0:0:0:0:
475,192,167720,1,0,0:0:0:0:
329,192,167720,1,0,0:0:0:0:
402,192,167720,128,0,167925:0:0:0:0:
36,192,167822,128,0,168027:0:0:0:0:
109,192,167925,128,0,168129:0:0:0:0:
182,192,168027,128,0,168231:0:0:0:0:
329,192,168027,1,0,0:0:0:0:
256,192,168027,1,0,0:0:0:0:
402,192,168027,1,0,0:0:0:0:
475,192,168129,128,0,168333:0:0:0:0:
36,192,168129,1,0,0:0:0:0:
109,192,168231,1,0,0:0:0:0:
182,192,168333,1,0,0:0:0:0:
256,192,168333,1,0,0:0:0:0:
329,192,168333,1,0,0:0:0:0:
256,192,168435,1,0,0:0:0:0:
329,192,168435,1,0,0:0:0:0:
402,192,168435,1,0,0:0:0:0:
329,192,168537,1,0,0:0:0:0:
402,192,168537,1,0,0:0:0:0:
475,192,168537,1,0,0:0:0:0:
256,192,168639,1,0,0:0:0:0:
109,192,168741,1,0,0:0:0:0:
475,192,168843,1,0,0:0:0:0:
36,192,168945,1,0,0:0:0:0:
329,192,168945,1,0,0:0:0:0:
182,192,169047,1,0,0:0:0:0:
256,192,169149,1,0,0:0:0:0:
109,192,169251,1,0,0:0:0:0:
182,192,169353,1,0,0:0:0:0:
36,192,169353,128,0,170169:0:0:0:0:
256,192,169353,1,0,0:0:0:0:
329,192,169455,1,0,0:0:0:0:
402,192,169557,1,0,0:0:0:0:
109,192,169659,1,0,0:0:0:0:
182,192,169761,1,0,0:0:0:0:
402,192,169761,1,0,0:0:0:0:
256,192,169863,1,0,0:0:0:0:
329,192,169965,1,0,0:0:0:0:
475,192,170067,1,0,0:0:0:0:
182,192,170169,1,0,0:0:0:0:
109,192,170169,1,0,0:0:0:0:
475,192,170271,1,0,0:0:0:0:
256,192,170271,128,0,170476:0:0:0:0:
182,192,170373,128,0,170578:0:0:0:0:
109,192,170373,1,0,0:0:0:0:
329,192,170476,1,0,0:0:0:0:
36,192,170476,128,0,170680:0:0:0:0:
109,192,170578,128,0,170782:0:0:0:0:
256,192,170578,1,0,0:0:0:0:
182,192,170680,1,0,0:0:0:0:
329,192,170680,128,0,170884:0:0:0:0:
402,192,170782,128,0,170986:0:0:0:0:
475,192,170884,128,0,171088:0:0:0:0:
109,192,170884,1,0,0:0:0:0:
182,192,170986,128,0,171190:0:0:0:0:
329,192,170986,1,0,0:0:0:0:
36,192,171088,128,0,171292:0:0:0:0:
109,192,171088,1,0,0:0:0:0:
475,192,171190,128,0,171700:0:0:0:0:
329,192,171190,128,0,171394:0:0:0:0:
256,192,171292,128,0,171496:0:0:0:0:
36,192,171394,1,0,0:0:0:0:
182,192,171394,128,0,171598:0:0:0:0:
402,192,171394,128,0,171700:0:0:0:0:
109,192,171496,128,0,171700:0:0:0:0:
256,192,171598,1,0,0:0:0:0:
329,192,171598,128,0,171802:0:0:0:0:
182,192,171700,1,0,0:0:0:0:
402,192,171802,1,0,0:0:0:0:
256,192,171802,1,0,0:0:0:0:
182,192,171802,1,0,0:0:0:0:
36,192,171802,128,0,172210:0:0:0:0:
109,192,171904,128,0,172108:0:0:0:0:
329,192,171904,1,0,0:0:0:0:
182,192,172006,128,0,172210:0:0:0:0:
402,192,172006,1,0,0:0:0:0:
475,192,172108,128,0,172312:0:0:0:0:
329,192,172210,128,0,172618:0:0:0:0:
402,192,172210,1,0,0:0:0:0:
109,192,172210,1,0,0:0:0:0:
256,192,172210,1,0,0:0:0:0:
256,192,172312,128,0,172516:0:0:0:0:
36,192,172312,1,0,0:0:0:0:
109,192,172414,128,0,172618:0:0:0:0:
402,192,172414,1,0,0:0:0:0:
36,192,172516,128,0,172720:0:0:0:0:
475,192,172516,1,0,0:0:0:0:
402,192,172618,128,0,173027:0:0:0:0:
182,192,172618,1,0,0:0:0:0:
256,192,172618,1,0,0:0:0:0:
329,192,172720,128,0,172925:0:0:0:0:
109,192,172720,1,0,0:0:0:0:
256,192,172822,128,0,173027:0:0:0:0:
36,192,172822,1,0,0:0:0:0:
109,192,172925,128,0,173129:0:0:0:0:
475,192,173027,128,0,173435:0:0:0:0:
329,192,173027,1,0,0:0:0:0:
36,192,173027,1,0,0:0:0:0:
182,192,173027,1,0,0:0:0:0:
402,192,173129,128,0,173333:0:0:0:0:
256,192,173129,1,0,0:0:0:0:
182,192,173231,128,0,173435:0:0:0:0:
109,192,173231,1,0,0:0:0:0:
36,192,173333,128,0,173537:0:0:0:0:
329,192,173333,1,0,0:0:0:0:
109,192,173435,128,0,173843:0:0:0:0:
256,192,173435,1,0,0:0:0:0:
402,192,173435,1,0,0:0:0:0:
182,192,173537,128,0,173741:0:0:0:0:
329,192,173537,1,0,0:0:0:0:
256,192,173639,128,0,173843:0:0:0:0:
475,192,173639,1,0,0:0:0:0:
402,192,173741,128,0,173945:0:0:0:0:
36,192,173741,1,0,0:0:0:0:
475,192,173843,1,0,0:0:0:0:
329,192,173843,1,0,0:0:0:0:
182,192,173843,128,0,174251:0:0:0:0:
36,192,173945,128,0,174149:0:0:0:0:
256,192,173945,1,0,0:0:0:0:
329,192,174047,128,0,174251:0:0:0:0:
402,192,174047,1,0,0:0:0:0:
256,192,174149,128,0,174353:0:0:0:0:
475,192,174149,1,0,0:0:0:0:
109,192,174251,128,0,174659:0:0:0:0:
402,192,174251,1,0,0:0:0:0:
36,192,174251,1,0,0:0:0:0:
475,192,174353,128,0,174557:0:0:0:0:
329,192,174353,1,0,0:0:0:0:
402,192,174455,128,0,174659:0:0:0:0:
256,192,174455,1,0,0:0:0:0:
329,192,174557,128,0,174761:0:0:0:0:
182,192,174557,1,0,0:0:0:0:
36,192,174659,128,0,175067:0:0:0:0:
256,192,174659,1,0,0:0:0:0:
475,192,174659,1,0,0:0:0:0:
402,192,174761,128,0,174965:0:0:0:0:
182,192,174761,1,0,0:0:0:0:
256,192,174863,128,0,175067:0:0:0:0:
329,192,174863,1,0,0:0:0:0:
109,192,174965,128,0,175169:0:0:0:0:
182,192,174965,1,0,0:0:0:0:
329,192,175067,1,0,0:0:0:0:
402,192,175067,1,0,0:0:0:0:
475,192,175067,128,0,175476:0:0:0:0:
182,192,175169,128,0,175373:0:0:0:0:
256,192,175169,1,0,0:0:0:0:
329,192,175271,128,0,175476:0:0:0:0:
402,192,175271,1,0,0:0:0:0:
256,192,175373,128,0,175578:0:0:0:0:
36,192,175373,1,0,0:0:0:0:
402,192,175476,128,0,175884:0:0:0:0:
182,192,175476,1,0,0:0:0:0:
109,192,175476,1,0,0:0:0:0:
36,192,175578,128,0,175782:0:0:0:0:
329,192,175578,1,0,0:0:0:0:
109,192,175680,128,0,175884:0:0:0:0:
256,192,175680,1,0,0:0:0:0:
182,192,175782,128,0,175986:0:0:0:0:
475,192,175884,128,0,176292:0:0:0:0:
256,192,175884,1,0,0:0:0:0:
36,192,175884,1,0,0:0:0:0:
329,192,175884,1,0,0:0:0:0:
402,192,175986,128,0,176190:0:0:0:0:
109,192,175986,1,0,0:0:0:0:
256,192,176088,128,0,176292:0:0:0:0:
36,192,176088,1,0,0:0:0:0:
182,192,176190,128,0,176394:0:0:0:0:
36,192,176292,128,0,176700:0:0:0:0:
109,192,176292,1,0,0:0:0:0:
329,192,176292,1,0,0:0:0:0:
402,192,176394,128,0,176598:0:0:0:0:
256,192,176394,1,0,0:0:0:0:
475,192,176496,128,0,176700:0:0:0:0:
182,192,176496,1,0,0:0:0:0:
109,192,176598,128,0,176802:0:0:0:0:
182,192,176700,128,0,176904:0:0:0:0:
402,192,176700,1,0,0:0:0:0:
329,192,176700,1,0,0:0:0:0:
256,192,176802,128,0,177006:0:0:0:0:
36,192,176802,1,0,0:0:0:0:
329,192,176904,128,0,177108:0:0:0:0:
109,192,176904,1,0,0:0:0:0:
475,192,177006,128,0,177210:0:0:0:0:
182,192,177006,1,0,0:0:0:0:
402,192,177108,128,0,177312:0:0:0:0:
256,192,177108,1,0,0:0:0:0:
109,192,177108,1,0,0:0:0:0:
36,192,177108,1,0,0:0:0:0:
182,192,177210,128,0,177414:0:0:0:0:
329,192,177210,1,0,0:0:0:0:
109,192,177312,128,0,177516:0:0:0:0:
256,192,177312,1,0,0:0:0:0:
475,192,177414,1,0,0:0:0:0:
256,192,177516,1,0,0:0:0:0:
182,192,177516,1,0,0:0:0:0:
402,192,177516,1,0,0:0:0:0:
256,192,177618,1,0,0:0:0:0:
182,192,177618,1,0,0:0:0:0:
109,192,177720,1,0,0:0:0:0:
36,192,177720,1,0,0:0:0:0:
329,192,177720,1,0,0:0:0:0:
402,192,177720,1,0,0:0:0:0:
329,192,177822,1,0,0:0:0:0:
402,192,177822,1,0,0:0:0:0:
182,192,177925,1,0,0:0:0:0:
109,192,177925,1,0,0:0:0:0:
36,192,177925,1,0,0:0:0:0:
256,192,177925,1,0,0:0:0:0:
36,192,178333,128,0,178537:0:0:0:0:
182,192,178333,1,0,0:0:0:0:
256,192,178333,1,0,0:0:0:0:
402,192,178333,1,0,0:0:0:0:
475,192,178333,1,0,0:0:0:0:
109,192,178435,128,0,178639:0:0:0:0:
182,192,178537,128,0,178741:0:0:0:0:
475,192,178639,128,0,178843:0:0:0:0:
109,192,178741,1,0,0:0:0:0:
256,192,178741,1,0,0:0:0:0:
329,192,178741,128,0,178945:0:0:0:0:
402,192,178741,1,0,0:0:0:0:
36,192,178843,1,0,0:0:0:0:
256,192,178843,128,0,179047:0:0:0:0:
402,192,178945,1,0,0:0:0:0:
109,192,178945,128,0,179149:0:0:0:0:
329,192,179047,1,0,0:0:0:0:
36,192,179047,128,0,179251:0:0:0:0:
256,192,179149,1,0,0:0:0:0:
182,192,179149,1,0,0:0:0:0:
402,192,179149,128,0,179353:0:0:0:0:
475,192,179149,1,0,0:0:0:0:
109,192,179251,1,0,0:0:0:0:
329,192,179251,128,0,179455:0:0:0:0:
36,192,179353,1,0,0:0:0:0:
256,192,179353,128,0,179557:0:0:0:0:
402,192,179455,1,0,0:0:0:0:
109,192,179455,128,0,179659:0:0:0:0:
36,192,179557,1,0,0:0:0:0:
182,192,179557,1,0,0:0:0:0:
475,192,179557,128,0,179761:0:0:0:0:
329,192,179557,1,0,0:0:0:0:
256,192,179659,1,0,0:0:0:0:
402,192,179659,128,0,179863:0:0:0:0:
109,192,179761,1,0,0:0:0:0:
182,192,179761,128,0,179965:0:0:0:0:
329,192,179863,1,0,0:0:0:0:
36,192,179863,128,0,180067:0:0:0:0:
402,192,179965,1,0,0:0:0:0:
475,192,179965,1,0,0:0:0:0:
109,192,179965,128,0,180169:0:0:0:0:
256,192,179965,1,0,0:0:0:0:
329,192,180067,1,0,0:0:0:0:
182,192,180067,128,0,180271:0:0:0:0:
475,192,180169,1,0,0:0:0:0:
256,192,180169,128,0,180373:0:0:0:0:
36,192,180271,1,0,0:0:0:0:
402,192,180271,128,0,180476:0:0:0:0:
182,192,180373,1,0,0:0:0:0:
329,192,180373,1,0,0:0:0:0:
109,192,180373,128,0,180578:0:0:0:0:
475,192,180373,1,0,0:0:0:0:
256,192,180476,1,0,0:0:0:0:
36,192,180476,128,0,180680:0:0:0:0:
402,192,180578,1,0,0:0:0:0:
329,192,180578,128,0,180782:0:0:0:0:
475,192,180680,1,0,0:0:0:0:
256,192,180680,128,0,180884:0:0:0:0:
36,192,180782,1,0,0:0:0:0:
182,192,180782,1,0,0:0:0:0:
109,192,180782,128,0,180986:0:0:0:0:
475,192,180884,128,0,181088:0:0:0:0:
329,192,180884,1,0,0:0:0:0:
402,192,180986,128,0,181190:0:0:0:0:
256,192,180986,1,0,0:0:0:0:
329,192,181088,128,0,181292:0:0:0:0:
182,192,181088,1,0,0:0:0:0:
36,192,181190,128,0,181394:0:0:0:0:
475,192,181190,1,0,0:0:0:0:
256,192,181190,1,0,0:0:0:0:
109,192,181190,1,0,0:0:0:0:
402,192,181292,1,0,0:0:0:0:
182,192,181292,128,0,181598:0:0:0:0:
329,192,181394,128,0,181802:0:0:0:0:
109,192,181394,1,0,0:0:0:0:
475,192,181496,128,0,182006:0:0:0:0:
256,192,181496,1,0,0:0:0:0:
36,192,181496,128,0,181700:0:0:0:0:
402,192,181598,1,0,0:0:0:0:
109,192,181598,128,0,181802:0:0:0:0:
182,192,181700,128,0,181904:0:0:0:0:
256,192,181700,1,0,0:0:0:0:
256,192,181802,128,0,182006:0:0:0:0:
402,192,181802,1,0,0:0:0:0:
36,192,181802,1,0,0:0:0:0:
329,192,181904,1,0,0:0:0:0:
402,192,181904,1,0,0:0:0:0:
109,192,181904,1,0,0:0:0:0:
182,192,182006,1,0,0:0:0:0:
36,192,182006,1,0,0:0:0:0:
109,192,182108,1,0,0:0:0:0:
256,192,182108,1,0,0:0:0:0:
329,192,182108,1,0,0:0:0:0:
475,192,182108,1,0,0:0:0:0:
256,192,182210,1,0,0:0:0:0:
329,192,182210,1,0,0:0:0:0:
36,192,182312,1,0,0:0:0:0:
109,192,182312,1,0,0:0:0:0:
182,192,182312,1,0,0:0:0:0:
329,192,182414,1,0,0:0:0:0:
402,192,182414,1,0,0:0:0:0:
475,192,182414,1,0,0:0:0:0:
182,192,182516,1,0,0:0:0:0:
109,192,182516,1,0,0:0:0:0:
36,192,182516,1,0,0:0:0:0:
256,192,182618,1,0,0:0:0:0:
329,192,182618,1,0,0:0:0:0:
402,192,182618,1,0,0:0:0:0:
182,192,182720,1,0,0:0:0:0:
36,192,182720,1,0,0:0:0:0:
109,192,182720,1,0,0:0:0:0:
329,192,182822,1,0,0:0:0:0:
402,192,182822,1,0,0:0:0:0:
475,192,182822,1,0,0:0:0:0:
182,192,182925,1,0,0:0:0:0:
109,192,182925,1,0,0:0:0:0:
36,192,182925,1,0,0:0:0:0:
329,192,183027,1,0,0:0:0:0:
402,192,183027,1,0,0:0:0:0:
475,192,183027,1,0,0:0:0:0:
182,192,183129,1,0,0:0:0:0:
109,192,183129,1,0,0:0:0:0:
36,192,183129,1,0,0:0:0:0:
329,192,183231,1,0,0:0:0:0:
402,192,183231,1,0,0:0:0:0:
475,192,183231,1,0,0:0:0:0:
256,192,184047,1,0,0:0:0:0:
256,192,184353,1,0,0:0:0:0:
256,192,184455,1,0,0:0:0:0:
256,192,184659,1,0,0:0:0:0:
36,192,184863,1,0,0:0:0:0:
182,192,184863,1,0,0:0:0:0:
329,192,184863,1,0,0:0:0:0:
109,192,184965,1,0,0:0:0:0:
256,192,184965,1,0,0:0:0:0:
402,192,184965,1,0,0:0:0:0:
182,192,185067,1,0,0:0:0:0:
329,192,185067,1,0,0:0:0:0:
475,192,185067,1,0,0:0:0:0:
36,192,185169,1,0,0:0:0:0:
256,192,185169,1,0,0:0:0:0:
402,192,185169,1,0,0:0:0:0:
109,192,185271,1,0,0:0:0:0:
182,192,185271,1,0,0:0:0:0:
329,192,185271,1,0,0:0:0:0:
256,192,185373,1,0,0:0:0:0:
402,192,185373,1,0,0:0:0:0:
475,192,185373,1,0,0:0:0:0:
36,192,185476,1,0,0:0:0:0:
109,192,185476,1,0,0:0:0:0:
182,192,185476,1,0,0:0:0:0:
256,192,185578,1,0,0:0:0:0:
329,192,185578,1,0,0:0:0:0:
402,192,185578,1,0,0:0:0:0:
475,192,185680,1,0,0:0:0:0:
182,192,185680,1,0,0:0:0:0:
36,192,185680,1,0,0:0:0:0:
109,192,185782,1,0,0:0:0:0:
256,192,185782,1,0,0:0:0:0:
402,192,185782,1,0,0:0:0:0:
182,192,185884,1,0,0:0:0:0:
329,192,185884,1,0,0:0:0:0:
475,192,185884,1,0,0:0:0:0:
256,192,185986,1,0,0:0:0:0:
402,192,185986,1,0,0:0:0:0:
36,192,185986,1,0,0:0:0:0:
109,192,186088,1,0,0:0:0:0:
329,192,186088,1,0,0:0:0:0:
475,192,186088,1,0,0:0:0:0:
402,192,186190,1,0,0:0:0:0:
182,192,186190,1,0,0:0:0:0:
256,192,186190,1,0,0:0:0:0:
109,192,186292,1,0,0:0:0:0:
36,192,186292,1,0,0:0:0:0:
329,192,186292,1,0,0:0:0:0:
475,192,186394,1,0,0:0:0:0:
256,192,186394,1,0,0:0:0:0:
182,192,186394,1,0,0:0:0:0:
402,192,186496,1,0,0:0:0:0:
109,192,186496,1,0,0:0:0:0:
36,192,186496,1,0,0:0:0:0:
329,192,186598,1,0,0:0:0:0:
256,192,186598,1,0,0:0:0:0:
182,192,186598,1,0,0:0:0:0:
475,192,186700,1,0,0:0:0:0:
109,192,186700,1,0,0:0:0:0:
402,192,186700,1,0,0:0:0:0:
329,192,186802,1,0,0:0:0:0:
182,192,186802,1,0,0:0:0:0:
36,192,186802,1,0,0:0:0:0:
256,192,186904,1,0,0:0:0:0:
109,192,186904,1,0,0:0:0:0:
475,192,186904,1,0,0:0:0:0:
402,192,187006,1,0,0:0:0:0:
182,192,187006,1,0,0:0:0:0:
36,192,187006,1,0,0:0:0:0:
329,192,187108,1,0,0:0:0:0:
109,192,187108,1,0,0:0:0:0:
475,192,187108,1,0,0:0:0:0:
402,192,187210,1,0,0:0:0:0:
256,192,187210,1,0,0:0:0:0:
36,192,187210,1,0,0:0:0:0:
329,192,187312,1,0,0:0:0:0:
182,192,187312,1,0,0:0:0:0:
109,192,187312,1,0,0:0:0:0:
182,192,187414,1,0,0:0:0:0:
36,192,187414,1,0,0:0:0:0:
475,192,187414,1,0,0:0:0:0:
256,192,187516,1,0,0:0:0:0:
402,192,187516,1,0,0:0:0:0:
475,192,187516,1,0,0:0:0:0:
36,192,187618,1,0,0:0:0:0:
109,192,187618,1,0,0:0:0:0:
182,192,187618,1,0,0:0:0:0:
402,192,187720,1,0,0:0:0:0:
475,192,187720,1,0,0:0:0:0:
329,192,187771,1,0,0:0:0:0:
256,192,187822,1,0,0:0:0:0:
182,192,187873,1,0,0:0:0:0:
109,192,187925,1,0,0:0:0:0:
36,192,187976,1,0,0:0:0:0:
475,192,188027,1,0,0:0:0:0:
402,192,188078,1,0,0:0:0:0:
329,192,188129,1,0,0:0:0:0:
36,192,188129,1,0,0:0:0:0:
182,192,188129,1,0,0:0:0:0:
109,192,188231,1,0,0:0:0:0:
256,192,188231,1,0,0:0:0:0:
402,192,188231,1,0,0:0:0:0:
182,192,188333,1,0,0:0:0:0:
36,192,188333,1,0,0:0:0:0:
475,192,188333,1,0,0:0:0:0:
109,192,188435,1,0,0:0:0:0:
256,192,188435,1,0,0:0:0:0:
329,192,188435,1,0,0:0:0:0:
182,192,188537,1,0,0:0:0:0:
36,192,188537,1,0,0:0:0:0:
475,192,188537,1,0,0:0:0:0:
402,192,188537,1,0,0:0:0:0:
402,192,188639,1,0,0:0:0:0:
475,192,188639,1,0,0:0:0:0:
36,192,188741,1,0,0:0:0:0:
256,192,188741,1,0,0:0:0:0:
329,192,188741,1,0,0:0:0:0:
475,192,188843,1,0,0:0:0:0:
182,192,188843,1,0,0:0:0:0:
402,192,188843,1,0,0:0:0:0:
36,192,188945,1,0,0:0:0:0:
109,192,188945,1,0,0:0:0:0:
329,192,188945,1,0,0:0:0:0:
256,192,188945,1,0,0:0:0:0:
109,192,189047,1,0,0:0:0:0:
36,192,189047,1,0,0:0:0:0:
256,192,189149,1,0,0:0:0:0:
109,192,189149,1,0,0:0:0:0:
36,192,189149,1,0,0:0:0:0:
329,192,189251,1,0,0:0:0:0:
475,192,189251,1,0,0:0:0:0:
182,192,189251,1,0,0:0:0:0:
109,192,189353,1,0,0:0:0:0:
36,192,189353,1,0,0:0:0:0:
402,192,189353,1,0,0:0:0:0:
256,192,189353,1,0,0:0:0:0:
109,192,189455,1,0,0:0:0:0:
36,192,189455,1,0,0:0:0:0:
329,192,189557,1,0,0:0:0:0:
475,192,189557,1,0,0:0:0:0:
256,192,189557,1,0,0:0:0:0:
109,192,189659,1,0,0:0:0:0:
402,192,189659,1,0,0:0:0:0:
182,192,189659,1,0,0:0:0:0:
329,192,189761,1,0,0:0:0:0:
256,192,189761,1,0,0:0:0:0:
475,192,189761,1,0,0:0:0:0:
36,192,189761,1,0,0:0:0:0:
256,192,189863,1,0,0:0:0:0:
182,192,189863,1,0,0:0:0:0:
109,192,189863,1,0,0:0:0:0:
402,192,189965,1,0,0:0:0:0:
329,192,189965,1,0,0:0:0:0:
475,192,189965,1,0,0:0:0:0:
36,192,189965,1,0,0:0:0:0:
109,192,190067,1,0,0:0:0:0:
182,192,190067,1,0,0:0:0:0:
256,192,190067,1,0,0:0:0:0:
329,192,190169,1,0,0:0:0:0:
402,192,190169,1,0,0:0:0:0:
475,192,190169,1,0,0:0:0:0:
256,192,190271,1,0,0:0:0:0:
109,192,190271,1,0,0:0:0:0:
36,192,190271,1,0,0:0:0:0:
329,192,190373,1,0,0:0:0:0:
182,192,190373,1,0,0:0:0:0:
475,192,190373,1,0,0:0:0:0:
402,192,190476,1,0,0:0:0:0:
109,192,190476,1,0,0:0:0:0:
36,192,190476,1,0,0:0:0:0:
256,192,190476,1,0,0:0:0:0:
256,192,190680,1,0,0:0:0:0:
256,192,190782,1,0,0:0:0:0:
36,192,190986,128,0,191394:0:0:0:0:
475,192,191394,1,0,0:0:0:0:
402,192,191428,1,0,0:0:0:0:
329,192,191462,1,0,0:0:0:0:
256,192,191496,1,0,0:0:0:0:
182,192,191530,1,0,0:0:0:0:
36,192,191564,1,0,0:0:0:0:
475,192,191564,1,0,0:0:0:0:
402,192,191598,1,0,0:0:0:0:
329,192,191632,1,0,0:0:0:0:
256,192,191666,1,0,0:0:0:0:
109,192,191700,1,0,0:0:0:0:
36,192,191734,1,0,0:0:0:0:
475,192,191734,1,0,0:0:0:0:
402,192,191768,1,0,0:0:0:0:
329,192,191802,1,0,0:0:0:0:
182,192,191836,1,0,0:0:0:0:
109,192,191870,1,0,0:0:0:0:
36,192,191904,1,0,0:0:0:0:
475,192,191904,1,0,0:0:0:0:
402,192,191938,1,0,0:0:0:0:
256,192,191972,1,0,0:0:0:0:
182,192,192006,1,0,0:0:0:0:
109,192,192040,1,0,0:0:0:0:
36,192,192074,1,0,0:0:0:0:
475,192,192074,1,0,0:0:0:0:
329,192,192108,1,0,0:0:0:0:
256,192,192142,1,0,0:0:0:0:
182,192,192176,1,0,0:0:0:0:
109,192,192210,1,0,0:0:0:0:
36,192,192244,1,0,0:0:0:0:
402,192,192244,1,0,0:0:0:0:
329,192,192278,1,0,0:0:0:0:
256,192,192312,1,0,0:0:0:0:
182,192,192346,1,0,0:0:0:0:
109,192,192380,1,0,0:0:0:0:
36,192,192414,1,0,0:0:0:0:
475,192,192414,1,0,0:0:0:0:
402,192,192448,1,0,0:0:0:0:
329,192,192482,1,0,0:0:0:0:
256,192,192516,1,0,0:0:0:0:
182,192,192550,1,0,0:0:0:0:
109,192,192584,1,0,0:0:0:0:
475,192,192584,1,0,0:0:0:0:
402,192,192618,1,0,0:0:0:0:
329,192,192652,1,0,0:0:0:0:
256,192,192686,1,0,0:0:0:0:
182,192,192720,1,0,0:0:0:0:
36,192,192754,1,0,0:0:0:0:
475,192,192754,1,0,0:0:0:0:
402,192,192788,1,0,0:0:0:0:
329,192,192822,1,0,0:0:0:0:
256,192,192856,1,0,0:0:0:0:
109,192,192891,1,0,0:0:0:0:
36,192,192925,1,0,0:0:0:0:
475,192,192925,1,0,0:0:0:0:
402,192,192959,1,0,0:0:0:0:
329,192,192993,1,0,0:0:0:0:
182,192,193027,128,0,193061:0:0:0:0:
109,192,193061,128,0,193095:0:0:0:0:
36,192,193095,128,0,193129:0:0:0:0:
475,192,193129,128,0,193163:0:0:0:0:
402,192,193163,128,0,193197:0:0:0:0:
256,192,193197,128,0,193231:0:0:0:0:
182,192,193231,128,0,193265:0:0:0:0:
109,192,193265,128,0,193299:0:0:0:0:
36,192,193299,128,0,193333:0:0:0:0:
475,192,193299,1,0,0:0:0:0:
329,192,193333,1,0,0:0:0:0:
256,192,193367,1,0,0:0:0:0:
182,192,193401,1,0,0:0:0:0:
109,192,193435,1,0,0:0:0:0:
36,192,193469,1,0,0:0:0:0:
402,192,193469,128,0,193503:0:0:0:0:
329,192,193503,128,0,193537:0:0:0:0:
256,192,193537,128,0,193571:0:0:0:0:
182,192,193571,128,0,193605:0:0:0:0:
109,192,193605,128,0,193639:0:0:0:0:
36,192,193639,128,0,193673:0:0:0:0:
475,192,193639,1,0,0:0:0:0:
402,192,193673,1,0,0:0:0:0:
329,192,193707,1,0,0:0:0:0:
256,192,193741,1,0,0:0:0:0:
182,192,193775,1,0,0:0:0:0:
109,192,193809,1,0,0:0:0:0:
475,192,193809,128,0,193843:0:0:0:0:
402,192,193843,128,0,193877:0:0:0:0:
329,192,193877,128,0,193911:0:0:0:0:
256,192,193911,128,0,193945:0:0:0:0:
182,192,193945,128,0,193979:0:0:0:0:
36,192,193979,128,0,194013:0:0:0:0:
475,192,193979,128,0,194013:0:0:0:0:
402,192,194013,128,0,194047:0:0:0:0:
329,192,194047,128,0,194081:0:0:0:0:
256,192,194081,128,0,194115:0:0:0:0:
109,192,194115,128,0,194149:0:0:0:0:
36,192,194149,128,0,194183:0:0:0:0:
475,192,194149,128,0,194183:0:0:0:0:
402,192,194183,128,0,194217:0:0:0:0:
329,192,194217,128,0,194251:0:0:0:0:
182,192,194251,128,0,194285:0:0:0:0:
109,192,194285,128,0,194319:0:0:0:0:
36,192,194319,128,0,194353:0:0:0:0:
475,192,194319,128,0,194353:0:0:0:0:
402,192,194353,128,0,194387:0:0:0:0:
256,192,194387,128,0,194421:0:0:0:0:
182,192,194421,128,0,194455:0:0:0:0:
109,192,194455,128,0,194489:0:0:0:0:
36,192,194489,128,0,194523:0:0:0:0:
475,192,194489,128,0,194557:0:0:0:0:
402,192,194523,128,0,194591:0:0:0:0:
329,192,194557,128,0,194625:0:0:0:0:
256,192,194591,128,0,194659:0:0:0:0:
182,192,194625,128,0,194659:0:0:0:0:
109,192,194659,1,0,0:0:0:0:
36,192,194659,1,0,0:0:0:0:
475,192,197108,5,0,0:0:0:0:
402,192,197134,1,0,0:0:0:0:
329,192,197159,1,0,0:0:0:0:
36,192,197210,1,0,0:0:0:0:
109,192,197236,1,0,0:0:0:0:
182,192,197261,1,0,0:0:0:0:
475,192,197287,1,0,0:0:0:0:
402,192,197312,1,0,0:0:0:0:
329,192,197338,1,0,0:0:0:0:
475,192,197516,1,0,0:0:0:0:
402,192,197542,1,0,0:0:0:0:
329,192,197567,1,0,0:0:0:0:
36,192,197720,1,0,0:0:0:0:
109,192,197746,1,0,0:0:0:0:
182,192,197771,1,0,0:0:0:0:
329,192,197925,1,0,0:0:0:0:
256,192,197925,1,0,0:0:0:0:
36,192,197925,1,0,0:0:0:0:
475,192,197925,1,0,0:0:0:0:
402,192,197925,1,0,0:0:0:0:
182,192,198537,1,0,0:0:0:0:
402,192,199557,1,0,0:0:0:0:
109,192,200169,1,0,0:0:0:0:
36,192,201190,1,0,0:0:0:0:
256,192,201802,1,0,0:0:0:0:
402,192,202822,1,0,0:0:0:0:
182,192,203435,1,0,0:0:0:0:
256,192,204455,1,0,0:0:0:0:
475,192,205067,1,0,0:0:0:0:
329,192,206088,1,0,0:0:0:0:
36,192,206700,1,0,0:0:0:0:
182,192,207720,1,0,0:0:0:0:
256,192,208333,1,0,0:0:0:0:
402,192,209353,1,0,0:0:0:0:
109,192,209965,1,0,0:0:0:0:
182,192,210986,128,0,211190:0:0:0:0:
36,192,211598,128,0,212210:0:0:0:0:
109,192,211598,128,0,212210:0:0:0:0:
402,192,211700,128,0,211904:0:0:0:0:
475,192,211700,128,0,211904:0:0:0:0:
402,192,212006,128,0,212210:0:0:0:0:
475,192,212006,128,0,212210:0:0:0:0:
329,192,212618,1,0,0:0:0:0:
109,192,213231,1,0,0:0:0:0:
256,192,213537,128,0,213741:0:0:0:0:
109,192,214353,128,0,214557:0:0:0:0:
329,192,214965,128,0,215169:0:0:0:0:
402,192,214965,128,0,215169:0:0:0:0:
329,192,215271,128,0,215476:0:0:0:0:
402,192,215271,128,0,215476:0:0:0:0:
256,192,215884,1,0,0:0:0:0:
475,192,216292,128,0,216394:0:0:0:0:
402,192,216394,128,0,216496:0:0:0:0:
182,192,216496,1,0,0:0:0:0:
329,192,216598,128,0,216802:0:0:0:0:
329,192,216904,128,0,217108:0:0:0:0:
402,192,216904,128,0,217108:0:0:0:0:
256,192,217516,1,0,0:0:0:0:
182,192,217720,128,0,217925:0:0:0:0:
402,192,218129,1,0,0:0:0:0:
182,192,218231,128,0,218435:0:0:0:0:
109,192,218231,128,0,218435:0:0:0:0:
109,192,218537,128,0,218741:0:0:0:0:
182,192,218537,128,0,218741:0:0:0:0:
475,192,219149,1,0,0:0:0:0:
36,192,219761,1,0,0:0:0:0:
329,192,220067,128,0,220271:0:0:0:0:
256,192,220782,128,0,220986:0:0:0:0:
109,192,221496,128,0,221700:0:0:0:0:
36,192,221496,128,0,221700:0:0:0:0:
109,192,221802,128,0,222006:0:0:0:0:
36,192,221802,128,0,222006:0:0:0:0:
329,192,222414,1,0,0:0:0:0:
36,192,222822,128,0,222925:0:0:0:0:
475,192,222822,1,0,0:0:0:0:
402,192,222848,1,0,0:0:0:0:
329,192,222873,1,0,0:0:0:0:
256,192,222925,1,0,0:0:0:0:
182,192,222950,1,0,0:0:0:0:
109,192,223129,128,0,223333:0:0:0:0:
109,192,223435,128,0,223639:0:0:0:0:
475,192,230169,5,0,0:0:0:0:
402,192,230169,1,0,0:0:0:0:
256,192,230169,1,0,0:0:0:0:
109,192,230169,1,0,0:0:0:0:
36,192,230169,1,0,0:0:0:0:
329,192,230578,128,0,230986:0:0:0:0:
475,192,230578,128,0,230986:0:0:0:0:
256,192,230578,128,0,230986:0:0:0:0:
402,192,230578,128,0,230986:0:0:0:0:
182,192,230782,128,0,230986:0:0:0:0:
109,192,230884,128,0,231190:0:0:0:0:
36,192,230884,128,0,231190:0:0:0:0:
182,192,231190,128,0,231598:0:0:0:0:
256,192,231190,128,0,231598:0:0:0:0:
329,192,231190,128,0,231598:0:0:0:0:
402,192,231190,128,0,231598:0:0:0:0:
475,192,231190,128,0,231598:0:0:0:0:
36,192,231700,128,0,231904:0:0:0:0:
475,192,231700,128,0,231904:0:0:0:0:
109,192,231802,128,0,232006:0:0:0:0:
402,192,231802,128,0,232006:0:0:0:0:
182,192,231904,128,0,232108:0:0:0:0:
329,192,231904,128,0,232108:0:0:0:0:
256,192,232006,128,0,232210:0:0:0:0:
475,192,232006,128,0,232210:0:0:0:0:
36,192,232006,128,0,232210:0:0:0:0:
329,192,232210,128,0,232618:0:0:0:0:
402,192,232210,128,0,232618:0:0:0:0:
182,192,232210,128,0,232618:0:0:0:0:
109,192,232210,128,0,232618:0:0:0:0:
256,192,232312,128,0,232618:0:0:0:0:
402,192,232822,128,0,233741:0:0:0:0:
329,192,232822,128,0,233741:0:0:0:0:
256,192,232822,128,0,233741:0:0:0:0:
182,192,232822,128,0,233741:0:0:0:0:
36,192,232822,128,0,233741:0:0:0:0:
109,192,233843,128,0,234251:0:0:0:0:
182,192,233843,128,0,234251:0:0:0:0:
256,192,233843,128,0,234251:0:0:0:0:
329,192,233843,128,0,234251:0:0:0:0:
402,192,233843,128,0,234251:0:0:0:0:
109,192,234455,128,0,235271:0:0:0:0:
182,192,234455,128,0,235271:0:0:0:0:
256,192,234455,128,0,235271:0:0:0:0:
329,192,234455,128,0,235271:0:0:0:0:
402,192,234455,128,0,235271:0:0:0:0:
109,192,235476,128,0,236088:0:0:0:0:
182,192,235476,128,0,235986:0:0:0:0:
256,192,235476,128,0,235986:0:0:0:0:
402,192,235476,128,0,235986:0:0:0:0:
36,192,235476,128,0,236088:0:0:0:0:
182,192,236088,128,0,237006:0:0:0:0:
256,192,236088,128,0,237006:0:0:0:0:
329,192,236088,128,0,237006:0:0:0:0:
402,192,236088,128,0,237006:0:0:0:0:
475,192,236088,128,0,237006:0:0:0:0:
36,192,237108,1,0,0:0:0:0:
109,192,237108,1,0,0:0:0:0:
182,192,237108,1,0,0:0:0:0:
109,192,237414,1,0,0:0:0:0:
182,192,237465,1,0,0:0:0:0:
256,192,237516,1,0,0:0:0:0:
402,192,237516,1,0,0:0:0:0:
475,192,237516,1,0,0:0:0:0:
329,192,237720,1,0,0:0:0:0:
182,192,237720,1,0,0:0:0:0:
109,192,237720,1,0,0:0:0:0:
256,192,237925,1,0,0:0:0:0:
36,192,237925,1,0,0:0:0:0:
109,192,237925,1,0,0:0:0:0:
256,192,238333,1,0,0:0:0:0:
109,192,238333,1,0,0:0:0:0:
402,192,238333,1,0,0:0:0:0:
475,192,238537,1,0,0:0:0:0:
36,192,238537,1,0,0:0:0:0:
182,192,238537,1,0,0:0:0:0:
402,192,238639,1,0,0:0:0:0:
256,192,238639,1,0,0:0:0:0:
109,192,238639,1,0,0:0:0:0:
329,192,238741,1,0,0:0:0:0:
182,192,238741,1,0,0:0:0:0:
36,192,238741,1,0,0:0:0:0:
475,192,238741,1,0,0:0:0:0:
402,192,239047,1,0,0:0:0:0:
329,192,239098,1,0,0:0:0:0:
256,192,239149,1,0,0:0:0:0:
109,192,239149,1,0,0:0:0:0:
36,192,239149,1,0,0:0:0:0:
329,192,239353,1,0,0:0:0:0:
402,192,239353,1,0,0:0:0:0:
475,192,239353,1,0,0:0:0:0:
256,192,239761,1,0,0:0:0:0:
109,192,239761,1,0,0:0:0:0:
329,192,239965,1,0,0:0:0:0:
402,192,239965,1,0,0:0:0:0:
256,192,240169,1,0,0:0:0:0:
109,192,240169,1,0,0:0:0:0:
36,192,240169,1,0,0:0:0:0:
182,192,240169,1,0,0:0:0:0:
475,192,240271,1,0,0:0:0:0:
329,192,240271,1,0,0:0:0:0:
402,192,240373,1,0,0:0:0:0:
256,192,240373,1,0,0:0:0:0:
109,192,240373,1,0,0:0:0:0:
36,192,240373,1,0,0:0:0:0:
475,192,240782,1,0,0:0:0:0:
402,192,240782,1,0,0:0:0:0:
329,192,240782,1,0,0:0:0:0:
182,192,240986,1,0,0:0:0:0:
109,192,240986,1,0,0:0:0:0:
36,192,240986,1,0,0:0:0:0:
182,192,241190,1,0,0:0:0:0:
109,192,241190,1,0,0:0:0:0:
36,192,241190,1,0,0:0:0:0:
256,192,241598,1,0,0:0:0:0:
329,192,241598,1,0,0:0:0:0:
109,192,241598,1,0,0:0:0:0:
475,192,241802,1,0,0:0:0:0:
182,192,241802,1,0,0:0:0:0:
36,192,241904,1,0,0:0:0:0:
329,192,241904,1,0,0:0:0:0:
109,192,241955,1,0,0:0:0:0:
182,192,242006,1,0,0:0:0:0:
475,192,242006,1,0,0:0:0:0:
329,192,242414,1,0,0:0:0:0:
182,192,242414,1,0,0:0:0:0:
109,192,242414,1,0,0:0:0:0:
36,192,242414,1,0,0:0:0:0:
256,192,242618,1,0,0:0:0:0:
402,192,242618,1,0,0:0:0:0:
475,192,242618,1,0,0:0:0:0:
109,192,242720,1,0,0:0:0:0:
36,192,242720,1,0,0:0:0:0:
182,192,242720,1,0,0:0:0:0:
182,192,242925,1,0,0:0:0:0:
109,192,242925,1,0,0:0:0:0:
36,192,242925,1,0,0:0:0:0:
182,192,243027,1,0,0:0:0:0:
109,192,243027,1,0,0:0:0:0:
36,192,243027,1,0,0:0:0:0:
329,192,243129,1,0,0:0:0:0:
402,192,243129,1,0,0:0:0:0:
475,192,243129,1,0,0:0:0:0:
475,192,243231,1,0,0:0:0:0:
402,192,243231,1,0,0:0:0:0:
329,192,243231,1,0,0:0:0:0:
182,192,243333,1,0,0:0:0:0:
109,192,243333,1,0,0:0:0:0:
36,192,243333,1,0,0:0:0:0:
182,192,243435,1,0,0:0:0:0:
109,192,243435,1,0,0:0:0:0:
36,192,243435,1,0,0:0:0:0:
329,192,243537,1,0,0:0:0:0:
402,192,243537,1,0,0:0:0:0:
475,192,243537,1,0,0:0:0:0:
475,192,243639,128,0,244251:0:0:0:0:
402,192,243639,128,0,244251:0:0:0:0:
329,192,243639,128,0,244251:0:0:0:0:
182,192,243639,128,0,243894:0:0:0:0:
109,192,243639,128,0,243894:0:0:0:0:
182,192,243945,128,0,244200:0:0:0:0:
109,192,243945,128,0,244200:0:0:0:0:
36,192,244251,128,0,244659:0:0:0:0:
109,192,244251,128,0,244659:0:0:0:0:
182,192,244251,128,0,244659:0:0:0:0:
256,192,244251,128,0,244659:0:0:0:0:
475,192,244302,128,0,244965:0:0:0:0:
402,192,244302,128,0,244965:0:0:0:0:
329,192,244710,128,0,244965:0:0:0:0:
256,192,244710,128,0,244965:0:0:0:0:
182,192,244761,128,0,245067:0:0:0:0:
109,192,244812,128,0,245067:0:0:0:0:
36,192,244863,128,0,245067:0:0:0:0:
329,192,245067,128,0,245271:0:0:0:0:
475,192,245067,128,0,245271:0:0:0:0:
402,192,245271,128,0,245680:0:0:0:0:
256,192,245271,128,0,245680:0:0:0:0:
182,192,245271,128,0,245680:0:0:0:0:
109,192,245271,128,0,245680:0:0:0:0:
36,192,245271,128,0,245680:0:0:0:0:
182,192,245884,128,0,246292:0:0:0:0:
256,192,245884,128,0,246292:0:0:0:0:
329,192,245884,128,0,246292:0:0:0:0:
402,192,245884,128,0,246292:0:0:0:0:
475,192,245884,128,0,246292:0:0:0:0:
36,192,246292,128,0,246802:0:0:0:0:
109,192,246394,128,0,246802:0:0:0:0:
182,192,246496,128,0,246802:0:0:0:0:
329,192,246598,128,0,246802:0:0:0:0:
402,192,246700,128,0,246904:0:0:0:0:
475,192,246802,128,0,246904:0:0:0:0:
109,192,246904,128,0,247312:0:0:0:0:
182,192,246904,128,0,247312:0:0:0:0:
329,192,246904,128,0,247312:0:0:0:0:
256,192,246904,128,0,247312:0:0:0:0:
36,192,246904,128,0,247312:0:0:0:0:
402,192,247210,128,0,247414:0:0:0:0:
475,192,247210,128,0,247414:0:0:0:0:
329,192,247516,128,0,247925:0:0:0:0:
402,192,247516,128,0,247925:0:0:0:0:
475,192,247516,128,0,247925:0:0:0:0:
182,192,247516,128,0,247925:0:0:0:0:
256,192,247516,128,0,247925:0:0:0:0:
109,192,247567,128,0,248129:0:0:0:0:
36,192,247567,128,0,248027:0:0:0:0:
182,192,248027,128,0,248231:0:0:0:0:
256,192,248078,128,0,248435:0:0:0:0:
329,192,248129,128,0,248435:0:0:0:0:
402,192,248180,128,0,248435:0:0:0:0:
475,192,248231,128,0,248435:0:0:0:0:
182,192,248333,128,0,248537:0:0:0:0:
36,192,248333,128,0,248537:0:0:0:0:
109,192,248537,128,0,249047:0:0:0:0:
256,192,248537,128,0,249047:0:0:0:0:
329,192,248537,128,0,249047:0:0:0:0:
402,192,248537,128,0,249047:0:0:0:0:
475,192,248537,128,0,249047:0:0:0:0:
182,192,249047,128,0,249149:0:0:0:0:
402,192,249149,128,0,249761:0:0:0:0:
329,192,249149,128,0,249489:0:0:0:0:
256,192,249149,128,0,249455:0:0:0:0:
109,192,249149,128,0,249387:0:0:0:0:
36,192,249149,128,0,249353:0:0:0:0:
475,192,249149,128,0,249523:0:0:0:0:
36,192,249455,128,0,249591:0:0:0:0:
109,192,249489,128,0,249625:0:0:0:0:
182,192,249523,128,0,249659:0:0:0:0:
256,192,249557,128,0,249693:0:0:0:0:
329,192,249591,128,0,249727:0:0:0:0:
475,192,249625,128,0,249795:0:0:0:0:
36,192,249659,128,0,249897:0:0:0:0:
109,192,249693,128,0,249863:0:0:0:0:
182,192,249727,128,0,249829:0:0:0:0:
256,192,249761,128,0,249829:0:0:0:0:
402,192,249863,128,0,249965:0:0:0:0:
329,192,249897,128,0,249999:0:0:0:0:
182,192,249931,128,0,250033:0:0:0:0:
109,192,249965,128,0,250067:0:0:0:0:
36,192,249999,128,0,250101:0:0:0:0:
475,192,250033,128,0,250101:0:0:0:0:
402,192,250067,128,0,250135:0:0:0:0:
329,192,250101,128,0,250169:0:0:0:0:
256,192,250135,128,0,250169:0:0:0:0:
182,192,250169,1,0,0:0:0:0:
109,192,250169,1,0,0:0:0:0:
36,192,250169,1,0,0:0:0:0:
182,192,250476,1,0,0:0:0:0:
256,192,250527,1,0,0:0:0:0:
329,192,250578,1,0,0:0:0:0:
475,192,250578,1,0,0:0:0:0:
36,192,250578,1,0,0:0:0:0:
109,192,250578,1,0,0:0:0:0:
182,192,250782,1,0,0:0:0:0:
256,192,250782,1,0,0:0:0:0:
402,192,250782,1,0,0:0:0:0:
182,192,250986,1,0,0:0:0:0:
256,192,250986,1,0,0:0:0:0:
109,192,250986,1,0,0:0:0:0:
329,192,250986,1,0,0:0:0:0:
329,192,251394,1,0,0:0:0:0:
256,192,251394,1,0,0:0:0:0:
109,192,251394,1,0,0:0:0:0:
475,192,251598,1,0,0:0:0:0:
182,192,251598,1,0,0:0:0:0:
329,192,251700,1,0,0:0:0:0:
36,192,251700,1,0,0:0:0:0:
109,192,251802,1,0,0:0:0:0:
182,192,251802,1,0,0:0:0:0:
256,192,251802,1,0,0:0:0:0:
256,192,252210,1,0,0:0:0:0:
402,192,252210,1,0,0:0:0:0:
475,192,252210,1,0,0:0:0:0:
256,192,252414,1,0,0:0:0:0:
182,192,252414,1,0,0:0:0:0:
36,192,252414,1,0,0:0:0:0:
256,192,252822,1,0,0:0:0:0:
109,192,252822,1,0,0:0:0:0:
402,192,252822,1,0,0:0:0:0:
475,192,252822,1,0,0:0:0:0:
256,192,253027,1,0,0:0:0:0:
182,192,253027,1,0,0:0:0:0:
109,192,253027,1,0,0:0:0:0:
36,192,253027,1,0,0:0:0:0:
475,192,253231,1,0,0:0:0:0:
402,192,253231,1,0,0:0:0:0:
329,192,253231,1,0,0:0:0:0:
329,192,253333,1,0,0:0:0:0:
256,192,253333,1,0,0:0:0:0:
182,192,253333,1,0,0:0:0:0:
109,192,253435,1,0,0:0:0:0:
36,192,253435,1,0,0:0:0:0:
182,192,253435,1,0,0:0:0:0:
256,192,253639,1,0,0:0:0:0:
109,192,253639,1,0,0:0:0:0:
402,192,253639,1,0,0:0:0:0:
475,192,253639,1,0,0:0:0:0:
402,192,253843,1,0,0:0:0:0:
182,192,253843,1,0,0:0:0:0:
36,192,253843,1,0,0:0:0:0:
329,192,253843,1,0,0:0:0:0:
256,192,254047,1,0,0:0:0:0:
475,192,254047,1,0,0:0:0:0:
402,192,254047,1,0,0:0:0:0:
109,192,254047,1,0,0:0:0:0:
329,192,254149,1,0,0:0:0:0:
182,192,254149,1,0,0:0:0:0:
36,192,254149,1,0,0:0:0:0:
256,192,254251,1,0,0:0:0:0:
402,192,254251,1,0,0:0:0:0:
475,192,254251,1,0,0:0:0:0:
109,192,254353,1,0,0:0:0:0:
36,192,254353,1,0,0:0:0:0:
329,192,254455,1,0,0:0:0:0:
402,192,254455,1,0,0:0:0:0:
475,192,254455,1,0,0:0:0:0:
329,192,254557,1,0,0:0:0:0:
475,192,254557,1,0,0:0:0:0:
402,192,254557,1,0,0:0:0:0:
182,192,254659,1,0,0:0:0:0:
109,192,254659,1,0,0:0:0:0:
36,192,254659,1,0,0:0:0:0:
182,192,254761,1,0,0:0:0:0:
109,192,254761,1,0,0:0:0:0:
36,192,254761,1,0,0:0:0:0:
182,192,254863,1,0,0:0:0:0:
109,192,254863,1,0,0:0:0:0:
36,192,254863,1,0,0:0:0:0:
329,192,254965,1,0,0:0:0:0:
402,192,254965,1,0,0:0:0:0:
475,192,254965,1,0,0:0:0:0:
256,192,254965,1,0,0:0:0:0:
109,192,256700,128,0,257108:0:0:0:0:
256,192,256700,128,0,257108:0:0:0:0:
475,192,256700,1,0,0:0:0:0:
402,192,256802,1,0,0:0:0:0:
182,192,256802,1,0,0:0:0:0:
329,192,256904,1,0,0:0:0:0:
36,192,256904,1,0,0:0:0:0:
475,192,257006,1,0,0:0:0:0:
182,192,257006,1,0,0:0:0:0:
402,192,257108,1,0,0:0:0:0:
36,192,257108,1,0,0:0:0:0:
329,192,257210,1,0,0:0:0:0:
109,192,257210,1,0,0:0:0:0:
36,192,257312,1,0,0:0:0:0:
256,192,257312,128,0,258129:0:0:0:0:
475,192,257312,128,0,258129:0:0:0:0:
182,192,257414,1,0,0:0:0:0:
402,192,257414,1,0,0:0:0:0:
329,192,257516,1,0,0:0:0:0:
36,192,257516,1,0,0:0:0:0:
109,192,257618,1,0,0:0:0:0:
402,192,257618,1,0,0:0:0:0:
182,192,257720,1,0,0:0:0:0:
36,192,257720,1,0,0:0:0:0:
329,192,257822,1,0,0:0:0:0:
109,192,257822,1,0,0:0:0:0:
402,192,257925,1,0,0:0:0:0:
182,192,257925,1,0,0:0:0:0:
329,192,258027,1,0,0:0:0:0:
36,192,258027,1,0,0:0:0:0:
402,192,258129,1,0,0:0:0:0:
109,192,258129,1,0,0:0:0:0:
182,192,258231,1,0,0:0:0:0:
475,192,258231,1,0,0:0:0:0:
109,192,258333,128,0,258741:0:0:0:0:
256,192,258333,128,0,258741:0:0:0:0:
36,192,258333,1,0,0:0:0:0:
182,192,258435,1,0,0:0:0:0:
402,192,258435,1,0,0:0:0:0:
329,192,258537,1,0,0:0:0:0:
475,192,258537,1,0,0:0:0:0:
182,192,258639,1,0,0:0:0:0:
36,192,258639,1,0,0:0:0:0:
329,192,258741,1,0,0:0:0:0:
475,192,258741,1,0,0:0:0:0:
402,192,258843,1,0,0:0:0:0:
182,192,258843,1,0,0:0:0:0:
109,192,258945,128,0,259761:0:0:0:0:
256,192,258945,128,0,259761:0:0:0:0:
329,192,258945,1,0,0:0:0:0:
36,192,258945,1,0,0:0:0:0:
475,192,259047,1,0,0:0:0:0:
182,192,259047,1,0,0:0:0:0:
402,192,259149,1,0,0:0:0:0:
36,192,259149,1,0,0:0:0:0:
329,192,259251,1,0,0:0:0:0:
182,192,259251,1,0,0:0:0:0:
475,192,259353,1,0,0:0:0:0:
36,192,259353,1,0,0:0:0:0:
402,192,259455,1,0,0:0:0:0:
182,192,259455,1,0,0:0:0:0:
329,192,259557,1,0,0:0:0:0:
475,192,259557,1,0,0:0:0:0:
402,192,259659,1,0,0:0:0:0:
36,192,259659,1,0,0:0:0:0:
182,192,259761,1,0,0:0:0:0:
329,192,259761,1,0,0:0:0:0:
256,192,259863,1,0,0:0:0:0:
402,192,259863,1,0,0:0:0:0:
329,192,259965,128,0,260373:0:0:0:0:
475,192,259965,128,0,260373:0:0:0:0:
36,192,259965,1,0,0:0:0:0:
109,192,260067,1,0,0:0:0:0:
182,192,260067,1,0,0:0:0:0:
256,192,260169,1,0,0:0:0:0:
402,192,260169,1,0,0:0:0:0:
36,192,260271,1,0,0:0:0:0:
182,192,260271,1,0,0:0:0:0:
109,192,260373,1,0,0:0:0:0:
256,192,260373,1,0,0:0:0:0:
182,192,260476,1,0,0:0:0:0:
475,192,260476,1,0,0:0:0:0:
329,192,260578,128,0,261598:0:0:0:0:
36,192,260578,128,0,261598:0:0:0:0:
256,192,260578,1,0,0:0:0:0:
402,192,260680,1,0,0:0:0:0:
109,192,260680,1,0,0:0:0:0:
182,192,260782,1,0,0:0:0:0:
256,192,260782,1,0,0:0:0:0:
402,192,260884,1,0,0:0:0:0:
475,192,260884,1,0,0:0:0:0:
109,192,260986,1,0,0:0:0:0:
256,192,260986,1,0,0:0:0:0:
402,192,261088,1,0,0:0:0:0:
475,192,261088,1,0,0:0:0:0:
182,192,261190,128,0,261598:0:0:0:0:
256,192,261190,1,0,0:0:0:0:
109,192,261190,1,0,0:0:0:0:
402,192,261190,1,0,0:0:0:0:
475,192,261190,1,0,0:0:0:0:
256,192,261394,128,0,261598:0:0:0:0:
402,192,261394,1,0,0:0:0:0:
475,192,261394,1,0,0:0:0:0:
109,192,261394,1,0,0:0:0:0:
109,192,261598,1,0,0:0:0:0:
402,192,261598,1,0,0:0:0:0:
475,192,261598,1,0,0:0:0:0:
109,192,261802,1,0,0:0:0:0:
182,192,261904,1,0,0:0:0:0:
256,192,261904,1,0,0:0:0:0:
475,192,261904,1,0,0:0:0:0:
402,192,261904,1,0,0:0:0:0:
36,192,261904,1,0,0:0:0:0:
329,192,262210,1,0,0:0:0:0:
182,192,262210,1,0,0:0:0:0:
256,192,262210,1,0,0:0:0:0:
109,192,262210,1,0,0:0:0:0:
36,192,262210,1,0,0:0:0:0:
182,192,262516,1,0,0:0:0:0:
109,192,262516,1,0,0:0:0:0:
36,192,262516,1,0,0:0:0:0:
402,192,262516,1,0,0:0:0:0:
475,192,262516,1,0,0:0:0:0:
182,192,262822,1,0,0:0:0:0:
256,192,262822,1,0,0:0:0:0:
329,192,262822,1,0,0:0:0:0:
402,192,262822,1,0,0:0:0:0:
475,192,262822,1,0,0:0:0:0:
109,192,263231,128,0,263639:0:0:0:0:
475,192,263231,128,0,263639:0:0:0:0:
402,192,263231,1,0,0:0:0:0:
329,192,263231,1,0,0:0:0:0:
256,192,263333,1,0,0:0:0:0:
182,192,263333,1,0,0:0:0:0:
36,192,263435,1,0,0:0:0:0:
329,192,263435,1,0,0:0:0:0:
182,192,263537,1,0,0:0:0:0:
402,192,263537,1,0,0:0:0:0:
256,192,263639,1,0,0:0:0:0:
329,192,263639,1,0,0:0:0:0:
475,192,263741,1,0,0:0:0:0:
182,192,263741,1,0,0:0:0:0:
109,192,263843,128,0,264659:0:0:0:0:
256,192,263843,1,0,0:0:0:0:
36,192,263843,1,0,0:0:0:0:
402,192,263843,128,0,264659:0:0:0:0:
182,192,263945,1,0,0:0:0:0:
256,192,264047,1,0,0:0:0:0:
329,192,264047,1,0,0:0:0:0:
475,192,264149,1,0,0:0:0:0:
36,192,264149,1,0,0:0:0:0:
182,192,264251,1,0,0:0:0:0:
256,192,264251,1,0,0:0:0:0:
36,192,264353,1,0,0:0:0:0:
475,192,264353,1,0,0:0:0:0:
329,192,264455,1,0,0:0:0:0:
182,192,264455,1,0,0:0:0:0:
256,192,264557,1,0,0:0:0:0:
475,192,264557,1,0,0:0:0:0:
182,192,264659,1,0,0:0:0:0:
329,192,264659,1,0,0:0:0:0:
36,192,264659,1,0,0:0:0:0:
402,192,264761,1,0,0:0:0:0:
256,192,264761,1,0,0:0:0:0:
36,192,264863,128,0,265271:0:0:0:0:
182,192,264863,128,0,265271:0:0:0:0:
475,192,264863,1,0,0:0:0:0:
109,192,264863,1,0,0:0:0:0:
329,192,264965,1,0,0:0:0:0:
256,192,264965,1,0,0:0:0:0:
109,192,265067,1,0,0:0:0:0:
475,192,265067,1,0,0:0:0:0:
402,192,265169,1,0,0:0:0:0:
329,192,265169,1,0,0:0:0:0:
256,192,265271,1,0,0:0:0:0:
109,192,265271,1,0,0:0:0:0:
182,192,265373,1,0,0:0:0:0:
36,192,265373,1,0,0:0:0:0:
329,192,265476,128,0,265884:0:0:0:0:
475,192,265476,128,0,266088:0:0:0:0:
256,192,265476,128,0,265884:0:0:0:0:
402,192,265476,1,0,0:0:0:0:
109,192,265476,1,0,0:0:0:0:
36,192,265578,1,0,0:0:0:0:
182,192,265680,1,0,0:0:0:0:
402,192,265680,1,0,0:0:0:0:
109,192,265782,1,0,0:0:0:0:
182,192,265884,1,0,0:0:0:0:
109,192,265986,1,0,0:0:0:0:
256,192,266088,1,0,0:0:0:0:
182,192,266088,1,0,0:0:0:0:
402,192,266088,1,0,0:0:0:0:
36,192,266088,1,0,0:0:0:0:
329,192,266190,1,0,0:0:0:0:
109,192,266190,1,0,0:0:0:0:
256,192,266292,1,0,0:0:0:0:
475,192,266292,1,0,0:0:0:0:
36,192,266292,1,0,0:0:0:0:
182,192,266394,1,0,0:0:0:0:
329,192,266394,1,0,0:0:0:0:
402,192,266394,1,0,0:0:0:0:
36,192,266496,1,0,0:0:0:0:
109,192,266496,1,0,0:0:0:0:
256,192,266496,1,0,0:0:0:0:
475,192,266496,1,0,0:0:0:0:
402,192,266700,1,0,0:0:0:0:
329,192,266700,1,0,0:0:0:0:
182,192,266700,1,0,0:0:0:0:
36,192,266700,1,0,0:0:0:0:
109,192,266904,1,0,0:0:0:0:
182,192,266904,1,0,0:0:0:0:
256,192,266904,1,0,0:0:0:0:
402,192,266904,128,0,266955:0:0:0:0:
475,192,266904,128,0,266955:0:0:0:0:
329,192,267108,1,0,0:0:0:0:
256,192,267108,1,0,0:0:0:0:
109,192,267108,1,0,0:0:0:0:
182,192,267108,128,0,267159:0:0:0:0:
36,192,267108,128,0,267159:0:0:0:0:
182,192,267312,128,0,267363:0:0:0:0:
36,192,267312,128,0,267363:0:0:0:0:
109,192,267312,1,0,0:0:0:0:
182,192,267414,128,0,267465:0:0:0:0:
36,192,267414,128,0,267465:0:0:0:0:
109,192,267414,1,0,0:0:0:0:
182,192,267516,128,0,267567:0:0:0:0:
36,192,267516,128,0,267567:0:0:0:0:
109,192,267516,1,0,0:0:0:0:
36,192,267618,128,0,267669:0:0:0:0:
182,192,267618,128,0,267669:0:0:0:0:
109,192,267618,1,0,0:0:0:0:
329,192,267720,128,0,267771:0:0:0:0:
475,192,267720,128,0,267771:0:0:0:0:
402,192,267720,1,0,0:0:0:0:
475,192,267822,128,0,267873:0:0:0:0:
329,192,267822,128,0,267873:0:0:0:0:
402,192,267822,1,0,0:0:0:0:
329,192,267925,128,0,267976:0:0:0:0:
475,192,267925,128,0,267976:0:0:0:0:
402,192,267925,1,0,0:0:0:0:
329,192,268027,128,0,268078:0:0:0:0:
475,192,268027,128,0,268078:0:0:0:0:
402,192,268027,1,0,0:0:0:0:
329,192,268129,128,0,268180:0:0:0:0:
475,192,268129,128,0,268180:0:0:0:0:
402,192,268129,1,0,0:0:0:0:
36,192,268129,128,0,268231:0:0:0:0:
109,192,268129,128,0,268231:0:0:0:0:
329,192,268231,128,0,268282:0:0:0:0:
475,192,268231,128,0,268282:0:0:0:0:
182,192,268231,128,0,268282:0:0:0:0:
329,192,268333,128,0,268384:0:0:0:0:
475,192,268333,128,0,268384:0:0:0:0:
329,192,268435,128,0,268486:0:0:0:0:
475,192,268435,128,0,268486:0:0:0:0:
329,192,268537,128,0,268588:0:0:0:0:
475,192,268537,128,0,268588:0:0:0:0:
329,192,268639,128,0,268690:0:0:0:0:
475,192,268639,128,0,268690:0:0:0:0:
109,192,268639,1,0,0:0:0:0:
36,192,268639,1,0,0:0:0:0:
182,192,268639,1,0,0:0:0:0:
329,192,268741,128,0,268792:0:0:0:0:
475,192,268741,128,0,268792:0:0:0:0:
109,192,268741,1,0,0:0:0:0:
182,192,268741,1,0,0:0:0:0:
36,192,268741,1,0,0:0:0:0:
329,192,268843,128,0,268894:0:0:0:0:
475,192,268843,128,0,268894:0:0:0:0:
109,192,268843,1,0,0:0:0:0:
182,192,268843,1,0,0:0:0:0:
36,192,268843,1,0,0:0:0:0:
329,192,268945,128,0,268996:0:0:0:0:
109,192,268945,1,0,0:0:0:0:
36,192,268945,1,0,0:0:0:0:
329,192,269047,128,0,269098:0:0:0:0:
475,192,269047,128,0,269098:0:0:0:0:
36,192,269047,1,0,0:0:0:0:
402,192,269149,128,0,269251:0:0:0:0:
329,192,269251,128,0,269353:0:0:0:0:
256,192,269251,128,0,269353:0:0:0:0:
36,192,269251,128,0,269404:0:0:0:0:
109,192,269353,128,0,269506:0:0:0:0:
182,192,269353,128,0,269506:0:0:0:0:
402,192,269353,128,0,269506:0:0:0:0:
475,192,269353,128,0,269506:0:0:0:0:
256,192,269455,128,0,269557:0:0:0:0:
329,192,269455,128,0,269557:0:0:0:0:
36,192,269455,128,0,269608:0:0:0:0:
182,192,269557,128,0,269710:0:0:0:0:
402,192,269557,128,0,269710:0:0:0:0:
475,192,269557,128,0,269710:0:0:0:0:
109,192,269659,128,0,269761:0:0:0:0:
36,192,269659,128,0,269761:0:0:0:0:
329,192,269659,128,0,269761:0:0:0:0:
182,192,269761,1,0,0:0:0:0:
256,192,269761,1,0,0:0:0:0:
402,192,269761,1,0,0:0:0:0:
475,192,269761,1,0,0:0:0:0:
256,192,269863,1,0,0:0:0:0:
329,192,269863,1,0,0:0:0:0:
402,192,269965,1,0,0:0:0:0:
475,192,269965,1,0,0:0:0:0:
182,192,269965,1,0,0:0:0:0:
109,192,269965,1,0,0:0:0:0:
402,192,270067,1,0,0:0:0:0:
475,192,270067,1,0,0:0:0:0:
36,192,270169,1,0,0:0:0:0:
109,192,270169,1,0,0:0:0:0:
182,192,270169,1,0,0:0:0:0:
329,192,270169,1,0,0:0:0:0:
109,192,270271,1,0,0:0:0:0:
182,192,270271,1,0,0:0:0:0:
256,192,270373,1,0,0:0:0:0:
329,192,270373,1,0,0:0:0:0:
402,192,270373,1,0,0:0:0:0:
475,192,270373,1,0,0:0:0:0:
182,192,270476,1,0,0:0:0:0:
36,192,270476,1,0,0:0:0:0:
109,192,270476,1,0,0:0:0:0:
109,192,270578,1,0,0:0:0:0:
36,192,270578,1,0,0:0:0:0:
182,192,270578,1,0,0:0:0:0:
329,192,270680,1,0,0:0:0:0:
475,192,270680,1,0,0:0:0:0:
402,192,270680,1,0,0:0:0:0:
329,192,270782,1,0,0:0:0:0:
402,192,270782,1,0,0:0:0:0:
475,192,270782,1,0,0:0:0:0:
109,192,270884,1,0,0:0:0:0:
36,192,270884,1,0,0:0:0:0:
256,192,270884,1,0,0:0:0:0:
402,192,270986,1,0,0:0:0:0:
475,192,270986,1,0,0:0:0:0:
36,192,270986,1,0,0:0:0:0:
109,192,270986,1,0,0:0:0:0:
329,192,271088,1,0,0:0:0:0:
256,192,271088,1,0,0:0:0:0:
182,192,271088,1,0,0:0:0:0:
109,192,271190,1,0,0:0:0:0:
36,192,271190,1,0,0:0:0:0:
402,192,271190,1,0,0:0:0:0:
329,192,271292,1,0,0:0:0:0:
475,192,271292,1,0,0:0:0:0:
256,192,271292,1,0,0:0:0:0:
36,192,271394,1,0,0:0:0:0:
402,192,271394,1,0,0:0:0:0:
182,192,271394,1,0,0:0:0:0:
329,192,271496,1,0,0:0:0:0:
256,192,271496,1,0,0:0:0:0:
475,192,271496,1,0,0:0:0:0:
109,192,271598,1,0,0:0:0:0:
36,192,271598,1,0,0:0:0:0:
182,192,271598,1,0,0:0:0:0:
402,192,271598,1,0,0:0:0:0:
256,192,271700,1,0,0:0:0:0:
475,192,271700,1,0,0:0:0:0:
402,192,271802,1,0,0:0:0:0:
329,192,271802,1,0,0:0:0:0:
109,192,271802,1,0,0:0:0:0:
36,192,271802,1,0,0:0:0:0:
182,192,271904,1,0,0:0:0:0:
256,192,271904,1,0,0:0:0:0:
109,192,272006,1,0,0:0:0:0:
36,192,272006,1,0,0:0:0:0:
402,192,272006,1,0,0:0:0:0:
475,192,272006,1,0,0:0:0:0:
109,192,272108,1,0,0:0:0:0:
36,192,272108,1,0,0:0:0:0:
402,192,272210,1,0,0:0:0:0:
182,192,272210,1,0,0:0:0:0:
256,192,272210,1,0,0:0:0:0:
475,192,272312,1,0,0:0:0:0:
329,192,272312,1,0,0:0:0:0:
36,192,272312,1,0,0:0:0:0:
402,192,272414,1,0,0:0:0:0:
256,192,272414,1,0,0:0:0:0:
109,192,272414,1,0,0:0:0:0:
36,192,272516,1,0,0:0:0:0:
182,192,272516,1,0,0:0:0:0:
329,192,272516,1,0,0:0:0:0:
475,192,272516,1,0,0:0:0:0:
109,192,272516,1,0,0:0:0:0:
402,192,272618,1,0,0:0:0:0:
256,192,272618,1,0,0:0:0:0:
256,192,272822,128,0,273027:0:0:0:0:
182,192,273027,1,0,0:0:0:0:
109,192,273027,1,0,0:0:0:0:
36,192,273027,1,0,0:0:0:0:
329,192,273027,1,0,0:0:0:0:
182,192,273129,1,0,0:0:0:0:
329,192,273129,1,0,0:0:0:0:
109,192,273231,1,0,0:0:0:0:
36,192,273231,1,0,0:0:0:0:
256,192,273231,1,0,0:0:0:0:
109,192,273333,1,0,0:0:0:0:
36,192,273333,1,0,0:0:0:0:
256,192,273333,1,0,0:0:0:0:
329,192,273435,1,0,0:0:0:0:
402,192,273435,1,0,0:0:0:0:
475,192,273435,1,0,0:0:0:0:
402,192,273537,1,0,0:0:0:0:
475,192,273537,1,0,0:0:0:0:
182,192,273639,1,0,0:0:0:0:
109,192,273639,1,0,0:0:0:0:
256,192,273639,1,0,0:0:0:0:
329,192,273639,1,0,0:0:0:0:
109,192,273741,1,0,0:0:0:0:
182,192,273741,1,0,0:0:0:0:
329,192,273843,1,0,0:0:0:0:
475,192,273843,1,0,0:0:0:0:
402,192,273843,1,0,0:0:0:0:
256,192,273843,1,0,0:0:0:0:
182,192,273945,1,0,0:0:0:0:
36,192,273945,1,0,0:0:0:0:
402,192,273945,1,0,0:0:0:0:
475,192,273945,1,0,0:0:0:0:
256,192,274047,1,0,0:0:0:0:
329,192,274047,1,0,0:0:0:0:
109,192,274047,1,0,0:0:0:0:
182,192,274149,1,0,0:0:0:0:
402,192,274149,1,0,0:0:0:0:
475,192,274149,1,0,0:0:0:0:
256,192,274251,1,0,0:0:0:0:
36,192,274251,1,0,0:0:0:0:
402,192,274353,1,0,0:0:0:0:
475,192,274353,1,0,0:0:0:0:
109,192,274353,1,0,0:0:0:0:
329,192,274353,1,0,0:0:0:0:
402,192,274455,1,0,0:0:0:0:
182,192,274455,1,0,0:0:0:0:
256,192,274455,1,0,0:0:0:0:
36,192,274455,1,0,0:0:0:0:
109,192,274557,1,0,0:0:0:0:
329,192,274557,1,0,0:0:0:0:
36,192,274659,1,0,0:0:0:0:
256,192,274659,1,0,0:0:0:0:
475,192,274659,1,0,0:0:0:0:
109,192,274761,1,0,0:0:0:0:
329,192,274761,1,0,0:0:0:0:
402,192,274761,1,0,0:0:0:0:
182,192,274863,1,0,0:0:0:0:
256,192,274863,1,0,0:0:0:0:
36,192,274863,1,0,0:0:0:0:
109,192,274965,1,0,0:0:0:0:
329,192,274965,1,0,0:0:0:0:
402,192,274965,1,0,0:0:0:0:
475,192,274965,1,0,0:0:0:0:
182,192,275067,1,0,0:0:0:0:
402,192,275067,1,0,0:0:0:0:
475,192,275067,1,0,0:0:0:0:
402,192,275169,1,0,0:0:0:0:
475,192,275169,1,0,0:0:0:0:
182,192,275271,1,0,0:0:0:0:
109,192,275271,1,0,0:0:0:0:
36,192,275271,1,0,0:0:0:0:
329,192,275271,1,0,0:0:0:0:
402,192,275373,1,0,0:0:0:0:
475,192,275373,1,0,0:0:0:0:
109,192,275373,1,0,0:0:0:0:
182,192,275373,1,0,0:0:0:0:
36,192,275476,1,0,0:0:0:0:
329,192,275476,1,0,0:0:0:0:
109,192,275510,1,0,0:0:0:0:
182,192,275544,1,0,0:0:0:0:
402,192,275578,1,0,0:0:0:0:
475,192,275612,1,0,0:0:0:0:
36,192,275646,1,0,0:0:0:0:
109,192,275680,1,0,0:0:0:0:
256,192,275680,1,0,0:0:0:0:
182,192,275714,1,0,0:0:0:0:
329,192,275748,1,0,0:0:0:0:
402,192,275782,1,0,0:0:0:0:
36,192,275816,1,0,0:0:0:0:
475,192,275816,1,0,0:0:0:0:
182,192,275850,1,0,0:0:0:0:
256,192,275884,1,0,0:0:0:0:
109,192,275884,1,0,0:0:0:0:
329,192,275918,1,0,0:0:0:0:
475,192,275952,1,0,0:0:0:0:
402,192,275986,1,0,0:0:0:0:
182,192,276020,1,0,0:0:0:0:
109,192,276054,1,0,0:0:0:0:
36,192,276088,1,0,0:0:0:0:
329,192,276088,1,0,0:0:0:0:
256,192,276122,1,0,0:0:0:0:
182,192,276156,1,0,0:0:0:0:
109,192,276190,1,0,0:0:0:0:
36,192,276224,1,0,0:0:0:0:
329,192,276258,1,0,0:0:0:0:
256,192,276292,1,0,0:0:0:0:
182,192,276292,1,0,0:0:0:0:
402,192,276292,1,0,0:0:0:0:
475,192,276292,1,0,0:0:0:0:
182,192,276394,1,0,0:0:0:0:
256,192,276394,1,0,0:0:0:0:
402,192,276496,1,0,0:0:0:0:
329,192,276496,1,0,0:0:0:0:
109,192,276496,1,0,0:0:0:0:
36,192,276496,1,0,0:0:0:0:
109,192,276598,1,0,0:0:0:0:
36,192,276598,1,0,0:0:0:0:
182,192,276700,1,0,0:0:0:0:
256,192,276700,1,0,0:0:0:0:
402,192,276700,1,0,0:0:0:0:
475,192,276700,1,0,0:0:0:0:
256,192,276802,1,0,0:0:0:0:
182,192,276802,1,0,0:0:0:0:
329,192,276904,1,0,0:0:0:0:
402,192,276904,1,0,0:0:0:0:
109,192,276904,1,0,0:0:0:0:
36,192,276904,1,0,0:0:0:0:
475,192,277006,1,0,0:0:0:0:
182,192,277006,1,0,0:0:0:0:
256,192,277006,1,0,0:0:0:0:
329,192,277108,1,0,0:0:0:0:
402,192,277108,1,0,0:0:0:0:
36,192,277108,1,0,0:0:0:0:
256,192,277210,1,0,0:0:0:0:
182,192,277210,1,0,0:0:0:0:
109,192,277210,1,0,0:0:0:0:
182,192,277312,1,0,0:0:0:0:
109,192,277312,1,0,0:0:0:0:
256,192,277312,1,0,0:0:0:0:
475,192,277414,1,0,0:0:0:0:
402,192,277414,1,0,0:0:0:0:
36,192,277516,1,0,0:0:0:0:
329,192,277516,1,0,0:0:0:0:
256,192,277516,1,0,0:0:0:0:
402,192,277516,1,0,0:0:0:0:
475,192,277516,1,0,0:0:0:0:
109,192,277618,1,0,0:0:0:0:
182,192,277618,1,0,0:0:0:0:
36,192,277720,1,0,0:0:0:0:
329,192,277720,1,0,0:0:0:0:
256,192,277720,1,0,0:0:0:0:
402,192,277720,1,0,0:0:0:0:
182,192,277822,1,0,0:0:0:0:
109,192,277822,1,0,0:0:0:0:
36,192,277925,1,0,0:0:0:0:
256,192,277925,1,0,0:0:0:0:
402,192,277925,1,0,0:0:0:0:
475,192,277925,1,0,0:0:0:0:
402,192,278027,1,0,0:0:0:0:
475,192,278027,1,0,0:0:0:0:
36,192,278129,1,0,0:0:0:0:
109,192,278129,1,0,0:0:0:0:
329,192,278129,1,0,0:0:0:0:
182,192,278129,1,0,0:0:0:0:
36,192,278231,1,0,0:0:0:0:
109,192,278231,1,0,0:0:0:0:
329,192,278333,1,0,0:0:0:0:
402,192,278333,1,0,0:0:0:0:
182,192,278333,1,0,0:0:0:0:
256,192,278333,1,0,0:0:0:0:
402,192,278435,1,0,0:0:0:0:
329,192,278435,1,0,0:0:0:0:
256,192,278537,1,0,0:0:0:0:
36,192,278537,1,0,0:0:0:0:
109,192,278537,1,0,0:0:0:0:
182,192,278537,1,0,0:0:0:0:
182,192,278639,1,0,0:0:0:0:
109,192,278639,1,0,0:0:0:0:
475,192,278741,1,0,0:0:0:0:
329,192,278741,1,0,0:0:0:0:
402,192,278741,1,0,0:0:0:0:
256,192,278741,1,0,0:0:0:0:
36,192,278843,1,0,0:0:0:0:
109,192,278843,1,0,0:0:0:0:
182,192,278843,1,0,0:0:0:0:
36,192,278945,1,0,0:0:0:0:
109,192,278945,1,0,0:0:0:0:
182,192,278945,1,0,0:0:0:0:
329,192,279047,1,0,0:0:0:0:
402,192,279047,1,0,0:0:0:0:
475,192,279047,1,0,0:0:0:0:
329,192,279149,1,0,0:0:0:0:
475,192,279149,1,0,0:0:0:0:
402,192,279149,1,0,0:0:0:0:
109,192,279149,1,0,0:0:0:0:
36,192,279149,1,0,0:0:0:0:
256,192,279353,128,0,279557:0:0:0:0:
36,192,279557,1,0,0:0:0:0:
109,192,279557,1,0,0:0:0:0:
402,192,279557,1,0,0:0:0:0:
475,192,279557,1,0,0:0:0:0:
402,192,279659,1,0,0:0:0:0:
475,192,279659,1,0,0:0:0:0:
329,192,279761,1,0,0:0:0:0:
182,192,279761,1,0,0:0:0:0:
109,192,279761,1,0,0:0:0:0:
36,192,279761,1,0,0:0:0:0:
36,192,279863,1,0,0:0:0:0:
109,192,279863,1,0,0:0:0:0:
256,192,279965,1,0,0:0:0:0:
329,192,279965,1,0,0:0:0:0:
402,192,279965,1,0,0:0:0:0:
475,192,279965,1,0,0:0:0:0:
402,192,280067,1,0,0:0:0:0:
475,192,280067,1,0,0:0:0:0:
256,192,280169,1,0,0:0:0:0:
182,192,280169,1,0,0:0:0:0:
109,192,280169,1,0,0:0:0:0:
36,192,280169,1,0,0:0:0:0:
36,192,280271,1,0,0:0:0:0:
109,192,280271,1,0,0:0:0:0:
256,192,280373,1,0,0:0:0:0:
329,192,280373,1,0,0:0:0:0:
402,192,280373,1,0,0:0:0:0:
475,192,280373,1,0,0:0:0:0:
475,192,280476,1,0,0:0:0:0:
402,192,280476,1,0,0:0:0:0:
256,192,280578,1,0,0:0:0:0:
329,192,280578,1,0,0:0:0:0:
109,192,280578,1,0,0:0:0:0:
36,192,280578,1,0,0:0:0:0:
36,192,280680,1,0,0:0:0:0:
109,192,280680,1,0,0:0:0:0:
256,192,280782,1,0,0:0:0:0:
329,192,280782,1,0,0:0:0:0:
402,192,280782,1,0,0:0:0:0:
475,192,280782,1,0,0:0:0:0:
402,192,280884,1,0,0:0:0:0:
475,192,280884,1,0,0:0:0:0:
256,192,280986,1,0,0:0:0:0:
182,192,280986,1,0,0:0:0:0:
109,192,280986,1,0,0:0:0:0:
36,192,280986,1,0,0:0:0:0:
36,192,281088,1,0,0:0:0:0:
109,192,281088,1,0,0:0:0:0:
475,192,281190,1,0,0:0:0:0:
329,192,281190,1,0,0:0:0:0:
475,192,281292,1,0,0:0:0:0:
329,192,281292,1,0,0:0:0:0:
402,192,281394,1,0,0:0:0:0:
256,192,281394,1,0,0:0:0:0:
256,192,281496,1,0,0:0:0:0:
402,192,281496,1,0,0:0:0:0:
329,192,281598,1,0,0:0:0:0:
182,192,281598,1,0,0:0:0:0:
182,192,281700,1,0,0:0:0:0:
329,192,281700,1,0,0:0:0:0:
256,192,281802,1,0,0:0:0:0:
109,192,281802,1,0,0:0:0:0:
109,192,281904,1,0,0:0:0:0:
256,192,281904,1,0,0:0:0:0:
402,192,282006,1,0,0:0:0:0:
475,192,282006,1,0,0:0:0:0:
329,192,282040,1,0,0:0:0:0:
182,192,282074,1,0,0:0:0:0:
256,192,282108,1,0,0:0:0:0:
109,192,282108,1,0,0:0:0:0:
36,192,282142,1,0,0:0:0:0:
329,192,282176,1,0,0:0:0:0:
475,192,282210,1,0,0:0:0:0:
402,192,282210,1,0,0:0:0:0:
182,192,282244,1,0,0:0:0:0:
109,192,282278,1,0,0:0:0:0:
256,192,282312,1,0,0:0:0:0:
36,192,282312,1,0,0:0:0:0:
329,192,282346,1,0,0:0:0:0:
402,192,282380,1,0,0:0:0:0:
182,192,282414,1,0,0:0:0:0:
475,192,282414,1,0,0:0:0:0:
109,192,282448,1,0,0:0:0:0:
36,192,282482,1,0,0:0:0:0:
329,192,282516,1,0,0:0:0:0:
256,192,282516,1,0,0:0:0:0:
402,192,282550,1,0,0:0:0:0:
475,192,282584,1,0,0:0:0:0:
182,192,282618,1,0,0:0:0:0:
109,192,282618,1,0,0:0:0:0:
256,192,282652,1,0,0:0:0:0:
329,192,282686,1,0,0:0:0:0:
36,192,282720,1,0,0:0:0:0:
475,192,282720,1,0,0:0:0:0:
402,192,282754,1,0,0:0:0:0:
329,192,282788,1,0,0:0:0:0:
109,192,282822,1,0,0:0:0:0:
182,192,282822,1,0,0:0:0:0:
256,192,282822,1,0,0:0:0:0:
475,192,282873,1,0,0:0:0:0:
402,192,282873,1,0,0:0:0:0:
36,192,282925,1,0,0:0:0:0:
109,192,282925,1,0,0:0:0:0:
182,192,282976,1,0,0:0:0:0:
256,192,282976,1,0,0:0:0:0:
329,192,283027,1,0,0:0:0:0:
402,192,283027,1,0,0:0:0:0:
475,192,283078,1,0,0:0:0:0:
36,192,283078,1,0,0:0:0:0:
109,192,283129,1,0,0:0:0:0:
182,192,283129,1,0,0:0:0:0:
256,192,283180,1,0,0:0:0:0:
329,192,283180,1,0,0:0:0:0:
402,192,283231,1,0,0:0:0:0:
475,192,283231,1,0,0:0:0:0:
109,192,283282,1,0,0:0:0:0:
36,192,283282,1,0,0:0:0:0:
256,192,283333,1,0,0:0:0:0:
329,192,283333,1,0,0:0:0:0:
402,192,283384,1,0,0:0:0:0:
475,192,283384,1,0,0:0:0:0:
36,192,283435,1,0,0:0:0:0:
182,192,283435,1,0,0:0:0:0:
256,192,283486,1,0,0:0:0:0:
329,192,283486,1,0,0:0:0:0:
402,192,283537,1,0,0:0:0:0:
475,192,283537,1,0,0:0:0:0:
36,192,283588,1,0,0:0:0:0:
109,192,283588,1,0,0:0:0:0:
182,192,283639,1,0,0:0:0:0:
329,192,283639,1,0,0:0:0:0:
402,192,283690,1,0,0:0:0:0:
475,192,283690,1,0,0:0:0:0:
36,192,283741,1,0,0:0:0:0:
109,192,283741,1,0,0:0:0:0:
182,192,283792,1,0,0:0:0:0:
256,192,283792,1,0,0:0:0:0:
475,192,283843,1,0,0:0:0:0:
402,192,283843,1,0,0:0:0:0:
329,192,283894,1,0,0:0:0:0:
36,192,283894,1,0,0:0:0:0:
256,192,283945,1,0,0:0:0:0:
182,192,283945,1,0,0:0:0:0:
109,192,283996,1,0,0:0:0:0:
475,192,283996,1,0,0:0:0:0:
402,192,284047,1,0,0:0:0:0:
329,192,284047,1,0,0:0:0:0:
256,192,284098,1,0,0:0:0:0:
182,192,284098,1,0,0:0:0:0:
109,192,284149,1,0,0:0:0:0:
36,192,284149,1,0,0:0:0:0:
475,192,284200,1,0,0:0:0:0:
402,192,284200,1,0,0:0:0:0:
329,192,284251,1,0,0:0:0:0:
256,192,284251,1,0,0:0:0:0:
109,192,284302,1,0,0:0:0:0:
182,192,284302,1,0,0:0:0:0:
36,192,284353,1,0,0:0:0:0:
475,192,284353,1,0,0:0:0:0:
402,192,284404,1,0,0:0:0:0:
329,192,284404,1,0,0:0:0:0:
182,192,284455,1,0,0:0:0:0:
256,192,284455,1,0,0:0:0:0:
109,192,284506,1,0,0:0:0:0:
36,192,284506,1,0,0:0:0:0:
475,192,284557,1,0,0:0:0:0:
402,192,284557,1,0,0:0:0:0:
182,192,284608,1,0,0:0:0:0:
109,192,284608,1,0,0:0:0:0:
329,192,284659,1,0,0:0:0:0:
256,192,284659,1,0,0:0:0:0:
402,192,284710,1,0,0:0:0:0:
475,192,284710,1,0,0:0:0:0:
109,192,284761,1,0,0:0:0:0:
36,192,284761,1,0,0:0:0:0:
182,192,284812,1,0,0:0:0:0:
256,192,284812,1,0,0:0:0:0:
402,192,284863,1,0,0:0:0:0:
475,192,284863,1,0,0:0:0:0:
36,192,284914,1,0,0:0:0:0:
109,192,284914,1,0,0:0:0:0:
182,192,284965,1,0,0:0:0:0:
256,192,284965,1,0,0:0:0:0:
329,192,285016,1,0,0:0:0:0:
402,192,285016,1,0,0:0:0:0:
109,192,285067,1,0,0:0:0:0:
182,192,285067,1,0,0:0:0:0:
256,192,285118,1,0,0:0:0:0:
475,192,285118,1,0,0:0:0:0:
329,192,285169,1,0,0:0:0:0:
402,192,285169,1,0,0:0:0:0:
36,192,285220,1,0,0:0:0:0:
109,192,285220,1,0,0:0:0:0:
256,192,285271,1,0,0:0:0:0:
182,192,285271,1,0,0:0:0:0:
329,192,285322,1,0,0:0:0:0:
402,192,285322,1,0,0:0:0:0:
109,192,285373,1,0,0:0:0:0:
36,192,285373,1,0,0:0:0:0:
475,192,285425,1,0,0:0:0:0:
182,192,285425,1,0,0:0:0:0:
256,192,285476,1,0,0:0:0:0:
329,192,285476,1,0,0:0:0:0:
402,192,285527,1,0,0:0:0:0:
36,192,285527,1,0,0:0:0:0:
109,192,285578,1,0,0:0:0:0:
182,192,285578,1,0,0:0:0:0:
475,192,285629,1,0,0:0:0:0:
329,192,285629,1,0,0:0:0:0:
256,192,285680,1,0,0:0:0:0:
36,192,285680,1,0,0:0:0:0:
182,192,285731,1,0,0:0:0:0:
109,192,285731,1,0,0:0:0:0:
475,192,285782,1,0,0:0:0:0:
402,192,285782,1,0,0:0:0:0:
329,192,285833,1,0,0:0:0:0:
256,192,285833,1,0,0:0:0:0:
182,192,285884,1,0,0:0:0:0:
109,192,285884,1,0,0:0:0:0:
36,192,285935,1,0,0:0:0:0:
475,192,285935,1,0,0:0:0:0:
402,192,285986,1,0,0:0:0:0:
329,192,285986,1,0,0:0:0:0:
182,192,286037,1,0,0:0:0:0:
109,192,286037,1,0,0:0:0:0:
36,192,286088,1,0,0:0:0:0:
475,192,286088,1,0,0:0:0:0:
329,192,286139,1,0,0:0:0:0:
402,192,286139,1,0,0:0:0:0:
109,192,286190,1,0,0:0:0:0:
182,192,286190,1,0,0:0:0:0:
256,192,286241,1,0,0:0:0:0:
475,192,286241,1,0,0:0:0:0:
36,192,286292,1,0,0:0:0:0:
329,192,286292,1,0,0:0:0:0:
109,192,286343,1,0,0:0:0:0:
402,192,286343,1,0,0:0:0:0:
182,192,286394,1,0,0:0:0:0:
256,192,286394,1,0,0:0:0:0:
329,192,286445,1,0,0:0:0:0:
475,192,286445,1,0,0:0:0:0:
36,192,286496,1,0,0:0:0:0:
109,192,286496,1,0,0:0:0:0:
182,192,286547,1,0,0:0:0:0:
256,192,286547,1,0,0:0:0:0:
329,192,286598,1,0,0:0:0:0:
402,192,286598,1,0,0:0:0:0:
475,192,286649,1,0,0:0:0:0:
109,192,286649,1,0,0:0:0:0:
182,192,286700,1,0,0:0:0:0:
256,192,286700,1,0,0:0:0:0:
402,192,286751,1,0,0:0:0:0:
329,192,286751,1,0,0:0:0:0:
109,192,286802,1,0,0:0:0:0:
36,192,286802,1,0,0:0:0:0:
475,192,286853,1,0,0:0:0:0:
182,192,286853,1,0,0:0:0:0:
256,192,286904,1,0,0:0:0:0:
329,192,286904,1,0,0:0:0:0:
109,192,286955,1,0,0:0:0:0:
36,192,286955,1,0,0:0:0:0:
182,192,287006,1,0,0:0:0:0:
475,192,287006,1,0,0:0:0:0:
329,192,287057,1,0,0:0:0:0:
402,192,287057,1,0,0:0:0:0:
109,192,287108,1,0,0:0:0:0:
36,192,287108,1,0,0:0:0:0:
475,192,287159,1,0,0:0:0:0:
182,192,287210,1,0,0:0:0:0:
256,192,287210,1,0,0:0:0:0:
329,192,287261,1,0,0:0:0:0:
402,192,287261,1,0,0:0:0:0:
109,192,287312,1,0,0:0:0:0:
36,192,287312,1,0,0:0:0:0:
475,192,287363,1,0,0:0:0:0:
402,192,287363,1,0,0:0:0:0:
256,192,287414,1,0,0:0:0:0:
182,192,287414,1,0,0:0:0:0:
109,192,287465,1,0,0:0:0:0:
36,192,287465,1,0,0:0:0:0:
475,192,287516,1,0,0:0:0:0:
402,192,287516,1,0,0:0:0:0:
329,192,287567,1,0,0:0:0:0:
256,192,287567,1,0,0:0:0:0:
182,192,287618,1,0,0:0:0:0:
109,192,287618,1,0,0:0:0:0:
36,192,287669,1,0,0:0:0:0:
475,192,287669,1,0,0:0:0:0:
402,192,287720,1,0,0:0:0:0:
329,192,287720,1,0,0:0:0:0:
109,192,287771,1,0,0:0:0:0:
182,192,287771,1,0,0:0:0:0:
256,192,287822,1,0,0:0:0:0:
36,192,287822,1,0,0:0:0:0:
329,192,287873,1,0,0:0:0:0:
402,192,287873,1,0,0:0:0:0:
109,192,287925,1,0,0:0:0:0:
475,192,287925,1,0,0:0:0:0:
182,192,287976,1,0,0:0:0:0:
256,192,287976,1,0,0:0:0:0:
329,192,288027,1,0,0:0:0:0:
402,192,288027,1,0,0:0:0:0:
36,192,288078,1,0,0:0:0:0:
475,192,288078,1,0,0:0:0:0:
109,192,288129,1,0,0:0:0:0:
182,192,288129,1,0,0:0:0:0:
256,192,288180,1,0,0:0:0:0:
329,192,288180,1,0,0:0:0:0:
402,192,288231,1,0,0:0:0:0:
475,192,288231,1,0,0:0:0:0:
36,192,288282,1,0,0:0:0:0:
109,192,288282,1,0,0:0:0:0:
256,192,288333,1,0,0:0:0:0:
182,192,288333,1,0,0:0:0:0:
475,192,288384,1,0,0:0:0:0:
402,192,288384,1,0,0:0:0:0:
329,192,288435,1,0,0:0:0:0:
36,192,288435,1,0,0:0:0:0:
256,192,288486,1,0,0:0:0:0:
182,192,288486,1,0,0:0:0:0:
109,192,288537,1,0,0:0:0:0:
475,192,288537,1,0,0:0:0:0:
402,192,288588,1,0,0:0:0:0:
329,192,288588,1,0,0:0:0:0:
256,192,288639,1,0,0:0:0:0:
182,192,288639,1,0,0:0:0:0:
109,192,288690,1,0,0:0:0:0:
36,192,288690,1,0,0:0:0:0:
475,192,288741,1,0,0:0:0:0:
402,192,288741,1,0,0:0:0:0:
329,192,288792,1,0,0:0:0:0:
256,192,288792,1,0,0:0:0:0:
182,192,288843,1,0,0:0:0:0:
109,192,288843,1,0,0:0:0:0:
36,192,288894,1,0,0:0:0:0:
475,192,288945,1,0,0:0:0:0:
402,192,288945,1,0,0:0:0:0:
329,192,288996,1,0,0:0:0:0:
182,192,288996,1,0,0:0:0:0:
109,192,289047,1,0,0:0:0:0:
36,192,289047,1,0,0:0:0:0:
402,192,289098,1,0,0:0:0:0:
475,192,289098,1,0,0:0:0:0:
329,192,289149,1,0,0:0:0:0:
256,192,289149,1,0,0:0:0:0:
182,192,289200,1,0,0:0:0:0:
36,192,289200,1,0,0:0:0:0:
475,192,289251,1,0,0:0:0:0:
402,192,289251,1,0,0:0:0:0:
329,192,289302,1,0,0:0:0:0:
256,192,289302,1,0,0:0:0:0:
36,192,289353,1,0,0:0:0:0:
109,192,289379,1,0,0:0:0:0:
182,192,289404,1,0,0:0:0:0:
475,192,289430,1,0,0:0:0:0:
402,192,289455,1,0,0:0:0:0:
329,192,289481,1,0,0:0:0:0:
36,192,289506,1,0,0:0:0:0:
109,192,289532,1,0,0:0:0:0:
182,192,289557,1,0,0:0:0:0:
475,192,289583,1,0,0:0:0:0:
402,192,289608,1,0,0:0:0:0:
329,192,289634,1,0,0:0:0:0:
36,192,289659,1,0,0:0:0:0:
109,192,289685,1,0,0:0:0:0:
182,192,289710,1,0,0:0:0:0:
475,192,289736,1,0,0:0:0:0:
402,192,289761,1,0,0:0:0:0:
329,192,289787,1,0,0:0:0:0:
36,192,289812,1,0,0:0:0:0:
109,192,289838,1,0,0:0:0:0:
182,192,289863,1,0,0:0:0:0:
475,192,289889,1,0,0:0:0:0:
402,192,289914,1,0,0:0:0:0:
329,192,289940,1,0,0:0:0:0:
36,192,289965,1,0,0:0:0:0:
109,192,289991,1,0,0:0:0:0:
182,192,290016,1,0,0:0:0:0:
475,192,290042,1,0,0:0:0:0:
402,192,290067,1,0,0:0:0:0:
329,192,290093,1,0,0:0:0:0:
36,192,290118,1,0,0:0:0:0:
109,192,290144,1,0,0:0:0:0:
182,192,290169,1,0,0:0:0:0:
402,192,290195,1,0,0:0:0:0:
329,192,290220,1,0,0:0:0:0:
256,192,290246,1,0,0:0:0:0:
36,192,290271,1,0,0:0:0:0:
109,192,290297,1,0,0:0:0:0:
182,192,290322,1,0,0:0:0:0:
475,192,290348,1,0,0:0:0:0:
402,192,290373,1,0,0:0:0:0:
329,192,290399,1,0,0:0:0:0:
109,192,290425,1,0,0:0:0:0:
182,192,290450,1,0,0:0:0:0:
256,192,290476,1,0,0:0:0:0:
475,192,290501,1,0,0:0:0:0:
402,192,290527,1,0,0:0:0:0:
329,192,290552,1,0,0:0:0:0:
109,192,290578,1,0,0:0:0:0:
182,192,290603,1,0,0:0:0:0:
256,192,290629,1,0,0:0:0:0:
475,192,290654,1,0,0:0:0:0:
402,192,290680,1,0,0:0:0:0:
329,192,290705,1,0,0:0:0:0:
36,192,290731,1,0,0:0:0:0:
109,192,290756,1,0,0:0:0:0:
182,192,290782,1,0,0:0:0:0:
475,192,290807,1,0,0:0:0:0:
402,192,290833,1,0,0:0:0:0:
329,192,290858,1,0,0:0:0:0:
109,192,290884,1,0,0:0:0:0:
182,192,290909,1,0,0:0:0:0:
256,192,290935,1,0,0:0:0:0:
475,192,290960,1,0,0:0:0:0:
402,192,290986,1,0,0:0:0:0:
329,192,291011,1,0,0:0:0:0:
36,192,291037,1,0,0:0:0:0:
109,192,291062,1,0,0:0:0:0:
182,192,291088,1,0,0:0:0:0:
475,192,291113,1,0,0:0:0:0:
402,192,291139,1,0,0:0:0:0:
329,192,291164,1,0,0:0:0:0:
36,192,291190,1,0,0:0:0:0:
109,192,291215,1,0,0:0:0:0:
182,192,291241,1,0,0:0:0:0:
402,192,291266,1,0,0:0:0:0:
329,192,291292,1,0,0:0:0:0:
256,192,291317,1,0,0:0:0:0:
36,192,291343,1,0,0:0:0:0:
109,192,291368,1,0,0:0:0:0:
182,192,291394,1,0,0:0:0:0:
475,192,291419,1,0,0:0:0:0:
402,192,291445,1,0,0:0:0:0:
329,192,291470,1,0,0:0:0:0:
36,192,291496,1,0,0:0:0:0:
109,192,291521,1,0,0:0:0:0:
182,192,291547,1,0,0:0:0:0:
402,192,291572,1,0,0:0:0:0:
329,192,291598,1,0,0:0:0:0:
256,192,291623,1,0,0:0:0:0:
36,192,291649,1,0,0:0:0:0:
109,192,291675,1,0,0:0:0:0:
182,192,291700,1,0,0:0:0:0:
475,192,291726,1,0,0:0:0:0:
402,192,291751,1,0,0:0:0:0:
329,192,291777,1,0,0:0:0:0:
109,192,291802,1,0,0:0:0:0:
182,192,291828,1,0,0:0:0:0:
256,192,291853,1,0,0:0:0:0:
475,192,291879,1,0,0:0:0:0:
402,192,291904,1,0,0:0:0:0:
329,192,291930,1,0,0:0:0:0:
36,192,291955,1,0,0:0:0:0:
109,192,291981,1,0,0:0:0:0:
182,192,292006,1,0,0:0:0:0:
475,192,292006,1,0,0:0:0:0:
402,192,292032,1,0,0:0:0:0:
329,192,292057,1,0,0:0:0:0:
36,192,292108,1,0,0:0:0:0:
109,192,292134,1,0,0:0:0:0:
182,192,292159,1,0,0:0:0:0:
402,192,292159,1,0,0:0:0:0:
329,192,292185,1,0,0:0:0:0:
256,192,292210,1,0,0:0:0:0:
36,192,292236,1,0,0:0:0:0:
109,192,292261,1,0,0:0:0:0:
182,192,292287,1,0,0:0:0:0:
475,192,292287,1,0,0:0:0:0:
402,192,292312,1,0,0:0:0:0:
329,192,292338,1,0,0:0:0:0:
109,192,292363,1,0,0:0:0:0:
182,192,292389,1,0,0:0:0:0:
256,192,292414,1,0,0:0:0:0:
475,192,292440,1,0,0:0:0:0:
402,192,292465,1,0,0:0:0:0:
329,192,292491,1,0,0:0:0:0:
36,192,292516,1,0,0:0:0:0:
109,192,292516,1,0,0:0:0:0:
182,192,292542,1,0,0:0:0:0:
475,192,292567,1,0,0:0:0:0:
402,192,292593,1,0,0:0:0:0:
329,192,292618,1,0,0:0:0:0:
256,192,292618,1,0,0:0:0:0:
36,192,292644,1,0,0:0:0:0:
109,192,292669,1,0,0:0:0:0:
182,192,292695,1,0,0:0:0:0:
475,192,292720,1,0,0:0:0:0:
402,192,292720,1,0,0:0:0:0:
329,192,292720,1,0,0:0:0:0:
256,192,292746,1,0,0:0:0:0:
36,192,292771,1,0,0:0:0:0:
109,192,292797,1,0,0:0:0:0:
182,192,292822,1,0,0:0:0:0:
475,192,292848,1,0,0:0:0:0:
402,192,292873,1,0,0:0:0:0:
329,192,292899,1,0,0:0:0:0:
36,192,292925,1,0,0:0:0:0:
109,192,292950,1,0,0:0:0:0:
182,192,292976,1,0,0:0:0:0:
402,192,293001,1,0,0:0:0:0:
329,192,293027,1,0,0:0:0:0:
475,192,293027,1,0,0:0:0:0:
256,192,293052,1,0,0:0:0:0:
36,192,293078,1,0,0:0:0:0:
109,192,293103,1,0,0:0:0:0:
182,192,293129,1,0,0:0:0:0:
475,192,293129,1,0,0:0:0:0:
402,192,293154,1,0,0:0:0:0:
329,192,293180,1,0,0:0:0:0:
36,192,293205,1,0,0:0:0:0:
109,192,293231,1,0,0:0:0:0:
182,192,293231,1,0,0:0:0:0:
475,192,293256,1,0,0:0:0:0:
402,192,293282,1,0,0:0:0:0:
329,192,293307,1,0,0:0:0:0:
256,192,293333,1,0,0:0:0:0:
36,192,293333,1,0,0:0:0:0:
109,192,293358,1,0,0:0:0:0:
182,192,293384,1,0,0:0:0:0:
475,192,293435,1,0,0:0:0:0:
402,192,293435,1,0,0:0:0:0:
329,192,293460,1,0,0:0:0:0:
256,192,293486,1,0,0:0:0:0:
36,192,293511,1,0,0:0:0:0:
109,192,293537,1,0,0:0:0:0:
182,192,293537,1,0,0:0:0:0:
475,192,293562,1,0,0:0:0:0:
402,192,293588,1,0,0:0:0:0:
329,192,293613,1,0,0:0:0:0:
36,192,293639,1,0,0:0:0:0:
109,192,293639,1,0,0:0:0:0:
182,192,293664,1,0,0:0:0:0:
475,192,293690,1,0,0:0:0:0:
402,192,293715,1,0,0:0:0:0:
329,192,293741,1,0,0:0:0:0:
256,192,293741,1,0,0:0:0:0:
36,192,293792,1,0,0:0:0:0:
109,192,293817,1,0,0:0:0:0:
182,192,293843,1,0,0:0:0:0:
475,192,293843,1,0,0:0:0:0:
402,192,293868,1,0,0:0:0:0:
329,192,293894,1,0,0:0:0:0:
36,192,293919,1,0,0:0:0:0:
109,192,293945,1,0,0:0:0:0:
182,192,293945,1,0,0:0:0:0:
256,192,293945,1,0,0:0:0:0:
475,192,293945,1,0,0:0:0:0:
402,192,293970,1,0,0:0:0:0:
329,192,293996,1,0,0:0:0:0:
36,192,294021,1,0,0:0:0:0:
109,192,294047,1,0,0:0:0:0:
182,192,294047,1,0,0:0:0:0:
256,192,294047,1,0,0:0:0:0:
475,192,294047,1,0,0:0:0:0:
402,192,294072,1,0,0:0:0:0:
329,192,294098,1,0,0:0:0:0:
36,192,294123,1,0,0:0:0:0:
109,192,294149,1,0,0:0:0:0:
182,192,294149,1,0,0:0:0:0:
256,192,294149,1,0,0:0:0:0:
475,192,294149,1,0,0:0:0:0:
402,192,294175,1,0,0:0:0:0:
329,192,294200,1,0,0:0:0:0:
36,192,294226,1,0,0:0:0:0:
256,192,294251,1,0,0:0:0:0:
182,192,294251,1,0,0:0:0:0:
109,192,294251,1,0,0:0:0:0:
402,192,294302,1,0,0:0:0:0:
475,192,294353,1,0,0:0:0:0:
36,192,294404,1,0,0:0:0:0:
109,192,294455,1,0,0:0:0:0:
182,192,294455,1,0,0:0:0:0:
402,192,294455,1,0,0:0:0:0:
329,192,294506,1,0,0:0:0:0:
256,192,294557,1,0,0:0:0:0:
182,192,294608,1,0,0:0:0:0:
36,192,294659,1,0,0:0:0:0:
109,192,294659,1,0,0:0:0:0:
475,192,294659,1,0,0:0:0:0:
402,192,294659,1,0,0:0:0:0:
329,192,294710,1,0,0:0:0:0:
256,192,294761,1,0,0:0:0:0:
36,192,294812,1,0,0:0:0:0:
475,192,294812,1,0,0:0:0:0:
402,192,294863,1,0,0:0:0:0:
329,192,294889,1,0,0:0:0:0:
256,192,294914,1,0,0:0:0:0:
182,192,294940,1,0,0:0:0:0:
475,192,294965,1,0,0:0:0:0:
36,192,294965,1,0,0:0:0:0:
109,192,294965,1,0,0:0:0:0:
402,192,294991,1,0,0:0:0:0:
329,192,295016,1,0,0:0:0:0:
256,192,295042,1,0,0:0:0:0:
182,192,295067,1,0,0:0:0:0:
475,192,295067,1,0,0:0:0:0:
109,192,295067,1,0,0:0:0:0:
36,192,295067,1,0,0:0:0:0:
402,192,295169,1,0,0:0:0:0:
329,192,295169,1,0,0:0:0:0:
256,192,295169,1,0,0:0:0:0:
475,192,295271,1,0,0:0:0:0:
36,192,295271,1,0,0:0:0:0:
329,192,295271,1,0,0:0:0:0:
402,192,295271,1,0,0:0:0:0:
109,192,295322,1,0,0:0:0:0:
182,192,295373,1,0,0:0:0:0:
256,192,295425,1,0,0:0:0:0:
475,192,295476,1,0,0:0:0:0:
402,192,295476,1,0,0:0:0:0:
329,192,295476,1,0,0:0:0:0:
256,192,295527,1,0,0:0:0:0:
182,192,295527,1,0,0:0:0:0:
36,192,295578,1,0,0:0:0:0:
109,192,295578,1,0,0:0:0:0:
329,192,295629,1,0,0:0:0:0:
402,192,295629,1,0,0:0:0:0:
182,192,295680,1,0,0:0:0:0:
109,192,295680,1,0,0:0:0:0:
329,192,295731,1,0,0:0:0:0:
402,192,295731,1,0,0:0:0:0:
182,192,295782,1,0,0:0:0:0:
109,192,295782,1,0,0:0:0:0:
329,192,295833,1,0,0:0:0:0:
402,192,295833,1,0,0:0:0:0:
182,192,295884,1,0,0:0:0:0:
109,192,295884,1,0,0:0:0:0:
36,192,295884,1,0,0:0:0:0:
475,192,295884,1,0,0:0:0:0:
256,192,295884,1,0,0:0:0:0:
329,192,295986,1,0,0:0:0:0:
402,192,295986,1,0,0:0:0:0:
329,192,296088,1,0,0:0:0:0:
402,192,296088,1,0,0:0:0:0:
256,192,296190,1,0,0:0:0:0:
109,192,296190,1,0,0:0:0:0:
36,192,296190,1,0,0:0:0:0:
182,192,296190,1,0,0:0:0:0:
36,192,296292,1,0,0:0:0:0:
182,192,296292,1,0,0:0:0:0:
329,192,296292,1,0,0:0:0:0:
256,192,296292,1,0,0:0:0:0:
109,192,296292,1,0,0:0:0:0:
402,192,296394,1,0,0:0:0:0:
475,192,296394,1,0,0:0:0:0:
36,192,296496,1,0,0:0:0:0:
329,192,296496,1,0,0:0:0:0:
182,192,296496,1,0,0:0:0:0:
109,192,296496,1,0,0:0:0:0:
256,192,296598,1,0,0:0:0:0:
402,192,296598,1,0,0:0:0:0:
475,192,296598,1,0,0:0:0:0:
109,192,296700,1,0,0:0:0:0:
36,192,296700,1,0,0:0:0:0:
402,192,296700,1,0,0:0:0:0:
475,192,296700,1,0,0:0:0:0:
182,192,296802,1,0,0:0:0:0:
256,192,296802,1,0,0:0:0:0:
329,192,296802,1,0,0:0:0:0:
109,192,296904,1,0,0:0:0:0:
36,192,296904,1,0,0:0:0:0:
402,192,296904,1,0,0:0:0:0:
109,192,297006,1,0,0:0:0:0:
36,192,297006,1,0,0:0:0:0:
402,192,297108,1,0,0:0:0:0:
475,192,297108,1,0,0:0:0:0:
256,192,297108,1,0,0:0:0:0:
182,192,297108,1,0,0:0:0:0:
329,192,297108,1,0,0:0:0:0:
329,192,297210,1,0,0:0:0:0:
182,192,297210,1,0,0:0:0:0:
402,192,297312,1,0,0:0:0:0:
36,192,297312,1,0,0:0:0:0:
256,192,297312,1,0,0:0:0:0:
475,192,297312,1,0,0:0:0:0:
182,192,297414,1,0,0:0:0:0:
329,192,297414,1,0,0:0:0:0:
475,192,297516,1,0,0:0:0:0:
36,192,297516,1,0,0:0:0:0:
109,192,297516,1,0,0:0:0:0:
329,192,297516,1,0,0:0:0:0:
182,192,297618,1,0,0:0:0:0:
256,192,297618,1,0,0:0:0:0:
402,192,297618,1,0,0:0:0:0:
109,192,297720,1,0,0:0:0:0:
36,192,297720,1,0,0:0:0:0:
329,192,297720,1,0,0:0:0:0:
475,192,297720,1,0,0:0:0:0:
36,192,297822,1,0,0:0:0:0:
109,192,297822,1,0,0:0:0:0:
182,192,297822,1,0,0:0:0:0:
402,192,297925,1,0,0:0:0:0:
475,192,297925,1,0,0:0:0:0:
256,192,297925,1,0,0:0:0:0:
329,192,297925,1,0,0:0:0:0:
182,192,297925,1,0,0:0:0:0:
109,192,298027,1,0,0:0:0:0:
36,192,298027,1,0,0:0:0:0:
402,192,298129,1,0,0:0:0:0:
475,192,298129,1,0,0:0:0:0:
329,192,298129,1,0,0:0:0:0:
256,192,298129,1,0,0:0:0:0:
109,192,298231,1,0,0:0:0:0:
36,192,298231,1,0,0:0:0:0:
475,192,298231,1,0,0:0:0:0:
402,192,298231,1,0,0:0:0:0:
256,192,298333,1,0,0:0:0:0:
182,192,298333,1,0,0:0:0:0:
329,192,298333,1,0,0:0:0:0:
109,192,298435,1,0,0:0:0:0:
402,192,298435,1,0,0:0:0:0:
475,192,298435,1,0,0:0:0:0:
36,192,298537,1,0,0:0:0:0:
329,192,298537,1,0,0:0:0:0:
256,192,298537,1,0,0:0:0:0:
109,192,298639,1,0,0:0:0:0:
182,192,298639,1,0,0:0:0:0:
402,192,298639,1,0,0:0:0:0:
475,192,298639,1,0,0:0:0:0:
256,192,298741,1,0,0:0:0:0:
329,192,298741,1,0,0:0:0:0:
182,192,298741,1,0,0:0:0:0:
109,192,298741,1,0,0:0:0:0:
36,192,298741,1,0,0:0:0:0:
402,192,298843,1,0,0:0:0:0:
475,192,298843,1,0,0:0:0:0:
256,192,298945,1,0,0:0:0:0:
109,192,298945,1,0,0:0:0:0:
402,192,298945,1,0,0:0:0:0:
475,192,298945,1,0,0:0:0:0:
182,192,299047,1,0,0:0:0:0:
475,192,299149,1,0,0:0:0:0:
109,192,299149,1,0,0:0:0:0:
402,192,299149,1,0,0:0:0:0:
329,192,299149,1,0,0:0:0:0:
329,192,299353,1,0,0:0:0:0:
256,192,299353,1,0,0:0:0:0:
109,192,299353,1,0,0:0:0:0:
36,192,299353,1,0,0:0:0:0:
475,192,299353,1,0,0:0:0:0:
256,192,299455,1,0,0:0:0:0:
256,192,299557,1,0,0:0:0:0:
182,192,299557,1,0,0:0:0:0:
36,192,299557,1,0,0:0:0:0:
475,192,299557,1,0,0:0:0:0:
402,192,299557,1,0,0:0:0:0:
329,192,299659,1,0,0:0:0:0:
109,192,299659,1,0,0:0:0:0:
36,192,299761,1,0,0:0:0:0:
182,192,299761,1,0,0:0:0:0:
402,192,299761,1,0,0:0:0:0:
475,192,299761,1,0,0:0:0:0:
402,192,299863,1,0,0:0:0:0:
475,192,299863,1,0,0:0:0:0:
329,192,299863,1,0,0:0:0:0:
256,192,299863,1,0,0:0:0:0:
182,192,299965,1,0,0:0:0:0:
329,192,300067,1,0,0:0:0:0:
256,192,300067,1,0,0:0:0:0:
402,192,300067,1,0,0:0:0:0:
475,192,300067,1,0,0:0:0:0:
182,192,300169,1,0,0:0:0:0:
475,192,300271,1,0,0:0:0:0:
402,192,300271,1,0,0:0:0:0:
109,192,300271,1,0,0:0:0:0:
36,192,300271,1,0,0:0:0:0:
256,192,300271,1,0,0:0:0:0:
36,192,300373,1,0,0:0:0:0:
109,192,300373,1,0,0:0:0:0:
329,192,300373,1,0,0:0:0:0:
402,192,300373,1,0,0:0:0:0:
475,192,300373,1,0,0:0:0:0:
182,192,300476,1,0,0:0:0:0:
256,192,300476,1,0,0:0:0:0:
109,192,300578,1,0,0:0:0:0:
36,192,300578,1,0,0:0:0:0:
402,192,300578,1,0,0:0:0:0:
329,192,300680,1,0,0:0:0:0:
256,192,300782,1,0,0:0:0:0:
475,192,300782,1,0,0:0:0:0:
402,192,300782,1,0,0:0:0:0:
109,192,300782,1,0,0:0:0:0:
182,192,300782,1,0,0:0:0:0:
329,192,300884,1,0,0:0:0:0:
109,192,300884,1,0,0:0:0:0:
182,192,300884,1,0,0:0:0:0:
256,192,300986,1,0,0:0:0:0:
36,192,300986,1,0,0:0:0:0:
402,192,300986,1,0,0:0:0:0:
475,192,300986,1,0,0:0:0:0:
402,192,301088,1,0,0:0:0:0:
475,192,301088,1,0,0:0:0:0:
36,192,301190,1,0,0:0:0:0:
109,192,301190,1,0,0:0:0:0:
182,192,301190,1,0,0:0:0:0:
329,192,301190,1,0,0:0:0:0:
256,192,301190,1,0,0:0:0:0:
402,192,301292,1,0,0:0:0:0:
109,192,301292,1,0,0:0:0:0:
36,192,301292,1,0,0:0:0:0:
182,192,301394,1,0,0:0:0:0:
329,192,301394,1,0,0:0:0:0:
475,192,301394,1,0,0:0:0:0:
109,192,301496,1,0,0:0:0:0:
36,192,301496,1,0,0:0:0:0:
402,192,301496,1,0,0:0:0:0:
182,192,301598,1,0,0:0:0:0:
475,192,301598,1,0,0:0:0:0:
109,192,301598,1,0,0:0:0:0:
36,192,301598,1,0,0:0:0:0:
329,192,301700,1,0,0:0:0:0:
402,192,301700,1,0,0:0:0:0:
256,192,301700,1,0,0:0:0:0:
182,192,301802,1,0,0:0:0:0:
109,192,301802,1,0,0:0:0:0:
475,192,301802,1,0,0:0:0:0:
256,192,301904,1,0,0:0:0:0:
36,192,301904,1,0,0:0:0:0:
329,192,301904,1,0,0:0:0:0:
402,192,301904,1,0,0:0:0:0:
182,192,302006,1,0,0:0:0:0:
109,192,302108,1,0,0:0:0:0:
329,192,302108,1,0,0:0:0:0:
402,192,302108,1,0,0:0:0:0:
475,192,302108,1,0,0:0:0:0:
256,192,302210,1,0,0:0:0:0:
182,192,302210,1,0,0:0:0:0:
36,192,302210,1,0,0:0:0:0:
402,192,302210,1,0,0:0:0:0:
475,192,302210,1,0,0:0:0:0:
256,192,302414,1,0,0:0:0:0:
109,192,302414,1,0,0:0:0:0:
36,192,302414,1,0,0:0:0:0:
182,192,302414,1,0,0:0:0:0:
36,192,302516,1,0,0:0:0:0:
109,192,302516,1,0,0:0:0:0:
329,192,302516,1,0,0:0:0:0:
402,192,302516,1,0,0:0:0:0:
329,192,302618,1,0,0:0:0:0:
402,192,302618,1,0,0:0:0:0:
182,192,302618,1,0,0:0:0:0:
109,192,302720,1,0,0:0:0:0:
36,192,302720,1,0,0:0:0:0:
182,192,302822,1,0,0:0:0:0:
329,192,302822,1,0,0:0:0:0:
475,192,302822,1,0,0:0:0:0:
402,192,302822,1,0,0:0:0:0:
256,192,302822,1,0,0:0:0:0:
36,192,302925,1,0,0:0:0:0:
109,192,302925,1,0,0:0:0:0:
182,192,302925,1,0,0:0:0:0:
402,192,303027,1,0,0:0:0:0:
475,192,303027,1,0,0:0:0:0:
256,192,303027,1,0,0:0:0:0:
402,192,303129,1,0,0:0:0:0:
475,192,303129,1,0,0:0:0:0:
256,192,303231,1,0,0:0:0:0:
329,192,303231,1,0,0:0:0:0:
182,192,303231,1,0,0:0:0:0:
36,192,303231,1,0,0:0:0:0:
182,192,303333,1,0,0:0:0:0:
109,192,303333,1,0,0:0:0:0:
402,192,303333,1,0,0:0:0:0:
475,192,303333,1,0,0:0:0:0:
256,192,303435,1,0,0:0:0:0:
329,192,303435,1,0,0:0:0:0:
182,192,303537,1,0,0:0:0:0:
109,192,303537,1,0,0:0:0:0:
36,192,303537,1,0,0:0:0:0:
402,192,303537,1,0,0:0:0:0:
182,192,303639,1,0,0:0:0:0:
109,192,303639,1,0,0:0:0:0:
36,192,303639,1,0,0:0:0:0:
256,192,303639,1,0,0:0:0:0:
329,192,303639,1,0,0:0:0:0:
36,192,303741,1,0,0:0:0:0:
109,192,303741,1,0,0:0:0:0:
329,192,303843,1,0,0:0:0:0:
182,192,303843,1,0,0:0:0:0:
475,192,303843,1,0,0:0:0:0:
402,192,303843,1,0,0:0:0:0:
256,192,303945,1,0,0:0:0:0:
329,192,304047,1,0,0:0:0:0:
182,192,304047,1,0,0:0:0:0:
36,192,304047,1,0,0:0:0:0:
402,192,304047,1,0,0:0:0:0:
182,192,304149,1,0,0:0:0:0:
256,192,304251,1,0,0:0:0:0:
329,192,304251,1,0,0:0:0:0:
402,192,304353,1,0,0:0:0:0:
475,192,304353,1,0,0:0:0:0:
182,192,304353,1,0,0:0:0:0:
109,192,304353,1,0,0:0:0:0:
256,192,304455,1,0,0:0:0:0:
329,192,304455,1,0,0:0:0:0:
36,192,304455,1,0,0:0:0:0:
402,192,304455,1,0,0:0:0:0:
475,192,304455,1,0,0:0:0:0:
182,192,304557,1,0,0:0:0:0:
109,192,304659,1,0,0:0:0:0:
329,192,304659,1,0,0:0:0:0:
256,192,304761,1,0,0:0:0:0:
36,192,304761,1,0,0:0:0:0:
475,192,304761,1,0,0:0:0:0:
182,192,304863,1,0,0:0:0:0:
329,192,304863,1,0,0:0:0:0:
109,192,304863,1,0,0:0:0:0:
402,192,304863,1,0,0:0:0:0:
36,192,304965,1,0,0:0:0:0:
256,192,305067,1,0,0:0:0:0:
329,192,305067,1,0,0:0:0:0:
475,192,305067,1,0,0:0:0:0:
182,192,305067,1,0,0:0:0:0:
402,192,305169,1,0,0:0:0:0:
182,192,305169,1,0,0:0:0:0:
256,192,305169,1,0,0:0:0:0:
109,192,305169,1,0,0:0:0:0:
109,192,305271,1,0,0:0:0:0:
36,192,305271,1,0,0:0:0:0:
329,192,305271,1,0,0:0:0:0:
182,192,305271,1,0,0:0:0:0:
109,192,305476,128,0,305544:0:0:0:0:
182,192,305476,128,0,305544:0:0:0:0:
402,192,305544,128,0,305612:0:0:0:0:
329,192,305544,128,0,305612:0:0:0:0:
36,192,305680,128,0,305884:0:0:0:0:
256,192,305680,128,0,305884:0:0:0:0:
329,192,305680,128,0,305748:0:0:0:0:
402,192,305680,128,0,305782:0:0:0:0:
475,192,305680,128,0,305816:0:0:0:0:
109,192,305714,128,0,305850:0:0:0:0:
182,192,305748,128,0,305816:0:0:0:0:
329,192,305782,1,0,0:0:0:0:
402,192,305816,1,0,0:0:0:0:
475,192,305850,1,0,0:0:0:0:
36,192,305986,1,0,0:0:0:0:
182,192,305986,1,0,0:0:0:0:
109,192,305986,1,0,0:0:0:0:
402,192,305986,1,0,0:0:0:0:
475,192,305986,1,0,0:0:0:0:
329,192,305986,1,0,0:0:0:0:
402,192,306190,1,0,0:0:0:0:
329,192,306190,1,0,0:0:0:0:
36,192,306292,1,0,0:0:0:0:
109,192,306292,1,0,0:0:0:0:
182,192,306292,1,0,0:0:0:0:
256,192,306292,1,0,0:0:0:0:
329,192,306292,1,0,0:0:0:0:
402,192,306292,1,0,0:0:0:0:
109,192,306394,1,0,0:0:0:0:
36,192,306394,1,0,0:0:0:0:
182,192,306394,1,0,0:0:0:0:
182,192,306496,1,0,0:0:0:0:
256,192,306496,1,0,0:0:0:0:
109,192,306496,1,0,0:0:0:0:
329,192,306598,1,0,0:0:0:0:
402,192,306598,1,0,0:0:0:0:
475,192,306598,1,0,0:0:0:0:
36,192,306700,1,0,0:0:0:0:
109,192,306700,1,0,0:0:0:0:
256,192,306700,1,0,0:0:0:0:
182,192,306700,1,0,0:0:0:0:
402,192,306802,1,0,0:0:0:0:
475,192,306802,1,0,0:0:0:0:
36,192,306904,1,0,0:0:0:0:
329,192,306904,1,0,0:0:0:0:
256,192,306904,1,0,0:0:0:0:
109,192,306904,1,0,0:0:0:0:
182,192,306904,1,0,0:0:0:0:
256,192,307006,1,0,0:0:0:0:
329,192,307006,1,0,0:0:0:0:
182,192,307006,1,0,0:0:0:0:
36,192,307108,1,0,0:0:0:0:
329,192,307108,1,0,0:0:0:0:
475,192,307108,1,0,0:0:0:0:
109,192,307108,1,0,0:0:0:0:
256,192,307108,1,0,0:0:0:0:
182,192,307108,1,0,0:0:0:0:
182,192,307312,1,0,0:0:0:0:
329,192,307312,128,0,307414:0:0:0:0:
475,192,307312,128,0,307414:0:0:0:0:
329,192,307618,128,0,307720:0:0:0:0:
475,192,307618,128,0,307720:0:0:0:0:
109,192,307720,128,0,307771:0:0:0:0:
36,192,307720,128,0,307771:0:0:0:0:
182,192,307720,128,0,307771:0:0:0:0:
109,192,307822,128,0,307976:0:0:0:0:
36,192,307822,128,0,308027:0:0:0:0:
182,192,307822,128,0,307976:0:0:0:0:
329,192,308078,128,0,308154:0:0:0:0:
475,192,308078,128,0,308154:0:0:0:0:
329,192,308231,128,0,308333:0:0:0:0:
475,192,308231,128,0,308333:0:0:0:0:
329,192,308435,128,0,308537:0:0:0:0:
475,192,308435,128,0,308537:0:0:0:0:
256,192,308537,128,0,308741:0:0:0:0:
109,192,308537,128,0,308741:0:0:0:0:
402,192,308537,128,0,308741:0:0:0:0:
182,192,308741,1,0,0:0:0:0:
36,192,308741,1,0,0:0:0:0:
329,192,308741,1,0,0:0:0:0:
475,192,308741,1,0,0:0:0:0:
256,192,308945,1,0,0:0:0:0:
475,192,308945,1,0,0:0:0:0:
329,192,308945,1,0,0:0:0:0:
402,192,308945,1,0,0:0:0:0:
109,192,309047,1,0,0:0:0:0:
402,192,309047,1,0,0:0:0:0:
475,192,309047,1,0,0:0:0:0:
182,192,309149,1,0,0:0:0:0:
36,192,309149,1,0,0:0:0:0:
329,192,309149,1,0,0:0:0:0:
256,192,309149,1,0,0:0:0:0:
256,192,309251,1,0,0:0:0:0:
182,192,309251,1,0,0:0:0:0:
402,192,309251,1,0,0:0:0:0:
182,192,309353,1,0,0:0:0:0:
256,192,309353,1,0,0:0:0:0:
36,192,309353,1,0,0:0:0:0:
475,192,309353,1,0,0:0:0:0:
329,192,309353,1,0,0:0:0:0:
256,192,309455,1,0,0:0:0:0:
329,192,309455,1,0,0:0:0:0:
109,192,309557,1,0,0:0:0:0:
36,192,309557,1,0,0:0:0:0:
475,192,309557,1,0,0:0:0:0:
182,192,309659,1,0,0:0:0:0:
402,192,309659,1,0,0:0:0:0:
329,192,309659,1,0,0:0:0:0:
256,192,309659,1,0,0:0:0:0:
36,192,309761,1,0,0:0:0:0:
329,192,309761,1,0,0:0:0:0:
256,192,309761,1,0,0:0:0:0:
182,192,309761,1,0,0:0:0:0:
475,192,309863,1,0,0:0:0:0:
402,192,309863,1,0,0:0:0:0:
109,192,309863,1,0,0:0:0:0:
329,192,309863,1,0,0:0:0:0:
36,192,309965,1,0,0:0:0:0:
182,192,309965,1,0,0:0:0:0:
256,192,309965,1,0,0:0:0:0:
329,192,310067,1,0,0:0:0:0:
36,192,310169,1,0,0:0:0:0:
256,192,310169,1,0,0:0:0:0:
109,192,310169,1,0,0:0:0:0:
402,192,310169,1,0,0:0:0:0:
475,192,310169,1,0,0:0:0:0:
402,192,310271,1,0,0:0:0:0:
475,192,310271,1,0,0:0:0:0:
182,192,310271,1,0,0:0:0:0:
36,192,310373,1,0,0:0:0:0:
109,192,310373,1,0,0:0:0:0:
256,192,310373,1,0,0:0:0:0:
329,192,310373,1,0,0:0:0:0:
402,192,310476,1,0,0:0:0:0:
182,192,310476,1,0,0:0:0:0:
329,192,310578,1,0,0:0:0:0:
256,192,310578,1,0,0:0:0:0:
475,192,310578,1,0,0:0:0:0:
109,192,310578,1,0,0:0:0:0:
36,192,310578,1,0,0:0:0:0:
256,192,310680,1,0,0:0:0:0:
36,192,310680,1,0,0:0:0:0:
109,192,310680,1,0,0:0:0:0:
36,192,310782,1,0,0:0:0:0:
256,192,310782,1,0,0:0:0:0:
109,192,310782,1,0,0:0:0:0:
402,192,310782,1,0,0:0:0:0:
329,192,310782,1,0,0:0:0:0:
36,192,310986,1,0,0:0:0:0:
256,192,310986,1,0,0:0:0:0:
109,192,310986,1,0,0:0:0:0:
475,192,310986,1,0,0:0:0:0:
402,192,310986,1,0,0:0:0:0:
256,192,311088,1,0,0:0:0:0:
475,192,311088,1,0,0:0:0:0:
402,192,311088,1,0,0:0:0:0:
109,192,311190,1,0,0:0:0:0:
36,192,311190,1,0,0:0:0:0:
329,192,311190,1,0,0:0:0:0:
182,192,311190,1,0,0:0:0:0:
36,192,311292,1,0,0:0:0:0:
109,192,311292,1,0,0:0:0:0:
402,192,311292,1,0,0:0:0:0:
182,192,311394,1,0,0:0:0:0:
329,192,311394,1,0,0:0:0:0:
475,192,311394,1,0,0:0:0:0:
256,192,311394,1,0,0:0:0:0:
36,192,311496,1,0,0:0:0:0:
109,192,311496,1,0,0:0:0:0:
402,192,311496,1,0,0:0:0:0:
256,192,311598,1,0,0:0:0:0:
182,192,311598,1,0,0:0:0:0:
329,192,311598,1,0,0:0:0:0:
475,192,311598,1,0,0:0:0:0:
329,192,311700,1,0,0:0:0:0:
256,192,311700,1,0,0:0:0:0:
402,192,311700,1,0,0:0:0:0:
109,192,311802,1,0,0:0:0:0:
36,192,311802,1,0,0:0:0:0:
182,192,311802,1,0,0:0:0:0:
256,192,311802,1,0,0:0:0:0:
475,192,311802,1,0,0:0:0:0:
329,192,311904,1,0,0:0:0:0:
402,192,311904,1,0,0:0:0:0:
256,192,312006,1,0,0:0:0:0:
475,192,312006,1,0,0:0:0:0:
36,192,312108,1,0,0:0:0:0:
182,192,312108,1,0,0:0:0:0:
402,192,312210,1,0,0:0:0:0:
109,192,312210,1,0,0:0:0:0:
36,192,312210,1,0,0:0:0:0:
475,192,312210,1,0,0:0:0:0:
256,192,312210,1,0,0:0:0:0:
182,192,312414,1,0,0:0:0:0:
329,192,312414,1,0,0:0:0:0:
256,192,312516,1,0,0:0:0:0:
402,192,312516,1,0,0:0:0:0:
329,192,312618,1,0,0:0:0:0:
475,192,312618,1,0,0:0:0:0:
36,192,312618,1,0,0:0:0:0:
109,192,312618,1,0,0:0:0:0:
182,192,312720,1,0,0:0:0:0:
329,192,312720,1,0,0:0:0:0:
475,192,312720,1,0,0:0:0:0:
256,192,312720,1,0,0:0:0:0:
402,192,312822,1,0,0:0:0:0:
109,192,312822,1,0,0:0:0:0:
36,192,312822,1,0,0:0:0:0:
182,192,312822,1,0,0:0:0:0:
329,192,312925,1,0,0:0:0:0:
256,192,312925,1,0,0:0:0:0:
182,192,313027,1,0,0:0:0:0:
36,192,313027,1,0,0:0:0:0:
329,192,313027,1,0,0:0:0:0:
256,192,313027,1,0,0:0:0:0:
402,192,313129,1,0,0:0:0:0:
475,192,313129,1,0,0:0:0:0:
109,192,313129,1,0,0:0:0:0:
182,192,313231,1,0,0:0:0:0:
256,192,313231,1,0,0:0:0:0:
329,192,313231,1,0,0:0:0:0:
109,192,313333,1,0,0:0:0:0:
36,192,313333,1,0,0:0:0:0:
475,192,313333,1,0,0:0:0:0:
402,192,313333,1,0,0:0:0:0:
329,192,313435,1,0,0:0:0:0:
256,192,313435,1,0,0:0:0:0:
182,192,313435,1,0,0:0:0:0:
36,192,313435,1,0,0:0:0:0:
109,192,313435,1,0,0:0:0:0:
402,192,313537,1,0,0:0:0:0:
256,192,313537,1,0,0:0:0:0:
329,192,313537,1,0,0:0:0:0:
475,192,313639,1,0,0:0:0:0:
36,192,313639,1,0,0:0:0:0:
109,192,313639,1,0,0:0:0:0:
256,192,313639,1,0,0:0:0:0:
329,192,313639,1,0,0:0:0:0:
329,192,313843,1,0,0:0:0:0:
402,192,313843,1,0,0:0:0:0:
475,192,313843,1,0,0:0:0:0:
36,192,313843,1,0,0:0:0:0:
109,192,313843,1,0,0:0:0:0:
402,192,313945,1,0,0:0:0:0:
475,192,313945,1,0,0:0:0:0:
329,192,314047,1,0,0:0:0:0:
256,192,314047,1,0,0:0:0:0:
182,192,314047,1,0,0:0:0:0:
109,192,314149,1,0,0:0:0:0:
475,192,314149,1,0,0:0:0:0:
402,192,314149,1,0,0:0:0:0:
329,192,314251,1,0,0:0:0:0:
256,192,314251,1,0,0:0:0:0:
36,192,314251,1,0,0:0:0:0:
182,192,314251,1,0,0:0:0:0:
402,192,314251,1,0,0:0:0:0:
475,192,314251,1,0,0:0:0:0:
109,192,314455,1,0,0:0:0:0:
182,192,314455,1,0,0:0:0:0:
329,192,314557,1,0,0:0:0:0:
475,192,314557,1,0,0:0:0:0:
182,192,314659,1,0,0:0:0:0:
109,192,314659,1,0,0:0:0:0:
329,192,314761,1,0,0:0:0:0:
402,192,314761,1,0,0:0:0:0:
109,192,314863,1,0,0:0:0:0:
182,192,314863,1,0,0:0:0:0:
329,192,314965,1,0,0:0:0:0:
402,192,314965,1,0,0:0:0:0:
182,192,315067,1,0,0:0:0:0:
109,192,315067,1,0,0:0:0:0:
329,192,315169,1,0,0:0:0:0:
402,192,315169,1,0,0:0:0:0:
182,192,315271,1,0,0:0:0:0:
109,192,315271,1,0,0:0:0:0:
329,192,315373,1,0,0:0:0:0:
402,192,315373,1,0,0:0:0:0:
256,192,315476,1,0,0:0:0:0:
182,192,315476,1,0,0:0:0:0:
109,192,315476,1,0,0:0:0:0:
36,192,315476,1,0,0:0:0:0:
109,192,315578,1,0,0:0:0:0:
182,192,315578,1,0,0:0:0:0:
36,192,315578,1,0,0:0:0:0:
182,192,315680,1,0,0:0:0:0:
329,192,315680,1,0,0:0:0:0:
402,192,315680,1,0,0:0:0:0:
475,192,315680,1,0,0:0:0:0:
329,192,315782,1,0,0:0:0:0:
402,192,315782,1,0,0:0:0:0:
475,192,315782,1,0,0:0:0:0:
256,192,315884,1,0,0:0:0:0:
182,192,315884,1,0,0:0:0:0:
109,192,315884,1,0,0:0:0:0:
182,192,315986,1,0,0:0:0:0:
36,192,315986,1,0,0:0:0:0:
109,192,315986,1,0,0:0:0:0:
36,192,316088,1,0,0:0:0:0:
109,192,316088,1,0,0:0:0:0:
182,192,316088,1,0,0:0:0:0:
329,192,316190,1,0,0:0:0:0:
402,192,316190,1,0,0:0:0:0:
475,192,316190,1,0,0:0:0:0:
329,192,316292,1,0,0:0:0:0:
402,192,316292,1,0,0:0:0:0:
475,192,316292,1,0,0:0:0:0:
329,192,316394,1,0,0:0:0:0:
402,192,316394,1,0,0:0:0:0:
475,192,316394,1,0,0:0:0:0:
329,192,316496,1,0,0:0:0:0:
402,192,316496,1,0,0:0:0:0:
475,192,316496,1,0,0:0:0:0:
402,192,316598,1,0,0:0:0:0:
329,192,316598,1,0,0:0:0:0:
256,192,316598,1,0,0:0:0:0:
329,192,316700,1,0,0:0:0:0:
256,192,316700,1,0,0:0:0:0:
182,192,316700,1,0,0:0:0:0:
36,192,316700,1,0,0:0:0:0:
109,192,316700,1,0,0:0:0:0:
182,192,316802,1,0,0:0:0:0:
109,192,316802,1,0,0:0:0:0:
36,192,316802,1,0,0:0:0:0:
36,192,316904,1,0,0:0:0:0:
109,192,316904,1,0,0:0:0:0:
256,192,316904,1,0,0:0:0:0:
329,192,316904,1,0,0:0:0:0:
256,192,317006,1,0,0:0:0:0:
329,192,317006,1,0,0:0:0:0:
402,192,317006,1,0,0:0:0:0:
475,192,317006,1,0,0:0:0:0:
182,192,317108,1,0,0:0:0:0:
36,192,317108,1,0,0:0:0:0:
109,192,317108,1,0,0:0:0:0:
36,192,317210,1,0,0:0:0:0:
109,192,317210,1,0,0:0:0:0:
182,192,317210,1,0,0:0:0:0:
36,192,317312,1,0,0:0:0:0:
109,192,317312,1,0,0:0:0:0:
182,192,317312,1,0,0:0:0:0:
36,192,317414,1,0,0:0:0:0:
109,192,317414,1,0,0:0:0:0:
182,192,317414,1,0,0:0:0:0:
36,192,317516,1,0,0:0:0:0:
109,192,317516,1,0,0:0:0:0:
256,192,317516,1,0,0:0:0:0:
182,192,317516,1,0,0:0:0:0:
329,192,317516,1,0,0:0:0:0:
329,192,317618,1,0,0:0:0:0:
182,192,317618,1,0,0:0:0:0:
256,192,317618,1,0,0:0:0:0:
402,192,317618,1,0,0:0:0:0:
256,192,317720,1,0,0:0:0:0:
329,192,317720,1,0,0:0:0:0:
402,192,317720,1,0,0:0:0:0:
475,192,317720,1,0,0:0:0:0:
329,192,317822,1,0,0:0:0:0:
402,192,317822,1,0,0:0:0:0:
475,192,317822,1,0,0:0:0:0:
256,192,317925,1,0,0:0:0:0:
182,192,317925,1,0,0:0:0:0:
109,192,317925,1,0,0:0:0:0:
402,192,317925,1,0,0:0:0:0:
329,192,317925,1,0,0:0:0:0:
182,192,318027,1,0,0:0:0:0:
109,192,318027,1,0,0:0:0:0:
256,192,318027,1,0,0:0:0:0:
109,192,318129,1,0,0:0:0:0:
182,192,318129,1,0,0:0:0:0:
256,192,318129,1,0,0:0:0:0:
329,192,318231,1,0,0:0:0:0:
402,192,318231,1,0,0:0:0:0:
475,192,318231,1,0,0:0:0:0:
36,192,318231,1,0,0:0:0:0:
329,192,318333,1,0,0:0:0:0:
402,192,318333,1,0,0:0:0:0:
475,192,318333,1,0,0:0:0:0:
109,192,318333,1,0,0:0:0:0:
182,192,318333,1,0,0:0:0:0:
109,192,318435,1,0,0:0:0:0:
329,192,318435,1,0,0:0:0:0:
182,192,318435,1,0,0:0:0:0:
109,192,318537,1,0,0:0:0:0:
182,192,318537,1,0,0:0:0:0:
329,192,318537,1,0,0:0:0:0:
109,192,318639,1,0,0:0:0:0:
182,192,318639,1,0,0:0:0:0:
329,192,318639,1,0,0:0:0:0:
36,192,318741,1,0,0:0:0:0:
182,192,318775,1,0,0:0:0:0:
256,192,318809,1,0,0:0:0:0:
329,192,318843,1,0,0:0:0:0:
402,192,318877,1,0,0:0:0:0:
475,192,318911,1,0,0:0:0:0:
109,192,318911,1,0,0:0:0:0:
182,192,318945,1,0,0:0:0:0:
256,192,318979,1,0,0:0:0:0:
329,192,319013,1,0,0:0:0:0:
402,192,319047,1,0,0:0:0:0:
475,192,319081,1,0,0:0:0:0:
36,192,319081,1,0,0:0:0:0:
109,192,319115,1,0,0:0:0:0:
182,192,319149,1,0,0:0:0:0:
256,192,319183,5,0,0:0:0:0:
329,192,319217,1,0,0:0:0:0:
402,192,319251,1,0,0:0:0:0:
36,192,319251,1,0,0:0:0:0:
109,192,319285,1,0,0:0:0:0:
182,192,319319,1,0,0:0:0:0:
256,192,319353,1,0,0:0:0:0:
329,192,319387,1,0,0:0:0:0:
475,192,319421,1,0,0:0:0:0:
36,192,319421,1,0,0:0:0:0:
109,192,319455,1,0,0:0:0:0:
182,192,319489,1,0,0:0:0:0:
256,192,319523,1,0,0:0:0:0:
402,192,319557,1,0,0:0:0:0:
475,192,319591,1,0,0:0:0:0:
36,192,319591,1,0,0:0:0:0:
109,192,319625,1,0,0:0:0:0:
182,192,319659,1,0,0:0:0:0:
329,192,319693,1,0,0:0:0:0:
402,192,319727,1,0,0:0:0:0:
475,192,319761,1,0,0:0:0:0:
36,192,319761,1,0,0:0:0:0:
109,192,319795,1,0,0:0:0:0:
256,192,319829,1,0,0:0:0:0:
329,192,319863,1,0,0:0:0:0:
402,192,319897,1,0,0:0:0:0:
475,192,319931,1,0,0:0:0:0:
109,192,319931,1,0,0:0:0:0:
182,192,319965,1,0,0:0:0:0:
256,192,319999,1,0,0:0:0:0:
329,192,320033,1,0,0:0:0:0:
402,192,320067,1,0,0:0:0:0:
475,192,320101,1,0,0:0:0:0:
36,192,320101,1,0,0:0:0:0:
109,192,320135,1,0,0:0:0:0:
182,192,320169,1,0,0:0:0:0:
256,192,320203,1,0,0:0:0:0:
329,192,320237,1,0,0:0:0:0:
402,192,320271,1,0,0:0:0:0:
475,192,320271,1,0,0:0:0:0:
36,192,320271,1,0,0:0:0:0:
109,192,320271,1,0,0:0:0:0:
36,192,320373,5,0,0:0:0:0:
182,192,320373,1,0,0:0:0:0:
329,192,320373,1,0,0:0:0:0:
402,192,320373,1,0,0:0:0:0:
256,192,320476,1,0,0:0:0:0:
475,192,320476,1,0,0:0:0:0:
402,192,320578,1,0,0:0:0:0:
109,192,320578,1,0,0:0:0:0:
36,192,320578,1,0,0:0:0:0:
475,192,320782,1,0,0:0:0:0:
329,192,320782,1,0,0:0:0:0:
256,192,320782,1,0,0:0:0:0:
182,192,320782,1,0,0:0:0:0:
329,192,320986,1,0,0:0:0:0:
402,192,320986,1,0,0:0:0:0:
182,192,320986,1,0,0:0:0:0:
109,192,320986,1,0,0:0:0:0:
256,192,321190,1,0,0:0:0:0:
475,192,321190,1,0,0:0:0:0:
36,192,321190,1,0,0:0:0:0:
182,192,321190,1,0,0:0:0:0:
402,192,321292,1,0,0:0:0:0:
329,192,321292,1,0,0:0:0:0:
109,192,321394,1,0,0:0:0:0:
256,192,321394,1,0,0:0:0:0:
36,192,321394,1,0,0:0:0:0:
329,192,321496,1,0,0:0:0:0:
402,192,321598,1,0,0:0:0:0:
475,192,321598,1,0,0:0:0:0:
109,192,321598,1,0,0:0:0:0:
182,192,321700,1,0,0:0:0:0:
109,192,321802,1,0,0:0:0:0:
36,192,321802,1,0,0:0:0:0:
475,192,321802,1,0,0:0:0:0:
402,192,321802,1,0,0:0:0:0:
329,192,321904,1,0,0:0:0:0:
36,192,322006,1,0,0:0:0:0:
109,192,322006,1,0,0:0:0:0:
256,192,322006,1,0,0:0:0:0:
182,192,322108,1,0,0:0:0:0:
329,192,322108,1,0,0:0:0:0:
402,192,322108,1,0,0:0:0:0:
256,192,322210,1,0,0:0:0:0:
475,192,322210,1,0,0:0:0:0:
36,192,322210,1,0,0:0:0:0:
109,192,322210,1,0,0:0:0:0:
182,192,322312,1,0,0:0:0:0:
329,192,322312,1,0,0:0:0:0:
402,192,322312,1,0,0:0:0:0:
36,192,322312,1,0,0:0:0:0:
109,192,322312,1,0,0:0:0:0:
329,192,322414,1,0,0:0:0:0:
402,192,322414,1,0,0:0:0:0:
256,192,322414,1,0,0:0:0:0:
475,192,322414,1,0,0:0:0:0:
182,192,322516,1,0,0:0:0:0:
36,192,322516,1,0,0:0:0:0:
109,192,322618,1,0,0:0:0:0:
475,192,322618,1,0,0:0:0:0:
402,192,322618,1,0,0:0:0:0:
329,192,322720,1,0,0:0:0:0:
256,192,322822,1,0,0:0:0:0:
182,192,322822,1,0,0:0:0:0:
109,192,322822,1,0,0:0:0:0:
36,192,322822,1,0,0:0:0:0:
475,192,322822,1,0,0:0:0:0:
329,192,322924,1,0,0:0:0:0:
36,192,323026,1,0,0:0:0:0:
109,192,323026,1,0,0:0:0:0:
256,192,323026,1,0,0:0:0:0:
329,192,323128,1,0,0:0:0:0:
182,192,323128,1,0,0:0:0:0:
36,192,323230,1,0,0:0:0:0:
109,192,323230,1,0,0:0:0:0:
256,192,323230,1,0,0:0:0:0:
475,192,323230,1,0,0:0:0:0:
36,192,323332,1,0,0:0:0:0:
109,192,323332,1,0,0:0:0:0:
402,192,323332,1,0,0:0:0:0:
329,192,323434,1,0,0:0:0:0:
475,192,323434,1,0,0:0:0:0:
256,192,323536,1,0,0:0:0:0:
182,192,323536,1,0,0:0:0:0:
402,192,323536,1,0,0:0:0:0:
36,192,323536,1,0,0:0:0:0:
109,192,323638,1,0,0:0:0:0:
329,192,323638,1,0,0:0:0:0:
475,192,323638,1,0,0:0:0:0:
402,192,323638,1,0,0:0:0:0:
182,192,323740,1,0,0:0:0:0:
256,192,323740,1,0,0:0:0:0:
36,192,323740,1,0,0:0:0:0:
182,192,323842,1,0,0:0:0:0:
256,192,323842,1,0,0:0:0:0:
36,192,323945,1,0,0:0:0:0:
109,192,323945,1,0,0:0:0:0:
402,192,323945,1,0,0:0:0:0:
475,192,323945,1,0,0:0:0:0:
182,192,324047,1,0,0:0:0:0:
329,192,324047,1,0,0:0:0:0:
402,192,324047,1,0,0:0:0:0:
475,192,324047,1,0,0:0:0:0:
36,192,324149,1,0,0:0:0:0:
256,192,324149,1,0,0:0:0:0:
475,192,324251,1,0,0:0:0:0:
182,192,324251,1,0,0:0:0:0:
109,192,324251,1,0,0:0:0:0:
402,192,324353,1,0,0:0:0:0:
256,192,324353,1,0,0:0:0:0:
36,192,324353,1,0,0:0:0:0:
329,192,324455,1,0,0:0:0:0:
182,192,324455,1,0,0:0:0:0:
109,192,324455,1,0,0:0:0:0:
475,192,324455,1,0,0:0:0:0:
182,192,324557,1,0,0:0:0:0:
109,192,324557,1,0,0:0:0:0:
36,192,324659,1,0,0:0:0:0:
256,192,324659,1,0,0:0:0:0:
329,192,324659,1,0,0:0:0:0:
402,192,324659,1,0,0:0:0:0:
329,192,324761,1,0,0:0:0:0:
402,192,324761,1,0,0:0:0:0:
109,192,324761,1,0,0:0:0:0:
182,192,324863,1,0,0:0:0:0:
256,192,324863,1,0,0:0:0:0:
36,192,324863,1,0,0:0:0:0:
475,192,324863,1,0,0:0:0:0:
402,192,324965,1,0,0:0:0:0:
109,192,324965,1,0,0:0:0:0:
329,192,325067,1,0,0:0:0:0:
256,192,325067,1,0,0:0:0:0:
475,192,325067,1,0,0:0:0:0:
36,192,325169,1,0,0:0:0:0:
109,192,325169,1,0,0:0:0:0:
182,192,325169,1,0,0:0:0:0:
402,192,325271,1,0,0:0:0:0:
475,192,325271,1,0,0:0:0:0:
36,192,325271,1,0,0:0:0:0:
109,192,325271,1,0,0:0:0:0:
256,192,325271,1,0,0:0:0:0:
329,192,325373,1,0,0:0:0:0:
182,192,325373,1,0,0:0:0:0:
256,192,325475,1,0,0:0:0:0:
402,192,325475,1,0,0:0:0:0:
36,192,325475,1,0,0:0:0:0:
109,192,325577,1,0,0:0:0:0:
329,192,325577,1,0,0:0:0:0:
475,192,325577,1,0,0:0:0:0:
182,192,325679,1,0,0:0:0:0:
256,192,325679,1,0,0:0:0:0:
402,192,325679,1,0,0:0:0:0:
36,192,325679,1,0,0:0:0:0:
402,192,325781,1,0,0:0:0:0:
329,192,325883,1,0,0:0:0:0:
256,192,325883,1,0,0:0:0:0:
109,192,325883,1,0,0:0:0:0:
36,192,325883,1,0,0:0:0:0:
475,192,325883,1,0,0:0:0:0:
329,192,326087,1,0,0:0:0:0:
182,192,326087,1,0,0:0:0:0:
36,192,326087,1,0,0:0:0:0:
475,192,326087,1,0,0:0:0:0:
402,192,326087,1,0,0:0:0:0:
256,192,326189,1,0,0:0:0:0:
109,192,326189,1,0,0:0:0:0:
36,192,326291,1,0,0:0:0:0:
182,192,326291,1,0,0:0:0:0:
329,192,326291,1,0,0:0:0:0:
402,192,326291,1,0,0:0:0:0:
109,192,326394,1,0,0:0:0:0:
475,192,326394,1,0,0:0:0:0:
256,192,326394,1,0,0:0:0:0:
36,192,326496,1,0,0:0:0:0:
329,192,326496,1,0,0:0:0:0:
182,192,326496,1,0,0:0:0:0:
109,192,326496,1,0,0:0:0:0:
402,192,326598,1,0,0:0:0:0:
475,192,326598,1,0,0:0:0:0:
256,192,326598,1,0,0:0:0:0:
109,192,326700,1,0,0:0:0:0:
182,192,326700,1,0,0:0:0:0:
329,192,326700,1,0,0:0:0:0:
36,192,326802,1,0,0:0:0:0:
256,192,326802,1,0,0:0:0:0:
475,192,326802,1,0,0:0:0:0:
402,192,326904,1,0,0:0:0:0:
329,192,326904,1,0,0:0:0:0:
109,192,326904,1,0,0:0:0:0:
182,192,326904,1,0,0:0:0:0:
182,192,327108,1,0,0:0:0:0:
109,192,327108,1,0,0:0:0:0:
402,192,327108,1,0,0:0:0:0:
475,192,327108,1,0,0:0:0:0:
256,192,327108,1,0,0:0:0:0:
36,192,327312,1,0,0:0:0:0:
182,192,327312,1,0,0:0:0:0:
329,192,327312,1,0,0:0:0:0:
256,192,327312,1,0,0:0:0:0:
109,192,327312,1,0,0:0:0:0:
109,192,327516,1,0,0:0:0:0:
256,192,327516,1,0,0:0:0:0:
329,192,327516,1,0,0:0:0:0:
402,192,327516,1,0,0:0:0:0:
475,192,327516,1,0,0:0:0:0:
36,192,327720,1,0,0:0:0:0:
109,192,327720,1,0,0:0:0:0:
256,192,327720,1,0,0:0:0:0:
182,192,327720,1,0,0:0:0:0:
402,192,327720,1,0,0:0:0:0:
475,192,327720,1,0,0:0:0:0:
329,192,327720,1,0,0:0:0:0:
36,192,327924,1,0,0:0:0:0:
109,192,327924,1,0,0:0:0:0:
182,192,327924,1,0,0:0:0:0:
256,192,327924,1,0,0:0:0:0:
329,192,327924,1,0,0:0:0:0:
402,192,327924,1,0,0:0:0:0:
475,192,327924,1,0,0:0:0:0:
36,192,328128,1,0,0:0:0:0:
182,192,328128,1,0,0:0:0:0:
256,192,328128,1,0,0:0:0:0:
109,192,328128,1,0,0:0:0:0:
402,192,328128,1,0,0:0:0:0:
329,192,328128,1,0,0:0:0:0:
475,192,328128,1,0,0:0:0:0:
329,192,328536,1,0,0:0:0:0:
256,192,328536,1,0,0:0:0:0:
109,192,328536,1,0,0:0:0:0:
36,192,328536,1,0,0:0:0:0:
475,192,328536,1,0,0:0:0:0:
402,192,328638,1,0,0:0:0:0:
182,192,328638,1,0,0:0:0:0:
36,192,328740,1,0,0:0:0:0:
256,192,328740,1,0,0:0:0:0:
329,192,328740,1,0,0:0:0:0:
475,192,328740,1,0,0:0:0:0:
109,192,328740,1,0,0:0:0:0:
36,192,328842,1,0,0:0:0:0:
109,192,328842,1,0,0:0:0:0:
182,192,328945,1,0,0:0:0:0:
329,192,328945,1,0,0:0:0:0:
475,192,328945,1,0,0:0:0:0:
402,192,328945,1,0,0:0:0:0:
402,192,329047,1,0,0:0:0:0:
475,192,329047,1,0,0:0:0:0:
329,192,329149,1,0,0:0:0:0:
256,192,329149,1,0,0:0:0:0:
182,192,329149,1,0,0:0:0:0:
109,192,329149,1,0,0:0:0:0:
402,192,329251,1,0,0:0:0:0:
475,192,329251,1,0,0:0:0:0:
109,192,329353,1,0,0:0:0:0:
36,192,329353,1,0,0:0:0:0:
256,192,329353,1,0,0:0:0:0:
329,192,329353,1,0,0:0:0:0:
402,192,329353,1,0,0:0:0:0:
475,192,329353,1,0,0:0:0:0:
256,192,329455,1,0,0:0:0:0:
329,192,329455,1,0,0:0:0:0:
182,192,329480,1,0,0:0:0:0:
475,192,329557,1,0,0:0:0:0:
402,192,329557,1,0,0:0:0:0:
36,192,329557,1,0,0:0:0:0:
329,192,329659,1,0,0:0:0:0:
182,192,329659,1,0,0:0:0:0:
256,192,329761,1,0,0:0:0:0:
109,192,329761,1,0,0:0:0:0:
36,192,329761,1,0,0:0:0:0:
402,192,329761,1,0,0:0:0:0:
475,192,329761,1,0,0:0:0:0:
402,192,329863,1,0,0:0:0:0:
475,192,329863,1,0,0:0:0:0:
329,192,329965,1,0,0:0:0:0:
182,192,329965,1,0,0:0:0:0:
256,192,330067,1,0,0:0:0:0:
109,192,330067,1,0,0:0:0:0:
182,192,330169,1,0,0:0:0:0:
36,192,330169,1,0,0:0:0:0:
329,192,330169,1,0,0:0:0:0:
402,192,330169,1,0,0:0:0:0:
475,192,330169,1,0,0:0:0:0:
182,192,330271,1,0,0:0:0:0:
36,192,330271,1,0,0:0:0:0:
256,192,330297,1,0,0:0:0:0:
329,192,330373,1,0,0:0:0:0:
475,192,330373,1,0,0:0:0:0:
402,192,330399,1,0,0:0:0:0:
182,192,330475,1,0,0:0:0:0:
109,192,330475,1,0,0:0:0:0:
36,192,330475,1,0,0:0:0:0:
256,192,330501,1,0,0:0:0:0:
329,192,330577,1,0,0:0:0:0:
402,192,330577,1,0,0:0:0:0:
109,192,330577,1,0,0:0:0:0:
36,192,330577,1,0,0:0:0:0:
475,192,330603,1,0,0:0:0:0:
182,192,330679,1,0,0:0:0:0:
256,192,330679,1,0,0:0:0:0:
329,192,330781,1,0,0:0:0:0:
109,192,330781,1,0,0:0:0:0:
475,192,330781,1,0,0:0:0:0:
402,192,330883,1,0,0:0:0:0:
256,192,330883,1,0,0:0:0:0:
182,192,330985,1,0,0:0:0:0:
109,192,330985,1,0,0:0:0:0:
36,192,330985,1,0,0:0:0:0:
329,192,330985,1,0,0:0:0:0:
475,192,330985,1,0,0:0:0:0:
402,192,331011,1,0,0:0:0:0:
182,192,331087,1,0,0:0:0:0:
109,192,331113,1,0,0:0:0:0:
329,192,331189,1,0,0:0:0:0:
256,192,331189,1,0,0:0:0:0:
475,192,331189,1,0,0:0:0:0:
402,192,331291,1,0,0:0:0:0:
182,192,331291,1,0,0:0:0:0:
329,192,331394,1,0,0:0:0:0:
256,192,331394,1,0,0:0:0:0:
109,192,331394,1,0,0:0:0:0:
475,192,331394,1,0,0:0:0:0:
36,192,331394,1,0,0:0:0:0:
182,192,331496,1,0,0:0:0:0:
402,192,331496,1,0,0:0:0:0:
256,192,331598,1,0,0:0:0:0:
36,192,331598,1,0,0:0:0:0:
329,192,331598,1,0,0:0:0:0:
182,192,331700,1,0,0:0:0:0:
475,192,331700,1,0,0:0:0:0:
402,192,331802,1,0,0:0:0:0:
329,192,331802,1,0,0:0:0:0:
256,192,331802,1,0,0:0:0:0:
109,192,331802,1,0,0:0:0:0:
36,192,331802,1,0,0:0:0:0:
329,192,331904,1,0,0:0:0:0:
402,192,331904,1,0,0:0:0:0:
256,192,332006,1,0,0:0:0:0:
182,192,332006,1,0,0:0:0:0:
109,192,332006,1,0,0:0:0:0:
475,192,332006,1,0,0:0:0:0:
329,192,332108,1,0,0:0:0:0:
36,192,332108,1,0,0:0:0:0:
109,192,332210,1,0,0:0:0:0:
182,192,332210,1,0,0:0:0:0:
256,192,332210,1,0,0:0:0:0:
475,192,332210,1,0,0:0:0:0:
402,192,332210,1,0,0:0:0:0:
109,192,332312,1,0,0:0:0:0:
182,192,332312,1,0,0:0:0:0:
36,192,332414,1,0,0:0:0:0:
256,192,332414,1,0,0:0:0:0:
329,192,332414,1,0,0:0:0:0:
402,192,332414,1,0,0:0:0:0:
182,192,332516,1,0,0:0:0:0:
475,192,332516,1,0,0:0:0:0:
256,192,332618,1,0,0:0:0:0:
329,192,332618,1,0,0:0:0:0:
402,192,332618,1,0,0:0:0:0:
109,192,332618,1,0,0:0:0:0:
36,192,332618,1,0,0:0:0:0:
182,192,332720,1,0,0:0:0:0:
475,192,332720,1,0,0:0:0:0:
256,192,332822,1,0,0:0:0:0:
402,192,332822,1,0,0:0:0:0:
36,192,332924,1,0,0:0:0:0:
256,192,332924,1,0,0:0:0:0:
36,192,333026,1,0,0:0:0:0:
109,192,333026,1,0,0:0:0:0:
402,192,333026,1,0,0:0:0:0:
475,192,333026,1,0,0:0:0:0:
329,192,333026,1,0,0:0:0:0:
182,192,333026,1,0,0:0:0:0:
402,192,333128,1,0,0:0:0:0:
475,192,333128,1,0,0:0:0:0:
182,192,333128,1,0,0:0:0:0:
36,192,333128,1,0,0:0:0:0:
109,192,333128,1,0,0:0:0:0:
329,192,333128,1,0,0:0:0:0:
36,192,333230,1,0,0:0:0:0:
109,192,333230,1,0,0:0:0:0:
182,192,333230,1,0,0:0:0:0:
329,192,333230,1,0,0:0:0:0:
402,192,333230,1,0,0:0:0:0:
475,192,333230,1,0,0:0:0:0:
182,192,333332,1,0,0:0:0:0:
109,192,333332,1,0,0:0:0:0:
36,192,333332,1,0,0:0:0:0:
329,192,333332,1,0,0:0:0:0:
402,192,333332,1,0,0:0:0:0:
475,192,333332,1,0,0:0:0:0:
109,192,333434,1,0,0:0:0:0:
36,192,333434,1,0,0:0:0:0:
182,192,333434,1,0,0:0:0:0:
256,192,333434,1,0,0:0:0:0:
329,192,333638,1,0,0:0:0:0:
475,192,333638,1,0,0:0:0:0:
109,192,333638,1,0,0:0:0:0:
182,192,333638,1,0,0:0:0:0:
256,192,333842,128,0,333970:0:0:0:0:
402,192,333842,128,0,333970:0:0:0:0:
329,192,333842,128,0,333970:0:0:0:0:
109,192,333842,128,0,333970:0:0:0:0:
256,192,334047,128,0,334200:0:0:0:0:
402,192,334047,128,0,334200:0:0:0:0:
182,192,334047,128,0,334200:0:0:0:0:
36,192,334047,128,0,334200:0:0:0:0:
475,192,334149,1,0,0:0:0:0:
329,192,334251,1,0,0:0:0:0:
182,192,334251,1,0,0:0:0:0:
109,192,334251,1,0,0:0:0:0:
256,192,334251,1,0,0:0:0:0:
402,192,334353,1,0,0:0:0:0:
256,192,334455,1,0,0:0:0:0:
109,192,334455,1,0,0:0:0:0:
182,192,334557,1,0,0:0:0:0:
36,192,334659,1,0,0:0:0:0:
256,192,334659,1,0,0:0:0:0:
402,192,334659,1,0,0:0:0:0:
475,192,334659,1,0,0:0:0:0:
329,192,334659,1,0,0:0:0:0:
109,192,334659,1,0,0:0:0:0:
402,192,334761,1,0,0:0:0:0:
329,192,334761,1,0,0:0:0:0:
182,192,334863,1,0,0:0:0:0:
109,192,334863,1,0,0:0:0:0:
109,192,334965,1,0,0:0:0:0:
182,192,334965,1,0,0:0:0:0:
329,192,335067,1,0,0:0:0:0:
402,192,335067,1,0,0:0:0:0:
256,192,335067,1,0,0:0:0:0:
182,192,335067,1,0,0:0:0:0:
109,192,335067,1,0,0:0:0:0:
329,192,335271,1,0,0:0:0:0:
475,192,335271,1,0,0:0:0:0:
256,192,335271,1,0,0:0:0:0:
402,192,335475,1,0,0:0:0:0:
329,192,335475,1,0,0:0:0:0:
182,192,335475,1,0,0:0:0:0:
109,192,335475,1,0,0:0:0:0:
36,192,335475,1,0,0:0:0:0:
109,192,335577,1,0,0:0:0:0:
36,192,335577,1,0,0:0:0:0:
182,192,335679,1,0,0:0:0:0:
256,192,335679,1,0,0:0:0:0:
329,192,335679,1,0,0:0:0:0:
475,192,335679,1,0,0:0:0:0:
402,192,335781,1,0,0:0:0:0:
36,192,335781,1,0,0:0:0:0:
109,192,335781,1,0,0:0:0:0:
329,192,335883,1,0,0:0:0:0:
256,192,335883,1,0,0:0:0:0:
475,192,335883,1,0,0:0:0:0:
36,192,335883,1,0,0:0:0:0:
109,192,335883,1,0,0:0:0:0:
329,192,336291,1,0,0:0:0:0:
109,192,336291,1,0,0:0:0:0:
402,192,336291,1,0,0:0:0:0:
475,192,336291,1,0,0:0:0:0:
182,192,336291,1,0,0:0:0:0:
402,192,336394,1,0,0:0:0:0:
475,192,336394,1,0,0:0:0:0:
182,192,336496,1,0,0:0:0:0:
109,192,336496,1,0,0:0:0:0:
36,192,336496,1,0,0:0:0:0:
329,192,336496,1,0,0:0:0:0:
256,192,336598,1,0,0:0:0:0:
402,192,336598,1,0,0:0:0:0:
475,192,336598,1,0,0:0:0:0:
182,192,336700,1,0,0:0:0:0:
109,192,336700,1,0,0:0:0:0:
36,192,336700,1,0,0:0:0:0:
329,192,336700,1,0,0:0:0:0:
329,192,336904,1,0,0:0:0:0:
182,192,336904,1,0,0:0:0:0:
109,192,336904,1,0,0:0:0:0:
36,192,336904,1,0,0:0:0:0:
182,192,337108,1,0,0:0:0:0:
256,192,337108,1,0,0:0:0:0:
329,192,337108,1,0,0:0:0:0:
402,192,337108,1,0,0:0:0:0:
36,192,337108,1,0,0:0:0:0:
329,192,337210,1,0,0:0:0:0:
182,192,337210,1,0,0:0:0:0:
256,192,337312,1,0,0:0:0:0:
109,192,337312,1,0,0:0:0:0:
36,192,337312,1,0,0:0:0:0:
402,192,337312,1,0,0:0:0:0:
109,192,337414,1,0,0:0:0:0:
36,192,337414,1,0,0:0:0:0:
256,192,337516,1,0,0:0:0:0:
329,192,337516,1,0,0:0:0:0:
475,192,337516,1,0,0:0:0:0:
402,192,337618,1,0,0:0:0:0:
182,192,337618,1,0,0:0:0:0:
256,192,337720,1,0,0:0:0:0:
329,192,337720,1,0,0:0:0:0:
475,192,337720,1,0,0:0:0:0:
402,192,337822,1,0,0:0:0:0:
109,192,337822,1,0,0:0:0:0:
475,192,337924,1,0,0:0:0:0:
36,192,337924,1,0,0:0:0:0:
182,192,337924,1,0,0:0:0:0:
256,192,337924,1,0,0:0:0:0:
402,192,337950,1,0,0:0:0:0:
329,192,337975,1,0,0:0:0:0:
109,192,338001,1,0,0:0:0:0:
36,192,338026,1,0,0:0:0:0:
475,192,338052,1,0,0:0:0:0:
402,192,338077,1,0,0:0:0:0:
256,192,338103,1,0,0:0:0:0:
182,192,338128,1,0,0:0:0:0:
109,192,338154,1,0,0:0:0:0:
36,192,338179,1,0,0:0:0:0:
475,192,338205,1,0,0:0:0:0:
402,192,338230,1,0,0:0:0:0:
329,192,338256,1,0,0:0:0:0:
256,192,338281,1,0,0:0:0:0:
182,192,338307,1,0,0:0:0:0:
329,192,338332,1,0,0:0:0:0:
402,192,338332,1,0,0:0:0:0:
475,192,338332,1,0,0:0:0:0:
36,192,338332,1,0,0:0:0:0:
402,192,338434,1,0,0:0:0:0:
475,192,338434,1,0,0:0:0:0:
329,192,338434,1,0,0:0:0:0:
109,192,338536,1,0,0:0:0:0:
36,192,338536,1,0,0:0:0:0:
256,192,338536,1,0,0:0:0:0:
475,192,338638,1,0,0:0:0:0:
402,192,338638,1,0,0:0:0:0:
182,192,338638,1,0,0:0:0:0:
256,192,338740,1,0,0:0:0:0:
109,192,338740,1,0,0:0:0:0:
36,192,338740,1,0,0:0:0:0:
402,192,338740,1,0,0:0:0:0:
475,192,338740,1,0,0:0:0:0:
329,192,338842,1,0,0:0:0:0:
182,192,338842,1,0,0:0:0:0:
256,192,338945,1,0,0:0:0:0:
109,192,338945,1,0,0:0:0:0:
36,192,338945,1,0,0:0:0:0:
182,192,339047,1,0,0:0:0:0:
475,192,339047,1,0,0:0:0:0:
402,192,339149,1,0,0:0:0:0:
109,192,339149,1,0,0:0:0:0:
256,192,339149,1,0,0:0:0:0:
36,192,339149,1,0,0:0:0:0:
109,192,339251,1,0,0:0:0:0:
36,192,339251,1,0,0:0:0:0:
182,192,339353,1,0,0:0:0:0:
475,192,339353,1,0,0:0:0:0:
402,192,339353,1,0,0:0:0:0:
329,192,339455,1,0,0:0:0:0:
256,192,339455,1,0,0:0:0:0:
109,192,339455,1,0,0:0:0:0:
329,192,339557,1,0,0:0:0:0:
256,192,339557,1,0,0:0:0:0:
402,192,339557,1,0,0:0:0:0:
475,192,339557,1,0,0:0:0:0:
36,192,339557,1,0,0:0:0:0:
182,192,339761,128,0,339965:0:0:0:0:
256,192,339965,1,0,0:0:0:0:
402,192,339965,1,0,0:0:0:0:
329,192,339965,1,0,0:0:0:0:
475,192,339965,1,0,0:0:0:0:
36,192,339965,1,0,0:0:0:0:
329,192,340067,1,0,0:0:0:0:
475,192,340067,1,0,0:0:0:0:
182,192,340169,1,0,0:0:0:0:
36,192,340169,1,0,0:0:0:0:
109,192,340169,1,0,0:0:0:0:
475,192,340271,1,0,0:0:0:0:
402,192,340271,1,0,0:0:0:0:
256,192,340271,1,0,0:0:0:0:
329,192,340373,1,0,0:0:0:0:
36,192,340373,1,0,0:0:0:0:
109,192,340373,1,0,0:0:0:0:
36,192,340475,1,0,0:0:0:0:
109,192,340475,1,0,0:0:0:0:
256,192,340577,1,0,0:0:0:0:
402,192,340577,1,0,0:0:0:0:
475,192,340577,1,0,0:0:0:0:
402,192,340679,1,0,0:0:0:0:
475,192,340679,1,0,0:0:0:0:
182,192,340781,1,0,0:0:0:0:
329,192,340781,1,0,0:0:0:0:
109,192,340781,1,0,0:0:0:0:
36,192,340781,1,0,0:0:0:0:
256,192,340781,1,0,0:0:0:0:
109,192,340883,1,0,0:0:0:0:
109,192,340985,1,0,0:0:0:0:
256,192,340985,1,0,0:0:0:0:
475,192,340985,1,0,0:0:0:0:
329,192,340985,1,0,0:0:0:0:
402,192,340985,1,0,0:0:0:0:
329,192,341087,1,0,0:0:0:0:
329,192,341189,1,0,0:0:0:0:
182,192,341189,1,0,0:0:0:0:
109,192,341189,1,0,0:0:0:0:
36,192,341189,1,0,0:0:0:0:
475,192,341189,1,0,0:0:0:0:
182,192,341291,1,0,0:0:0:0:
109,192,341394,1,0,0:0:0:0:
256,192,341394,1,0,0:0:0:0:
402,192,341394,1,0,0:0:0:0:
329,192,341394,1,0,0:0:0:0:
182,192,341394,1,0,0:0:0:0:
402,192,341496,1,0,0:0:0:0:
402,192,341598,1,0,0:0:0:0:
36,192,341598,1,0,0:0:0:0:
109,192,341598,1,0,0:0:0:0:
256,192,341598,1,0,0:0:0:0:
36,192,341700,1,0,0:0:0:0:
109,192,341700,1,0,0:0:0:0:
256,192,341700,1,0,0:0:0:0:
109,192,341802,1,0,0:0:0:0:
36,192,341802,1,0,0:0:0:0:
256,192,341802,1,0,0:0:0:0:
329,192,341904,1,0,0:0:0:0:
402,192,341904,1,0,0:0:0:0:
475,192,341904,1,0,0:0:0:0:
329,192,342006,1,0,0:0:0:0:
402,192,342006,1,0,0:0:0:0:
475,192,342006,1,0,0:0:0:0:
256,192,342108,1,0,0:0:0:0:
182,192,342108,1,0,0:0:0:0:
36,192,342108,1,0,0:0:0:0:
36,192,342210,1,0,0:0:0:0:
182,192,342210,1,0,0:0:0:0:
256,192,342210,1,0,0:0:0:0:
109,192,342312,1,0,0:0:0:0:
329,192,342312,1,0,0:0:0:0:
402,192,342312,1,0,0:0:0:0:
109,192,342414,1,0,0:0:0:0:
329,192,342414,1,0,0:0:0:0:
402,192,342414,1,0,0:0:0:0:
182,192,342516,1,0,0:0:0:0:
475,192,342516,1,0,0:0:0:0:
256,192,342516,1,0,0:0:0:0:
182,192,342618,1,0,0:0:0:0:
256,192,342618,1,0,0:0:0:0:
475,192,342618,1,0,0:0:0:0:
329,192,342720,1,0,0:0:0:0:
36,192,342720,1,0,0:0:0:0:
109,192,342720,1,0,0:0:0:0:
402,192,342720,1,0,0:0:0:0:
256,192,342822,128,0,342924:0:0:0:0:
182,192,342822,128,0,342924:0:0:0:0:
475,192,342822,128,0,342924:0:0:0:0:
182,192,343026,128,0,343230:0:0:0:0:
256,192,343026,128,0,343230:0:0:0:0:
475,192,343026,128,0,343230:0:0:0:0:
402,192,343230,1,0,0:0:0:0:
329,192,343230,1,0,0:0:0:0:
36,192,343230,1,0,0:0:0:0:
109,192,343230,1,0,0:0:0:0:
36,192,343332,1,0,0:0:0:0:
109,192,343332,1,0,0:0:0:0:
329,192,343332,1,0,0:0:0:0:
402,192,343332,1,0,0:0:0:0:
256,192,343434,1,0,0:0:0:0:
475,192,343434,1,0,0:0:0:0:
36,192,343434,1,0,0:0:0:0:
109,192,343434,1,0,0:0:0:0:
329,192,343536,1,0,0:0:0:0:
402,192,343536,1,0,0:0:0:0:
182,192,343536,1,0,0:0:0:0:
475,192,343536,1,0,0:0:0:0:
109,192,343638,1,0,0:0:0:0:
36,192,343638,1,0,0:0:0:0:
329,192,343638,1,0,0:0:0:0:
402,192,343638,1,0,0:0:0:0:
329,192,343740,1,0,0:0:0:0:
256,192,343740,1,0,0:0:0:0:
182,192,343740,1,0,0:0:0:0:
475,192,343740,1,0,0:0:0:0:
256,192,343842,1,0,0:0:0:0:
182,192,343842,1,0,0:0:0:0:
109,192,343842,1,0,0:0:0:0:
402,192,343842,1,0,0:0:0:0:
109,192,343945,1,0,0:0:0:0:
329,192,343945,1,0,0:0:0:0:
182,192,343945,1,0,0:0:0:0:
256,192,343945,1,0,0:0:0:0:
402,192,344047,1,0,0:0:0:0:
475,192,344047,1,0,0:0:0:0:
109,192,344047,1,0,0:0:0:0:
182,192,344047,1,0,0:0:0:0:
329,192,344149,1,0,0:0:0:0:
36,192,344149,1,0,0:0:0:0:
402,192,344149,1,0,0:0:0:0:
475,192,344149,1,0,0:0:0:0:
109,192,344251,1,0,0:0:0:0:
182,192,344251,1,0,0:0:0:0:
329,192,344251,1,0,0:0:0:0:
402,192,344251,1,0,0:0:0:0:
256,192,344353,1,0,0:0:0:0:
36,192,344353,1,0,0:0:0:0:
475,192,344353,1,0,0:0:0:0:
109,192,344353,1,0,0:0:0:0:
329,192,344455,1,0,0:0:0:0:
402,192,344455,1,0,0:0:0:0:
475,192,344455,1,0,0:0:0:0:
256,192,344557,1,0,0:0:0:0:
36,192,344557,1,0,0:0:0:0:
109,192,344659,1,0,0:0:0:0:
182,192,344659,1,0,0:0:0:0:
329,192,344659,1,0,0:0:0:0:
256,192,344761,1,0,0:0:0:0:
402,192,344761,1,0,0:0:0:0:
475,192,344761,1,0,0:0:0:0:
36,192,344863,1,0,0:0:0:0:
109,192,344863,1,0,0:0:0:0:
182,192,344888,1,0,0:0:0:0:
256,192,344914,1,0,0:0:0:0:
329,192,344939,1,0,0:0:0:0:
402,192,344965,1,0,0:0:0:0:
475,192,344965,1,0,0:0:0:0:
36,192,344990,1,0,0:0:0:0:
109,192,345016,1,0,0:0:0:0:
182,192,345041,1,0,0:0:0:0:
256,192,345067,1,0,0:0:0:0:
329,192,345067,1,0,0:0:0:0:
402,192,345092,1,0,0:0:0:0:
475,192,345118,1,0,0:0:0:0:
36,192,345144,1,0,0:0:0:0:
109,192,345169,1,0,0:0:0:0:
182,192,345169,1,0,0:0:0:0:
256,192,345195,1,0,0:0:0:0:
329,192,345220,1,0,0:0:0:0:
402,192,345246,1,0,0:0:0:0:
475,192,345271,1,0,0:0:0:0:
36,192,345271,1,0,0:0:0:0:
109,192,345297,1,0,0:0:0:0:
182,192,345322,1,0,0:0:0:0:
256,192,345348,1,0,0:0:0:0:
329,192,345373,1,0,0:0:0:0:
402,192,345373,1,0,0:0:0:0:
475,192,345399,1,0,0:0:0:0:
36,192,345424,1,0,0:0:0:0:
109,192,345450,1,0,0:0:0:0:
182,192,345475,1,0,0:0:0:0:
256,192,345475,1,0,0:0:0:0:
329,192,345501,1,0,0:0:0:0:
402,192,345526,1,0,0:0:0:0:
475,192,345552,1,0,0:0:0:0:
109,192,345577,1,0,0:0:0:0:
36,192,345577,1,0,0:0:0:0:
182,192,345603,1,0,0:0:0:0:
256,192,345628,1,0,0:0:0:0:
329,192,345654,1,0,0:0:0:0:
402,192,345679,1,0,0:0:0:0:
475,192,345679,1,0,0:0:0:0:
36,192,345705,1,0,0:0:0:0:
109,192,345730,1,0,0:0:0:0:
182,192,345756,1,0,0:0:0:0:
329,192,345781,1,0,0:0:0:0:
256,192,345781,1,0,0:0:0:0:
402,192,345807,1,0,0:0:0:0:
475,192,345832,1,0,0:0:0:0:
36,192,345858,1,0,0:0:0:0:
109,192,345883,1,0,0:0:0:0:
182,192,345883,1,0,0:0:0:0:
256,192,345909,1,0,0:0:0:0:
329,192,345934,1,0,0:0:0:0:
402,192,345960,1,0,0:0:0:0:
475,192,345985,1,0,0:0:0:0:
36,192,345985,1,0,0:0:0:0:
109,192,346011,1,0,0:0:0:0:
182,192,346036,1,0,0:0:0:0:
256,192,346062,1,0,0:0:0:0:
329,192,346087,1,0,0:0:0:0:
402,192,346087,1,0,0:0:0:0:
475,192,346087,1,0,0:0:0:0:
36,192,346113,1,0,0:0:0:0:
109,192,346138,1,0,0:0:0:0:
182,192,346164,1,0,0:0:0:0:
256,192,346189,1,0,0:0:0:0:
329,192,346189,1,0,0:0:0:0:
402,192,346189,1,0,0:0:0:0:
475,192,346215,1,0,0:0:0:0:
36,192,346240,1,0,0:0:0:0:
109,192,346266,1,0,0:0:0:0:
182,192,346291,1,0,0:0:0:0:
256,192,346291,1,0,0:0:0:0:
329,192,346291,1,0,0:0:0:0:
402,192,346317,1,0,0:0:0:0:
475,192,346342,1,0,0:0:0:0:
36,192,346368,1,0,0:0:0:0:
109,192,346394,1,0,0:0:0:0:
182,192,346394,1,0,0:0:0:0:
256,192,346394,1,0,0:0:0:0:
329,192,346419,1,0,0:0:0:0:
402,192,346445,1,0,0:0:0:0:
475,192,346470,1,0,0:0:0:0:
182,192,346496,1,0,0:0:0:0:
109,192,346496,1,0,0:0:0:0:
36,192,346496,1,0,0:0:0:0:
329,192,346598,1,0,0:0:0:0:
256,192,346700,1,0,0:0:0:0:
182,192,346802,1,0,0:0:0:0:
109,192,346904,1,0,0:0:0:0:
36,192,347006,1,0,0:0:0:0:
475,192,347006,1,0,0:0:0:0:
36,192,347108,1,0,0:0:0:0:
402,192,347108,1,0,0:0:0:0:
329,192,347108,1,0,0:0:0:0:
256,192,347108,1,0,0:0:0:0:
109,192,347210,1,0,0:0:0:0:
182,192,347210,1,0,0:0:0:0:
475,192,347210,1,0,0:0:0:0:
182,192,347312,1,0,0:0:0:0:
109,192,347312,1,0,0:0:0:0:
329,192,347312,1,0,0:0:0:0:
402,192,347312,1,0,0:0:0:0:
329,192,347414,1,0,0:0:0:0:
402,192,347414,1,0,0:0:0:0:
109,192,347516,1,0,0:0:0:0:
36,192,347516,1,0,0:0:0:0:
329,192,347516,1,0,0:0:0:0:
402,192,347516,1,0,0:0:0:0:
109,192,347618,1,0,0:0:0:0:
36,192,347618,1,0,0:0:0:0:
182,192,347720,1,0,0:0:0:0:
256,192,347720,1,0,0:0:0:0:
329,192,347720,1,0,0:0:0:0:
182,192,347822,1,0,0:0:0:0:
256,192,347822,1,0,0:0:0:0:
329,192,347822,1,0,0:0:0:0:
402,192,347924,1,0,0:0:0:0:
475,192,347924,1,0,0:0:0:0:
109,192,347924,1,0,0:0:0:0:
109,192,348026,1,0,0:0:0:0:
402,192,348026,1,0,0:0:0:0:
475,192,348026,1,0,0:0:0:0:
475,192,348128,5,0,0:0:0:0:
329,192,348128,1,0,0:0:0:0:
182,192,348128,1,0,0:0:0:0:
109,192,348128,1,0,0:0:0:0:
36,192,348128,1,0,0:0:0:0:
256,192,348332,1,0,0:0:0:0:
109,192,348332,1,0,0:0:0:0:
402,192,348332,1,0,0:0:0:0:
329,192,348332,1,0,0:0:0:0:
475,192,348332,1,0,0:0:0:0:
36,192,348536,1,0,0:0:0:0:
109,192,348536,1,0,0:0:0:0:
329,192,348536,1,0,0:0:0:0:
182,192,348536,1,0,0:0:0:0:
256,192,348536,1,0,0:0:0:0:
475,192,348536,1,0,0:0:0:0:
182,192,348638,1,0,0:0:0:0:
329,192,348638,1,0,0:0:0:0:
256,192,348740,1,0,0:0:0:0:
109,192,348740,1,0,0:0:0:0:
475,192,348740,1,0,0:0:0:0:
402,192,348842,1,0,0:0:0:0:
182,192,348842,1,0,0:0:0:0:
36,192,348842,1,0,0:0:0:0:
475,192,348945,1,0,0:0:0:0:
109,192,348945,1,0,0:0:0:0:
329,192,348945,1,0,0:0:0:0:
256,192,348945,1,0,0:0:0:0:
36,192,349149,1,0,0:0:0:0:
182,192,349149,1,0,0:0:0:0:
182,192,349251,1,0,0:0:0:0:
36,192,349251,1,0,0:0:0:0:
256,192,349251,1,0,0:0:0:0:
402,192,349251,1,0,0:0:0:0:
36,192,349353,1,0,0:0:0:0:
182,192,349353,1,0,0:0:0:0:
329,192,349353,1,0,0:0:0:0:
475,192,349353,1,0,0:0:0:0:
402,192,349353,1,0,0:0:0:0:
109,192,349353,1,0,0:0:0:0:
256,192,349557,128,0,349761:0:0:0:0:
109,192,349557,128,0,349761:0:0:0:0:
182,192,349761,1,0,0:0:0:0:
36,192,349761,1,0,0:0:0:0:
402,192,349761,1,0,0:0:0:0:
329,192,349761,1,0,0:0:0:0:
475,192,349761,1,0,0:0:0:0:
329,192,349965,1,0,0:0:0:0:
256,192,349965,1,0,0:0:0:0:
182,192,349965,1,0,0:0:0:0:
36,192,349965,1,0,0:0:0:0:
475,192,349965,1,0,0:0:0:0:
109,192,350169,1,0,0:0:0:0:
402,192,350169,1,0,0:0:0:0:
475,192,350169,1,0,0:0:0:0:
36,192,350169,1,0,0:0:0:0:
256,192,350169,1,0,0:0:0:0:
329,192,350169,1,0,0:0:0:0:
36,192,350373,1,0,0:0:0:0:
182,192,350373,1,0,0:0:0:0:
256,192,350373,1,0,0:0:0:0:
329,192,350373,1,0,0:0:0:0:
109,192,350475,1,0,0:0:0:0:
402,192,350475,1,0,0:0:0:0:
475,192,350475,1,0,0:0:0:0:
329,192,350577,1,0,0:0:0:0:
256,192,350577,1,0,0:0:0:0:
182,192,350577,1,0,0:0:0:0:
36,192,350577,1,0,0:0:0:0:
475,192,350781,128,0,350985:0:0:0:0:
329,192,350781,1,0,0:0:0:0:
256,192,350781,1,0,0:0:0:0:
109,192,350781,1,0,0:0:0:0:
256,192,350883,1,0,0:0:0:0:
329,192,350883,1,0,0:0:0:0:
36,192,350985,1,0,0:0:0:0:
109,192,350985,1,0,0:0:0:0:
182,192,350985,1,0,0:0:0:0:
402,192,350985,1,0,0:0:0:0:
329,192,350985,1,0,0:0:0:0:
256,192,350985,1,0,0:0:0:0:
256,192,351189,128,0,351393:0:0:0:0:
329,192,351189,128,0,351393:0:0:0:0:
475,192,351189,128,0,351393:0:0:0:0:
402,192,351393,1,0,0:0:0:0:
182,192,351393,1,0,0:0:0:0:
109,192,351393,1,0,0:0:0:0:
36,192,351393,1,0,0:0:0:0:
36,192,351598,1,0,0:0:0:0:
109,192,351598,1,0,0:0:0:0:
182,192,351598,1,0,0:0:0:0:
256,192,351598,1,0,0:0:0:0:
475,192,351598,1,0,0:0:0:0:
402,192,351802,1,0,0:0:0:0:
329,192,351802,1,0,0:0:0:0:
256,192,351802,1,0,0:0:0:0:
182,192,351802,1,0,0:0:0:0:
36,192,351802,1,0,0:0:0:0:
475,192,351802,1,0,0:0:0:0:
256,192,352006,1,0,0:0:0:0:
329,192,352006,1,0,0:0:0:0:
402,192,352006,1,0,0:0:0:0:
109,192,352006,1,0,0:0:0:0:
36,192,352006,1,0,0:0:0:0:
36,192,352108,1,0,0:0:0:0:
109,192,352108,1,0,0:0:0:0:
475,192,352108,1,0,0:0:0:0:
182,192,352210,1,0,0:0:0:0:
402,192,352210,1,0,0:0:0:0:
329,192,352414,1,0,0:0:0:0:
475,192,352414,1,0,0:0:0:0:
256,192,352414,1,0,0:0:0:0:
36,192,352414,1,0,0:0:0:0:
109,192,352516,1,0,0:0:0:0:
182,192,352516,1,0,0:0:0:0:
109,192,352618,1,0,0:0:0:0:
182,192,352618,1,0,0:0:0:0:
329,192,352618,1,0,0:0:0:0:
402,192,352618,1,0,0:0:0:0:
256,192,352618,1,0,0:0:0:0:
475,192,352618,1,0,0:0:0:0:
475,192,352822,1,0,0:0:0:0:
36,192,352822,1,0,0:0:0:0:
109,192,352822,1,0,0:0:0:0:
182,192,352822,1,0,0:0:0:0:
109,192,352924,1,0,0:0:0:0:
36,192,352924,1,0,0:0:0:0:
329,192,353026,1,0,0:0:0:0:
475,192,353026,1,0,0:0:0:0:
402,192,353026,1,0,0:0:0:0:
182,192,353026,1,0,0:0:0:0:
36,192,353230,1,0,0:0:0:0:
109,192,353230,1,0,0:0:0:0:
256,192,353230,1,0,0:0:0:0:
402,192,353230,1,0,0:0:0:0:
402,192,353434,1,0,0:0:0:0:
475,192,353434,1,0,0:0:0:0:
256,192,353434,1,0,0:0:0:0:
109,192,353434,1,0,0:0:0:0:
329,192,353434,1,0,0:0:0:0:
36,192,353434,1,0,0:0:0:0:
182,192,353536,1,0,0:0:0:0:
36,192,353536,1,0,0:0:0:0:
256,192,353638,1,0,0:0:0:0:
402,192,353638,1,0,0:0:0:0:
475,192,353638,1,0,0:0:0:0:
402,192,353740,1,0,0:0:0:0:
475,192,353740,1,0,0:0:0:0:
329,192,353842,1,0,0:0:0:0:
256,192,353842,1,0,0:0:0:0:
182,192,353842,1,0,0:0:0:0:
109,192,353842,1,0,0:0:0:0:
36,192,353842,1,0,0:0:0:0:
402,192,353945,1,0,0:0:0:0:
475,192,354047,1,0,0:0:0:0:
256,192,354047,1,0,0:0:0:0:
109,192,354047,1,0,0:0:0:0:
329,192,354251,128,0,354455:0:0:0:0:
256,192,354455,1,0,0:0:0:0:
36,192,354455,1,0,0:0:0:0:
109,192,354455,1,0,0:0:0:0:
182,192,354659,1,0,0:0:0:0:
256,192,354659,1,0,0:0:0:0:
402,192,354659,1,0,0:0:0:0:
475,192,354659,1,0,0:0:0:0:
36,192,354659,1,0,0:0:0:0:
329,192,354659,1,0,0:0:0:0:
109,192,354659,1,0,0:0:0:0:
475,192,354863,1,0,0:0:0:0:
182,192,354863,1,0,0:0:0:0:
109,192,354863,1,0,0:0:0:0:
36,192,354863,1,0,0:0:0:0:
329,192,354863,1,0,0:0:0:0:
182,192,355067,1,0,0:0:0:0:
256,192,355067,1,0,0:0:0:0:
402,192,355067,1,0,0:0:0:0:
475,192,355067,1,0,0:0:0:0:
36,192,355067,1,0,0:0:0:0:
329,192,355169,1,0,0:0:0:0:
109,192,355169,1,0,0:0:0:0:
402,192,355271,1,0,0:0:0:0:
36,192,355271,1,0,0:0:0:0:
475,192,355373,1,0,0:0:0:0:
182,192,355373,1,0,0:0:0:0:
256,192,355373,1,0,0:0:0:0:
329,192,355475,1,0,0:0:0:0:
402,192,355475,1,0,0:0:0:0:
109,192,355475,1,0,0:0:0:0:
36,192,355475,1,0,0:0:0:0:
109,192,355577,1,0,0:0:0:0:
36,192,355577,1,0,0:0:0:0:
182,192,355679,1,0,0:0:0:0:
256,192,355679,1,0,0:0:0:0:
475,192,355679,1,0,0:0:0:0:
402,192,355679,1,0,0:0:0:0:
402,192,355781,1,0,0:0:0:0:
475,192,355781,1,0,0:0:0:0:
329,192,355883,1,0,0:0:0:0:
256,192,355883,1,0,0:0:0:0:
182,192,355883,1,0,0:0:0:0:
109,192,355883,1,0,0:0:0:0:
36,192,355883,1,0,0:0:0:0:
182,192,356087,1,0,0:0:0:0:
329,192,356087,1,0,0:0:0:0:
402,192,356087,1,0,0:0:0:0:
36,192,356087,1,0,0:0:0:0:
475,192,356087,1,0,0:0:0:0:
329,192,356291,128,0,356496:0:0:0:0:
109,192,356291,128,0,356496:0:0:0:0:
36,192,356291,128,0,356496:0:0:0:0:
402,192,356496,128,0,356700:0:0:0:0:
182,192,356496,128,0,356700:0:0:0:0:
475,192,356496,128,0,356700:0:0:0:0:
329,192,356700,1,0,0:0:0:0:
256,192,356700,1,0,0:0:0:0:
109,192,356700,1,0,0:0:0:0:
36,192,356700,1,0,0:0:0:0:
36,192,356904,1,0,0:0:0:0:
109,192,356904,1,0,0:0:0:0:
329,192,356904,1,0,0:0:0:0:
402,192,357006,1,0,0:0:0:0:
475,192,357006,1,0,0:0:0:0:
256,192,357006,1,0,0:0:0:0:
109,192,357108,1,0,0:0:0:0:
36,192,357108,1,0,0:0:0:0:
182,192,357108,1,0,0:0:0:0:
329,192,357108,1,0,0:0:0:0:
256,192,357210,1,0,0:0:0:0:
402,192,357210,1,0,0:0:0:0:
475,192,357210,1,0,0:0:0:0:
109,192,357210,1,0,0:0:0:0:
36,192,357210,1,0,0:0:0:0:
329,192,357312,1,0,0:0:0:0:
182,192,357312,1,0,0:0:0:0:
36,192,357414,1,0,0:0:0:0:
109,192,357448,1,0,0:0:0:0:
182,192,357482,1,0,0:0:0:0:
402,192,357516,1,0,0:0:0:0:
475,192,357550,1,0,0:0:0:0:
36,192,357584,1,0,0:0:0:0:
109,192,357618,1,0,0:0:0:0:
256,192,357652,1,0,0:0:0:0:
329,192,357686,1,0,0:0:0:0:
182,192,357720,1,0,0:0:0:0:
475,192,357720,1,0,0:0:0:0:
109,192,357754,1,0,0:0:0:0:
36,192,357788,1,0,0:0:0:0:
402,192,357822,1,0,0:0:0:0:
329,192,357856,1,0,0:0:0:0:
182,192,357890,1,0,0:0:0:0:
109,192,357924,1,0,0:0:0:0:
36,192,357924,1,0,0:0:0:0:
256,192,357924,1,0,0:0:0:0:
475,192,357924,1,0,0:0:0:0:
182,192,358128,1,0,0:0:0:0:
329,192,358128,1,0,0:0:0:0:
402,192,358128,1,0,0:0:0:0:
475,192,358128,1,0,0:0:0:0:
36,192,358128,1,0,0:0:0:0:
182,192,358332,1,0,0:0:0:0:
475,192,358332,1,0,0:0:0:0:
36,192,358332,1,0,0:0:0:0:
256,192,358332,1,0,0:0:0:0:
329,192,358434,1,0,0:0:0:0:
402,192,358434,1,0,0:0:0:0:
256,192,358536,1,0,0:0:0:0:
109,192,358536,1,0,0:0:0:0:
36,192,358536,1,0,0:0:0:0:
36,192,358638,1,0,0:0:0:0:
109,192,358638,1,0,0:0:0:0:
182,192,358638,1,0,0:0:0:0:
256,192,358638,1,0,0:0:0:0:
402,192,358740,1,0,0:0:0:0:
475,192,358740,1,0,0:0:0:0:
329,192,358740,1,0,0:0:0:0:
402,192,358842,1,0,0:0:0:0:
475,192,358842,1,0,0:0:0:0:
256,192,358945,1,0,0:0:0:0:
182,192,358945,1,0,0:0:0:0:
36,192,358945,1,0,0:0:0:0:
109,192,359047,1,0,0:0:0:0:
329,192,359047,1,0,0:0:0:0:
182,192,359149,1,0,0:0:0:0:
256,192,359149,1,0,0:0:0:0:
402,192,359149,1,0,0:0:0:0:
475,192,359149,1,0,0:0:0:0:
36,192,359149,1,0,0:0:0:0:
329,192,359353,128,0,359557:0:0:0:0:
256,192,359557,1,0,0:0:0:0:
182,192,359557,1,0,0:0:0:0:
36,192,359557,1,0,0:0:0:0:
475,192,359557,1,0,0:0:0:0:
109,192,359659,1,0,0:0:0:0:
329,192,359659,1,0,0:0:0:0:
36,192,359761,1,0,0:0:0:0:
475,192,359761,1,0,0:0:0:0:
402,192,359761,1,0,0:0:0:0:
256,192,359761,1,0,0:0:0:0:
182,192,359863,1,0,0:0:0:0:
256,192,359965,1,0,0:0:0:0:
475,192,359965,1,0,0:0:0:0:
109,192,359965,1,0,0:0:0:0:
36,192,359965,1,0,0:0:0:0:
329,192,360067,1,0,0:0:0:0:
182,192,360169,1,0,0:0:0:0:
256,192,360169,1,0,0:0:0:0:
402,192,360169,1,0,0:0:0:0:
475,192,360169,1,0,0:0:0:0:
329,192,360220,128,0,360373:0:0:0:0:
109,192,360220,128,0,360373:0:0:0:0:
329,192,360475,128,0,360628:0:0:0:0:
109,192,360475,128,0,360628:0:0:0:0:
256,192,360475,128,0,360628:0:0:0:0:
109,192,360730,128,0,360934:0:0:0:0:
329,192,360730,128,0,361036:0:0:0:0:
182,192,360730,128,0,360985:0:0:0:0:
256,192,360730,128,0,361036:0:0:0:0:
402,192,360985,128,0,361189:0:0:0:0:
475,192,361189,5,0,0:0:0:0:
329,192,361189,1,0,0:0:0:0:
182,192,361189,1,0,0:0:0:0:
36,192,361189,1,0,0:0:0:0:
109,192,361189,1,0,0:0:0:0:
256,192,361393,1,0,0:0:0:0:
109,192,361393,1,0,0:0:0:0:
402,192,361393,1,0,0:0:0:0:
329,192,361393,1,0,0:0:0:0:
475,192,361393,1,0,0:0:0:0:
36,192,361598,1,0,0:0:0:0:
109,192,361598,1,0,0:0:0:0:
329,192,361598,1,0,0:0:0:0:
182,192,361598,1,0,0:0:0:0:
256,192,361598,1,0,0:0:0:0:
475,192,361598,1,0,0:0:0:0:
182,192,361700,1,0,0:0:0:0:
329,192,361700,1,0,0:0:0:0:
256,192,361802,1,0,0:0:0:0:
109,192,361802,1,0,0:0:0:0:
475,192,361802,1,0,0:0:0:0:
402,192,361904,1,0,0:0:0:0:
182,192,361904,1,0,0:0:0:0:
36,192,361904,1,0,0:0:0:0:
475,192,362006,1,0,0:0:0:0:
109,192,362006,1,0,0:0:0:0:
329,192,362006,1,0,0:0:0:0:
256,192,362006,1,0,0:0:0:0:
36,192,362210,1,0,0:0:0:0:
182,192,362210,1,0,0:0:0:0:
182,192,362312,1,0,0:0:0:0:
36,192,362312,1,0,0:0:0:0:
256,192,362312,1,0,0:0:0:0:
402,192,362312,1,0,0:0:0:0:
36,192,362414,1,0,0:0:0:0:
182,192,362414,1,0,0:0:0:0:
329,192,362414,1,0,0:0:0:0:
475,192,362414,1,0,0:0:0:0:
402,192,362414,1,0,0:0:0:0:
109,192,362414,1,0,0:0:0:0:
256,192,362618,128,0,362822:0:0:0:0:
109,192,362618,128,0,362822:0:0:0:0:
182,192,362822,1,0,0:0:0:0:
36,192,362822,1,0,0:0:0:0:
402,192,362822,1,0,0:0:0:0:
329,192,362822,1,0,0:0:0:0:
475,192,362822,1,0,0:0:0:0:
475,192,362924,1,0,0:0:0:0:
402,192,362924,1,0,0:0:0:0:
329,192,363026,1,0,0:0:0:0:
256,192,363026,1,0,0:0:0:0:
182,192,363026,1,0,0:0:0:0:
36,192,363026,1,0,0:0:0:0:
329,192,363128,1,0,0:0:0:0:
256,192,363128,1,0,0:0:0:0:
109,192,363230,1,0,0:0:0:0:
402,192,363230,1,0,0:0:0:0:
475,192,363230,1,0,0:0:0:0:
36,192,363230,1,0,0:0:0:0:
256,192,363230,1,0,0:0:0:0:
329,192,363230,1,0,0:0:0:0:
402,192,363332,1,0,0:0:0:0:
475,192,363332,1,0,0:0:0:0:
36,192,363434,1,0,0:0:0:0:
182,192,363434,1,0,0:0:0:0:
256,192,363434,1,0,0:0:0:0:
329,192,363434,1,0,0:0:0:0:
109,192,363536,1,0,0:0:0:0:
402,192,363536,1,0,0:0:0:0:
475,192,363536,1,0,0:0:0:0:
329,192,363638,1,0,0:0:0:0:
256,192,363638,1,0,0:0:0:0:
182,192,363638,1,0,0:0:0:0:
36,192,363638,1,0,0:0:0:0:
475,192,363842,128,0,364047:0:0:0:0:
329,192,363842,1,0,0:0:0:0:
256,192,363842,1,0,0:0:0:0:
109,192,363842,1,0,0:0:0:0:
256,192,363945,1,0,0:0:0:0:
329,192,363945,1,0,0:0:0:0:
36,192,364047,1,0,0:0:0:0:
109,192,364047,1,0,0:0:0:0:
182,192,364047,1,0,0:0:0:0:
402,192,364047,1,0,0:0:0:0:
329,192,364047,1,0,0:0:0:0:
256,192,364047,1,0,0:0:0:0:
256,192,364251,128,0,364455:0:0:0:0:
329,192,364251,128,0,364455:0:0:0:0:
475,192,364251,128,0,364455:0:0:0:0:
402,192,364455,1,0,0:0:0:0:
182,192,364455,1,0,0:0:0:0:
109,192,364455,1,0,0:0:0:0:
36,192,364455,1,0,0:0:0:0:
36,192,364659,1,0,0:0:0:0:
109,192,364659,1,0,0:0:0:0:
182,192,364659,1,0,0:0:0:0:
256,192,364659,1,0,0:0:0:0:
475,192,364659,1,0,0:0:0:0:
402,192,364863,1,0,0:0:0:0:
329,192,364863,1,0,0:0:0:0:
256,192,364863,1,0,0:0:0:0:
182,192,364863,1,0,0:0:0:0:
36,192,364863,1,0,0:0:0:0:
475,192,364863,1,0,0:0:0:0:
109,192,364965,1,0,0:0:0:0:
475,192,364965,1,0,0:0:0:0:
402,192,364965,1,0,0:0:0:0:
256,192,365067,1,0,0:0:0:0:
329,192,365067,1,0,0:0:0:0:
36,192,365169,1,0,0:0:0:0:
109,192,365169,1,0,0:0:0:0:
182,192,365169,1,0,0:0:0:0:
475,192,365169,1,0,0:0:0:0:
182,192,365271,1,0,0:0:0:0:
109,192,365271,1,0,0:0:0:0:
402,192,365271,1,0,0:0:0:0:
329,192,365373,1,0,0:0:0:0:
475,192,365373,1,0,0:0:0:0:
329,192,365475,1,0,0:0:0:0:
475,192,365475,1,0,0:0:0:0:
256,192,365475,1,0,0:0:0:0:
36,192,365475,1,0,0:0:0:0:
109,192,365577,1,0,0:0:0:0:
182,192,365577,1,0,0:0:0:0:
109,192,365679,1,0,0:0:0:0:
182,192,365679,1,0,0:0:0:0:
329,192,365679,1,0,0:0:0:0:
402,192,365679,1,0,0:0:0:0:
256,192,365679,1,0,0:0:0:0:
475,192,365679,1,0,0:0:0:0:
475,192,365883,1,0,0:0:0:0:
36,192,365883,1,0,0:0:0:0:
109,192,365883,1,0,0:0:0:0:
182,192,365883,1,0,0:0:0:0:
109,192,365985,1,0,0:0:0:0:
36,192,365985,1,0,0:0:0:0:
329,192,366087,1,0,0:0:0:0:
475,192,366087,1,0,0:0:0:0:
402,192,366087,1,0,0:0:0:0:
182,192,366087,1,0,0:0:0:0:
36,192,366291,1,0,0:0:0:0:
109,192,366291,1,0,0:0:0:0:
256,192,366291,1,0,0:0:0:0:
402,192,366291,1,0,0:0:0:0:
402,192,366496,1,0,0:0:0:0:
475,192,366496,1,0,0:0:0:0:
256,192,366496,1,0,0:0:0:0:
109,192,366496,1,0,0:0:0:0:
329,192,366496,1,0,0:0:0:0:
36,192,366496,1,0,0:0:0:0:
182,192,366598,1,0,0:0:0:0:
36,192,366598,1,0,0:0:0:0:
256,192,366700,1,0,0:0:0:0:
402,192,366700,1,0,0:0:0:0:
475,192,366700,1,0,0:0:0:0:
402,192,366802,1,0,0:0:0:0:
475,192,366802,1,0,0:0:0:0:
329,192,366904,1,0,0:0:0:0:
256,192,366904,1,0,0:0:0:0:
182,192,366904,1,0,0:0:0:0:
109,192,366904,1,0,0:0:0:0:
36,192,366904,1,0,0:0:0:0:
402,192,367006,1,0,0:0:0:0:
475,192,367108,1,0,0:0:0:0:
109,192,367108,1,0,0:0:0:0:
256,192,367108,128,0,367312:0:0:0:0:
329,192,367210,1,0,0:0:0:0:
402,192,367312,1,0,0:0:0:0:
475,192,367312,1,0,0:0:0:0:
256,192,367516,1,0,0:0:0:0:
36,192,367516,1,0,0:0:0:0:
109,192,367516,1,0,0:0:0:0:
329,192,367516,128,0,367720:0:0:0:0:
182,192,367720,1,0,0:0:0:0:
402,192,367720,1,0,0:0:0:0:
475,192,367720,1,0,0:0:0:0:
36,192,367720,1,0,0:0:0:0:
109,192,367720,1,0,0:0:0:0:
256,192,367924,1,0,0:0:0:0:
402,192,367924,1,0,0:0:0:0:
109,192,367924,1,0,0:0:0:0:
36,192,367924,1,0,0:0:0:0:
329,192,368128,1,0,0:0:0:0:
402,192,368128,1,0,0:0:0:0:
475,192,368128,1,0,0:0:0:0:
109,192,368128,1,0,0:0:0:0:
182,192,368128,1,0,0:0:0:0:
36,192,368128,1,0,0:0:0:0:
256,192,368332,1,0,0:0:0:0:
475,192,368332,1,0,0:0:0:0:
109,192,368434,1,0,0:0:0:0:
36,192,368434,1,0,0:0:0:0:
109,192,368536,1,0,0:0:0:0:
182,192,368536,1,0,0:0:0:0:
36,192,368536,1,0,0:0:0:0:
329,192,368536,1,0,0:0:0:0:
402,192,368536,1,0,0:0:0:0:
256,192,368740,1,0,0:0:0:0:
109,192,368740,1,0,0:0:0:0:
36,192,368740,1,0,0:0:0:0:
402,192,368842,1,0,0:0:0:0:
475,192,368842,1,0,0:0:0:0:
475,192,368945,1,0,0:0:0:0:
402,192,368945,1,0,0:0:0:0:
256,192,368945,1,0,0:0:0:0:
182,192,368945,1,0,0:0:0:0:
109,192,368945,1,0,0:0:0:0:
109,192,369149,128,0,369327:0:0:0:0:
182,192,369353,1,0,0:0:0:0:
329,192,369353,1,0,0:0:0:0:
475,192,369353,1,0,0:0:0:0:
402,192,369353,1,0,0:0:0:0:
256,192,369353,1,0,0:0:0:0:
36,192,369557,1,0,0:0:0:0:
109,192,369761,1,0,0:0:0:0:
256,192,369761,1,0,0:0:0:0:
329,192,369761,1,0,0:0:0:0:
182,192,369761,1,0,0:0:0:0:
402,192,369965,1,0,0:0:0:0:
475,192,369965,1,0,0:0:0:0:
36,192,369965,1,0,0:0:0:0:
109,192,369965,1,0,0:0:0:0:
182,192,370067,1,0,0:0:0:0:
256,192,370067,1,0,0:0:0:0:
329,192,370067,1,0,0:0:0:0:
109,192,370169,1,0,0:0:0:0:
36,192,370169,1,0,0:0:0:0:
36,192,370271,1,0,0:0:0:0:
109,192,370271,1,0,0:0:0:0:
402,192,370373,1,0,0:0:0:0:
182,192,370373,1,0,0:0:0:0:
475,192,370373,1,0,0:0:0:0:
329,192,370373,1,0,0:0:0:0:
109,192,370475,1,0,0:0:0:0:
36,192,370475,1,0,0:0:0:0:
36,192,370577,1,0,0:0:0:0:
109,192,370577,1,0,0:0:0:0:
256,192,370577,1,0,0:0:0:0:
329,192,370577,1,0,0:0:0:0:
402,192,370628,1,0,0:0:0:0:
475,192,370679,1,0,0:0:0:0:
182,192,370705,1,0,0:0:0:0:
256,192,370730,1,0,0:0:0:0:
329,192,370781,1,0,0:0:0:0:
36,192,370832,1,0,0:0:0:0:
182,192,370883,1,0,0:0:0:0:
256,192,370909,1,0,0:0:0:0:
402,192,370934,1,0,0:0:0:0:
475,192,370985,1,0,0:0:0:0:
36,192,370985,1,0,0:0:0:0:
109,192,370985,1,0,0:0:0:0:
329,192,370985,1,0,0:0:0:0:
182,192,371189,1,0,0:0:0:0:
256,192,371189,1,0,0:0:0:0:
475,192,371189,1,0,0:0:0:0:
36,192,371189,1,0,0:0:0:0:
402,192,371189,1,0,0:0:0:0:
329,192,371393,1,0,0:0:0:0:
109,192,371393,1,0,0:0:0:0:
182,192,371393,1,0,0:0:0:0:
475,192,371393,1,0,0:0:0:0:
256,192,371393,1,0,0:0:0:0:
36,192,371598,1,0,0:0:0:0:
109,192,371700,1,0,0:0:0:0:
402,192,371700,1,0,0:0:0:0:
475,192,371700,1,0,0:0:0:0:
329,192,371802,1,0,0:0:0:0:
256,192,371802,1,0,0:0:0:0:
182,192,371802,1,0,0:0:0:0:
36,192,371802,1,0,0:0:0:0:
475,192,372006,1,0,0:0:0:0:
36,192,372006,1,0,0:0:0:0:
329,192,372108,1,0,0:0:0:0:
256,192,372108,1,0,0:0:0:0:
182,192,372108,1,0,0:0:0:0:
109,192,372108,1,0,0:0:0:0:
36,192,372210,1,0,0:0:0:0:
402,192,372210,1,0,0:0:0:0:
109,192,372414,1,0,0:0:0:0:
182,192,372414,1,0,0:0:0:0:
329,192,372414,1,0,0:0:0:0:
475,192,372414,1,0,0:0:0:0:
256,192,372414,1,0,0:0:0:0:
256,192,372822,128,0,373026:0:0:0:0:
329,192,373026,1,0,0:0:0:0:
402,192,373026,1,0,0:0:0:0:
475,192,373026,1,0,0:0:0:0:
182,192,373026,1,0,0:0:0:0:
109,192,373026,1,0,0:0:0:0:
36,192,373026,1,0,0:0:0:0:
329,192,373230,1,0,0:0:0:0:
256,192,373281,1,0,0:0:0:0:
402,192,373332,1,0,0:0:0:0:
182,192,373332,1,0,0:0:0:0:
109,192,373332,1,0,0:0:0:0:
36,192,373332,1,0,0:0:0:0:
329,192,373613,128,0,373996:0:0:0:0:
256,192,373842,128,0,374021:0:0:0:0:
36,192,373842,1,0,0:0:0:0:
109,192,373842,1,0,0:0:0:0:
182,192,373842,1,0,0:0:0:0:
402,192,374047,128,0,374251:0:0:0:0:
475,192,374072,128,0,374251:0:0:0:0:
36,192,374251,1,0,0:0:0:0:
182,192,374251,1,0,0:0:0:0:
329,192,374251,1,0,0:0:0:0:
109,192,374251,1,0,0:0:0:0:
402,192,374353,1,0,0:0:0:0:
475,192,374455,1,0,0:0:0:0:
36,192,374455,1,0,0:0:0:0:
109,192,374557,1,0,0:0:0:0:
182,192,374659,1,0,0:0:0:0:
402,192,374659,1,0,0:0:0:0:
475,192,374659,1,0,0:0:0:0:
256,192,374761,1,0,0:0:0:0:
329,192,374863,1,0,0:0:0:0:
475,192,374863,1,0,0:0:0:0:
256,192,374965,1,0,0:0:0:0:
182,192,375067,1,0,0:0:0:0:
402,192,375067,1,0,0:0:0:0:
36,192,375067,1,0,0:0:0:0:
109,192,375169,1,0,0:0:0:0:
36,192,375271,1,0,0:0:0:0:
475,192,375373,1,0,0:0:0:0:
402,192,375475,1,0,0:0:0:0:
109,192,375475,1,0,0:0:0:0:
182,192,375475,1,0,0:0:0:0:
329,192,375577,1,0,0:0:0:0:
256,192,375679,1,0,0:0:0:0:
182,192,375781,1,0,0:0:0:0:
36,192,375883,1,0,0:0:0:0:
256,192,375883,1,0,0:0:0:0:
475,192,375883,1,0,0:0:0:0:
402,192,375985,1,0,0:0:0:0:
329,192,376087,1,0,0:0:0:0:
256,192,376189,1,0,0:0:0:0:
182,192,376291,1,0,0:0:0:0:
475,192,376291,1,0,0:0:0:0:
402,192,376291,1,0,0:0:0:0:
109,192,376393,1,0,0:0:0:0:
36,192,376496,1,0,0:0:0:0:
182,192,376496,1,0,0:0:0:0:
256,192,376598,1,0,0:0:0:0:
329,192,376700,1,0,0:0:0:0:
109,192,376700,1,0,0:0:0:0:
36,192,376700,1,0,0:0:0:0:
402,192,376802,1,0,0:0:0:0:
475,192,376904,1,0,0:0:0:0:
36,192,377006,1,0,0:0:0:0:
109,192,377108,1,0,0:0:0:0:
329,192,377108,1,0,0:0:0:0:
402,192,377108,1,0,0:0:0:0:
182,192,377210,1,0,0:0:0:0:
256,192,377312,1,0,0:0:0:0:
329,192,377414,1,0,0:0:0:0:
402,192,377516,1,0,0:0:0:0:
36,192,377516,1,0,0:0:0:0:
475,192,377516,1,0,0:0:0:0:
329,192,377618,1,0,0:0:0:0:
256,192,377720,1,0,0:0:0:0:
182,192,377822,1,0,0:0:0:0:
109,192,377924,1,0,0:0:0:0:
329,192,377924,1,0,0:0:0:0:
475,192,377924,1,0,0:0:0:0:
36,192,378026,1,0,0:0:0:0:
475,192,378128,1,0,0:0:0:0:
329,192,378128,128,0,378230:0:0:0:0:
256,192,378230,1,0,0:0:0:0:
402,192,378230,128,0,378332:0:0:0:0:
182,192,378332,1,0,0:0:0:0:
109,192,378434,1,0,0:0:0:0:
402,192,378536,128,0,378638:0:0:0:0:
36,192,378536,1,0,0:0:0:0:
329,192,378638,1,0,0:0:0:0:
256,192,378740,1,0,0:0:0:0:
475,192,378740,1,0,0:0:0:0:
36,192,378740,1,0,0:0:0:0:
182,192,378842,1,0,0:0:0:0:
109,192,378945,1,0,0:0:0:0:
36,192,379047,1,0,0:0:0:0:
329,192,379149,1,0,0:0:0:0:
475,192,379149,1,0,0:0:0:0:
109,192,379149,1,0,0:0:0:0:
182,192,379251,1,0,0:0:0:0:
256,192,379353,1,0,0:0:0:0:
329,192,379455,1,0,0:0:0:0:
402,192,379557,1,0,0:0:0:0:
475,192,379557,1,0,0:0:0:0:
36,192,379659,1,0,0:0:0:0:
109,192,379761,1,0,0:0:0:0:
182,192,379863,1,0,0:0:0:0:
256,192,379965,1,0,0:0:0:0:
329,192,380067,1,0,0:0:0:0:
256,192,380169,1,0,0:0:0:0:
402,192,380271,1,0,0:0:0:0:
329,192,380373,1,0,0:0:0:0:
475,192,380475,1,0,0:0:0:0:
402,192,380577,1,0,0:0:0:0:
36,192,380679,1,0,0:0:0:0:
182,192,380781,1,0,0:0:0:0:
402,192,380883,1,0,0:0:0:0:
475,192,380985,1,0,0:0:0:0:
109,192,380985,1,0,0:0:0:0:
256,192,381087,1,0,0:0:0:0:
329,192,381189,1,0,0:0:0:0:
475,192,381291,1,0,0:0:0:0:
36,192,381393,1,0,0:0:0:0:
182,192,381496,1,0,0:0:0:0:
256,192,381598,1,0,0:0:0:0:
109,192,381700,1,0,0:0:0:0:
182,192,381802,1,0,0:0:0:0:
36,192,381904,1,0,0:0:0:0:
329,192,382006,1,0,0:0:0:0:
182,192,382108,1,0,0:0:0:0:
256,192,382210,1,0,0:0:0:0:
109,192,382312,1,0,0:0:0:0:
402,192,382414,1,0,0:0:0:0:
36,192,382516,1,0,0:0:0:0:
329,192,382618,1,0,0:0:0:0:
182,192,382720,1,0,0:0:0:0:
256,192,382822,1,0,0:0:0:0:
36,192,382924,1,0,0:0:0:0:
182,192,383026,1,0,0:0:0:0:
109,192,383128,1,0,0:0:0:0:
475,192,383230,1,0,0:0:0:0:
256,192,383332,1,0,0:0:0:0:
402,192,383434,1,0,0:0:0:0:
329,192,383536,1,0,0:0:0:0:
256,192,383638,1,0,0:0:0:0:
182,192,383740,1,0,0:0:0:0:
109,192,383842,1,0,0:0:0:0:
36,192,383945,1,0,0:0:0:0:
475,192,384047,1,0,0:0:0:0:
402,192,384149,1,0,0:0:0:0:
329,192,384251,1,0,0:0:0:0:
256,192,384353,1,0,0:0:0:0:
182,192,384455,1,0,0:0:0:0:
109,192,384557,1,0,0:0:0:0:
36,192,384659,1,0,0:0:0:0:
256,192,384761,1,0,0:0:0:0:
329,192,384863,1,0,0:0:0:0:
182,192,384965,1,0,0:0:0:0:
256,192,385067,1,0,0:0:0:0:
109,192,385169,1,0,0:0:0:0:
182,192,385271,1,0,0:0:0:0:
36,192,385373,1,0,0:0:0:0:
475,192,385475,1,0,0:0:0:0:
402,192,385577,1,0,0:0:0:0:
256,192,385679,1,0,0:0:0:0:
109,192,385781,1,0,0:0:0:0:
36,192,385883,1,0,0:0:0:0:
402,192,385985,1,0,0:0:0:0:
256,192,386087,1,0,0:0:0:0:
402,192,386189,1,0,0:0:0:0:
109,192,386291,1,0,0:0:0:0:
182,192,386393,1,0,0:0:0:0:
36,192,386496,1,0,0:0:0:0:
475,192,386598,1,0,0:0:0:0:
402,192,386700,1,0,0:0:0:0:
256,192,386802,1,0,0:0:0:0:
109,192,386904,1,0,0:0:0:0:
36,192,387006,1,0,0:0:0:0:
329,192,387108,1,0,0:0:0:0:
182,192,387210,1,0,0:0:0:0:
36,192,387312,1,0,0:0:0:0:
402,192,387312,128,0,387414:0:0:0:0:
402,192,387924,128,0,388026:0:0:0:0:
36,192,388026,128,0,388128:0:0:0:0:
109,192,388077,128,0,388128:0:0:0:0:
182,192,388128,128,0,388179:0:0:0:0:
256,192,388179,128,0,388230:0:0:0:0:
36,192,388332,128,0,388383:0:0:0:0:
109,192,388383,128,0,388485:0:0:0:0:
182,192,388434,128,0,388485:0:0:0:0:
256,192,388485,128,0,388536:0:0:0:0:
475,192,388945,128,0,388996:0:0:0:0:
36,192,389557,128,0,389761:0:0:0:0:
36,192,390577,128,0,390883:0:0:0:0:
329,192,391189,128,0,391393:0:0:0:0:
475,192,392210,128,0,392465:0:0:0:0:
182,192,392822,128,0,393026:0:0:0:0:
36,192,393842,128,0,394098:0:0:0:0:
402,192,394455,128,0,394659:0:0:0:0:
475,192,395475,128,0,395679:0:0:0:0:
182,192,396087,128,0,396291:0:0:0:0:
36,192,397108,128,0,397312:0:0:0:0:
475,192,397720,128,0,400169:0:0:0:0:
402,192,398332,128,0,400169:0:0:0:0:
256,192,398740,128,0,398945:0:0:0:0:
329,192,398945,128,0,400169:0:0:0:0:
109,192,399353,128,0,402210:0:0:0:0:
256,192,399353,128,0,400169:0:0:0:0:
182,192,400067,128,0,400781:0:0:0:0:
36,192,400679,128,0,401291:0:0:0:0:
475,192,401291,128,0,401904:0:0:0:0:
402,192,401904,128,0,402567:0:0:0:0:
329,192,402567,128,0,403230:0:0:0:0:
256,192,403230,128,0,403842:0:0:0:0:
182,192,403842,128,0,404455:0:0:0:0:
109,192,404455,128,0,405067:0:0:0:0:
36,192,405067,128,0,405577:0:0:0:0:
475,192,405577,128,0,406189:0:0:0:0:
402,192,406189,128,0,406700:0:0:0:0:
329,192,406700,128,0,407261:0:0:0:0:
256,192,407261,128,0,407771:0:0:0:0:
182,192,407771,128,0,408332:0:0:0:0:
109,192,408332,128,0,408842:0:0:0:0:
36,192,408842,128,0,409353:0:0:0:0:
475,192,409353,128,0,409863:0:0:0:0:
402,192,409863,128,0,410373:0:0:0:0:
329,192,410373,128,0,413332:0:0:0:0:
256,192,413026,128,0,413332:0:0:0:0:
