osu file format v14

[General]
AudioFilename: audio.mp3
AudioLeadIn: 0
PreviewTime: 295480
Countdown: 0
SampleSet: Soft
StackLeniency: 0
Mode: 0
LetterboxInBreaks: 0
WidescreenStoryboard: 1

[Editor]
Bookmarks: 375889
DistanceSpacing: 0.9
BeatDivisor: 8
GridSize: 4
TimelineZoom: 2.900005

[Metadata]
Title:PLANET//SHAPER
TitleUnicode:PLANET//SHAPER
Artist:Camellia
ArtistUnicode:かめりあ
Creator:09kami
Version:Acceleration
Source:
Tags:かめるかめりあ かめりあ ctcd-011 c88 electronic drumstep dubstep complextro
BeatmapID:1291225
BeatmapSetID:611729

[Difficulty]
HPDrainRate:0.9
CircleSize:4.2
OverallDifficulty:8.5
ApproachRate:9.6
SliderMultiplier:3.59999990463257
SliderTickRate:1

[Events]
//Background and Video events
0,0,"20151014073526_WvEfL.jpg",0,0
//Break Periods
2,217517,226809
//Storyboard Layer 0 (Background)
//Storyboard Layer 1 (Fail)
//Storyboard Layer 2 (Pass)
//Storyboard Layer 3 (Foreground)
//Storyboard Sound Samples

[TimingPoints]
2012,408.163265306122,4,2,1,30,1,0
2012,-400,4,2,1,30,0,0
11807,-285.714285714286,4,2,1,30,0,0
13440,-222.222222222222,4,2,1,30,0,0
15073,-200,4,2,1,30,0,0
16705,-181.818181818182,4,2,1,30,0,0
18338,-166.666666666667,4,2,1,30,0,0
19971,-153.846153846154,4,2,1,30,0,0
24460,-800,4,2,1,30,0,0
24869,-400,4,2,1,30,0,0
25481,-200,4,2,1,30,0,0
25889,-100,4,2,1,30,0,0
26297,-133.333333333333,4,2,1,30,0,0
26501,-200,4,2,1,30,0,0
27726,-400,4,2,1,30,0,0
28032,-400,4,2,1,5,0,0
28134,-100,4,2,1,60,0,0
30991,-66.6666666666667,4,2,1,60,0,0
31093,-66.6666666666667,4,2,1,40,0,0
31195,-400,4,2,1,30,0,0
31807,-100,4,2,1,60,0,0
33848,-66.6666666666667,4,2,1,30,0,0
34256,-400,4,2,1,30,0,0
34665,-100,4,2,1,60,0,0
37522,-200,4,2,1,20,0,0
37930,-80,4,2,1,60,0,0
38746,-68.9655172413793,4,2,1,60,0,0
39563,-60.6060606060606,4,2,1,60,0,0
40379,-800,4,2,1,30,0,0
41195,-80,4,2,1,60,0,0
43644,-66.6666666666667,4,2,1,60,0,0
46909,-400,4,2,1,30,0,0
48542,-66.6666666666667,4,2,1,30,0,0
49358,-57.1428571428571,4,2,1,30,0,0
49767,-50,4,2,1,30,0,0
50175,-35,4,2,1,30,0,0
50991,-800,4,2,1,30,0,0
52216,-200,4,2,1,30,0,0
52624,-80,4,2,1,60,0,0
53338,-400,4,2,1,30,0,0
53848,-80,4,2,1,60,0,0
54256,-66.6666666666667,4,2,1,60,0,0
54665,-400,4,2,1,60,0,0
55073,-80,4,2,1,60,0,0
55481,-133.333333333333,4,2,1,60,0,0
55685,-66.6666666666667,4,2,1,60,0,0
55889,-200,4,2,1,60,0,0
56501,-100,4,2,1,60,0,0
57114,-57.1428571428571,4,2,1,60,0,0
57318,-200,4,2,1,60,0,0
57522,-66.6666666666667,4,2,1,60,0,0
57930,-400,4,2,1,60,0,0
58338,-100,4,2,1,60,0,0
58746,-200,4,2,1,60,0,0
58950,-400,4,2,1,60,0,0
59154,-80,4,2,1,60,0,0
59358,-200,4,2,1,60,0,0
59563,-66.6666666666667,4,2,1,60,0,0
59971,-100,4,2,1,60,0,0
60583,-400,4,2,1,60,0,0
60787,-50,4,2,1,60,0,0
61195,-200,4,2,1,60,0,0
61603,-66.6666666666667,4,2,1,60,0,0
62011,-200,4,2,1,60,0,0
62216,-200,4,2,1,60,0,0
62420,-80,4,2,1,60,0,0
62828,-400,4,2,1,60,0,0
63644,-66.6666666666667,4,2,1,60,0,0
64052,-400,4,2,1,60,0,0
64460,-50,4,2,1,60,0,0
64869,-80,4,2,1,60,0,0
65277,-200,4,2,1,60,0,0
65685,-100,4,2,1,60,0,0
67318,-400,4,2,1,60,0,0
67522,-100,4,2,1,60,0,0
67726,-25,4,2,1,60,0,0
68134,-133.333333333333,4,2,1,60,0,0
68542,-200,4,2,1,60,0,0
68950,-50,4,2,1,60,0,0
69358,-133.333333333333,4,2,1,60,0,0
70175,-50,4,2,1,60,0,0
70583,-400,4,2,1,60,0,0
70991,-100,4,2,1,60,0,0
71399,-400,4,2,1,60,0,0
72011,-66.6666666666667,4,2,1,60,0,0
72318,-57.1428571428571,4,2,1,60,0,0
72828,-133.333333333333,4,2,1,60,0,0
73032,-50,4,2,1,60,0,0
73440,-200,4,2,1,30,0,0
73848,-50,4,2,1,30,0,0
74256,-400,4,2,1,60,0,0
74665,-80,4,2,1,60,0,0
75073,-133.333333333333,4,2,1,60,0,0
75277,-66.6666666666667,4,2,1,60,0,0
75481,-400,4,2,1,60,0,0
75685,-100,4,2,1,60,0,0
75889,-50,4,2,1,60,0,0
76297,-100,4,2,1,60,0,0
76705,-133.333333333333,4,2,1,60,0,0
77522,-400,4,2,1,60,0,0
77930,-200,4,2,1,60,0,0
78236,-71.4285714285714,4,2,1,60,0,0
79154,-83.3333333333333,4,2,1,60,0,0
79563,-100,4,2,1,60,0,0
79971,-133.333333333333,4,2,1,60,0,0
80379,-74.0740740740741,4,2,1,60,0,0
80787,-66.6666666666667,4,2,1,60,0,0
81195,-74.0740740740741,4,2,1,60,0,0
81603,-66.6666666666667,4,2,1,60,0,0
82011,-74.0740740740741,4,2,1,60,0,0
82420,-74.0740740740741,4,2,1,60,0,0
83236,-133.333333333333,4,2,1,60,0,0
83644,-74.0740740740741,4,2,1,60,0,0
84052,-66.6666666666667,4,2,1,60,0,0
84460,-74.0740740740741,4,2,1,60,0,0
84869,-57.1428571428571,4,2,1,60,0,0
85277,-74.0740740740741,4,2,1,60,0,0
85685,-133.333333333333,4,2,1,60,0,0
86093,-74.0740740740741,4,2,1,60,0,0
86501,-66.6666666666667,4,2,1,60,0,0
86909,-74.0740740740741,4,2,1,60,0,0
87318,-66.6666666666667,4,2,1,60,0,0
87726,-74.0740740740741,4,2,1,60,0,0
88134,-57.1428571428571,4,2,1,60,0,0
88542,-74.0740740740741,4,2,1,60,0,0
89767,-133.333333333333,4,2,1,60,0,0
90175,-200,4,2,1,60,0,0
92011,-66.6666666666667,4,2,1,60,0,0
92318,-50,4,2,1,60,0,0
92624,-200,4,2,1,60,0,0
92930,-35,4,2,1,60,0,0
93236,-74.0740740740741,4,2,1,60,0,0
93848,-50,4,2,1,60,0,0
94256,-74.0740740740741,4,2,1,60,0,0
94665,-200,4,2,1,60,0,0
95073,-74.0740740740741,4,2,1,60,0,0
95481,-57.1428571428571,4,2,1,60,0,0
95889,-74.0740740740741,4,2,1,60,0,0
96297,-133.333333333333,4,2,1,60,0,0
96705,-74.0740740740741,4,2,1,60,0,0
97522,-50,4,2,1,60,0,0
97930,-200,4,2,1,60,0,0
98746,-1000,4,2,1,60,0,0
99154,-400,4,2,1,60,0,0
99563,-50,4,2,1,60,0,0
99767,-66.6666666666667,4,2,1,60,0,0
99971,-200,4,2,1,60,0,0
100379,-74.0740740740741,4,2,1,60,0,0
101195,-200,4,2,1,60,0,0
101807,-74.0740740740741,4,2,1,60,0,0
102011,-200,4,2,1,60,0,0
102420,-74.0740740740741,4,2,1,60,0,0
102828,-57.1428571428571,4,2,1,60,0,0
103236,-400,4,2,1,60,0,0
106501,-400,4,2,1,15,0,0
116297,-66.6666666666667,4,2,1,60,0,0
122828,-133.333333333333,4,2,1,60,0,0
126093,-100,4,2,1,60,0,0
127726,-66.6666666666667,4,2,1,60,0,0
129358,-200,4,2,1,60,0,0
130991,-400,4,2,1,30,0,0
132216,-66.6666666666667,4,2,1,45,0,0
132624,-50,4,2,1,60,0,0
133032,-133.333333333333,4,2,1,60,0,0
133440,-66.6666666666667,4,2,1,60,0,0
133644,-50,4,2,1,60,0,0
133746,-100,4,2,1,60,0,0
134256,-80,4,2,1,60,0,0
134460,-200,4,2,1,60,0,0
134665,-80,4,2,1,60,0,0
134869,-133.333333333333,4,2,1,60,0,0
135175,-80,4,2,1,60,0,0
135481,-100,4,2,1,60,0,0
136093,-200,4,2,1,60,0,0
136297,-400,4,2,1,60,0,0
136603,-200,4,2,1,60,0,0
137114,-50,4,2,1,60,0,0
137522,-200,4,2,1,60,0,0
138338,-400,4,2,1,60,0,0
138542,-100,4,2,1,60,0,0
138746,-66.6666666666667,4,2,1,60,0,0
139154,-50,4,2,1,60,0,0
139563,-133.333333333333,4,2,1,60,0,0
139971,-66.6666666666667,4,2,1,60,0,0
140175,-50,4,2,1,60,0,0
140787,-100,4,2,1,60,0,0
140991,-80,4,2,1,60,0,0
141195,-100,4,2,1,60,0,0
141399,-133.333333333333,4,2,1,60,0,0
141705,-66.6666666666667,4,2,1,60,0,0
142011,-100,4,2,1,60,0,0
142624,-50,4,2,1,60,0,0
142828,-100,4,2,1,60,0,0
143236,-200,4,2,1,60,0,0
143644,-40,4,2,1,60,0,0
145685,-50,4,2,1,60,0,0
146093,-80,4,2,1,60,0,0
146501,-400,4,2,1,60,0,0
146705,-50,4,2,1,60,0,0
147318,-100,4,2,1,60,0,0
147930,-200,4,2,1,60,0,0
148236,-66.6666666666667,4,2,1,60,0,0
148542,-80,4,2,1,60,0,0
148746,-400,4,2,1,60,0,0
149154,-66.6666666666667,4,2,1,60,0,0
149358,-200,4,2,1,60,0,0
149665,-100,4,2,1,60,0,0
149971,-200,4,2,1,60,0,0
150175,-50,4,2,1,60,0,0
150583,-200,4,2,1,60,0,0
150787,-100,4,2,1,60,0,0
150991,-400,4,2,1,60,0,0
151807,-66.6666666666667,4,2,1,60,0,0
152216,-200,4,2,1,60,0,0
154665,-63.6942675159236,4,2,1,60,0,0
155481,-1,4,2,1,60,0,0
156297,-400,4,2,1,30,0,0
157114,-66.6666666666667,4,2,1,60,0,0
157930,-133.333333333333,4,2,1,60,0,0
158338,-50,4,2,1,60,0,0
158746,-66.6666666666667,4,2,1,75,0,1
159154,-400,4,2,1,75,0,1
159563,-66.6666666666667,4,2,1,75,0,1
160787,-400,4,2,1,75,0,1
161195,-66.6666666666667,4,2,1,75,0,1
161603,-50,4,2,1,75,0,1
162011,-74.0740740740741,4,2,1,75,0,1
162828,-200,4,2,1,75,0,1
163644,-66.6666666666667,4,2,1,75,0,1
164460,-100,4,2,1,75,0,1
164869,-80,4,2,1,75,0,1
165277,-200,4,2,1,75,0,1
165685,-66.6666666666667,4,2,1,75,0,1
167318,-200,4,2,1,75,0,1
167726,-100,4,2,1,75,0,1
168134,-66.6666666666667,4,2,1,75,0,1
168542,-400,4,2,1,25,0,0
169358,-400,4,2,1,50,0,0
170175,-100,4,2,1,50,0,0
170583,-133.333333333333,4,2,1,50,0,0
170991,-200,4,2,1,50,0,0
171399,-400,4,2,1,50,0,0
171807,-66.6666666666667,4,2,1,75,0,1
172216,-200,4,2,1,75,0,1
172624,-66.6666666666667,4,2,1,75,0,1
173848,-200,4,2,1,75,0,1
174256,-66.6666666666667,4,2,1,75,0,1
174665,-50,4,2,1,75,0,1
175073,-66.6666666666667,4,2,1,75,0,1
175889,-200,4,2,1,75,0,1
176705,-66.6666666666667,4,2,1,75,0,1
177930,-400,4,2,1,75,0,0
178338,-200,4,2,1,75,0,1
178746,-100,4,2,1,75,0,1
179154,-66.6666666666667,4,2,1,75,0,1
179563,-200,4,2,1,75,0,1
179971,-66.6666666666667,4,2,1,75,0,1
180379,-133.333333333333,4,2,1,75,0,1
180787,-66.6666666666667,4,2,1,75,0,1
181603,-133.333333333333,4,2,1,75,0,1
182011,-66.6666666666667,4,2,1,75,0,1
183236,-400,4,2,1,25,0,0
184869,-66.6666666666667,4,2,1,75,0,1
187726,-200,4,2,1,75,0,0
188134,-200,4,2,1,75,0,1
190583,-200,4,2,1,5,0,1
190685,-200,4,2,1,75,0,0
190991,-50,4,2,1,75,0,0
191399,-133.333333333333,4,2,1,75,0,1
193032,-100,4,2,1,75,0,1
193848,-66.6666666666667,4,2,1,75,0,1
194665,-400,4,2,1,25,0,0
195277,-50,4,2,1,75,0,0
195481,-50,4,2,1,15,0,0
195889,-50,4,2,1,75,0,0
197930,-400,4,2,1,25,0,0
207624,-400,4,2,1,5,0,0
227318,-400,4,2,1,25,0,0
230583,-80,4,2,1,75,0,0
231195,-133.333333333333,4,2,1,75,0,0
232216,-66.6666666666667,4,2,1,75,0,0
233236,-133.333333333333,4,2,1,75,0,0
233440,-100,4,2,1,75,0,0
233644,-80,4,2,1,75,0,0
233848,-200,4,2,1,75,0,0
234460,-400,4,2,1,75,0,0
236093,-133.333333333333,4,2,1,75,0,0
236501,-200,4,2,1,25,0,0
237114,-1000,4,2,1,15,0,0
242011,-400,4,2,1,15,0,0
243644,-80,4,2,1,75,0,0
244256,-133.333333333333,4,2,1,75,0,0
245277,-66.6666666666667,4,2,1,75,0,0
246297,-133.333333333333,4,2,1,75,0,0
246501,-100,4,2,1,75,0,0
246705,-80,4,2,1,75,0,0
246909,-200,4,2,1,75,0,0
247521,-400,4,2,1,75,0,0
249154,-133.333333333333,4,2,1,75,0,0
249562,-200,4,2,1,25,0,0
250175,-400,4,2,1,15,0,0
254460,-200,4,2,1,25,0,0
255073,-800,4,2,1,75,0,0
256603,-800,4,2,1,5,0,0
256705,-200,4,2,1,45,0,0
261195,-400,4,2,1,45,0,0
261603,-100,4,2,1,45,0,0
263236,-133.333333333333,4,2,1,55,0,0
268134,-66.6666666666667,4,2,1,65,0,0
269767,-100,4,2,1,60,0,0
272624,-66.6666666666667,4,2,1,60,0,0
272726,-66.6666666666667,4,2,1,40,0,0
272828,-400,4,2,1,25,0,0
273440,-80,4,2,1,60,0,0
275481,-66.6666666666667,4,2,1,30,0,0
275889,-200,4,2,1,30,0,0
276298,-80,4,2,1,60,0,0
277522,-66.6666666666667,4,2,1,60,0,0
279154,-200,4,2,1,20,0,0
279563,-80,4,2,1,60,0,0
280379,-68.9655172413793,4,2,1,60,0,0
281195,-200,4,2,1,60,0,0
281807,-800,4,2,1,65,0,0
282828,-400,4,2,1,75,0,0
284460,204.081632653061,4,2,1,55,1,0
284460,-400,4,2,1,55,0,0
287725,102.040816326531,4,2,1,30,1,0
287725,-400,4,2,1,55,0,0
289357,51.0204081632653,4,2,1,30,1,0
289357,-400,4,2,1,30,0,0
294256,408.163265306122,4,2,1,30,1,0
295480,-200,4,2,1,75,0,0
295888,-80,4,2,1,75,0,1
296296,-100,4,2,1,75,0,1
296704,-74.0740740740741,4,2,1,75,0,1
297521,-66.6666666666667,4,2,1,75,0,1
297929,-133.333333333333,4,2,1,75,0,1
298439,-74.0740740740741,4,2,1,75,0,1
298745,-66.6666666666667,4,2,1,75,0,1
299153,-80,4,2,1,75,0,1
299562,-133.333333333333,4,2,1,75,0,1
299970,-100,4,2,1,75,0,1
300786,-80,4,2,1,75,0,1
301194,-133.333333333333,4,2,1,75,0,1
301704,-80,4,2,1,75,0,1
302419,-66.6666666666667,4,2,1,75,0,1
302827,-100,4,2,1,75,0,1
303235,-74.0740740740741,4,2,1,75,0,1
303847,-133.333333333333,4,2,1,75,0,1
304051,-66.6666666666667,4,2,1,75,0,1
304460,-133.333333333333,4,2,1,75,0,1
304970,-74.0740740740741,4,2,1,75,0,1
305276,-400,4,2,1,65,0,0
305480,-50,4,2,1,65,0,0
305684,-100,4,2,1,75,0,1
306602,-200,4,2,1,75,0,1
307317,-133.333333333333,4,2,1,75,0,0
307725,-400,4,2,1,75,0,0
308745,-66.6666666666667,4,2,1,75,0,0
308949,-133.333333333333,4,2,1,75,0,1
309358,-74.0740740740741,4,2,1,75,0,1
309766,-100,4,2,1,75,0,1
310378,-133.333333333333,4,2,1,75,0,1
310582,-66.6666666666667,4,2,1,75,0,1
310990,-100,4,2,1,75,0,1
311500,-74.0740740740741,4,2,1,75,0,1
311807,-66.6666666666667,4,2,1,75,0,1
312011,-100,4,2,1,75,0,1
312215,-66.6666666666667,4,2,1,75,0,1
312623,-133.333333333333,4,2,1,75,0,1
313031,-100,4,2,1,75,0,1
313439,-200,4,2,1,75,0,1
313847,-66.6666666666667,4,2,1,75,0,1
314460,-100,4,2,1,75,0,1
315480,-66.6666666666667,4,2,1,75,0,1
316704,-57.1428571428571,4,2,1,75,0,1
317521,-50,4,2,1,75,0,1
318745,-200,4,2,1,75,0,1
320378,-80,4,2,1,75,0,0
322011,-66.6666666666667,4,2,1,75,0,1
322419,-133.333333333333,4,2,1,75,0,1
322827,-100,4,2,1,75,0,1
323031,-66.6666666666667,4,2,1,75,0,1
323235,-133.333333333333,4,2,1,75,0,1
323643,-66.6666666666667,4,2,1,75,0,1
323847,-200,4,2,1,75,0,1
324051,-133.333333333333,4,2,1,75,0,1
324868,-66.6666666666667,4,2,1,75,0,1
325276,-400,4,2,1,75,0,1
325480,-100,4,2,1,75,0,1
325684,-66.6666666666667,4,2,1,75,0,1
325888,-133.333333333333,4,2,1,75,0,1
326092,-100,4,2,1,75,0,1
326500,-66.6666666666667,4,2,1,75,0,1
326704,-133.333333333333,4,2,1,75,0,1
326909,-66.6666666666667,4,2,1,75,0,1
327317,-133.333333333333,4,2,1,75,0,1
327725,-80,4,2,1,75,0,1
328133,-400,4,2,1,75,0,1
328439,-400,4,2,1,5,0,1
328541,-66.6666666666667,4,2,1,75,0,1
328949,-133.333333333333,4,2,1,75,0,1
329358,-100,4,2,1,75,0,1
329562,-66.6666666666667,4,2,1,75,0,1
329766,-133.333333333333,4,2,1,75,0,1
330174,-66.6666666666667,4,2,1,75,0,1
330378,-200,4,2,1,75,0,1
330582,-133.333333333333,4,2,1,75,0,1
331398,-66.6666666666667,4,2,1,75,0,1
331807,-50,4,2,1,75,0,1
332215,-66.6666666666667,4,2,1,75,0,1
332419,-200,4,2,1,75,0,1
332623,-66.6666666666667,4,2,1,75,0,1
332827,-200,4,2,1,75,0,1
333031,-133.333333333333,4,2,1,75,0,1
333439,-80,4,2,1,75,0,0
334664,-400,4,2,1,75,0,1
335480,-66.6666666666667,4,2,1,75,0,1
335888,-400,4,2,1,75,0,1
336296,-66.6666666666667,4,2,1,75,0,1
336704,-200,4,2,1,75,0,1
337113,-66.6666666666667,4,2,1,75,0,1
337521,-100,4,2,1,75,0,1
337929,-200,4,2,1,75,0,1
338337,-66.6666666666667,4,2,1,75,0,1
338745,-133.333333333333,4,2,1,75,0,1
339153,-100,4,2,1,75,0,1
339358,-66.6666666666667,4,2,1,75,0,1
339562,-133.333333333333,4,2,1,75,0,1
339970,-66.6666666666667,4,2,1,75,0,1
340378,-133.333333333333,4,2,1,75,0,1
340786,-66.6666666666667,4,2,1,75,0,1
341194,-133.333333333333,4,2,1,75,0,1
341602,-100,4,2,1,75,0,1
342827,-66.6666666666667,4,2,1,75,0,0
343235,-100,4,2,1,75,0,1
344460,-57.1428571428571,4,2,1,75,0,0
344868,-400,4,2,1,75,0,1
346500,-50,4,2,1,75,0,0
346501,-400,4,2,1,75,0,0
348133,-400,4,2,1,5,0,0

[HitObjects]
456,208,2012,6,0,P|480:104|404:208,3,359.999990463257,2|2|2|2,0:0|0:0|0:0|0:0,0:0:0:0:
432,320,7318,1,0,0:0:0:0:
309,350,7522,6,0,B|325:330|325:330|401:314|401:314|441:322,1,134.999996423721,2|0,0:0|0:0,0:0:0:0:
236,308,8542,6,0,B|184:312|184:312|160:304,1,67.4999982118607,2|0,0:0|0:0,0:0:0:0:
100,368,9154,2,0,B|48:364|48:364|24:372,1,67.4999982118607,0|0,0:0|0:0,0:0:0:0:
319,329,9767,6,0,L|303:361,3,22.4999994039536,2|0|0|0,0:0|0:0|0:0|0:0,0:0:0:0:
106,270,10175,6,0,B|86:258|86:258|78:202,1,67.4999982118607,2|0,0:0|0:0,0:0:0:0:
189,39,10787,2,0,B|169:51|169:51|161:107,1,67.4999982118607,2|0,0:0|0:0,0:0:0:0:
330,199,11399,6,0,L|307:187,3,22.4999994039536,2|0|0|0,0:0|0:0|0:0|0:0,0:0:0:0:
468,118,11807,6,0,B|443:110|443:110|360:132,1,94.499994612694,2|0,0:0|0:0,0:0:0:0:
168,122,12420,2,0,B|233:139|233:139|258:131,1,94.499994612694,2|0,0:0|0:0,0:0:0:0:
310,38,13032,6,0,L|321:71,3,31.4999982042313,0|0|2|0,0:0|0:0|0:0|0:0,0:0:0:0:
330,199,13440,6,0,B|325:210|325:210|333:334,1,121.499993073464,2|0,0:0|0:0,0:0:0:0:
246,226,13848,6,0,L|202:237,1,40.4999976911546,2|2,0:0|0:0,0:0:0:0:
485,176,14154,1,2,0:0:0:0:
494,184,14256,2,0,L|405:200,1,80.9999953823091,0|2,0:0|0:0,0:0:0:0:
249,319,14665,6,0,L|246:360,3,40.4999976911546,0|0|0|0,0:0|0:0|0:0|0:0,0:0:0:0:
410,272,15073,6,0,B|421:287|421:287|302:261,1,134.999996423721,2|0,0:0|0:0,0:0:0:0:
162,220,15481,2,0,L|214:208,1,44.9999988079071
296,81,15685,6,0,B|304:63|304:63|316:153,1,89.9999976158143
102,298,16093,2,0,L|91:353,1,44.9999988079071,2|0,0:0|0:0,0:0:0:0:
47,208,16297,6,0,L|62:160,3,44.9999988079071
80,52,16705,6,0,B|59:39|59:39|167:26|167:26|156:55,1,148.500000597954,2|0,0:0|0:0,0:0:0:0:
301,30,17114,2,0,L|230:40,1,49.500000199318,0|0,0:0|0:0,0:0:0:0:
400,124,17318,6,0,B|379:137|379:137|487:150|487:150|476:121,1,148.500000597954,2|0,0:0|0:0,0:0:0:0:
228,198,17726,2,0,L|217:137,1,49.500000199318,0|0,0:0|0:0,0:0:0:0:
19,135,17930,6,0,L|10:191,3,49.500000199318,0|0|0|0,0:0|0:0|0:0|0:0,0:0:0:0:
176,269,18338,6,0,P|110:245|30:297,1,161.999990764618,2|0,0:0|0:0,0:0:0:0:
418,282,18746,6,0,P|352:306|272:254,1,161.999990764618,0|2,0:0|0:0,0:0:0:0:
230,95,19154,2,0,P|243:149|219:210,1,107.999993843079,0|2,0:0|0:0,0:0:0:0:
196,372,19563,6,0,P|183:318|207:257,1,107.999993843079,0|0,0:0|0:0,0:0:0:0:
237,32,19971,6,0,B|214:56|214:56|228:207,1,175.499987317086,2|0,0:0|0:0,0:0:0:0:
385,224,20379,6,0,L|312:214,1,58.499995772362,2|2,0:0|0:0,0:0:0:0:
135,218,20583,2,0,L|77:225,1,58.499995772362,0|2,0:0|0:0,0:0:0:0:
305,342,20787,6,0,P|250:276|152:362,1,233.999983089448,0|0,0:0|0:0,0:0:0:0:
226,360,21297,1,2,0:0:0:0:
238,359,21399,1,2,0:0:0:0:
232,369,21501,1,2,0:0:0:0:
230,350,21603,6,0,L|212:-1,1,350.999974634172,2|0,0:0|0:0,0:0:0:0:
256,192,22420,12,0,24358,0:0:0:0:
272,192,24460,6,0,B|234:195,1,33.7499991059303,0|0,1:0|0:0,0:0:0:0:
76,97,24869,6,0,B|104:80|104:80|153:92|153:92|172:125,1,112.499997019768,4|0,1:0|0:0,0:0:0:0:
327,132,25481,6,0,B|355:149|355:149|424:135|424:135|443:104,1,134.999996423721,4|0,1:0|0:0,0:0:0:0:
263,27,25889,6,0,L|226:322,1,269.999992847443,0|0,0:0|0:0,0:0:0:0:
67,212,26297,6,0,B|85:201|85:201|133:199,1,67.5000007867814,4|0,1:0|0:0,0:0:0:0:
366,353,26501,6,0,L|329:353,1,22.4999994039536,4|0,1:0|0:0,0:0:0:0:
396,265,26807,6,0,L|359:265,1,22.4999994039536,4|0,1:0|0:0,0:0:0:0:
146,118,27114,6,0,L|183:118,1,22.4999994039536,4|0,1:0|0:0,0:0:0:0:
263,27,27420,6,0,L|300:27,1,22.4999994039536,4|0,1:0|0:0,0:0:0:0:
470,106,27726,6,0,B|435:96|435:96|394:108,1,67.4999982118607,4|0,1:0|0:0,0:0:0:0:
351,198,28134,5,0,0:0:0:0:
353,206,28236,1,0,0:0:0:0:
355,214,28338,1,0,0:0:0:0:
357,222,28440,1,0,0:0:0:0:
359,230,28542,1,0,0:0:0:0:
361,238,28644,1,0,0:0:0:0:
363,246,28746,1,0,0:0:0:0:
365,254,28848,1,0,0:0:0:0:
370,259,28950,6,0,P|383:283|364:260,7,89.9999976158143
38,278,29767,5,0,0:0:0:0:
40,269,29869,1,0,0:0:0:0:
42,260,29971,1,0,0:0:0:0:
44,251,30073,1,0,0:0:0:0:
47,242,30175,1,0,0:0:0:0:
49,233,30277,1,0,0:0:0:0:
52,224,30379,1,0,0:0:0:0:
55,215,30481,1,0,0:0:0:0:
57,206,30583,6,0,B|40:171|46:142|46:142|5:151,1,89.9999976158143
146,0,30787,6,0,B|163:29|156:63|156:63|180:58,1,89.9999976158143
292,139,30991,6,0,B|273:129|273:129|138:161,1,135.000001573563,0|0,0:0|0:0,0:0:0:0:
119,335,31195,6,0,B|230:306,1,112.499997019768,0|0,0:0|2:0,0:0:0:0:
401,248,31807,5,0,0:0:0:0:
409,250,31909,1,0,0:0:0:0:
414,258,32011,1,0,0:0:0:0:
413,267,32114,1,0,0:0:0:0:
406,273,32216,6,0,P|394:247|411:271,7,89.9999976158143
70,220,33032,5,0,0:0:0:0:
73,211,33134,1,0,0:0:0:0:
70,203,33236,1,0,0:0:0:0:
62,198,33338,1,0,0:0:0:0:
53,200,33440,1,0,0:0:0:0:
48,207,33542,1,0,0:0:0:0:
48,216,33644,1,0,0:0:0:0:
58,223,33747,1,0,0:0:0:0:
70,220,33848,6,0,B|137:213,7,67.5000007867814
237,242,34256,6,0,B|247:208|247:208|232:166,1,67.4999982118607
161,58,34665,5,0,0:0:0:0:
161,58,34767,1,0,0:0:0:0:
161,58,34869,2,0,L|38:42,1,89.9999976158143,0|0,0:0|0:0,0:0:0:0:
401,34,35073,5,0,0:0:0:0:
401,34,35175,1,0,0:0:0:0:
401,34,35277,2,0,L|524:50,1,89.9999976158143
253,264,35481,6,0,P|237:221|235:177,1,89.9999976158143
319,97,35685,2,0,P|334:139|336:183,1,89.9999976158143
134,351,35889,5,0,0:0:0:0:
134,351,35991,1,0,0:0:0:0:
134,351,36093,2,0,L|105:239,1,89.9999976158143,0|0,0:0|0:0,0:0:0:0:
402,239,36297,5,0,0:0:0:0:
402,239,36399,1,0,0:0:0:0:
402,239,36501,2,0,L|431:127,1,89.9999976158143,0|0,0:0|0:0,0:0:0:0:
113,137,36705,5,0,0:0:0:0:
113,137,36807,1,0,0:0:0:0:
113,137,36909,2,0,P|54:131|13:141,1,89.9999976158143,0|0,0:0|0:0,0:0:0:0:
355,67,37114,5,0,0:0:0:0:
355,67,37216,1,0,0:0:0:0:
355,67,37318,2,0,P|296:73|255:63,1,89.9999976158143,0|0,0:0|0:0,0:0:0:0:
505,210,37522,6,0,L|502:194,12,11.2499997019768
258,229,37930,5,0,0:0:0:0:
258,229,38032,1,0,0:0:0:0:
258,229,38134,2,0,P|241:282|240:353,1,112.499997019768,0|0,0:0|0:0,0:0:0:0:
86,25,38338,5,0,0:0:0:0:
86,25,38440,1,0,0:0:0:0:
86,25,38542,2,0,P|103:78|104:149,1,112.499997019768,0|0,0:0|0:0,0:0:0:0:
391,87,38746,5,0,0:0:0:0:
391,87,38848,1,0,0:0:0:0:
391,87,38950,2,0,P|289:102|255:128,1,130.500000525475,0|0,0:0|0:0,0:0:0:0:
0,284,39154,5,0,0:0:0:0:
0,284,39256,1,0,0:0:0:0:
0,284,39358,2,0,P|102:299|136:325,1,130.500000525475,0|0,0:0|0:0,0:0:0:0:
472,179,39563,5,0,0:0:0:0:
472,179,39665,1,0,0:0:0:0:
472,179,39767,2,0,P|374:188|323:216,1,148.4999974823,0|0,0:0|0:0,0:0:0:0:
195,6,39971,5,0,0:0:0:0:
195,6,40073,1,0,0:0:0:0:
195,6,40175,2,0,P|129:79|111:134,1,148.4999974823,0|0,0:0|0:0,0:0:0:0:
383,341,40379,6,0,B|368:340|368:340|383:341|383:341|368:340|368:340|383:341|383:341|365:341,1,78.7499979138375,0|0,0:0|2:0,0:0:0:0:
236,311,41195,5,4,0:2:0:0:
213,313,41297,1,0,0:0:0:0:
190,316,41399,1,0,0:0:0:0:
167,319,41501,1,2,0:2:0:0:
146,322,41603,2,0,L|116:326,12,28.124999254942
201,223,42011,5,2,0:2:0:0:
172,216,42113,1,0,0:0:0:0:
143,213,42215,1,0,0:0:0:0:
114,209,42317,1,2,0:2:0:0:
114,209,42419,1,0,0:0:0:0:
87,204,42420,2,0,L|49:197,12,28.124999254942
186,129,42828,5,4,0:2:0:0:
156,105,42930,1,0,0:0:0:0:
124,86,43032,1,0,0:0:0:0:
94,66,43134,1,2,0:2:0:0:
65,44,43236,2,0,L|37:27,12,28.124999254942
229,38,43644,5,2,0:2:0:0:
269,35,43746,1,0,0:0:0:0:
309,32,43848,1,0,0:0:0:0:
355,51,43950,1,2,0:2:0:0:
348,10,44052,2,0,L|330:43,12,33.7500003933907
282,150,44460,5,2,0:2:0:0:
211,189,44562,1,0,0:0:0:0:
163,129,44664,1,0,0:0:0:0:
94,191,44766,1,2,0:2:0:0:
55,83,44868,2,0,L|73:116,12,33.7500003933907
0,295,45277,6,0,L|136:276,1,135.000001573563
230,268,45481,6,0,L|366:249,1,135.000001573563
437,303,45685,2,0,L|469:316,12,33.7500003933907
268,357,46093,6,0,P|205:362|114:348,1,135.000001573563,4|0,0:0|0:0,0:0:0:0:
160,196,46297,6,0,L|3:195,1,135.000001573563,4|0,0:0|0:0,0:0:0:0:
283,25,46501,6,0,P|220:20|129:34,1,135.000001573563,0|0,0:0|0:0,0:0:0:0:
467,124,46705,6,0,P|400:132|332:127,1,135.000001573563,2|0,0:2|0:0,0:0:0:0:
332,257,46909,6,0,P|399:252|466:260,1,135.000001573563,2|0,0:2|0:0,0:0:0:0:
270,329,47726,6,0,L|232:327,1,22.4999994039536,2|0,0:2|0:0,0:0:0:0:
64,264,47930,6,0,L|26:273,1,22.4999994039536,2|0,0:2|0:0,0:0:0:0:
141,77,48134,6,0,L|162:86,1,22.4999994039536,2|0,0:2|0:0,0:0:0:0:
238,26,48338,6,0,L|257:14,1,22.4999994039536,2|0,0:2|0:0,0:0:0:0:
315,103,48542,6,0,B|339:88|339:88|347:115|347:115|336:157|336:157|342:212,1,135.000001573563,2|0,0:2|0:0,0:0:0:0:
175,243,48746,2,0,B|146:239|146:239|151:267|151:267|178:300|178:300|196:353,1,135.000001573563,2|0,0:2|0:0,0:0:0:0:
148,165,48950,6,0,B|125:158|125:158|49:193|49:193|15:184,1,135.000001573563,2|0,0:2|0:0,0:0:0:0:
399,309,49154,2,0,B|376:316|376:316|300:281|300:281|266:290,1,135.000001573563,2|0,0:2|0:0,0:0:0:0:
463,109,49358,6,0,L|485:298,1,157.499997329712,2|0,0:2|0:0,0:0:0:0:
493,269,49563,2,0,L|474:112,1,157.499997329712,2|0,0:2|0:0,0:0:0:0:
305,58,49767,6,0,B|317:37|317:37|195:20|195:20|222:62,1,179.999995231629,2|0,0:2|0:0,0:0:0:0:
180,297,49971,2,0,B|163:325|163:325|285:308|285:308|273:287,1,179.999995231629,2|0,0:2|0:0,0:0:0:0:
126,59,50175,6,0,B|96:32|96:32|121:296,1,257.142850330898,2|0,0:2|0:0,0:0:0:0:
360,176,50379,2,0,B|385:133|385:133|371:289|371:289|298:201,1,257.142850330898,2|0,0:2|0:0,0:0:0:0:
24,191,50583,6,0,B|86:167|153:202|202:242|277:202,1,257.142850330898,2|0,0:2|0:0,0:0:0:0:
341,112,50787,6,0,B|371:95|371:95|468:127,1,128.571425165449,2|0,0:2|0:0,0:0:0:0:
458,238,50889,2,0,B|369:268|369:268|339:251,1,128.571425165449,0|0,0:0|0:0,0:0:0:0:
223,123,50991,6,0,L|226:142,3,11.2499997019768,4|4|2|0,0:0|0:3|0:3|0:0,0:0:0:0:
185,213,51399,6,0,L|140:228,1,44.9999988079071,2|0,0:3|0:0,0:0:0:0:
111,291,51909,2,0,L|92:289,1,11.2499997019768,2|0,0:2|0:0,0:0:0:0:
24,191,52216,6,0,P|45:181|76:184,3,44.9999988079071,2|2|2|2,0:2|0:2|0:2|0:2,0:0:0:0:
171,53,52624,6,0,L|175:128,1,56.2499985098839,8|0,0:3|0:0,0:0:0:0:
282,326,52828,6,0,L|286:251,1,56.2499985098839,0|0,0:0|0:0,0:0:0:0:
471,106,53032,6,0,B|437:94|437:94|352:122,2,112.499997019768,0|0|8,0:0|0:0|0:3,0:0:0:0:
268,108,53338,6,0,L|272:176,1,67.4999982118607,0|8,0:0|0:3,0:0:0:0:
400,222,53746,1,0,0:0:0:0:
400,222,53848,6,0,B|407:234|407:234|389:349,1,112.499997019768,4|0,0:2|0:0,0:0:0:0:
405,43,54052,6,0,L|336:58,1,56.2499985098839
397,80,54154,2,0,L|324:95,1,56.2499985098839
296,162,54256,6,0,B|312:133|312:133|381:104|381:104|469:129|469:129|493:209,1,270.000003147125,4|4,1:2|0:0,0:0:0:0:
489,196,54665,6,0,L|475:269,1,67.4999982118607,8|2,1:0|0:2,0:0:0:0:
237,310,55073,6,0,L|225:194,2,112.499997019768,0|8|2,1:0|0:2|0:0,0:0:0:0:
280,376,55379,1,0,1:2:0:0:
375,314,55481,6,0,B|344:296|344:296|300:310,1,67.5000007867814,8|0,1:0|0:0,0:0:0:0:
26,294,55685,6,0,B|92:310|92:310|170:272,1,135.000001573563,2|0,1:2|0:0,0:0:0:0:
293,153,55889,6,0,L|296:131,3,22.4999994039536,2|0|2|0,1:1|0:0|0:2|0:0,0:0:0:0:
298,111,56093,6,0,L|234:114,1,44.9999988079071,4|0,0:0|0:0,0:0:0:0:
68,119,56297,1,8,1:0:0:0:
65,128,56501,6,0,L|170:122,1,89.9999976158143,4|8,0:0|0:2,0:0:0:0:
270,23,56705,2,0,B|318:6|318:6|398:22|398:22|430:65,1,179.999995231629,0|0,1:0|0:0,0:0:0:0:
191,58,57011,1,0,0:0:0:0:
253,113,57114,6,0,L|267:288,1,157.499997329712,8|0,1:0|0:0,0:0:0:0:
315,345,57318,6,0,L|337:345,3,22.4999994039536,2|0|0|0,1:3|0:0|0:0|2:0,0:0:0:0:
372,326,57522,6,0,B|367:291|367:291|274:244|274:244|174:253|174:253|141:307,1,270.000003147125,0|12,1:0|0:0,0:0:0:0:
459,310,57930,6,0,L|454:341,3,22.4999994039536,10|0|4|8,1:0|0:0|0:0|0:0,0:0:0:0:
479,194,58338,6,0,L|360:204,1,89.9999976158143,0|2,1:0|0:2,0:0:0:0:
237,188,58542,5,2,0:1:0:0:
253,113,58644,1,4,1:3:0:0:
138,128,58746,6,0,L|197:140,1,44.9999988079071,8|0,1:0|0:0,0:0:0:0:
37,269,58950,6,0,L|40:281,3,11.2499997019768,2|0|0|0,1:2|0:0|0:0|2:0,0:0:0:0:
43,296,59154,6,0,L|168:288,1,112.499997019768,8|10,1:3|0:2,0:0:0:0:
312,220,59358,6,0,L|316:245,2,22.4999994039536,2|0|0,0:2|0:0|0:0,0:0:0:0:
370,305,59563,6,0,P|433:260|321:147,1,270.000003147125,8|2,1:0|1:2,0:0:0:0:
211,38,59869,5,14,1:3:0:0:
211,38,59971,6,0,P|204:68|218:131,1,89.9999976158143,0|8,1:0|0:2,0:0:0:0:
151,375,60175,2,0,P|143:331|155:288,1,89.9999976158143,2|6,0:2|1:3,0:0:0:0:
315,242,60379,5,2,0:2:0:0:
315,242,60430,1,2,0:2:0:0:
315,242,60481,1,2,0:2:0:0:
192,203,60583,6,0,L|151:209,1,33.7499991059303,2|0,0:1|0:0,0:0:0:0:
126,215,60787,6,0,B|95:219|95:219|49:196|49:196|48:195|35:79|35:79|66:48|66:48|200:33,1,359.999990463257,4|4,1:2|0:0,0:0:0:0:
464,171,61195,6,0,B|473:208|473:208|447:269|447:269|459:309,1,134.999996423721,8|2,1:0|0:2,0:0:0:0:
324,53,61603,6,0,B|369:35|369:35|469:58,1,135.000001573563,0|8,1:0|0:2,0:0:0:0:
355,174,61807,5,2,1:2:0:0:
348,191,61909,1,0,1:0:0:0:
280,300,62011,6,0,L|275:238,1,44.9999988079071,8|0,1:0|2:0,0:0:0:0:
193,177,62216,6,0,L|188:199,3,22.4999994039536,6|0|0|0,1:3|0:0|0:0|2:0,0:0:0:0:
130,104,62420,6,0,P|65:111|20:138,1,112.499997019768,2|0,1:0|0:0,0:0:0:0:
324,53,62624,2,0,P|274:27|218:23,1,112.499997019768,4|0,0:0|0:0,0:0:0:0:
148,262,62828,6,0,L|156:312,1,44.9999988079071,8|4,1:0|0:0,0:0:0:0:
60,285,63134,1,8,0:2:0:0:
354,194,63236,6,0,L|346:244,1,44.9999988079071,0|0,1:0|0:0,0:0:0:0:
442,217,63542,1,0,0:2:0:0:
158,150,63644,6,0,P|167:65|176:172,1,405.000004720688,8|0,1:0|2:0,0:0:0:0:
224,115,64052,6,0,L|232:104,9,7.49999980131785,0|0|0|2|0|0|2|0|0|2,1:0|0:0|0:0|0:2|0:0|0:0|0:2|0:0|0:0|0:2,0:0:0:0:
301,157,64460,6,0,P|262:30|294:167,1,539.999985694885,8|0,1:0|0:0,0:0:0:0:
316,264,64869,5,2,1:0:0:0:
316,264,64971,1,2,0:2:0:0:
316,264,65073,6,0,L|303:380,1,112.499997019768,2|2,0:1|0:2,0:0:0:0:
451,206,65277,6,0,B|428:197|428:197|390:202,1,44.9999988079071,10|0,1:0|2:0,0:0:0:0:
228,351,65481,2,0,B|205:360|205:360|167:355,1,44.9999988079071,2|0,0:1|2:0,0:0:0:0:
31,312,65685,6,0,B|13:283|13:283|99:283|99:283|90:267|90:267|56:268|6:264|-39:191|-11:120|76:80|163:69|204:156|197:217|157:247|132:254|132:254|139:268|139:268|164:252|195:248|195:248|225:206|295:234|295:234|268:207|277:172|243:149|243:149|259:108|259:108|179:61|179:61|183:38|201:17|241:4|265:0|317:9|355:33|372:60|374:104|366:131|345:149|345:149|285:115,1,1349.99996423721,2|2,0:0|0:0,0:0:0:0:
62,51,67318,6,0,L|95:46,1,22.4999994039536,0|0,1:0|0:0,0:0:0:0:
294,38,67522,6,0,B|306:62|306:62|307:109|307:109|299:137,1,89.9999976158143,2|0,0:1|0:0,0:0:0:0:
266,337,67726,6,0,B|236:349|210:360|210:360|199:318|182:296|182:296|126:302|126:254|176:162|194:180|239:203|239:203|213:175|218:187|218:187|225:205|225:205|215:181|215:181|232:177|232:177|224:178|224:178|206:209|206:209|221:204|221:204|225:204|225:204|237:200|237:200|238:204|238:204|206:197|206:197|205:186|205:186|226:173|226:173|206:205|206:205|218:207|218:207|243:183|243:183|224:177|224:177|210:171|210:171|225:214|225:214|218:210|218:210|208:200|208:200|222:198|222:198|238:191|238:191|192:201|192:201|289:177|306:222|249:264|268:255|268:255|277:307|268:343|268:343|264:336,1,1079.99997138977,4|0,1:2|0:0,0:0:0:0:
84,180,68134,6,0,P|104:150|134:130,1,67.5000007867814,0|8,1:1|0:2,0:0:0:0:
354,202,68338,5,0,0:0:0:0:
354,202,68440,1,0,0:0:0:0:
354,202,68542,6,0,L|455:198,1,89.9999976158143,8|0,1:1|0:0,0:0:0:0:
443,198,68950,6,0,L|71:180,1,359.999990463257,0|0,1:0|0:0,0:0:0:0:
84,180,69256,1,0,0:0:0:0:
84,180,69358,6,0,B|90:260|90:260|81:276|81:276|86:333,1,135.000001573563,8|2,1:0|0:2,0:0:0:0:
156,353,69665,1,2,0:2:0:0:
271,234,69767,6,0,B|276:154|276:154|267:138|267:138|272:81,1,135.000001573563,0|2,1:0|0:2,0:0:0:0:
342,61,70074,1,2,0:2:0:0:
39,65,70175,6,0,B|61:88|61:88|177:80|177:80|202:45,1,179.999995231629,8|0,1:1|0:0,0:0:0:0:
342,61,70379,2,0,B|364:38|364:38|480:46|480:46|505:81,1,179.999995231629,4|0,0:2|0:0,0:0:0:0:
444,180,70583,6,0,L|376:176,1,67.4999982118607,0|2,1:0|0:1,0:0:0:0:
376,297,70991,6,0,L|369:354,6,44.9999988079071,4|0|0|0|0|0|0,1:2|0:0|0:0|0:0|0:1|0:0|0:0,0:0:0:0:
147,360,71399,6,0,P|130:326|129:304,1,44.9999988079071,0|0,1:1|0:0,0:0:0:0:
202,147,71705,5,0,0:0:0:0:
202,147,71807,2,0,L|196:185,1,22.4999994039536,8|0,1:0|0:0,0:0:0:0:
49,270,72011,6,0,B|14:237|14:237|26:138|26:138|104:117|104:117|107:189,1,270.000003147125,4|0,0:3|0:0,0:0:0:0:
258,306,72318,6,0,B|264:264|264:264|258:222,1,78.749998664856,2|0,1:1|0:0,0:0:0:0:
198,169,72420,2,0,B|181:157|181:157|189:44|189:44|209:31,1,157.499997329712,0|0,1:1|0:0,0:0:0:0:
476,42,72624,6,0,B|486:86|486:86|453:301,1,236.249995994568,10|0,1:1|0:0,0:0:0:0:
434,294,72828,6,0,L|448:218,1,67.5000007867814,0|0,0:0|0:0,0:0:0:0:
244,161,73032,6,0,B|256:284|256:284|274:217,2,179.999995231629,0|8|0,1:0|0:2|0:0,0:0:0:0:
292,90,73338,1,0,0:0:0:0:
352,165,73440,6,0,L|343:227,1,44.9999988079071,2|0,1:2|0:0,0:0:0:0:
351,264,73644,2,0,L|344:219,1,44.9999988079071,0|2,0:0|2:0,0:0:0:0:
255,21,73848,6,0,B|288:6|288:6|421:8|421:8|455:108|455:108|361:80,1,359.999990463257,0|2,1:0|0:1,0:0:0:0:
367,89,74256,6,0,L|433:110,1,67.4999982118607,4|0,1:2|0:0,0:0:0:0:
334,322,74665,6,0,L|204:342,2,112.499997019768,0|8|0,1:1|0:2|0:0,0:0:0:0:
409,366,74971,1,0,0:0:0:0:
479,257,75073,6,0,B|445:245|445:245|391:265,1,67.5000007867814,8|0,1:0|0:0,0:0:0:0:
192,176,75277,6,0,B|260:159|260:159|327:196,1,135.000001573563
73,223,75481,6,0,L|78:256,1,22.4999994039536,0|0,1:0|0:0,0:0:0:0:
42,357,75685,6,0,L|35:313,2,44.9999988079071
21,89,75889,6,0,P|105:142|41:18,1,359.999990463257,8|2,1:0|0:2,0:0:0:0:
90,69,76195,1,2,0:2:0:0:
168,118,76297,6,0,P|180:71|166:30,1,89.9999976158143,0|8,1:0|0:2,0:0:0:0:
137,198,76501,1,2,0:2:0:0:
223,179,76603,1,2,0:2:0:0:
181,259,76705,6,0,B|199:250|199:250|181:374,1,135.000001573563,0|4,1:0|0:2,0:0:0:0:
317,123,77114,6,0,B|335:132|335:132|317:8,1,135.000001573563,0|0,1:0|1:0,0:0:0:0:
375,200,77420,1,0,0:0:0:0:
285,275,77522,6,0,B|300:266|323:277|323:277|349:289|356:278,1,67.4999982118607,8|0,0:3|0:0,0:0:0:0:
453,236,77930,6,0,L|445:294,1,44.9999988079071,0|0,1:0|0:0,0:0:0:0:
182,363,78134,5,0,1:0:0:0:
182,363,78236,6,0,B|115:229|115:229|163:136|163:136|220:219|220:219|181:366,1,503.999971267701,0|2,0:0|0:2,0:0:0:0:
324,328,78746,6,0,B|194:252|211:188|211:188|277:186|324:331,1,377.999978450776,0|0,1:0|0:0,0:0:0:0:
384,192,79154,6,0,B|281:209|238:145|238:145|312:125|386:194,1,323.999981529237
364,68,79563,6,0,B|287:120|239:86|239:86|279:44|367:68,1,269.999992847443,0|2,0:0|0:2,0:0:0:0:
124,96,79971,6,0,L|132:128,2,33.7500003933907
202,218,80175,6,0,L|208:202,4,16.8750001966953
324,256,80379,5,6,0:2:0:0:
349,272,80481,1,0,0:0:0:0:
324,256,80583,6,0,P|400:253|445:218,1,121.499997244835,0|0,1:0|0:0,0:0:0:0:
351,33,80787,6,0,P|310:173|408:64,1,405.000004720688,8|0,0:2|0:1,0:0:0:0:
512,174,81195,5,4,0:0:0:0:
497,195,81297,1,0,0:0:0:0:
512,174,81399,2,0,B|513:191|513:191|486:313,1,121.499997244835,0|0,1:0|0:0,0:0:0:0:
251,308,81603,6,0,B|250:242|300:206|361:204|397:221|429:242|455:309|433:345|391:365|364:354|335:326|320:299|331:269|369:262,1,405.000004720688,8|0,0:2|0:0,0:0:0:0:
184,72,82011,5,4,0:0:0:0:
197,94,82113,1,0,0:0:0:0:
184,72,82215,2,0,B|190:89|190:89|195:213,1,121.499997244835,0|0,1:0|0:0,0:0:0:0:
0,311,82420,6,0,B|3:278|3:278|74:235|74:235|160:258|160:258|175:297,1,242.99999448967,8|0,0:2|0:0,0:0:0:0:
360,363,82726,5,0,0:0:0:0:
360,363,82828,2,0,B|379:309|379:309|372:246,1,121.499997244835,4|0,0:0|0:0,0:0:0:0:
184,72,83032,2,0,B|219:124|219:124|268:153,1,121.499997244835,0|0,1:0|0:0,0:0:0:0:
500,176,83236,6,0,B|523:140|496:85|447:71|404:87|375:107|390:144,1,202.500002360344,8|0,0:2|0:0,0:0:0:0:
154,280,83644,5,4,0:0:0:0:
169,258,83746,1,0,0:0:0:0:
154,280,83848,2,0,B|208:252|208:252|273:261,1,121.499997244835,0|0,1:0|0:0,0:0:0:0:
99,157,84052,6,0,P|167:102|110:162,1,270.000003147125,8|0,0:2|0:0,0:0:0:0:
30,240,84358,5,0,0:0:0:0:
30,240,84460,6,0,B|56:269|56:269|46:306|62:370,1,121.499997244835,4|0,0:0|0:0,0:0:0:0:
236,272,84665,2,0,B|274:274|274:274|294:306|350:341,1,121.499997244835,0|0,1:0|0:0,0:0:0:0:
300,19,84869,6,0,P|233:168|338:43,1,472.499991989136,8|0,0:2|0:0,0:0:0:0:
121,110,85277,6,0,P|136:173|179:222,1,121.499997244835,4|0,0:0|0:0,0:0:0:0:
441,153,85481,2,0,L|312:118,1,121.499997244835,0|0,1:0|0:0,0:0:0:0:
37,176,85685,6,0,B|15:116|23:71|50:22|72:13|72:13|76:30|67:41,1,202.500002360344,8|0,0:2|0:0,0:0:0:0:
116,274,86093,6,0,B|68:280|48:273|48:273|23:276|-6:299,1,121.499997244835,4|0,0:0|0:0,0:0:0:0:
317,346,86297,2,0,P|260:368|200:367,1,121.499997244835,0|0,1:0|0:0,0:0:0:0:
441,153,86501,6,0,P|394:145|460:235,1,270.000003147125,8|2,0:2|0:2,0:0:0:0:
494,77,86807,5,2,0:2:0:0:
494,77,86909,6,0,B|462:58|462:58|366:75,1,121.499997244835,4|0,0:0|0:0,0:0:0:0:
212,104,87114,2,0,B|240:68|240:68|232:28|232:28|204:64,1,121.499997244835,0|0,1:0|0:0,0:0:0:0:
62,76,87318,6,0,B|86:21|85:22|85:22|23:37|23:37|65:159|65:159|36:243|36:243|49:308,1,405.000004720688,8|0,0:2|0:0,0:0:0:0:
164,203,87726,6,0,B|196:184|196:184|292:201,1,121.499997244835,4|0,0:0|0:0,0:0:0:0:
234,367,87931,2,0,B|152:381|152:381|120:362,1,121.499997244835,0|0,1:0|0:0,0:0:0:0:
366,236,88134,6,0,B|446:231|488:249|488:249|493:304|473:379|473:379|348:366|348:366|365:315|361:274,1,472.499991989136,8|0,0:2|0:0,0:0:0:0:
459,33,88542,5,4,0:0:0:0:
478,51,88644,1,0,0:0:0:0:
459,33,88746,2,0,P|466:68|455:155,1,121.499997244835,0|0,1:0|0:0,0:0:0:0:
176,164,88950,6,0,B|169:129|180:60|180:60|202:52|202:52|208:61|208:61|279:74|279:74|254:137|301:186|248:241,1,364.499991734505,8|0,0:2|0:0,0:0:0:0:
17,355,89358,5,4,0:0:0:0:
34,328,89460,1,0,0:0:0:0:
17,355,89563,2,0,B|40:344|40:344|142:358,1,121.499997244835,0|0,1:0|0:0,0:0:0:0:
265,151,89767,6,0,L|44:183,1,202.500002360344,8|0,0:2|0:0,0:0:0:0:
234,54,90175,6,0,L|289:67,1,44.9999988079071,4|0,0:2|0:0,0:0:0:0:
329,271,90379,6,0,B|208:248|208:248|237:360,1,224.999994039536,4|2,0:2|2:0,0:0:0:0:
370,344,90991,6,0,L|429:336,1,44.9999988079071,0|0,0:0|2:0,0:0:0:0:
419,328,91195,2,0,L|375:335,1,44.9999988079071,2|0,2:0|0:0,0:0:0:0:
415,240,91399,5,0,2:0:0:0:
458,250,91501,1,2,2:0:0:0:
454,236,91603,5,0,0:0:0:0:
412,229,91705,1,0,2:0:0:0:
475,98,92011,6,0,B|447:64|447:64|267:69|267:69|306:109,1,270.000003147125,2|0,1:0|0:0,0:0:0:0:
301,274,92318,6,0,B|266:308|266:308|-6:304|-6:304|40:263,1,359.999990463257,2|0,1:0|0:0,0:0:0:0:
196,28,92624,6,0,B|106:28,1,89.9999976158143,2|0,1:0|0:0,0:0:0:0:
28,128,92930,6,0,B|106:109|93:180|129:240|185:252|253:240|293:180|297:92|209:76|145:76|101:100|77:164|85:191|85:191|97:232,1,514.285700661796,2|0,1:0|0:0,0:0:0:0:
184,368,93236,5,2,0:0:0:0:
196,364,93338,1,2,0:0:0:0:
208,361,93440,6,0,B|234:332|263:330|263:330|255:313|261:298|261:298|277:253,1,121.499997244835,4|0,0:0|0:0,0:0:0:0:
482,293,93644,6,0,B|485:279|485:279|474:265|508:184,1,91.1249979336262,4|0,0:0|0:0,0:0:0:0:
292,75,93848,6,0,P|460:133|300:56,1,539.999985694885,8|0,0:0|0:0,0:0:0:0:
376,102,94256,5,0,0:0:0:0:
383,89,94358,1,0,0:0:0:0:
376,102,94460,2,0,P|390:138|372:231,1,121.499997244835,0|0,0:0|0:0,0:0:0:0:
151,370,94665,6,0,L|198:240,1,134.999996423721,8|0,0:0|0:0,0:0:0:0:
107,60,95073,6,0,B|83:47|83:47|108:152,1,121.499997244835,0|0,0:0|0:0,0:0:0:0:
292,76,95277,2,0,B|316:63|316:63|291:168,1,121.499997244835,0|0,0:0|0:0,0:0:0:0:
97,291,95481,6,0,P|165:198|125:352,1,472.499991989136,8|0,0:0|0:0,0:0:0:0:
352,220,95889,5,0,0:0:0:0:
374,232,95991,1,0,0:0:0:0:
352,220,96093,2,0,P|366:275|352:349,1,121.499997244835,0|0,0:0|0:0,0:0:0:0:
484,138,96297,6,0,B|445:120|445:120|328:130|328:130|258:179,1,202.500002360344,8|0,0:0|0:0,0:0:0:0:
41,81,96705,5,0,0:0:0:0:
41,81,96807,1,0,0:0:0:0:
41,81,96909,6,0,B|63:90|63:90|140:86|140:86|165:68,1,121.499997244835,0|0,0:0|0:0,0:0:0:0:
170,248,97114,6,0,B|192:239|192:239|269:243|269:243|294:261,1,121.499997244835,8|0,0:0|0:0,0:0:0:0:
280,337,97318,2,0,B|258:346|258:346|181:342|181:342|164:329,1,121.499997244835,0|0,0:0|0:0,0:0:0:0:
336,53,97522,6,0,B|383:79|383:79|374:124|374:124|388:178|368:233|377:263|406:278|406:278|375:297|355:364|355:364|388:292|377:223|377:223|358:192|363:157,1,539.999985694885
83,174,97930,6,0,B|66:202|66:202|81:275|81:275|60:310,1,134.999996423721,8|0,0:0|0:0,0:0:0:0:
66,298,98338,5,2,0:3:0:0:
66,298,98440,1,2,0:3:0:0:
66,298,98542,1,2,0:3:0:0:
66,298,98644,1,0,0:0:0:0:
66,298,98746,6,0,L|80:275,1,26.9999992847443
266,93,99154,6,0,L|186:80,1,67.4999982118607,2|0,0:3|0:0,0:0:0:0:
337,25,99563,6,0,B|353:46|353:46|321:224,1,179.999995231629,0|0,0:0|0:0,0:0:0:0:
139,160,99767,2,0,B|123:138|123:138|119:61|119:61|137:14,1,135.000001573563
233,168,99971,6,0,L|243:327,1,134.999996423721,4|0,0:0|0:0,0:0:0:0:
183,368,100379,5,4,0:0:0:0:
183,368,100481,1,0,0:0:0:0:
183,368,100583,2,0,P|132:354|55:368,1,121.499997244835,0|0,0:0|0:0,0:0:0:0:
327,335,100787,5,0,0:0:0:0:
327,335,100889,1,0,0:0:0:0:
327,335,100991,2,0,P|378:349|455:335,1,121.499997244835,0|0,0:0|0:0,0:0:0:0:
383,65,101195,6,0,B|390:105|390:105|354:161|354:161|362:206,1,134.999996423721,8|0,0:0|0:0,0:0:0:0:
457,244,101603,6,0,L|421:255,3,22.4999994039536,0|0|0|0,0:0|0:0|0:0|0:0,0:0:0:0:
414,257,101807,6,0,B|385:269|385:269|265:255,1,121.499997244835,0|0,0:0|0:0,0:0:0:0:
165,80,102011,6,0,B|274:64|274:64|303:76,1,134.999996423721,8|0,0:0|0:0,0:0:0:0:
69,37,102420,5,0,0:0:0:0:
69,37,102522,1,0,0:0:0:0:
69,37,102624,2,0,B|67:64|67:64|85:130|85:130|81:171,1,121.499997244835,0|0,0:0|0:0,0:0:0:0:
70,373,102828,6,0,P|102:241|86:366,1,472.499991989136,8|0,0:0|0:0,0:0:0:0:
42,308,103236,6,0,L|57:283,2,22.4999994039536,0|0|0,0:0|0:0|0:0,0:0:0:0:
184,217,103542,6,0,B|230:223,1,44.9999988079071,0|0,0:0|0:0,0:0:0:0:
387,340,103848,6,0,L|345:346,1,22.4999994039536,0|0,0:0|0:0,0:0:0:0:
387,137,104052,6,0,L|390:183,1,44.9999988079071,0|0,0:0|0:0,0:0:0:0:
393,127,104358,6,0,L|396:173,1,44.9999988079071,0|0,0:0|0:0,0:0:0:0:
258,28,104665,6,0,L|289:32,1,22.4999994039536,0|0,0:0|0:0,0:0:0:0:
473,259,104869,6,0,B|436:275|436:275|403:265,1,67.4999982118607,0|0,0:0|0:0,0:0:0:0:
248,129,105277,6,0,B|211:113|211:113|178:123,1,67.4999982118607,0|0,0:0|0:0,0:0:0:0:
67,210,105685,5,2,0:3:0:0:
25,266,105787,1,2,0:3:0:0:
65,323,105889,1,2,0:3:0:0:
131,303,105991,1,2,0:3:0:0:
132,233,106093,2,0,L|139:229,12,5.62499985098839
132,233,106501,6,0,L|136:230,376,5.62499985098839
256,192,116297,12,0,119460,1:0:0:0:
316,95,119563,6,0,P|352:137|365:240,1,135.000001573563,4|0,0:2|0:0,0:0:0:0:
462,199,119767,2,0,P|457:254|394:336,1,135.000001573563,0|0,0:0|0:0,0:0:0:0:
263,283,119971,5,8,0:3:0:0:
426,0,120175,5,0,0:0:0:0:
168,335,120379,5,4,0:2:0:0:
168,335,120481,1,0,0:0:0:0:
168,335,120583,1,0,0:0:0:0:
58,272,120787,5,8,0:3:0:0:
58,272,120889,1,0,0:0:0:0:
58,272,120991,1,0,0:0:0:0:
82,147,121195,6,0,B|104:136|104:136|233:158,1,135.000001573563,4|0,0:2|0:0,0:0:0:0:
212,12,121399,2,0,B|235:19|235:19|310:126,1,135.000001573563,4|0,0:2|0:0,0:0:0:0:
212,248,121603,5,8,0:3:0:0:
0,0,121807,5,0,0:0:0:0:
323,327,122011,5,4,0:2:0:0:
323,327,122113,1,0,0:0:0:0:
323,327,122215,1,0,0:0:0:0:
323,327,122318,1,0,0:0:0:0:
323,327,122420,1,8,0:3:0:0:
323,327,122522,1,0,0:0:0:0:
323,327,122624,2,0,L|228:336,2,67.5000007867814,0|0|0,0:0|0:0|0:0,0:0:0:0:
425,264,122828,6,0,P|452:180|365:203,1,202.500002360344,4|0,0:2|0:0,0:0:0:0:
425,264,123236,6,0,B|468:222|468:222|458:180|458:180|412:165|412:165|368:191,1,202.500002360344,8|0,0:3|0:0,0:0:0:0:
425,264,123644,6,0,P|452:180|365:203,1,202.500002360344,4|0,0:2|0:0,0:0:0:0:
272,306,124052,6,0,L|278:403,1,67.5000007867814,8|0,0:3|0:0,0:0:0:0:
266,218,124256,6,0,L|262:151,1,67.5000007867814,0|0,0:0|0:0,0:0:0:0:
117,194,124460,6,0,P|90:110|177:133,1,202.500002360344,4|0,0:2|0:0,0:0:0:0:
117,194,124868,6,0,B|74:152|74:152|84:110|84:110|130:95|130:95|174:121,1,202.500002360344,8|0,0:3|0:0,0:0:0:0:
117,194,125276,6,0,P|90:110|177:133,1,202.500002360344,4|0,0:2|0:0,0:0:0:0:
270,181,125685,6,0,L|264:278,1,67.5000007867814,8|0,0:3|0:0,0:0:0:0:
275,93,125889,6,0,L|279:25,1,67.5000007867814,0|0,0:0|0:0,0:0:0:0:
453,86,126093,6,0,B|432:79|432:79|366:91,1,89.9999976158143,4|2,0:2|0:2,0:0:0:0:
171,119,126297,2,0,B|149:126|149:126|83:114,1,89.9999976158143,2|2,0:2|0:2,0:0:0:0:
420,186,126501,6,0,B|401:172|401:172|334:167,1,89.9999976158143,2|2,0:0|0:2,0:0:0:0:
182,152,126705,2,0,B|159:153|159:153|98:125,1,89.9999976158143,2|2,0:2|0:2,0:0:0:0:
362,267,126909,6,0,B|347:249|347:249|284:226,1,89.9999976158143,2|2,0:0|0:2,0:0:0:0:
177,183,127113,2,0,B|154:178|154:178|103:135,1,89.9999976158143,2|2,0:2|0:2,0:0:0:0:
289,328,127318,6,0,B|279:307|279:307|224:269,1,89.9999976158143,2|0,0:0|0:0,0:0:0:0:
166,210,127522,2,0,B|145:200|145:200|107:145,1,89.9999976158143,2|2,0:2|0:2,0:0:0:0:
54,384,127726,6,0,B|52:353|52:353|84:243,1,135.000001573563,2|2,0:0|0:2,0:0:0:0:
109,51,127930,2,0,B|107:82|107:82|139:192,1,135.000001573563,2|2,0:2|0:2,0:0:0:0:
131,356,128134,6,0,B|137:325|137:325|196:227,1,135.000001573563,2|2,0:0|0:2,0:0:0:0:
253,20,128338,2,0,B|243:49|243:49|245:163,1,135.000001573563,2|2,0:2|0:2,0:0:0:0:
209,346,128542,6,0,B|222:318|222:318|305:238,1,135.000001573563,2|2,0:0|0:2,0:0:0:0:
381,0,128746,2,0,B|363:25|363:25|336:137,1,135.000001573563,2|2,0:2|0:2,0:0:0:0:
291,357,128950,6,0,B|311:333|311:333|411:278,1,135.000001573563,2|2,0:0|0:2,0:0:0:0:
512,5,129154,2,0,B|488:25|488:25|433:125,1,135.000001573563,2|2,0:2|0:2,0:0:0:0:
510,343,129358,6,0,L|500:303,1,22.4999994039536,2|0,0:0|0:0,0:0:0:0:
462,218,129460,6,0,L|472:258,1,22.4999994039536,2|0,0:0|0:0,0:0:0:0:
380,334,129563,6,0,L|390:294,1,22.4999994039536,2|0,0:0|0:0,0:0:0:0:
338,126,129665,6,0,L|348:166,1,22.4999994039536,2|0,0:0|0:0,0:0:0:0:
239,322,129767,6,0,L|262:296,1,22.4999994039536
229,47,129869,6,0,L|233:82,1,22.4999994039536
91,357,129971,6,0,L|118:326,1,22.4999994039536
79,2,130073,6,0,L|94:37,1,22.4999994039536
16,264,130175,6,0,L|44:264,1,22.4999994039536
171,91,130277,6,0,L|164:126,1,22.4999994039536
239,322,130379,6,0,L|232:288,1,22.4999994039536
143,226,130481,6,0,L|153:206,1,22.4999994039536
273,178,130583,6,0,L|291:201,7,22.4999994039536
152,48,130991,6,0,L|168:117,1,67.4999982118607,4|0,0:0|0:0,0:0:0:0:
112,260,131399,6,0,L|159:247,1,44.9999988079071,2|0,0:0|0:0,0:0:0:0:
244,124,131705,2,0,L|237:79,1,44.9999988079071,2|0,0:0|0:0,0:0:0:0:
394,149,132011,6,0,L|389:182,1,22.4999994039536,2|0,0:0|0:0,0:0:0:0:
352,309,132216,6,0,P|415:176|400:312,1,405.000004720688
407,34,132624,6,0,P|379:161|352:34,1,359.999990463257,4|2,1:2|0:1,0:0:0:0:
407,309,133032,6,0,B|421:251|421:251|379:235|379:235|343:252|343:252|352:309,1,202.500002360344,0|2,1:0|0:2,0:0:0:0:
483,150,133440,6,0,B|456:170|456:170|380:143|380:143|342:159,1,135.000001573563,0|0,1:0|0:0,0:0:0:0:
26,145,133644,6,0,B|100:26|100:26|264:81|264:81|237:228|237:228|93:258|93:258|18:158,1,719.999980926514
26,169,133645,6,0,B|100:288|100:288|264:233|264:233|237:86|237:86|93:56|93:56|18:156,1,719.999980926514
123,362,134256,6,0,L|309:340,1,168.749995529652,0|0,1:0|0:0,0:0:0:0:
332,345,134460,6,0,L|324:305,3,22.4999994039536,10|0|0|0,0:1|0:0|0:0|0:0,0:0:0:0:
290,342,134665,6,0,B|248:371|181:328|123:362,1,168.749995529652,0|0,1:0|0:0,0:0:0:0:
97,365,134869,6,0,L|109:289,1,67.5000007867814,10|0,0:1|0:0,0:0:0:0:
204,232,135073,1,0,1:0:0:0:
150,171,135175,6,0,B|139:24|139:24|179:46|179:46|159:91,1,224.999994039536,2|2,0:1|0:1,0:0:0:0:
80,222,135481,6,0,P|47:241|-15:245,1,89.9999976158143,0|0,1:0|0:0,0:0:0:0:
236,163,135685,5,2,0:1:0:0:
229,149,135787,1,2,0:0:0:0:
300,129,135889,2,0,P|344:132|383:153,1,89.9999976158143,0|0,1:0|0:0,0:0:0:0:
67,122,136093,6,0,L|63:86,2,22.4999994039536,0|0|0,3:0|3:0|3:0,0:0:0:0:
259,10,136297,6,0,L|209:9,1,44.9999988079071,0|0,1:0|0:0,0:0:0:0:
383,153,136603,6,0,L|382:130,4,22.4999994039536,2|0|0|0|2,0:0|0:0|1:0|0:0|0:0,0:0:0:0:
321,235,136909,6,0,L|318:257,3,22.4999994039536,2|2|0|2,1:0|0:0|1:0|0:0,0:0:0:0:
275,358,137114,6,0,B|325:329|420:337|465:371|465:371|495:280|495:280|464:204,1,359.999990463257,0|0,1:0|0:0,0:0:0:0:
276,162,137420,1,0,1:0:0:0:
187,365,137522,6,0,P|151:353|103:360,1,67.4999982118607,0|0,1:0|0:0,0:0:0:0:
50,366,137726,2,0,L|38:339,2,22.4999994039536,10|0|0,0:1|0:0|0:0,0:0:0:0:
0,209,137930,6,0,P|36:197|84:204,1,67.4999982118607,0|0,1:0|0:0,0:0:0:0:
137,210,138134,2,0,L|149:183,2,22.4999994039536,10|0|0,0:1|0:0|0:0,0:0:0:0:
68,77,138338,6,0,L|110:83,1,33.7499991059303,0|0,1:0|0:0,0:0:0:0:
126,85,138542,6,0,L|112:33,1,44.9999988079071,8|0,0:1|0:0,0:0:0:0:
213,102,138644,2,0,L|199:50,1,44.9999988079071,2|0,3:2|0:0,0:0:0:0:
308,111,138746,6,0,B|279:22|279:22|338:57|368:13|436:37|436:37|385:97|380:186,1,405.000004720688,0|0,1:0|0:0,0:0:0:0:
287,355,139154,6,0,P|269:228|331:340,1,359.999990463257,4|2,1:2|0:1,0:0:0:0:
287,355,139563,6,0,B|253:321|253:321|282:278|282:278|334:289|334:289|331:340,1,202.500002360344,0|2,1:0|0:0,0:0:0:0:
58,371,139971,6,0,B|55:336|55:336|15:281|15:281|15:246,1,135.000001573563,0|0,1:0|0:0,0:0:0:0:
275,175,140175,6,0,B|188:286|188:286|356:406|356:406|461:281|461:281|295:154,1,719.999980926514,0|2,1:0|0:1,0:0:0:0:
275,175,140176,6,0,B|163:258|163:258|45:89|45:89|173:-14|173:-14|296:153,1,719.999980926514,0|2,1:0|0:1,0:0:0:0:
440,87,140787,6,0,P|443:164|431:227,1,134.999996423721,0|0,1:0|0:0,0:0:0:0:
405,245,140991,6,0,L|478:249,3,56.2499985098839,10|0|0|0,0:1|0:0|0:0|0:0,0:0:0:0:
432,220,141195,6,0,P|427:152|439:86,1,134.999996423721,0|0,1:0|0:0,0:0:0:0:
448,58,141399,6,0,L|369:83,1,67.5000007867814,10|0,0:1|0:0,0:0:0:0:
316,266,141603,1,0,1:0:0:0:
261,195,141705,6,0,B|128:172|128:172|146:249|146:249|208:260,1,270.000003147125,2|2,0:1|0:1,0:0:0:0:
293,105,142011,6,0,P|294:60|281:17,1,89.9999976158143,0|0,1:0|0:0,0:0:0:0:
51,159,142216,5,2,0:1:0:0:
66,231,142318,1,2,0:0:0:0:
79,307,142420,2,0,P|90:338|84:307,1,89.9999976158143,0|0,0:0|0:0,0:0:0:0:
139,63,142624,6,0,P|124:50|152:59,2,89.9999976158143,0|0|0,3:0|3:0|3:0,0:0:0:0:
198,170,142828,6,0,L|192:203,12,22.4999994039536
212,295,143236,6,0,L|189:302,3,14.9999996026357,0|0|0|2,1:0|0:0|0:0|0:3,0:0:0:0:
287,227,143440,6,0,L|301:231,3,14.9999996026357,0|0|0|0,1:0|0:0|0:0|1:0,0:0:0:0:
300,88,143644,6,0,B|282:31|282:31|481:24|481:24|443:137|443:137|356:135,1,449.999988079071,2|2,1:0|3:1,0:0:0:0:
256,192,144052,12,2,145175,0:0:0:0:
282,213,145277,5,4,3:0:0:0:
217,200,145379,1,4,3:0:0:0:
152,186,145481,1,4,3:0:0:0:
87,170,145583,1,4,3:0:0:0:
34,147,145685,6,0,P|144:193|31:155,1,359.999990463257,4|0,3:0|0:0,0:0:0:0:
80,340,146093,6,0,B|91:310|91:310|182:287,1,112.499997019768,4|0,3:0|0:0,0:0:0:0:
131,18,146297,2,0,B|142:48|142:48|233:71,1,112.499997019768,0|0,0:0|0:0,0:0:0:0:
432,72,146501,6,0,L|438:95,1,22.4999994039536
424,208,146705,6,0,P|391:-21|411:206,1,719.999980926514,2|0,0:0|0:0,0:0:0:0:
396,201,146706,6,0,P|429:430|409:203,1,719.999980926514,2|0,0:0|0:0,0:0:0:0:
226,140,147318,6,0,B|191:162|126:113|84:147,1,134.999996423721,4|0,3:0|0:0,0:0:0:0:
25,136,147522,2,0,L|37:184,3,44.9999988079071,0|0|0|0,0:0|0:0|0:0|0:0,0:0:0:0:
93,140,147726,6,0,B|125:167|190:118|225:140,1,134.999996423721,4|0,3:0|0:0,0:0:0:0:
247,121,147930,6,0,L|236:180,1,44.9999988079071,0|0,0:0|0:0,0:0:0:0:
174,257,148134,1,4,3:0:0:0:
214,354,148236,6,0,B|198:256|198:256|137:234|137:234|79:254|79:254|68:308,1,270.000003147125,0|0,0:0|0:0,0:0:0:0:
278,292,148542,6,0,B|322:304|322:304|395:297,1,112.499997019768,4|0,3:0|0:0,0:0:0:0:
483,126,148746,5,0,0:0:0:0:
483,126,148848,2,0,B|429:126,1,44.9999988079071,0|2,0:0|0:2,0:0:0:0:
282,94,149154,6,0,B|263:126|263:126|291:157,2,67.5000007867814,2|0|2,0:2|0:0|0:2,0:0:0:0:
481,225,149358,6,0,B|494:269|494:269|475:315,1,89.9999976158143,4|0,3:0|0:0,0:0:0:0:
318,370,149665,6,0,B|274:381|274:381|185:348|185:348|120:360,1,179.999995231629
104,209,149971,6,0,L|111:240,3,22.4999994039536
37,159,150175,6,0,B|18:74|18:74|145:49|145:49|161:128|161:128|131:132|131:132|121:83,1,359.999990463257,4|0,3:0|0:0,0:0:0:0:
366,110,150583,6,0,L|359:146,2,22.4999994039536
283,243,150787,6,0,L|415:269,1,134.999996423721,0|0,0:0|0:0,0:0:0:0:
437,273,150991,6,0,L|431:248,1,22.4999994039536,4|0,3:0|0:0,0:0:0:0:
200,200,151195,5,0,0:0:0:0:
240,352,151297,1,0,0:0:0:0:
176,292,151399,6,0,L|140:304,1,33.7499991059303,4|0,3:0|0:0,0:0:0:0:
363,345,151603,6,0,L|363:356,3,11.2499997019768
143,302,151807,6,0,B|266:239|135:306,3,135.000001573563
120,373,152216,6,0,P|112:14|198:363,1,1057.49997198582,4|0,3:0|3:0,0:0:0:0:
120,373,154665,6,0,P|113:13|198:363,1,1059.74997596884,4|0,3:0|3:0,0:0:0:0:
129,327,155481,6,0,P|15:104|152:327,3,899.999976158142,4|0|0|0,3:0|3:0|0:0|0:0,0:0:0:0:
130,255,155889,6,0,P|81:136|153:255,6,449.999988079071,4|0|0|0|0|0|0,3:0|3:0|0:0|0:0|0:0|0:0|0:0,0:0:0:0:
142,183,156297,6,0,L|141:176,12,5.62499985098839
152,255,156705,6,0,L|156:278,3,22.4999994039536
264,220,157114,6,0,P|304:199|343:206,1,67.5000007867814,2|0,1:0|0:0,0:0:0:0:
398,348,157216,2,0,P|364:345|336:327,1,67.5000007867814,0|0,0:0|0:0,0:0:0:0:
458,141,157318,6,0,B|464:179|464:179|440:294,1,135.000001573563,0|0,0:0|0:0,0:0:0:0:
136,74,157522,6,0,B|165:49|165:49|277:13,1,135.000001573563,0|0,0:0|0:0,0:0:0:0:
193,384,157726,6,0,B|157:370|157:370|69:291,1,135.000001573563,0|0,0:0|0:0,0:0:0:0:
336,327,157930,6,0,L|212:316,1,101.250001180172,0|0,0:0|0:0,0:0:0:0:
205,315,158134,6,0,P|189:270|192:240,1,67.5000007867814,0|0,0:0|0:0,0:0:0:0:
309,188,158338,6,0,B|344:176|344:176|364:88|364:88|316:116,1,179.999995231629,0|0,0:0|0:0,0:0:0:0:
244,54,158542,2,0,B|232:46|232:46|224:6|224:6|264:22,1,89.9999976158143
18,139,158746,6,0,B|101:140|101:140|164:172,1,135.000001573563,0|0,0:0|0:0,0:0:0:0:
339,43,158950,2,0,B|385:66|385:66|468:67,1,135.000001573563,0|0,0:0|0:0,0:0:0:0:
110,16,159154,5,8,0:0:0:0:
100,21,159256,1,0,0:0:0:0:
93,24,159358,2,0,L|100:63,1,22.4999994039536,0|0,0:0|0:0,0:0:0:0:
78,255,159563,6,0,B|70:234|70:234|79:356,1,135.000001573563,0|0,0:0|0:0,0:0:0:0:
324,123,159767,2,0,B|331:102|331:102|322:224,1,135.000001573563,0|0,0:0|0:0,0:0:0:0:
164,350,159971,5,8,0:0:0:0:
203,283,160073,1,0,0:0:0:0:
283,271,160175,1,0,0:0:0:0:
358,297,160277,1,0,0:0:0:0:
408,365,160379,6,0,B|387:332|418:261|418:261|392:221,1,135.000001573563,0|0,0:0|0:0,0:0:0:0:
507,113,160583,2,0,B|469:103|443:30|443:30|397:18,1,135.000001573563,0|0,0:0|0:0,0:0:0:0:
503,295,160787,5,8,0:0:0:0:
505,303,160889,1,0,0:0:0:0:
508,311,160991,2,0,L|471:315,1,22.4999994039536,0|0,0:0|0:0,0:0:0:0:
246,261,161195,6,0,B|224:251|224:251|96:274,1,135.000001573563,0|0,0:0|0:0,0:0:0:0:
31,61,161399,5,0,0:0:0:0:
20,67,161501,1,0,0:0:0:0:
12,72,161603,6,0,P|72:87|203:51,1,179.999995231629,8|0,0:0|0:0,0:0:0:0:
351,184,161807,2,0,P|402:150|465:29,1,179.999995231629,0|0,0:0|0:0,0:0:0:0:
399,248,162011,5,0,0:0:0:0:
402,256,162114,1,0,0:0:0:0:
406,264,162216,2,0,B|377:286|377:286|390:382,1,121.499997244835,0|0,0:0|0:0,0:0:0:0:
261,41,162420,5,8,0:0:0:0:
262,33,162522,1,0,0:0:0:0:
263,27,162625,2,0,B|292:49|292:49|279:145,1,121.499997244835,0|0,0:0|0:0,0:0:0:0:
175,352,162828,6,0,L|208:345,2,22.4999994039536,0|0|0,0:0|0:0|0:0,0:0:0:0:
49,227,163032,6,0,L|26:222,2,22.4999994039536,0|0|0,0:0|0:0|0:0,0:0:0:0:
167,33,163236,5,8,0:0:0:0:
117,89,163338,1,0,0:0:0:0:
185,125,163440,1,0,0:0:0:0:
128,174,163542,1,0,0:0:0:0:
188,214,163644,6,0,P|199:260|191:367,1,135.000001573563,0|0,0:0|0:0,0:0:0:0:
339,187,163848,5,0,0:0:0:0:
346,183,163950,1,0,0:0:0:0:
352,177,164052,6,0,P|363:131|355:24,1,135.000001573563,8|0,0:0|0:0,0:0:0:0:
446,316,164256,5,0,0:0:0:0:
439,323,164358,1,0,0:0:0:0:
434,329,164460,6,0,P|374:321|338:331,1,89.9999976158143,0|0,0:0|0:0,0:0:0:0:
352,177,164665,2,0,P|315:224|305:261,1,89.9999976158143,0|0,0:0|0:0,0:0:0:0:
56,242,164869,6,0,P|94:195|150:170,1,112.499997019768,8|0,0:0|0:0,0:0:0:0:
26,65,165074,2,0,P|93:75|135:104,1,112.499997019768,0|0,0:0|0:0,0:0:0:0:
188,334,165277,5,0,0:0:0:0:
193,339,165379,1,0,0:0:0:0:
196,346,165481,2,0,L|144:345,1,44.9999988079071,0|0,0:0|0:0,0:0:0:0:
207,68,165685,5,8,0:0:0:0:
204,60,165787,1,0,0:0:0:0:
201,53,165889,2,0,P|265:46|341:53,1,135.000001573563,0|0,0:0|0:0,0:0:0:0:
412,162,166093,5,0,0:0:0:0:
477,179,166195,1,0,0:0:0:0:
459,244,166297,1,0,0:0:0:0:
394,227,166399,1,0,0:0:0:0:
440,150,166501,5,8,0:0:0:0:
489,207,166603,1,0,0:0:0:0:
430,255,166705,1,0,0:0:0:0:
381,198,166807,1,0,0:0:0:0:
312,249,166909,6,0,P|261:232|161:237,1,135.000001573563,0|0,0:0|0:0,0:0:0:0:
512,339,167114,2,0,P|447:357|380:354,1,135.000001573563,0|0,0:0|0:0,0:0:0:0:
112,349,167318,5,8,0:0:0:0:
109,354,167420,1,0,0:0:0:0:
105,360,167522,2,0,L|99:302,1,44.9999988079071,0|0,0:0|0:0,0:0:0:0:
250,47,167726,6,0,B|295:29|295:29|279:169,1,179.999995231629,4|0,2:0|0:0,0:0:0:0:
58,99,168032,1,4,2:0:0:0:
10,28,168134,6,0,P|96:24|136:62,1,135.000001573563,0|0,0:0|0:0,0:0:0:0:
101,316,168338,2,0,P|120:252|177:219,1,135.000001573563,4|0,2:0|0:0,0:0:0:0:
344,246,168542,6,0,P|390:292|392:358,1,135.000001573563,4|0,2:0|0:0,0:0:0:0:
241,338,169358,6,0,L|261:334,14,11.2499997019768,0|0|0|0|0|0|0|0|0|0|0|0|0|0|0,0:0|0:0|0:0|0:0|0:0|0:0|0:0|0:0|0:0|0:0|0:0|0:0|0:0|0:0|0:0,0:0:0:0:
144,299,170175,6,0,P|206:174|288:229,1,269.999992847443,0|0,0:3|0:0,0:0:0:0:
285,224,170583,6,0,P|194:217|204:127,1,202.500002360344,0|0,0:3|0:0,0:0:0:0:
204,128,170991,6,0,P|167:180|104:168,1,134.999996423721,0|0,0:3|0:0,0:0:0:0:
103,168,171399,6,0,P|130:180|137:220,1,67.4999982118607,0|0,0:3|0:0,0:0:0:0:
300,144,171807,6,0,B|290:123|290:123|423:140,1,135.000001573563,0|0,0:0|0:0,0:0:0:0:
126,48,172011,2,0,B|136:27|136:27|3:44,1,135.000001573563,0|0,0:0|0:0,0:0:0:0:
300,15,172216,5,8,0:0:0:0:
309,13,172318,1,0,2:0:0:0:
318,11,172420,2,0,L|312:73,1,44.9999988079071,0|0,0:0|2:0,0:0:0:0:
223,272,172624,6,0,P|254:241|353:250,1,135.000001573563
0,375,172828,2,0,P|0:309|46:262,1,135.000001573563
148,134,173032,5,8,0:0:0:0:
220,157,173134,1,0,2:0:0:0:
265,217,173236,1,2,0:2:0:0:
263,295,173338,1,2,2:2:0:0:
222,357,173440,6,0,B|209:370|209:370|336:360,1,135.000001573563,0|0,0:0|0:0,0:0:0:0:
499,161,173644,2,0,B|512:174|512:174|385:164,1,135.000001573563,0|0,0:0|0:0,0:0:0:0:
484,325,173848,5,8,0:0:0:0:
487,318,173950,1,0,2:0:0:0:
489,311,174052,2,0,L|502:369,1,44.9999988079071,0|0,0:0|2:0,0:0:0:0:
257,284,174256,6,0,B|248:260|248:260|268:146,1,135.000001573563,0|0,0:0|0:0,0:0:0:0:
150,333,174460,5,0,0:0:0:0:
144,340,174563,1,0,0:0:0:0:
140,347,174665,6,0,B|157:358|157:358|163:224|163:224|134:237,1,179.999995231629,8|0,0:0|2:0,0:0:0:0:
45,36,174869,2,0,B|22:46|22:46|125:131|125:131|129:112,1,179.999995231629,2|2,0:2|2:0,0:0:0:0:
351,89,175073,5,0,0:0:0:0:
355,100,175175,1,0,0:0:0:0:
358,108,175277,2,0,P|298:117|229:174,1,135.000001573563,0|0,0:0|0:0,0:0:0:0:
28,278,175481,5,8,0:0:0:0:
25,286,175583,1,0,2:0:0:0:
20,295,175685,2,0,P|80:304|149:361,1,135.000001573563,0|0,0:0|2:0,0:0:0:0:
59,200,175889,6,0,L|55:179,2,22.4999994039536,0|0|0,0:0|0:0|0:0,0:0:0:0:
239,266,176093,2,0,L|234:287,2,22.4999994039536,0|0|0,0:0|0:0|0:0,0:0:0:0:
437,199,176297,5,0,0:0:0:0:
395,134,176399,1,0,0:0:0:0:
319,156,176501,1,0,0:0:0:0:
317,79,176603,1,0,0:0:0:0:
247,26,176705,6,0,P|236:72|244:179,1,135.000001573563,0|0,0:0|0:0,0:0:0:0:
143,333,176909,5,0,0:0:0:0:
141,340,177011,1,0,0:0:0:0:
139,346,177113,6,0,P|128:300|136:193,1,135.000001573563,0|0,0:0|0:0,0:0:0:0:
14,113,177317,5,0,0:0:0:0:
33,105,177419,1,0,0:0:0:0:
44,95,177522,6,0,L|38:186,1,67.5000007867814,2|0,0:2|0:0,0:0:0:0:
55,84,177624,2,0,L|90:158,1,67.5000007867814,0|0,0:0|0:0,0:0:0:0:
49,70,177726,2,0,L|110:106,1,67.5000007867814,2|0,0:2|0:0,0:0:0:0:
40,52,177828,2,0,L|121:68,1,67.5000007867814,2|0,0:2|0:0,0:0:0:0:
28,38,177930,6,0,L|109:26,1,67.5000007867814,4|0,0:3|0:0,0:0:0:0:
217,58,178338,6,0,B|238:67|238:67|322:67|322:67|355:51,1,134.999996423721,4|0,0:2|0:0,0:0:0:0:
512,125,178746,6,0,B|486:104|486:104|378:116|378:116|339:136,1,179.999995231629,8|0,0:0|0:0,0:0:0:0:
275,320,179052,1,0,2:0:0:0:
216,258,179154,6,0,P|152:236|86:244,1,135.000001573563,0|0,0:0|0:0,0:0:0:0:
467,211,179358,2,0,P|403:232|337:224,1,135.000001573563,0|0,0:0|0:0,0:0:0:0:
160,114,179563,5,8,0:0:0:0:
154,112,179665,1,0,2:0:0:0:
149,109,179767,2,0,L|162:165,1,44.9999988079071,2|2,0:2|2:0,0:0:0:0:
306,26,179971,6,0,B|286:35|286:35|157:29,1,135.000001573563,0|0,0:0|0:0,0:0:0:0:
363,187,180175,2,0,B|341:184|341:184|232:115,1,135.000001573563,0|0,0:0|0:0,0:0:0:0:
63,340,180379,6,0,L|144:327,1,67.5000007867814,8|0,0:0|2:0,0:0:0:0:
422,351,180583,2,0,L|401:268,1,67.5000007867814,0|0,0:0|2:0,0:0:0:0:
475,12,180787,6,0,P|448:57|447:144,1,135.000001573563
311,361,180991,2,0,P|267:331|229:253,1,135.000001573563
349,37,181195,6,0,P|303:62|258:137,1,135.000001573563,8|0,0:0|2:0,0:0:0:0:
63,340,181399,2,0,P|86:292|80:206,1,135.000001573563,0|0,0:0|2:0,0:0:0:0:
67,32,181603,6,0,L|-30:40,1,67.5000007867814
230,259,181807,2,0,L|306:247,1,67.5000007867814
193,45,182011,6,0,B|158:32|158:32|181:80|180:135,1,135.000001573563
371,221,182216,2,0,B|378:254|378:254|360:378,1,135.000001573563
362,88,182420,6,0,B|400:88|400:88|473:111|473:111|518:112,1,135.000001573563
230,259,182624,2,0,B|256:246|256:246|216:256|136:230,1,135.000001573563
9,329,182828,6,0,P|57:363|136:383,1,135.000001573563,0|0,0:0|0:0,0:0:0:0:
371,221,183032,2,0,P|378:167|362:88,1,135.000001573563
6,149,183236,6,0,L|73:157,5,67.4999982118607
179,212,184869,5,0,0:0:0:0:
209,185,184971,1,0,0:0:0:0:
212,145,185073,1,0,0:0:0:0:
186,114,185175,1,0,0:0:0:0:
146,111,185277,1,0,0:0:0:0:
115,137,185379,1,0,0:0:0:0:
112,178,185481,1,0,0:0:0:0:
138,208,185583,1,0,0:0:0:0:
180,219,185685,5,0,0:0:0:0:
214,188,185787,1,0,0:0:0:0:
218,142,185889,1,0,0:0:0:0:
188,106,185991,1,0,0:0:0:0:
142,103,186093,1,0,0:0:0:0:
106,133,186195,1,0,0:0:0:0:
103,180,186297,1,0,0:0:0:0:
133,214,186399,1,0,0:0:0:0:
181,228,186501,5,0,0:0:0:0:
221,192,186603,1,0,0:0:0:0:
224,139,186705,1,0,0:0:0:0:
190,98,186807,1,0,0:0:0:0:
137,94,186909,1,0,0:0:0:0:
96,128,187011,1,0,0:0:0:0:
92,183,187113,1,0,0:0:0:0:
127,222,187215,1,0,0:0:0:0:
177,237,187318,5,0,0:0:0:0:
223,196,187420,1,0,0:0:0:0:
228,135,187522,1,0,0:0:0:0:
188,88,187624,1,0,0:0:0:0:
180,19,187726,6,0,L|189:-7,9,14.9999996026357,0|0|0|0|0|0|0|0|0|0,0:0|0:0|0:0|0:0|0:0|0:0|0:0|0:0|0:0|0:0,0:0:0:0:
188,88,188134,5,0,0:0:0:0:
223,146,188236,1,0,0:0:0:0:
207,214,188338,1,0,0:0:0:0:
148,250,188440,1,0,0:0:0:0:
82,234,188542,1,0,0:0:0:0:
44,176,188644,1,0,0:0:0:0:
61,106,188746,1,0,0:0:0:0:
119,72,188848,1,0,0:0:0:0:
196,77,188950,5,0,0:0:0:0:
237,143,189052,1,0,0:0:0:0:
219,222,189154,1,0,0:0:0:0:
151,264,189256,1,0,0:0:0:0:
75,244,189358,1,0,0:0:0:0:
31,178,189460,1,0,0:0:0:0:
52,98,189562,1,0,0:0:0:0:
117,58,189664,1,0,0:0:0:0:
206,64,189767,5,0,0:0:0:0:
252,141,189869,1,0,0:0:0:0:
232,230,189971,1,0,0:0:0:0:
154,278,190073,1,0,0:0:0:0:
66,257,190175,1,0,0:0:0:0:
16,180,190277,1,0,0:0:0:0:
39,89,190379,1,0,0:0:0:0:
114,44,190481,2,0,L|131:100,1,44.9999988079071,0|0,0:0|0:0,0:0:0:0:
344,371,190685,6,0,L|401:364,2,44.9999988079071,0|2|0,1:0|1:0|0:0,0:0:0:0:
263,353,190991,6,0,B|241:337|241:337|138:338|138:338|123:355|123:355|41:352|41:352|17:334|17:334|18:266|18:266|36:240|36:240|121:242|121:242|137:265|137:265|206:266|206:266,1,539.999985694885,2|0,1:0|0:0,0:0:0:0:
255,196,191399,6,0,L|240:150,7,33.7500003933907,0|0|0|0|0|0|0|0,0:0|0:0|0:0|0:0|0:0|0:0|0:0|0:0,0:0:0:0:
329,151,191807,6,0,L|321:106,7,33.7500003933907,0|0|0|0|0|0|0|0,0:0|0:0|0:0|0:0|0:0|0:0|0:0|0:0,0:0:0:0:
408,118,192216,6,0,L|410:82,7,33.7500003933907,0|0|0|0|0|0|0|0,0:0|0:0|0:0|0:0|0:0|0:0|0:0|0:0,0:0:0:0:
491,110,192624,6,0,L|502:69,7,33.7500003933907,0|0|0|0|0|0|0|0,0:0|0:0|0:0|0:0|0:0|0:0|0:0|0:0,0:0:0:0:
377,28,193032,6,0,L|394:85,7,44.9999988079071,0|0|0|0|0|0|0|0,0:0|0:0|0:0|0:0|0:0|0:0|0:0|0:0,0:0:0:0:
258,96,193440,6,0,L|301:121,7,44.9999988079071,0|0|0|0|0|0|0|0,0:0|0:0|0:0|0:0|0:0|0:0|0:0|0:0,0:0:0:0:
220,239,193848,6,0,L|283:234,10,45.0000005245209,0|0|0|0|0|0|0|0|0|0|0,0:0|0:0|0:0|0:0|0:0|0:0|0:0|0:0|0:0|0:0|0:0,0:0:0:0:
280,372,194256,6,0,L|328:348,10,45.0000005245209,0|0|0|0|0|0|0|0|0|0|0,0:0|0:0|0:0|0:0|0:0|0:0|0:0|0:0|0:0|0:0|0:0,0:0:0:0:
482,325,194665,6,0,P|481:346|466:369,2,44.9999988079071,0|2|0,1:0|0:3|0:0,0:0:0:0:
322,54,195277,6,0,B|349:38|349:38|430:74|463:48|463:48|487:73,1,179.999995231629
251,147,195481,6,0,L|200:131,12,44.9999988079071
150,75,195889,6,0,P|27:131|143:122,1,359.999990463257,2|2,1:3|1:3,0:0:0:0:
256,192,196297,12,0,197522,0:0:0:0:
276,168,197624,5,0,0:0:0:0:
276,168,197726,1,0,0:0:0:0:
276,168,197828,1,0,0:0:0:0:
276,168,197930,6,0,B|264:108|264:108|344:140|344:140|368:280|368:280|228:344|228:344|120:232|120:232|216:28|216:28|348:16|452:92|484:184|460:284|432:364|376:376|376:376|244:236|244:236|76:336|76:336|36:312|16:240|16:188|36:120|76:76|132:36|190:26,2,2137.49994337559,4|0|0,1:2|0:0|0:0,0:0:0:0:
118,159,227318,5,0,0:0:0:0:
226,110,228134,5,0,0:0:0:0:
312,168,228950,5,0,0:0:0:0:
408,108,229563,5,0,0:0:0:0:
408,108,229665,5,0,0:0:0:0:
408,108,229767,5,0,0:0:0:0:
408,108,229869,5,0,0:0:0:0:
369,170,229971,6,0,L|367:180,4,5.62499985098839
288,160,230175,6,0,B|256:148|256:148|212:160,1,67.4999982118607,8|0,1:0|0:0,0:0:0:0:
124,304,230583,6,0,B|101:266|98:218|143:173|143:173|105:162|105:162|113:127|69:75|69:75|123:52,1,337.499991059303,4|2,1:0|0:0,0:0:0:0:
320,92,231195,6,0,B|311:111|346:40|346:40|405:41|405:41|422:123|422:123|339:152|370:198|348:227,1,337.500003933907,0|2,1:0|1:2,0:0:0:0:
486,46,231807,6,0,L|501:122,1,67.5000007867814,4|0,1:0|0:0,0:0:0:0:
319,357,232011,2,0,L|332:290,1,67.5000007867814,0|0,0:0|0:0,0:0:0:0:
446,205,232216,6,0,P|286:150|434:277,2,540.000006294251,4|2|0,1:0|0:0|0:0,0:0:0:0:
430,282,233236,6,0,P|394:268|343:278,1,67.5000007867814,2|2,0:0|0:0,0:0:0:0:
298,128,233440,6,0,P|262:143|226:200,1,89.9999976158143,2|2,0:0|0:0,0:0:0:0:
79,117,233644,6,0,P|65:153|86:222,1,112.499997019768,2|2,0:0|0:0,0:0:0:0:
252,363,233848,6,0,L|277:260,1,89.9999976158143,4|0,1:0|0:0,0:0:0:0:
386,181,234154,2,0,L|365:269,1,89.9999976158143,2|0,0:0|0:0,0:0:0:0:
478,175,234460,6,0,L|503:72,1,89.9999976158143,4|0,1:0|0:0,0:0:0:0:
501,80,234971,1,2,1:2:0:0:
504,70,235073,2,0,L|460:76,1,44.9999988079071,4|0,1:0|0:0,0:0:0:0:
280,37,235481,5,4,1:0:0:0:
280,37,235685,2,0,P|243:31|198:39,1,67.4999982118607,0|0,0:0|0:0,0:0:0:0:
139,89,236093,6,0,L|156:235,1,135.000001573563,4|0,1:0|0:0,0:0:0:0:
114,318,236348,2,0,L|136:352,2,33.7500003933907
35,325,236501,6,0,P|96:242|187:290,1,224.999994039536,2|8,0:0|0:3,0:0:0:0:
292,333,237165,6,0,B|367:190|299:124|299:124|262:211|349:300,1,418.499988913536
436,369,242011,6,0,L|443:371,60,5.62499985098839
388,304,243644,6,0,B|411:266|414:218|369:173|369:173|407:162|407:162|399:127|443:75|443:75|389:52,1,337.499991059303,6|0,1:0|2:0,0:0:0:0:
192,92,244256,6,0,B|201:111|166:40|166:40|107:41|107:41|90:123|90:123|173:152|142:198|164:227,1,337.500003933907,6|0,1:0|0:0,0:0:0:0:
26,46,244868,6,0,L|11:122,1,67.5000007867814,2|0,2:0|0:0,0:0:0:0:
193,357,245072,2,0,L|180:290,1,67.5000007867814,2|0,2:0|0:0,0:0:0:0:
66,205,245277,6,0,P|226:150|78:277,2,540.000006294251,6|0|0,1:0|0:0|0:0,0:0:0:0:
82,282,246297,6,0,P|118:268|169:278,1,67.5000007867814,0|0,2:0|2:0,0:0:0:0:
214,128,246501,6,0,P|250:143|286:200,1,89.9999976158143,2|0,0:0|0:0,0:0:0:0:
433,117,246705,6,0,P|447:153|426:222,1,112.499997019768,2|0,0:0|0:0,0:0:0:0:
260,363,246909,6,0,L|235:260,1,89.9999976158143,6|0,0:0|0:0,0:0:0:0:
363,166,247215,2,0,L|342:254,1,89.9999976158143,0|0,2:0|0:0,0:0:0:0:
256,155,247521,6,0,L|231:52,1,89.9999976158143,6|2,1:0|2:1,0:0:0:0:
229,53,248032,1,0,0:0:0:0:
226,43,248134,2,0,L|270:49,1,44.9999988079071,2|0,2:1|2:0,0:0:0:0:
158,237,248542,5,6,0:0:0:0:
158,237,248746,2,0,P|121:243|76:235,1,67.4999982118607,0|0,0:0|0:0,0:0:0:0:
421,356,249154,6,0,B|450:298|450:298|428:232,1,135.000001573563,6|0,0:0|0:0,0:0:0:0:
362,178,249409,2,0,L|394:166,2,33.7500003933907
332,250,249562,6,0,P|254:320|248:261,1,224.999994039536,4|0,2:0|0:0,0:0:0:0:
179,194,250175,6,0,B|146:160|132:100|140:46|172:13|172:13|208:53|218:93|204:138|192:172|168:200|134:247|132:312|137:368|174:380|174:380|154:355|157:309|174:285|147:334,1,697.49998152256
241,261,253440,6,0,L|249:261,36,5.62499985098839
402,172,254460,6,0,L|388:172,20,11.2499997019768
332,104,255073,6,0,B|281:123|281:123|226:105|226:105|168:123,1,168.749995529652,4|0,0:0|0:0,0:0:0:0:
120,196,256705,5,4,1:1:0:0:
134,266,256807,1,0,0:0:0:0:
118,336,256909,1,2,0:0:0:0:
180,371,257011,1,2,0:0:0:0:
232,320,257114,5,0,1:0:0:0:
205,253,257216,1,0,0:0:0:0:
134,266,257318,1,0,0:0:0:0:
118,336,257420,1,2,0:0:0:0:
360,250,257624,5,2,0:0:0:0:
293,223,257726,1,2,0:0:0:0:
488,384,257930,5,0,0:0:0:0:
432,338,258032,1,2,0:0:0:0:
488,293,258134,1,0,0:0:0:0:
443,236,258236,1,0,0:0:0:0:
474,171,258338,5,2,1:2:0:0:
508,107,258440,1,0,0:0:0:0:
457,56,258542,1,2,0:0:0:0:
391,86,258644,1,0,0:0:0:0:
400,160,258746,6,0,L|350:200,1,44.9999988079071,0|2,1:0|0:0,0:0:0:0:
267,106,258950,2,0,L|258:162,1,44.9999988079071,0|2,0:0|0:0,0:0:0:0:
141,162,259154,6,0,L|167:211,1,44.9999988079071,0|2,0:0|0:0,0:0:0:0:
90,295,259358,2,0,L|146:304,1,44.9999988079071,2|0,0:0|0:0,0:0:0:0:
292,333,259563,5,0,0:0:0:0:
241,282,259665,1,2,0:0:0:0:
292,231,259767,1,0,0:0:0:0:
342,282,259869,1,0,0:0:0:0:
303,331,259971,5,2,1:2:0:0:
242,293,260073,1,0,0:0:0:0:
280,232,260175,1,2,0:0:0:0:
340,270,260277,1,0,0:0:0:0:
313,328,260379,6,0,L|368:308,1,44.9999988079071,2|0,1:2|0:0,0:0:0:0:
286,221,260583,2,0,L|308:179,1,44.9999988079071,0|2,0:0|0:0,0:0:0:0:
176,175,260787,2,0,L|176:128,1,44.9999988079071,0|2,0:0|0:0,0:0:0:0:
62,215,260991,2,0,L|44:171,1,44.9999988079071,2|0,0:0|0:0,0:0:0:0:
5,337,261195,6,0,L|86:315,1,67.4999982118607,0|2,1:0|0:0,0:0:0:0:
299,303,261603,6,0,B|325:325|325:325|303:156,1,179.999995231629,6|0,0:0|2:0,0:0:0:0:
170,51,261909,6,0,B|139:33|139:33|255:18|255:18|242:58,1,179.999995231629,6|0,0:0|2:0,0:0:0:0:
493,120,262216,6,0,B|501:145|501:145|385:130|385:130|416:112,1,179.999995231629,6|0,0:0|2:0,0:0:0:0:
194,187,262522,6,0,B|209:205|209:205|70:215|70:215|90:192,1,179.999995231629,6|0,0:0|2:0,0:0:0:0:
298,302,262828,6,0,B|280:158|280:158|306:180,1,179.999995231629,6|0,0:0|0:0,0:0:0:0:
478,369,263236,6,0,B|409:355|409:355|295:375|295:375|203:354,1,270.000003147125,4|0,1:0|0:0,0:0:0:0:
213,356,263746,1,0,0:0:0:0:
213,356,263848,1,0,0:0:0:0:
41,192,264052,6,0,B|110:178|110:178|224:198|224:198|316:177,1,270.000003147125,0|0,0:0|0:0,0:0:0:0:
305,179,264665,1,0,0:0:0:0:
512,46,264869,6,0,B|452:19|452:19|377:25,1,135.000001573563,2|2,1:2|0:0,0:0:0:0:
411,246,265277,2,0,B|405:216|405:216|456:161|456:161|455:121,1,135.000001573563,0|0,1:0|0:0,0:0:0:0:
56,131,265685,6,0,B|55:161|55:161|106:216|106:216|101:246,1,135.000001573563,0|2,0:0|0:0,0:0:0:0:
128,24,266093,2,0,B|60:19|60:19|0:46,1,135.000001573563,0|2,1:0|0:0,0:0:0:0:
193,349,266501,5,0,1:0:0:0:
331,270,266705,1,2,1:2:0:0:
133,105,266909,5,0,1:0:0:0:
395,149,267114,1,2,1:2:0:0:
243,0,267318,5,0,1:0:0:0:
231,52,267420,1,2,1:2:0:0:
235,105,267522,1,2,1:2:0:0:
255,155,267624,1,0,1:0:0:0:
272,205,267726,1,0,1:0:0:0:
280,258,267828,1,0,1:0:0:0:
280,311,267930,1,2,1:0:0:0:
261,361,268032,1,0,0:0:0:0:
177,376,268134,6,0,B|150:366|150:366|32:377,1,135.000001573563,0|0,1:0|0:0,0:0:0:0:
5,304,268338,2,0,B|15:277|15:277|4:158,1,135.000001573563,0|0,0:0|0:0,0:0:0:0:
64,114,268542,2,0,B|91:124|91:124|209:113,1,135.000001573563,0|0,0:0|0:0,0:0:0:0:
236,186,268746,2,0,B|226:213|226:213|237:331,1,135.000001573563,0|0,0:0|0:0,0:0:0:0:
44,375,268950,6,0,L|122:384,2,67.5000007867814,0|0|0,0:0|0:0|0:0,0:0:0:0:
10,172,269154,2,0,L|-4:259,2,67.5000007867814,0|0|0,0:0|0:0|0:0,0:0:0:0:
198,113,269358,6,0,L|111:98,2,67.5000007867814
230,322,269563,2,0,L|247:248,2,67.5000007867814
161,186,269767,5,6,0:2:0:0:
159,178,269869,1,0,0:0:0:0:
157,170,269971,1,2,0:0:0:0:
155,162,270073,1,2,0:2:0:0:
153,154,270175,1,0,0:0:0:0:
151,146,270277,1,0,0:0:0:0:
149,138,270379,1,2,0:2:0:0:
147,130,270481,1,0,0:0:0:0:
143,124,270583,6,0,P|133:97|148:123,7,89.9999976158143,6|0|0|0|0|0|0|0,0:2|0:0|0:0|0:0|0:0|0:0|0:0|0:0,0:0:0:0:
474,106,271400,5,6,0:2:0:0:
472,115,271502,1,0,0:0:0:0:
470,124,271604,1,0,0:0:0:0:
468,133,271706,1,0,0:2:0:0:
465,142,271808,1,0,0:0:0:0:
463,151,271910,1,0,0:0:0:0:
460,160,272012,1,2,0:2:0:0:
457,169,272114,1,0,0:0:0:0:
455,178,272216,6,0,B|352:158,1,89.9999976158143,6|0,0:2|0:0,0:0:0:0:
284,319,272420,2,0,B|387:299,1,89.9999976158143,0|2,0:0|0:2,0:0:0:0:
278,94,272624,6,0,B|259:55|259:55|249:174,1,135.000001573563,0|0,0:0|0:0,0:0:0:0:
177,366,272828,2,0,B|159:358|159:358|146:264,1,112.499997019768
37,152,273440,5,0,0:0:0:0:
29,140,273542,1,0,0:0:0:0:
29,125,273644,1,2,0:2:0:0:
39,114,273747,1,0,0:0:0:0:
53,113,273848,6,0,L|71:235,3,112.499997019768,6|0|0|0,0:2|0:0|0:0|0:0,0:0:0:0:
267,35,274256,6,0,L|249:157,3,112.499997019768,6|0|0|0,0:2|0:0|0:0|0:0,0:0:0:0:
408,126,274665,5,6,0:2:0:0:
418,137,274768,1,0,0:0:0:0:
418,152,274870,1,0,0:0:0:0:
409,163,274972,1,2,0:2:0:0:
395,167,275074,1,0,0:0:0:0:
381,158,275176,1,0,0:0:0:0:
377,145,275278,1,2,0:2:0:0:
381,130,275380,1,0,0:0:0:0:
396,120,275481,6,0,L|396:38,6,67.5000007867814,6|0|0|0|0|0|0,0:2|0:0|0:0|0:0|0:0|0:0|0:0,0:0:0:0:
296,114,275889,6,0,B|281:132|281:132|293:154|293:154|287:175|287:175|300:194|300:194|292:218|292:218|305:262,1,134.999996423721
182,320,276298,5,6,0:2:0:0:
182,320,276502,2,0,B|233:329|233:329|297:318,1,112.499997019768
336,203,276705,5,0,0:0:0:0:
336,203,276910,2,0,B|279:206|279:206|213:187,1,112.499997019768,2|0,0:2|0:0,0:0:0:0:
38,210,277114,5,6,0:2:0:0:
31,112,277216,1,0,0:0:0:0:
132,104,277318,1,0,0:0:0:0:
139,206,277420,1,2,0:2:0:0:
118,301,277522,5,0,0:0:0:0:
110,315,277624,1,0,0:0:0:0:
101,329,277726,2,0,L|259:293,1,135.000001573563,2|0,0:2|0:0,0:0:0:0:
318,216,277930,5,6,0:2:0:0:
403,199,278032,1,0,0:0:0:0:
465,245,278134,1,0,0:0:0:0:
490,322,278236,1,2,0:2:0:0:
401,348,278338,5,0,0:0:0:0:
383,354,278440,1,0,0:0:0:0:
365,359,278542,2,0,L|383:271,2,67.5000007867814,2|0|0,0:2|0:0|0:0,0:0:0:0:
437,126,278747,5,6,0:2:0:0:
421,122,278849,1,0,0:0:0:0:
407,117,278951,2,0,P|348:123|269:95,1,135.000001573563,0|0,0:0|0:0,0:0:0:0:
224,172,279154,5,0,0:0:0:0:
157,208,279256,1,0,0:0:0:0:
81,206,279358,1,2,0:2:0:0:
14,170,279460,1,0,0:0:0:0:
23,49,279563,6,0,L|51:100,2,56.2499985098839,6|0|0,0:2|0:0|0:0,0:0:0:0:
174,58,279767,6,0,L|157:113,2,56.2499985098839
274,171,279971,6,0,L|222:199,2,56.2499985098839
264,321,280175,6,0,L|208:304,2,56.2499985098839,2|0|0,0:2|0:0|0:0,0:0:0:0:
49,332,280379,5,6,0:2:0:0:
78,259,280481,1,0,0:0:0:0:
155,248,280583,1,0,0:0:0:0:
205,188,280685,1,2,0:2:0:0:
282,181,280787,1,0,0:0:0:0:
336,237,280889,1,0,0:0:0:0:
410,259,280991,1,2,0:2:0:0:
477,219,281093,1,0,0:0:0:0:
475,140,281195,6,0,P|443:111|274:56,1,224.999994039536,6|0,0:2|0:0,0:0:0:0:
153,87,281807,6,0,L|154:92,27,3.74999990065893,2|0|0|0|0|0|0|0|0|0|0|0|0|0|0|0|0|0|0|0|0|0|0|0|0|0|0|0,0:2|0:0|0:0|0:0|0:0|0:0|0:0|0:0|0:0|0:0|0:0|0:0|0:0|0:0|0:0|0:0|0:0|0:0|0:0|0:0|0:0|0:0|0:0|0:0|0:0|0:0|0:0|0:0,0:0:0:0:
62,237,282828,6,0,L|59:228,4,5.62499985098839,6|0|0|0|0,0:2|0:0|0:0|0:0|0:0,0:0:0:0:
207,331,283032,6,0,L|204:340,4,5.62499985098839,0|0|0|0|2,0:0|0:0|0:0|0:0|0:2,0:0:0:0:
252,162,283236,6,0,L|249:153,4,5.62499985098839
326,322,283440,6,0,L|323:331,4,5.62499985098839,2|0|0|0|0,0:2|0:0|0:0|0:0|0:0,0:0:0:0:
395,79,283644,6,0,L|388:74,4,5.62499985098839,6|0|0|0|0,0:2|0:0|0:0|0:0|0:0,0:0:0:0:
444,349,283848,6,0,L|437:354,4,5.62499985098839,0|0|0|0|2,0:0|0:0|0:0|0:0|0:2,0:0:0:0:
315,13,284052,6,0,L|306:14,4,5.62499985098839
505,290,284256,6,0,L|514:291,4,5.62499985098839,2|0|0|0|0,0:2|0:0|0:0|0:0|0:0,0:0:0:0:
207,40,284460,6,0,L|215:49,6,11.2499997019768,6|0|0|0|0|0|0,0:2|0:0|0:0|0:0|0:0|0:0|0:0,0:0:0:0:
472,133,284664,6,0,L|464:142,6,11.2499997019768,0|0|0|0|2|0|0,0:0|0:0|0:0|0:0|0:2|0:0|0:0,0:0:0:0:
109,67,284868,6,0,L|119:73,6,11.2499997019768,0|0|0|0|0|0|0,0:0|0:0|0:0|0:0|0:0|0:0|0:0,0:0:0:0:
422,201,285072,6,0,L|416:211,6,11.2499997019768,2|0|0|0|0|0|0,0:2|0:0|0:0|0:0|0:0|0:0|0:0,0:0:0:0:
41,142,285276,6,0,L|52:144,6,11.2499997019768
397,280,285480,6,0,L|396:292,6,11.2499997019768
29,234,285684,6,0,L|41:233,6,11.2499997019768,0|0|0|0|0|0|0,0:0|0:0|0:0|0:0|0:0|0:0|0:0,0:0:0:0:
402,371,285888,6,0,L|403:382,6,11.2499997019768,0|0|0|0|0|0|0,0:0|0:0|0:0|0:0|0:0|0:0|0:0,0:0:0:0:
83,306,286092,6,0,L|87:313,125,5.62499985098839,0|0|0|0|0|0|0|0|0|0|0|0|0|0|0|0|0|0|0|0|0|0|0|0|0|0|0|0|0|0|0|0|0|0|0|0|0|0|0|0|0|0|0|0|0|0|0|0|0|0|0|0|0|0|0|0|0|0|0|0|0|0|0|0|0|0|0|0|0|0|0|0|0|0|0|0|0|0|0|0|0|0|0|0|0|0|0|0|0|0|0|0|0|0|0|0|0|0|0|0|0|0|0|0|0|0|0|0|0|0|0|0|0|0|0|0|0|0|0|0|0|0|0|0|0|0,0:2|0:0|0:0|0:0|0:0|0:0|0:0|0:0|0:0|0:0|0:0|0:0|0:0|0:0|0:0|0:0|0:0|0:0|0:0|0:0|0:0|0:0|0:0|0:0|0:2|0:0|0:0|0:0|0:0|0:0|0:0|0:0|0:0|0:0|0:0|0:0|0:0|0:0|0:0|0:0|0:0|0:0|0:0|0:0|0:0|0:0|0:0|0:0|0:2|0:0|0:0|0:0|0:0|0:0|0:0|0:0|0:0|0:0|0:0|0:0|0:0|0:0|0:0|0:0|0:2|0:0|0:0|0:0|0:0|0:0|0:0|0:0|0:0|0:0|0:0|0:0|0:0|0:0|0:0|0:0|0:0|0:0|0:0|0:0|0:0|0:0|0:0|0:0|0:2|0:0|0:0|0:0|0:0|0:0|0:0|0:0|0:0|0:0|0:0|0:0|0:0|0:0|0:0|0:0|0:0|0:0|0:0|0:0|0:0|0:0|0:0|0:0|0:2|0:0|0:0|0:0|0:0|0:0|0:0|0:0|0:0|0:0|0:0|0:0|0:0|0:0,0:0:0:0:
160,272,287725,6,0,L|158:277,248,5.62499985098839
240,306,289357,6,0,L|238:301,1526,5.62499985098839
256,192,294256,12,0,295072,0:0:0:0:
433,118,295480,6,0,L|438:157,7,22.4999994039536,2|2|2|2|2|2|2|2,0:3|0:3|0:3|0:3|0:3|0:3|0:3|0:3,0:0:0:0:
439,166,295888,6,0,B|404:176|404:176|301:139|301:139|212:160,1,224.999994039536,6|2,1:0|0:2,0:0:0:0:
160,352,296194,5,0,0:0:0:0:
164,340,296296,2,0,B|176:320|176:320|256:300,1,89.9999976158143,12|0,1:2|0:0,0:0:0:0:
91,186,296500,5,0,0:0:0:0:
95,211,296602,1,0,0:0:0:0:
101,238,296704,6,0,B|85:244|85:244|-24:215,1,121.499997244835,12|2,0:2|0:0,0:0:0:0:
170,30,296909,2,0,B|154:24|154:24|45:53,1,121.499997244835,2|0,0:2|0:0,0:0:0:0:
223,157,297113,5,12,0:2:0:0:
289,186,297215,1,2,0:0:0:0:
354,154,297317,2,0,L|342:80,3,60.7499986224175,2|0|0|0,0:0|0:0|0:0|0:0,0:0:0:0:
339,67,297521,6,0,B|402:37|402:37|463:81|463:81|442:229,1,270.000003147125,6|2,0:0|0:2,0:0:0:0:
365,335,297827,5,0,0:0:0:0:
370,320,297929,2,0,P|411:313|442:322,1,67.5000007867814,12|0,0:2|0:0,0:0:0:0:
360,232,298133,5,0,0:0:0:0:
296,284,298235,1,2,0:0:0:0:
146,300,298439,6,0,L|55:311,1,60.7499986224175,4|0,0:3|0:0,0:0:0:0:
156,226,298541,2,0,L|65:237,1,60.7499986224175,2|0,0:3|0:0,0:0:0:0:
176,149,298643,2,0,L|85:160,1,60.7499986224175,4|0,0:3|0:0,0:0:0:0:
155,72,298745,6,0,B|171:39|171:39|236:40|236:40|261:81,1,135.000001573563,12|2,0:2|0:0,0:0:0:0:
29,187,298949,2,0,B|33:153|33:153|-1:86|-1:86|2:54,1,135.000001573563,0|2,0:0|0:0,0:0:0:0:
277,172,299153,6,0,B|314:171|364:146|401:79|442:73|493:118|487:160|466:201|424:210|358:170,1,337.499991059303,4|0,0:0|0:0,0:0:0:0:
190,51,299562,6,0,P|228:68|272:62,1,67.5000007867814,12|0,0:2|0:0,0:0:0:0:
351,252,299766,2,0,P|317:253|287:268,1,67.5000007867814,0|2,0:0|0:0,0:0:0:0:
459,113,299970,5,12,0:2:0:0:
466,107,300072,1,0,0:0:0:0:
474,101,300174,2,0,L|487:204,1,89.9999976158143,0|2,0:0|0:0,0:0:0:0:
495,328,300378,5,12,0:2:0:0:
447,382,300480,1,0,0:0:0:0:
393,335,300582,1,2,0:0:0:0:
440,280,300684,1,0,0:0:0:0:
463,195,300786,6,0,B|490:31|490:31|429:73,1,224.999994039536,4|8,0:0|0:0,0:0:0:0:
258,155,301092,5,0,0:0:0:0:
262,172,301194,2,0,L|277:259,1,67.5000007867814,12|0,0:2|0:0,0:0:0:0:
231,11,301398,2,0,L|246:98,1,67.5000007867814,0|8,0:0|0:0,0:0:0:0:
74,349,301704,6,0,L|139:354,1,56.2499985098839,0|0,0:0|0:0,0:0:0:0:
103,277,301807,2,0,L|168:282,1,56.2499985098839,10|0,0:0|0:0,0:0:0:0:
132,205,301909,2,0,L|197:210,1,56.2499985098839,0|0,0:0|0:0,0:0:0:0:
328,110,302113,6,0,L|393:105,1,56.2499985098839,0|0,0:0|0:0,0:0:0:0:
357,182,302216,2,0,L|400:178,6,28.124999254942,10|0|0|0|0|0|0,0:0|0:0|0:0|0:0|0:0|0:0|0:0,0:0:0:0:
336,257,302419,6,0,B|439:245|439:245|421:348|421:348|342:357,1,270.000003147125,4|2,0:0|0:2,0:0:0:0:
469,118,302725,5,0,0:0:0:0:
475,99,302827,2,0,L|493:198,1,89.9999976158143,12|0,0:2|0:0,0:0:0:0:
265,80,303031,5,0,0:0:0:0:
259,60,303133,1,2,0:0:0:0:
282,64,303235,6,0,B|266:74|266:74|161:92,1,121.499997244835,12|2,0:2|0:0,0:0:0:0:
264,285,303439,2,0,B|248:274|248:274|143:256,1,121.499997244835,2|0,0:0|0:0,0:0:0:0:
356,110,303643,5,12,0:2:0:0:
380,182,303745,1,0,0:0:0:0:
344,249,303847,6,0,L|358:286,3,33.7500003933907,2|0|0|0,0:0|0:0|0:0|0:0,0:0:0:0:
384,305,304051,6,0,B|366:340|366:340|485:367|485:367|442:253,1,270.000003147125,4|2,0:0|0:2,0:0:0:0:
204,194,304358,5,0,0:0:0:0:
196,218,304460,2,0,L|166:294,1,67.5000007867814,12|0,0:2|0:0,0:0:0:0:
143,133,304664,5,2,0:0:0:0:
223,109,304766,1,2,0:0:0:0:
490,36,304970,6,0,L|496:101,1,60.7499986224175,0|0,0:0|0:0,0:0:0:0:
412,26,305072,2,0,L|418:91,1,60.7499986224175,2|0,0:0|0:0,0:0:0:0:
334,16,305174,2,0,L|340:81,1,60.7499986224175,2|0,0:0|0:0,0:0:0:0:
223,109,305276,6,0,L|215:69,1,33.7499991059303,4|0,1:3|0:0,0:0:0:0:
209,49,305480,6,0,B|148:68|148:68|89:49|89:49|62:109,1,179.999995231629,2|2,2:0|2:0,0:0:0:0:
48,344,305684,6,0,P|103:268|185:267,1,179.999995231629,4|0,1:0|2:0,0:0:0:0:
209,49,305990,6,0,P|212:106|329:132,1,179.999995231629,4|0,0:0|0:0,0:0:0:0:
294,366,306296,6,0,P|299:291|388:232,1,179.999995231629,4|0,0:0|0:0,0:0:0:0:
452,359,306602,5,4,0:0:0:0:
452,359,306704,1,0,0:0:0:0:
452,359,306807,2,0,L|457:297,1,44.9999988079071,0|2,0:0|0:0,0:0:0:0:
419,70,307011,5,2,0:0:0:0:
419,70,307113,2,0,L|427:108,1,22.4999994039536,4|0,0:0|0:0,0:0:0:0:
484,140,307317,6,0,B|473:192|473:192|393:256|393:256|383:308,1,202.500002360344,4|4,0:2|0:2,0:0:0:0:
336,362,307725,6,0,B|286:361|286:361|273:291|273:291|315:295,1,157.499995827675,0|4,0:0|3:0,0:0:0:0:
384,302,308745,6,0,B|393:256|393:256|473:192|473:192|484:140,1,202.500002360344,2|0,0:0|0:0,0:0:0:0:
483,110,308949,6,0,P|424:77|343:88,1,135.000001573563,6|0,0:0|0:0,0:0:0:0:
209,192,309256,5,0,0:0:0:0:
215,206,309358,2,0,L|83:184,1,121.499997244835,10|0,0:0|0:0,0:0:0:0:
264,110,309562,2,0,P|302:166|305:239,1,121.499997244835,2|0,0:0|0:0,0:0:0:0:
143,362,309766,5,0,0:0:0:0:
195,306,309868,1,2,0:0:0:0:
268,286,309970,1,0,0:0:0:0:
341,305,310072,1,0,0:0:0:0:
392,364,310174,6,0,B|423:357|423:357|454:294,1,89.9999976158143,10|0,0:0|0:0,0:0:0:0:
209,192,310378,6,0,L|223:236,3,33.7500003933907,2|0|0|0,0:0|0:0|0:0|0:0,0:0:0:0:
227,255,310582,6,0,B|170:296|170:296|112:265|112:265|125:168|125:168|152:135,1,270.000003147125,0|2,0:0|0:0,0:0:0:0:
259,42,310888,5,0,0:0:0:0:
259,54,310990,2,0,L|163:48,1,89.9999976158143,10|0,0:0|0:0,0:0:0:0:
0,97,311194,2,0,L|96:91,1,89.9999976158143,2|0,0:0|0:0,0:0:0:0:
288,123,311500,6,0,L|270:197,1,60.7499986224175,0|0,0:0|0:0,0:0:0:0:
362,127,311602,2,0,L|344:201,1,60.7499986224175,2|0,0:0|0:0,0:0:0:0:
436,131,311704,2,0,L|418:205,1,60.7499986224175,0|0,0:0|0:0,0:0:0:0:
495,91,311807,6,0,B|508:123|508:123|481:239,1,135.000001573563,8|0,0:0|0:0,0:0:0:0:
338,344,312011,2,0,L|330:299,3,44.9999988079071,2|0|0|0,0:0|0:0|0:0|0:0,0:0:0:0:
325,268,312215,6,0,P|372:258|444:375,2,202.500002360344,2|0|0,0:0|0:0|0:0,0:0:0:0:
176,280,312623,6,0,P|201:258|218:229,1,67.5000007867814,10|0,0:0|0:0,0:0:0:0:
73,188,312827,2,0,P|33:191|0:181,1,67.5000007867814,2|0,0:0|0:0,0:0:0:0:
167,63,313031,5,0,0:0:0:0:
181,54,313133,1,0,0:0:0:0:
196,46,313235,2,0,L|180:139,1,89.9999976158143,2|0,0:0|0:0,0:0:0:0:
295,30,313439,6,0,L|339:37,3,44.9999988079071,10|0|2|0,0:0|0:0|0:0|0:0,0:0:0:0:
493,179,313847,6,0,B|499:99|499:99|388:117|388:117|390:195,2,270.000003147125,2|0|8,0:0|0:0|0:0,0:0:0:0:
435,322,314460,5,0,0:0:0:0:
392,307,314562,1,0,0:0:0:0:
347,300,314664,1,0,0:0:0:0:
302,308,314766,1,0,0:0:0:0:
259,322,314868,1,0,0:0:0:0:
214,328,314970,1,0,0:0:0:0:
169,323,315072,1,0,0:0:0:0:
125,311,315174,1,0,0:0:0:0:
84,291,315276,1,0,0:0:0:0:
54,257,315378,1,0,0:0:0:0:
41,213,315480,5,2,0:0:0:0:
41,213,315582,1,0,0:0:0:0:
41,213,315684,6,0,B|105:191|105:191|174:195,1,135.000001573563,0|0,0:0|0:0,0:0:0:0:
183,54,315888,5,2,0:0:0:0:
183,54,315990,1,0,0:0:0:0:
183,54,316092,6,0,B|248:70|248:70|304:111,1,135.000001573563,0|0,0:0|0:0,0:0:0:0:
435,29,316296,5,2,0:0:0:0:
435,29,316398,1,0,0:0:0:0:
435,29,316500,6,0,B|469:87|469:87|479:153,1,135.000001573563,0|0,0:0|0:0,0:0:0:0:
284,191,316704,5,2,0:0:0:0:
284,191,316806,1,0,0:0:0:0:
284,191,316909,6,0,P|375:221|422:277,1,157.499997329712,2|0,0:0|0:0,0:0:0:0:
160,354,317113,5,2,0:0:0:0:
160,354,317215,1,0,0:0:0:0:
160,354,317317,6,0,P|243:306|316:308,1,157.499997329712,0|0,0:0|0:0,0:0:0:0:
46,151,317521,5,2,0:0:0:0:
46,151,317623,1,0,0:0:0:0:
46,151,317725,6,0,P|139:174|234:148,1,179.999995231629,0|0,0:0|0:0,0:0:0:0:
494,48,317929,5,2,0:0:0:0:
494,48,318031,1,0,0:0:0:0:
494,48,318133,6,0,P|401:71|306:45,1,179.999995231629,0|0,0:0|0:0,0:0:0:0:
339,319,318337,5,2,0:0:0:0:
339,319,318439,1,0,0:0:0:0:
339,319,318541,6,0,P|432:296|527:322,1,179.999995231629,0|0,0:0|0:0,0:0:0:0:
416,179,318745,6,0,L|418:194,62,11.2499997019768,2|0|0|0|0|0|0|0|0|0|0|0|0|0|0|0|2|0|0|0|0|0|0|0|0|0|0|0|0|0|0|0|2|0|0|0|0|0|0|0|0|0|0|0|0|0|0|0|2|0|0|0|0|0|0|0|0|0|0|0|0|0|0,0:0|0:0|0:0|0:0|0:0|0:0|0:0|0:0|0:0|0:0|0:0|0:0|0:0|0:0|0:0|0:0|0:0|0:0|0:0|0:0|0:0|0:0|0:0|0:0|0:0|0:0|0:0|0:0|0:0|0:0|0:0|0:0|0:0|0:0|0:0|0:0|0:0|0:0|0:0|0:0|0:0|0:0|0:0|0:0|0:0|0:0|0:0|0:0|0:0|0:0|0:0|0:0|0:0|0:0|0:0|0:0|0:0|0:0|0:0|0:0|0:0|0:0|0:0,0:0:0:0:
450,182,320378,5,0,0:0:0:0:
343,220,320582,5,2,0:0:0:0:
257,182,320786,5,0,0:0:0:0:
179,238,320990,5,0,0:0:0:0:
90,184,321194,5,0,0:0:0:0:
19,246,321398,5,2,0:0:0:0:
26,262,321500,1,0,0:0:0:0:
54,309,321602,5,2,0:0:0:0:
30,118,321807,5,0,0:0:0:0:
128,40,322011,6,0,L|279:24,1,135.000001573563,6|0,0:0|0:0,0:0:0:0:
472,96,322215,2,0,B|450:83|450:83|456:175|456:175|475:163,1,135.000001573563,2|0,2:2|0:0,0:0:0:0:
244,120,322419,6,0,L|288:125,2,33.7500003933907
472,275,322623,2,0,L|428:280,2,33.7500003933907,0|0|2,0:0|0:0|0:0,0:0:0:0:
222,282,322827,6,0,P|252:244|294:229,1,89.9999976158143,0|0,0:0|0:0,0:0:0:0:
366,265,322980,1,0,0:0:0:0:
414,358,323031,6,0,L|250:328,1,135.000001573563,2|2,2:0|0:1,0:0:0:0:
16,280,323235,6,0,L|10:236,2,33.7500003933907
127,356,323439,2,0,B|136:342|136:342|145:302|145:302|141:274,1,67.5000007867814,2|2,2:2|0:1,0:0:0:0:
81,30,323643,6,0,L|93:187,1,135.000001573563,4|2,0:2|0:2,0:0:0:0:
84,238,323796,1,0,0:0:0:0:
150,297,323847,6,0,L|160:254,1,44.9999988079071,0|2,0:0|0:1,0:0:0:0:
229,26,324051,6,0,L|185:33,2,33.7500003933907,0|0|0,0:0|0:0|0:0,0:0:0:0:
314,119,324255,2,0,L|237:106,1,67.5000007867814,2|0,2:0|0:0,0:0:0:0:
504,204,324460,6,0,L|469:232,2,33.7500003933907
460,28,324664,2,0,L|418:93,1,67.5000007867814,2|0,2:0|0:0,0:0:0:0:
193,227,324868,6,0,B|170:140|170:140|181:97,1,135.000001573563,0|0,0:0|0:0,0:0:0:0:
384,204,325072,2,0,B|394:246|394:246|323:269|323:269|334:240,1,135.000001573563,2|0,2:0|0:0,0:0:0:0:
443,367,325276,6,0,L|446:329,1,33.7499991059303,6|0,0:1|0:0,0:0:0:0:
504,204,325480,6,0,B|508:189|508:189|427:220,1,89.9999976158143
142,307,325684,6,0,B|129:327|129:327|229:313|229:313|212:298,1,135.000001573563,8|0,0:0|0:0,0:0:0:0:
213,292,325837,1,0,0:0:0:0:
206,276,325888,6,0,L|212:242,2,33.7500003933907,2|0|0,2:0|0:0|0:0,0:0:0:0:
300,117,326092,6,0,P|318:177|315:218,1,89.9999976158143,0|0,0:0|0:0,0:0:0:0:
35,268,326296,2,0,P|36:223|52:181,1,89.9999976158143,0|2,0:0|0:0,0:0:0:0:
210,120,326500,6,0,B|223:140|223:140|123:126|123:126|140:111,1,135.000001573563,8|0,0:0|0:0,0:0:0:0:
139,105,326653,1,0,0:0:0:0:
146,89,326704,6,0,L|139:55,2,33.7500003933907,2|0|0,2:0|0:0|0:0,0:0:0:0:
324,16,326909,6,0,B|343:36|343:36|468:26,1,135.000001573563,4|0,0:2|0:0,0:0:0:0:
241,246,327113,2,0,B|222:266|222:266|94:248,1,135.000001573563,2|2,2:0|0:1,0:0:0:0:
435,126,327317,6,0,L|445:175,2,33.7500003933907,0|0|0,0:0|0:0|0:0,0:0:0:0:
308,303,327521,6,0,L|292:351,2,33.7500003933907,2|0|2,2:0|0:0|0:1,0:0:0:0:
239,157,327725,5,0,0:0:0:0:
158,346,327929,5,0,0:0:0:0:
52,179,328133,6,0,B|36:165|36:165|56:148|56:148|72:164,1,67.4999982118607,0|2,0:0|2:0,0:0:0:0:
36,14,328541,6,0,B|69:37|69:37|178:20,1,135.000001573563,6|0,0:0|0:0,0:0:0:0:
232,200,328745,2,0,B|216:214|216:214|228:132|228:132|256:146,1,135.000001573563,2|0,2:0|0:0,0:0:0:0:
136,276,328949,6,0,L|94:286,2,33.7500003933907
279,35,329153,2,0,L|237:25,2,33.7500003933907,0|0|2,0:0|0:0|0:0,0:0:0:0:
322,207,329358,6,0,B|318:251|318:251|337:292,1,89.9999976158143,0|0,0:0|0:0,0:0:0:0:
410,316,329511,1,0,0:0:0:0:
468,383,329562,6,0,B|412:354|412:354|320:369,1,135.000001573563,2|2,2:0|0:0,0:0:0:0:
480,176,329766,6,0,L|491:231,2,33.7500003933907,8|0|0,0:0|0:0|0:0,0:0:0:0:
164,100,329970,2,0,L|158:158,2,33.7500003933907,2|0|2,2:0|0:0|0:0,0:0:0:0:
411,10,330174,6,0,L|256:38,1,135.000001573563,4|2,0:2|0:2,0:0:0:0:
202,30,330327,1,0,0:0:0:0:
164,100,330378,6,0,L|207:105,1,44.9999988079071,0|2,0:0|0:0,0:0:0:0:
440,136,330582,6,0,B|452:171|452:171|440:221,1,67.5000007867814,0|0,0:0|0:0,0:0:0:0:
380,250,330786,2,0,L|385:294,2,33.7500003933907,2|0|0,2:0|0:0|0:0,0:0:0:0:
216,375,330990,6,0,B|228:340|228:340|216:290,1,67.5000007867814,0|0,0:0|0:0,0:0:0:0:
75,203,331194,2,0,L|80:159,2,33.7500003933907,2|0|0,2:0|0:0|0:0,0:0:0:0:
459,363,331398,6,0,L|324:377,1,135.000001573563,0|2,0:0|0:0,0:0:0:0:
77,331,331602,2,0,B|57:300|57:300|80:182,1,135.000001573563,2|0,2:0|0:0,0:0:0:0:
233,99,331807,6,0,B|272:266|272:266|316:78,1,359.999990463257,6|2,0:0|2:0,0:0:0:0:
203,15,332113,5,0,0:0:0:0:
136,52,332215,2,0,L|-7:67,1,135.000001573563,8|0,0:0|0:0,0:0:0:0:
7,47,332368,1,0,0:0:0:0:
12,28,332419,6,0,L|63:21,1,44.9999988079071,2|0,2:0|0:0,0:0:0:0:
199,192,332623,6,0,L|56:177,1,135.000001573563,0|0,0:0|0:0,0:0:0:0:
70,197,332776,1,0,0:0:0:0:
75,216,332827,6,0,L|126:223,1,44.9999988079071,0|0,0:0|0:0,0:0:0:0:
229,65,333031,6,0,L|233:106,2,33.7500003933907,8|0|0,0:0|0:0|0:0,0:0:0:0:
314,82,333235,2,0,L|318:41,2,33.7500003933907,0|0|0,0:0|0:0|0:0,0:0:0:0:
401,77,333439,5,4,0:0:0:0:
474,44,333643,5,0,0:0:0:0:
418,181,333847,5,4,3:0:0:0:
472,360,334051,5,2,0:0:0:0:
358,306,334255,5,4,0:0:0:0:
358,306,334358,1,0,0:0:0:0:
358,306,334460,1,0,0:0:0:0:
358,306,334562,1,0,0:0:0:0:
280,342,334664,6,0,L|286:362,2,11.2499997019768,4|0|0,0:2|0:0|0:0,0:0:0:0:
210,258,334868,6,0,L|205:288,1,22.4999994039536,0|0,0:0|0:0,0:0:0:0:
147,351,335072,5,4,3:0:0:0:
32,274,335276,5,4,3:0:0:0:
72,122,335480,6,0,P|150:120|206:150,1,135.000001573563,6|0,0:0|0:0,0:0:0:0:
199,144,335684,2,0,P|137:117|71:122,1,135.000001573563,2|0,0:0|0:0,0:0:0:0:
146,8,335888,6,0,B|137:25|137:25|107:33|107:33|97:53,1,67.4999982118607,4|0,3:0|0:0,0:0:0:0:
72,122,336296,6,0,P|150:120|206:150,1,135.000001573563,6|0,0:0|0:0,0:0:0:0:
199,144,336500,2,0,P|137:117|71:122,1,135.000001573563,2|0,0:0|0:0,0:0:0:0:
146,8,336704,6,0,L|164:61,1,44.9999988079071,4|0,3:0|0:0,0:0:0:0:
110,243,336909,2,0,L|93:193,1,44.9999988079071,8|0,3:0|0:0,0:0:0:0:
72,122,337113,6,0,P|150:120|206:150,1,135.000001573563,6|0,0:0|0:0,0:0:0:0:
459,63,337317,2,0,P|397:90|331:85,1,135.000001573563,2|0,0:0|0:0,0:0:0:0:
137,17,337521,5,4,1:2:0:0:
146,8,337657,6,0,L|83:6,1,59.9999984105428,0|4,0:0|1:2,0:0:0:0:
30,58,337827,1,0,0:0:0:0:
72,122,337929,6,0,L|72:141,12,11.2499997019768,6|0|0|0|0|0|0|0|0|0|0|0|0,1:0|0:0|0:0|0:0|0:0|0:0|0:0|0:0|0:0|0:0|0:0|0:0|0:0,0:0:0:0:
28,224,338337,6,0,B|12:239|12:239|135:226,1,135.000001573563,2|0,1:0|0:0,0:0:0:0:
210,359,338541,2,0,B|194:344|194:344|306:355,1,135.000001573563
30,320,338745,6,0,L|22:358,2,33.7500003933907,10|0|0,0:0|0:0|0:0,0:0:0:0:
291,250,338949,2,0,L|285:217,2,33.7500003933907,0|0|0,0:0|0:0|0:0,0:0:0:0:
452,330,339153,6,0,L|466:228,1,89.9999976158143,2|0,0:0|0:0,0:0:0:0:
487,174,339307,1,0,0:0:0:0:
457,105,339358,6,0,L|464:256,1,135.000001573563
306,355,339562,6,0,L|351:358,2,33.7500003933907,10|0|0,0:0|0:0|0:0,0:0:0:0:
434,20,339766,2,0,L|389:23,2,33.7500003933907
163,184,339970,6,0,B|145:175|145:175|21:193,1,135.000001573563,6|0,0:0|0:0,0:0:0:0:
302,27,340174,2,0,B|320:36|320:36|444:18,1,135.000001573563,2|0,0:0|0:0,0:0:0:0:
118,54,340378,6,0,L|126:104,2,33.7500003933907,10|0|0,0:0|0:0|0:0,0:0:0:0:
259,139,340582,2,0,L|251:189,2,33.7500003933907,2|0|0,0:0|0:0|0:0,0:0:0:0:
52,348,340786,6,0,P|68:302|161:269,1,135.000001573563,2|0,0:0|0:0,0:0:0:0:
392,319,340990,2,0,P|331:297|303:238,1,135.000001573563,2|0,0:0|0:0,0:0:0:0:
479,141,341194,6,0,L|432:136,2,33.7500003933907,10|0|0,0:0|0:0|0:0,0:0:0:0:
303,20,341398,2,0,L|269:49,2,33.7500003933907,2|0|0,0:0|0:0|0:0,0:0:0:0:
83,77,341602,5,6,0:0:0:0:
129,104,341704,1,0,0:0:0:0:
161,147,341807,1,2,0:0:0:0:
170,200,341909,1,0,0:0:0:0:
165,253,342011,1,2,0:0:0:0:
145,303,342113,1,0,0:0:0:0:
103,338,342215,1,2,0:0:0:0:
49,346,342317,1,0,0:0:0:0:
88,296,342419,5,2,0:0:0:0:
149,284,342521,1,0,0:0:0:0:
210,295,342623,1,2,0:0:0:0:
265,325,342725,1,0,0:0:0:0:
290,374,342827,6,0,L|265:235,1,135.000001573563,4|0,1:0|0:0,0:0:0:0:
182,37,343031,2,0,L|214:194,1,135.000001573563
263,305,343235,5,0,0:0:0:0:
310,279,343337,1,2,0:0:0:0:
362,270,343439,1,0,0:0:0:0:
414,280,343541,1,2,0:0:0:0:
448,323,343643,5,0,0:0:0:0:
402,316,343745,1,2,0:0:0:0:
366,286,343847,1,0,0:0:0:0:
349,244,343949,1,2,0:0:0:0:
360,200,344051,5,0,0:0:0:0:
405,142,344153,1,2,0:0:0:0:
486,128,344256,1,0,0:0:0:0:
437,71,344358,1,6,0:0:0:0:
512,56,344460,6,0,B|487:59|487:59|344:26,1,157.499997329712,4|8,3:0|3:0,0:0:0:0:
100,128,344664,2,0,B|125:131|125:131|268:98,1,157.499997329712,4|8,3:0|0:3,0:0:0:0:
191,251,344868,6,0,L|191:246,12,5.62499985098839,2|0|0|0|0|0|0|0|2|0|0|0|0,0:0|0:0|0:0|0:0|0:0|0:0|0:0|0:0|0:0|0:0|0:0|0:0|0:0,0:0:0:0:
324,185,345276,6,0,L|324:180,12,5.62499985098839,6|0|0|0|0|0|0|0|2|0|0|0|0,0:0|0:0|0:0|0:0|0:0|0:0|0:0|0:0|0:0|0:0|0:0|0:0|0:0,0:0:0:0:
91,188,345684,6,0,L|91:183,12,5.62499985098839,2|0|0|0|0|0|0|0|2|0|0|0|0,0:0|0:0|0:0|0:0|0:0|0:0|0:0|0:0|0:0|0:0|0:0|0:0|0:0,0:0:0:0:
431,225,346092,6,0,L|431:220,12,5.62499985098839,2|0|0|0|0|0|0|0|2|0|0|0|0,0:0|0:0|0:0|0:0|0:0|0:0|0:0|0:0|0:0|0:0|0:0|0:0|0:0,0:0:0:0:
208,119,346500,6,0,B|192:69|192:69|237:20|237:20|308:42|308:42|313:121|313:121|266:178|266:178|233:309|233:309|260:385,1,539.999985694885,2|2,1:3|0:3,0:0:0:0:
208,119,346501,6,0,B|192:69|192:69|237:20|237:20|308:42|308:42|313:121|313:121|266:178|266:178|233:309|233:309|252:364,1,539.999985694885,2|2,1:3|0:3,0:0:0:0:
