osu file format v14

[General]
AudioFilename: audio.mp3
AudioLeadIn: 0
PreviewTime: 115347
Countdown: 0
SampleSet: Normal
StackLeniency: 0.7
Mode: 1
LetterboxInBreaks: 0
WidescreenStoryboard: 0

[Editor]
Bookmarks: 29701,44760,59819,74878,82407,89937,101231,116759,131818,159285,176582,184472,199530,218354,233413,244707,264040,281378,291547
DistanceSpacing: 1.7
BeatDivisor: 4
GridSize: 8
TimelineZoom: 4.299999

[Metadata]
Title:Nightmare of Hornets Squad
TitleUnicode:Nightmare of Hornets Squad
Artist:Camellia
ArtistUnicode:かめりあ
Creator:Ulqui
Version:Horror Story
Source:
Tags:breakcore
BeatmapID:1298980
BeatmapSetID:615860

[Difficulty]
HPDrainRate:6
CircleSize:5
OverallDifficulty:4
ApproachRate:5
SliderMultiplier:1.5
SliderTickRate:2

[Events]
//Background and Video events
0,0,"dark-evil-horror-spooky-creepy-scary-wallpaper-34.jpg",0,50
//Break Periods
//Storyboard Layer 0 (Background)
//Storyboard Layer 1 (Fail)
//Storyboard Layer 2 (Pass)
//Storyboard Layer 3 (Foreground)
//Storyboard Sound Samples

[TimingPoints]
1466,235.294117647059,4,1,0,100,1,0
1466,-111.111111111111,4,1,0,100,0,0
29701,-100,4,1,0,100,0,1
29701.7959703566,235.294117647059,4,1,0,100,1,1
44760,-100,4,1,0,100,0,0
44995,-111.111111111111,4,1,0,100,0,0
45113,-125,4,1,0,100,0,0
45348,-142.857142857143,4,1,0,100,0,0
52290,-117.647058823529,4,1,0,100,0,0
54172,-111.111111111111,4,1,0,100,0,0
56054,-105.263157894737,4,1,0,100,0,0
57937,-100,4,1,0,100,0,0
59819,-90.9090909090909,4,1,0,100,0,1
66290,-95.2380952380952,4,1,0,100,0,1
66407,-100,4,1,0,100,0,1
67348,-90.9090909090909,4,1,0,100,0,1
71113,-90.9090909090909,4,1,0,100,0,0
72054,-200,4,1,0,100,0,0
74878,-125,4,1,0,100,0,0
81701,-121.951219512195,4,1,0,100,0,0
81937,-119.047619047619,4,1,0,100,0,0
81995,-116.279069767442,4,1,0,100,0,0
82054,-113.636363636364,4,1,0,100,0,0
82113,-111.111111111111,4,1,0,100,0,0
82172,-108.695652173913,4,1,0,100,0,0
82231,-106.382978723404,4,1,0,100,0,0
82290,-104.166666666667,4,1,0,100,0,0
82348,-102.040816326531,4,1,0,100,0,0
82407,-100,4,1,0,100,0,0
89466,-102.040816326531,4,1,0,100,0,0
89584,-104.166666666667,4,1,0,100,0,0
89642,-105.263157894737,4,1,0,100,0,0
89701,-106.382978723404,4,1,0,100,0,0
89819,-108.695652173913,4,1,0,100,0,0
89937,-111.111111111111,4,1,0,100,0,0
96525,-99.9999999999999,4,1,0,100,0,0
96878,-90.9090909090909,4,1,0,100,0,0
97231,-83.3333333333333,4,1,0,100,0,0
97466,-111.111111111111,4,1,0,100,0,0
100642,-108.695652173913,4,1,0,100,0,0
100760,-106.382978723404,4,1,0,100,0,0
100819,-104.166666666667,4,1,0,100,0,0
100878,-102.040816326531,4,1,0,100,0,0
100937,-99.9999999999999,4,1,0,100,0,0
100995,-98.0392156862745,4,1,0,100,0,0
101054,-96.1538461538461,4,1,0,100,0,0
101113,-94.3396226415094,4,1,0,100,0,0
101172,-92.5925925925926,4,1,0,100,0,0
101231,235.294117647059,7,1,0,100,1,1
101231,-90.9090909090909,7,1,0,100,0,1
108642,-95.2380952380952,7,1,0,100,0,1
108760,-100,7,1,0,100,0,1
108878,-105.263157894737,7,1,0,100,0,1
108995,-111.111111111111,7,1,0,100,0,1
109113,-105.263157894737,7,1,0,100,0,1
109231,-100,7,1,0,100,0,1
109348,-95.2380952380952,7,1,0,100,0,1
109466,-90.9090909090909,7,1,0,100,0,1
112289,-95.2380952380952,7,1,0,100,0,1
112525,-100,7,1,0,100,0,1
112642,-105.263157894737,7,1,0,100,0,1
112760,235.294117647059,3,1,0,100,1,1
112760,-90.9090909090909,3,1,0,100,0,1
113465,-83.3333333333333,3,1,0,100,0,1
114171,-76.9230769230769,3,1,0,100,0,1
114877,235.294117647059,4,1,0,100,1,0
115347,-25,4,1,0,100,0,0
115818,-111.111111111111,4,1,0,100,0,0
116524,-108.695652173913,4,1,0,100,0,0
116582,-106.382978723404,4,1,0,100,0,0
116641,-104.166666666667,4,1,0,100,0,0
116700,-102.040816326531,4,1,0,100,0,0
116759,-100,4,1,0,100,0,1
131818,-100,4,1,0,100,0,0
132759,244.897959183673,4,1,0,100,1,0
133738,251.046025104603,4,1,0,100,1,0
134742,255.31914893617,4,1,0,100,1,0
135763,259.74025974026,4,1,0,100,1,0
137321,272.727272727273,4,1,0,100,1,0
137866,270.27027027027,4,1,0,100,1,0
138947,300,4,1,0,100,1,0
139247,315.789473684211,4,1,0,100,1,0
139570,368.098159509202,4,1,0,100,1,0
139952,431.654676258993,4,1,0,100,1,0
140167,504.201680672269,4,1,0,100,1,0
140419,571.428571428571,4,1,0,100,1,0
144995,585.365853658537,4,1,0,100,1,0
148068,-95.2380952380952,4,1,0,100,0,0
148214,-90.9090909090909,4,1,0,100,0,0
148360,-86.9565217391304,4,1,0,100,0,0
148507,-83.3333333333333,4,1,0,100,0,0
149677,600,4,1,0,100,1,0
153277,631.578947368421,4,1,0,100,1,0
153277,-95.2380952380952,4,1,0,100,0,0
154540,631.578947368421,4,1,0,100,1,0
154540,-95.2380952380952,4,1,0,100,0,0
155961,659.340659340659,4,1,0,100,1,0
155961,-91.743119266055,4,1,0,100,0,0
156125,689.655172413793,4,1,0,100,1,0
156125,-86.9565217391304,4,1,0,100,0,0
156297,674.157303370787,4,1,0,100,1,0
156297,-86.9565217391304,4,1,0,100,0,0
156465,689.655172413793,4,1,0,100,1,0
156465,-85.4700854700855,4,1,0,100,0,0
156637,689.655172413793,4,1,0,100,1,0
156637,-84.0336134453781,4,1,0,100,0,0
156809,689.655172413793,4,1,0,100,1,0
156809,-82.6446280991736,4,1,0,100,0,0
157123,270.27027027027,4,1,0,100,1,0
159285,-100,4,1,0,100,0,1
176582,-100,4,1,0,100,0,0
176852,265.486725663717,4,1,0,100,1,0
177382,259.74025974026,4,1,0,100,1,0
177641,258.620689655172,4,1,0,100,1,0
178675,254.237288135593,4,1,0,100,1,0
179183,245.901639344262,4,1,0,100,1,0
179674,245.901639344262,4,1,0,100,1,0
180657,243.90243902439,4,1,0,100,1,0
181632,240.963855421687,4,1,0,100,1,0
182113,238.095238095238,4,1,0,100,1,0
182589,235.294117647059,4,1,0,100,1,0
182824,230.769230769231,4,1,0,100,1,0
183054,229.007633587786,4,1,0,100,1,0
183512,240,4,1,0,100,1,0
184472,235.294117647059,4,1,0,100,1,0
184707,-125,4,1,0,100,0,0
192001,-111.111111111111,4,1,0,100,0,0
199060,-108.695652173913,4,1,0,100,0,0
199177,-106.382978723404,4,1,0,100,0,0
199295,-104.166666666667,4,1,0,100,0,0
199413,-102.040816326531,4,1,0,100,0,0
199530,-100,4,1,0,100,0,0
210824,-100,4,1,0,100,0,1
211766,-95.2380952380952,4,1,0,100,0,1
212119,-90.9090909090909,4,1,0,100,0,1
212472,-86.9565217391304,4,1,0,100,0,1
213648,-83.3333333333333,4,1,0,100,0,1
214589,-80,4,1,0,100,0,1
214942,-76.9230769230769,4,1,0,100,0,1
215883,-74.0740740740741,4,1,0,100,0,1
216354,-74.0740740740741,4,1,0,100,0,0
216942,-25,4,1,0,100,0,0
217413,-111.111111111111,4,1,0,100,0,0
218354,-99.9999999999999,4,1,0,100,0,1
233413,-99.9999999999999,4,1,0,100,0,0
238942,-105.263157894737,4,1,0,100,0,0
239060,-111.111111111111,4,1,0,100,0,0
240942,-100,4,1,0,100,0,0
244707,235.294117647059,7,1,0,100,1,0
244707,-90.9090909090909,7,1,0,100,0,1
256236,235.294117647059,3,1,0,100,1,0
256236,-90.9090909090909,3,1,0,100,0,0
258353,250,3,1,0,100,1,0
258728,266.666666666667,3,1,0,100,1,0
259128,307.692307692308,3,1,0,100,1,0
259589,363.636363636364,3,1,0,100,1,0
260134,461.538461538462,3,1,0,100,1,0
260826,600,3,1,0,100,1,0
261126,666.666666666667,3,1,0,100,1,0
261459,1000,3,1,0,100,1,0
261959,2081.44382801664,4,1,0,100,1,0
264040,272.727272727273,4,1,0,100,1,0
265130,292.682926829268,4,1,0,100,1,0
265715,315.789473684211,4,1,0,100,1,0
266346,324.324324324324,4,1,0,100,1,0
266994,342.857142857143,4,1,0,100,1,0
267679,352.941176470588,4,1,0,100,1,0
268031,375,4,1,0,100,1,0
268406,387.096774193548,4,1,0,100,1,0
268793,400,4,1,0,100,1,0
269193,413.793103448276,4,1,0,100,1,0
269606,428.571428571429,4,1,0,100,1,0
270034,461.538461538462,4,1,0,100,1,0
270495,480,4,1,0,100,1,0
270975,521.739130434783,4,1,0,100,1,0
271496,545.454545454546,4,1,0,100,1,0
272041,600,4,1,0,100,1,0
272341,631.578947368421,4,1,0,100,1,0
272656,666.666666666667,4,1,0,100,1,0
273322,750,4,1,0,100,1,0
273697,800,4,1,0,100,1,0
274097,833.333333333333,4,1,0,100,1,0
274513,952.380952380952,4,1,0,100,1,0
274989,1000,4,1,0,100,1,0
275489,1090.90909090909,4,1,0,100,1,0
276579,1153.84615384615,4,1,0,100,1,0
277155,1200,4,1,0,100,1,0
277755,1263.15789473684,4,1,0,100,1,0
278386,1333.33333333333,4,1,0,100,1,0
279052,1428.57142857143,4,1,0,100,1,0
279766,1846.15384615385,4,1,0,100,1,0
280112,1500,4,1,0,100,1,0
280205,1363.63636363636,4,1,0,100,1,0
280545,1621.62162162162,4,1,0,100,1,0
280950,1714.28571428571,4,1,0,100,1,0
281378,2033.89830508475,4,1,0,100,1,0

[HitObjects]
256,192,24995,12,0,28642,0:0:0:0:
208,136,28760,5,0,0:0:0:0:
176,96,28877,1,8,0:0:0:0:
176,96,28936,1,8,0:0:0:0:
152,56,28995,1,0,0:0:0:0:
152,56,29054,1,8,0:0:0:0:
168,16,29113,1,0,0:0:0:0:
160,56,29230,1,8,0:0:0:0:
160,56,29289,1,0,0:0:0:0:
160,56,29407,1,0,0:0:0:0:
152,88,29466,1,8,0:0:0:0:
152,88,29701,1,4,0:0:0:0:
160,56,29819,1,0,0:0:0:0:
160,56,29937,1,8,0:0:0:0:
160,56,30054,1,4,0:0:0:0:
160,56,30172,1,0,0:0:0:0:
160,56,30290,1,8,0:0:0:0:
160,56,30407,1,4,0:0:0:0:
160,56,30525,1,0,0:0:0:0:
160,56,30642,1,8,0:0:0:0:
168,40,30701,1,8,0:0:0:0:
168,56,30760,1,0,0:0:0:0:
168,56,30878,1,8,0:0:0:0:
168,56,30937,1,8,0:0:0:0:
168,56,30995,1,0,0:0:0:0:
168,56,31054,1,8,0:0:0:0:
168,56,31113,1,0,0:0:0:0:
168,24,31172,1,0,0:0:0:0:
168,16,31231,1,8,0:0:0:0:
168,16,31348,1,8,0:0:0:0:
192,32,31407,1,8,0:0:0:0:
192,32,31466,1,0,0:0:0:0:
192,32,31584,1,4,0:0:0:0:
184,72,31701,1,0,0:0:0:0:
184,72,31819,1,8,0:0:0:0:
184,72,31937,1,4,0:0:0:0:
184,40,32054,1,0,0:0:0:0:
184,40,32172,1,8,0:0:0:0:
216,16,32290,1,4,0:0:0:0:
208,16,32407,1,0,0:0:0:0:
208,16,32525,1,8,0:0:0:0:
192,80,32584,1,0,0:0:0:0:
280,112,32642,1,0,0:0:0:0:
304,112,32701,1,8,0:0:0:0:
168,24,32819,1,0,0:0:0:0:
168,24,32878,1,8,0:0:0:0:
208,40,32995,1,8,0:0:0:0:
192,32,33054,1,8,0:0:0:0:
208,40,33113,1,0,0:0:0:0:
240,120,33152,1,0,0:0:0:0:
240,120,33191,1,0,0:0:0:0:
208,40,33231,1,8,0:0:0:0:
120,208,33466,1,4,0:0:0:0:
120,208,33584,1,0,0:0:0:0:
120,208,33701,1,8,0:0:0:0:
120,208,33819,1,4,0:0:0:0:
120,208,33937,1,0,0:0:0:0:
120,208,34054,1,8,0:0:0:0:
120,208,34172,1,4,0:0:0:0:
120,208,34290,1,0,0:0:0:0:
120,208,34407,1,8,0:0:0:0:
272,184,34466,1,8,0:0:0:0:
128,208,34525,1,0,0:0:0:0:
128,208,34642,1,8,0:0:0:0:
128,208,34701,1,0,0:0:0:0:
128,208,34760,1,8,0:0:0:0:
128,208,34819,1,8,0:0:0:0:
128,208,34878,1,0,0:0:0:0:
144,216,34937,1,8,0:0:0:0:
128,208,34995,1,0,0:0:0:0:
128,208,35113,1,0,0:0:0:0:
184,80,35172,1,0,0:0:0:0:
184,72,35231,1,8,0:0:0:0:
184,72,35348,1,4,0:0:0:0:
168,96,35466,1,0,0:0:0:0:
168,96,35584,1,8,0:0:0:0:
168,96,35701,1,4,0:0:0:0:
152,48,35819,1,0,0:0:0:0:
152,48,35937,1,8,0:0:0:0:
160,48,36054,1,4,0:0:0:0:
176,56,36172,1,0,0:0:0:0:
176,56,36290,1,8,0:0:0:0:
120,112,36348,1,0,0:0:0:0:
168,88,36407,1,0,0:0:0:0:
168,88,36466,1,8,0:0:0:0:
120,112,36525,1,0,0:0:0:0:
168,88,36584,1,0,0:0:0:0:
168,88,36642,1,8,0:0:0:0:
168,88,36760,1,8,0:0:0:0:
168,88,36819,1,8,0:0:0:0:
168,88,36878,1,0,0:0:0:0:
168,88,36937,1,0,0:0:0:0:
160,40,36995,1,8,0:0:0:0:
176,152,37231,1,4,0:0:0:0:
176,152,37348,1,0,0:0:0:0:
176,152,37466,1,8,0:0:0:0:
152,112,37525,1,0,0:0:0:0:
176,152,37584,1,8,0:0:0:0:
152,112,37642,1,8,0:0:0:0:
176,152,37701,1,0,0:0:0:0:
176,152,37819,1,8,0:0:0:0:
144,104,37878,1,8,0:0:0:0:
176,152,37937,1,0,0:0:0:0:
176,152,38054,1,8,0:0:0:0:
144,104,38172,1,0,0:0:0:0:
176,80,38290,1,0,0:0:0:0:
176,80,38319,1,0,0:0:0:0:
176,74,38348,1,0,0:0:0:0:
176,80,38407,1,8,0:0:0:0:
160,32,38525,1,8,0:0:0:0:
160,32,38584,1,8,0:0:0:0:
160,32,38642,1,0,0:0:0:0:
160,32,38701,1,0,0:0:0:0:
160,32,38760,1,8,0:0:0:0:
184,56,38819,1,0,0:0:0:0:
184,56,38878,1,8,0:0:0:0:
184,56,38937,1,8,0:0:0:0:
184,56,38995,1,0,0:0:0:0:
184,56,39054,1,8,0:0:0:0:
184,56,39113,1,0,0:0:0:0:
192,24,39231,1,0,0:0:0:0:
192,24,39348,1,8,0:0:0:0:
192,24,39466,1,4,0:0:0:0:
192,24,39583,1,0,0:0:0:0:
192,24,39701,1,8,0:0:0:0:
192,24,39819,1,4,0:0:0:0:
208,32,39937,1,0,0:0:0:0:
208,32,40054,1,8,0:0:0:0:
176,24,40172,1,0,0:0:0:0:
176,24,40231,1,8,0:0:0:0:
176,24,40348,1,0,0:0:0:0:
176,24,40407,1,8,0:0:0:0:
200,72,40525,1,0,0:0:0:0:
200,72,40584,1,0,0:0:0:0:
200,72,40642,1,0,0:0:0:0:
200,72,40701,1,0,0:0:0:0:
200,72,40760,1,8,0:0:0:0:
200,72,40878,1,8,0:0:0:0:
200,72,40995,1,4,0:0:0:0:
200,40,41113,1,0,0:0:0:0:
200,40,41231,1,8,0:0:0:0:
200,40,41348,1,8,0:0:0:0:
200,40,41466,1,0,0:0:0:0:
200,40,41583,1,0,0:0:0:0:
200,40,41701,1,8,0:0:0:0:
200,40,41819,1,0,0:0:0:0:
192,72,41937,1,12,0:0:0:0:
168,72,42093,1,4,0:0:0:0:
168,72,42250,1,12,0:0:0:0:
168,72,42407,1,4,0:0:0:0:
168,72,42564,1,12,0:0:0:0:
168,72,42721,1,4,0:0:0:0:
168,24,42878,1,8,0:0:0:0:
208,64,42995,1,0,0:0:0:0:
208,64,43054,1,0,0:0:0:0:
208,64,43113,1,8,0:0:0:0:
208,64,43231,1,0,0:0:0:0:
176,56,43290,1,0,0:0:0:0:
176,56,43348,1,8,0:0:0:0:
184,72,43466,1,0,0:0:0:0:
184,72,43525,1,0,0:0:0:0:
184,72,43584,1,8,0:0:0:0:
184,72,43701,1,0,0:0:0:0:
184,72,43760,1,0,0:0:0:0:
184,72,43819,1,8,0:0:0:0:
216,112,43897,1,8,0:0:0:0:
216,112,43976,1,8,0:0:0:0:
216,112,44054,1,8,0:0:0:0:
216,112,44133,1,8,0:0:0:0:
216,112,44211,1,8,0:0:0:0:
216,112,44290,1,8,0:0:0:0:
216,112,44368,1,8,0:0:0:0:
216,112,44446,1,8,0:0:0:0:
216,112,44525,1,8,0:0:0:0:
216,112,44603,1,8,0:0:0:0:
216,112,44682,1,8,0:0:0:0:
216,112,44760,1,0,0:0:0:0:
80,168,44995,1,8,0:0:0:0:
80,168,45113,1,0,0:0:0:0:
80,168,45348,1,8,0:0:0:0:
80,168,45466,1,0,0:0:0:0:
80,168,45584,1,0,0:0:0:0:
80,168,45701,1,8,0:0:0:0:
176,72,45819,1,0,0:0:0:0:
176,72,45878,1,0,0:0:0:0:
184,64,45937,1,8,0:0:0:0:
184,88,46054,1,0,0:0:0:0:
184,88,46113,1,8,0:0:0:0:
184,88,46172,1,0,0:0:0:0:
184,88,46231,1,0,0:0:0:0:
184,88,46290,1,8,0:0:0:0:
176,64,46407,1,8,0:0:0:0:
224,24,46525,1,8,0:0:0:0:
176,64,46584,1,8,0:0:0:0:
224,24,46642,1,0,0:0:0:0:
184,40,46878,1,8,0:0:0:0:
184,40,46995,1,0,0:0:0:0:
184,40,47231,1,8,0:0:0:0:
192,48,47348,1,0,0:0:0:0:
192,48,47466,1,0,0:0:0:0:
192,48,47584,1,8,0:0:0:0:
208,48,47760,1,8,0:0:0:0:
208,48,47937,1,8,0:0:0:0:
208,48,48054,1,0,0:0:0:0:
208,48,48290,1,8,0:0:0:0:
200,56,48525,1,0,0:0:0:0:
200,56,48642,1,0,0:0:0:0:
200,56,48760,1,8,0:0:0:0:
200,56,48878,1,0,0:0:0:0:
200,56,49113,1,8,0:0:0:0:
200,56,49231,1,0,0:0:0:0:
200,56,49348,1,0,0:0:0:0:
184,40,49466,1,8,0:0:0:0:
216,56,49584,1,0,0:0:0:0:
216,40,49642,1,0,0:0:0:0:
216,56,49701,1,8,0:0:0:0:
192,40,49819,1,0,0:0:0:0:
192,40,49878,1,8,0:0:0:0:
192,40,49937,1,0,0:0:0:0:
192,40,49995,1,0,0:0:0:0:
192,40,50054,1,8,0:0:0:0:
208,40,50172,1,0,0:0:0:0:
192,48,50290,1,8,0:0:0:0:
208,40,50348,1,8,0:0:0:0:
192,48,50407,1,0,0:0:0:0:
200,48,50525,1,0,0:0:0:0:
200,48,50642,1,8,0:0:0:0:
200,48,50760,1,0,0:0:0:0:
200,48,50995,1,8,0:0:0:0:
200,48,51113,1,0,0:0:0:0:
200,48,51231,1,0,0:0:0:0:
200,48,51348,1,8,0:0:0:0:
192,160,51427,1,8,0:0:0:0:
192,160,51505,1,8,0:0:0:0:
192,160,51584,1,8,0:0:0:0:
192,160,51662,1,8,0:0:0:0:
192,160,51741,1,8,0:0:0:0:
192,160,51819,1,0,0:0:0:0:
200,136,51937,1,0,0:0:0:0:
200,136,52054,1,8,0:0:0:0:
184,64,52290,1,0,0:0:0:0:
184,64,52407,1,0,0:0:0:0:
184,64,52525,1,8,0:0:0:0:
176,64,52642,1,0,0:0:0:0:
176,64,52760,1,0,0:0:0:0:
176,64,52878,1,8,0:0:0:0:
176,64,52995,1,0,0:0:0:0:
176,64,53113,1,0,0:0:0:0:
176,64,53231,1,8,0:0:0:0:
216,48,53348,1,0,0:0:0:0:
216,48,53407,1,0,0:0:0:0:
216,48,53466,1,8,0:0:0:0:
216,48,53584,1,0,0:0:0:0:
216,48,53642,1,8,0:0:0:0:
216,48,53701,1,0,0:0:0:0:
216,48,53760,1,0,0:0:0:0:
216,48,53819,1,8,0:0:0:0:
216,48,53878,1,8,0:0:0:0:
216,48,53937,1,0,0:0:0:0:
208,48,54054,1,8,0:0:0:0:
208,48,54172,1,0,0:0:0:0:
176,56,54290,1,0,0:0:0:0:
176,56,54407,1,8,0:0:0:0:
176,56,54525,1,0,0:0:0:0:
176,56,54642,1,0,0:0:0:0:
176,56,54760,1,8,0:0:0:0:
168,24,54878,1,0,0:0:0:0:
168,32,54995,1,0,0:0:0:0:
192,32,55113,1,8,0:0:0:0:
192,32,55290,1,0,0:0:0:0:
192,40,55466,1,8,0:0:0:0:
192,40,55584,1,8,0:0:0:0:
160,48,55701,1,0,0:0:0:0:
160,48,55819,1,0,0:0:0:0:
152,80,56054,1,0,0:0:0:0:
160,80,56172,1,0,0:0:0:0:
160,80,56290,1,8,0:0:0:0:
160,80,56407,1,0,0:0:0:0:
160,80,56525,1,0,0:0:0:0:
160,80,56642,1,8,0:0:0:0:
160,80,56760,1,0,0:0:0:0:
160,80,56878,1,0,0:0:0:0:
160,80,56995,1,8,0:0:0:0:
192,48,57113,1,0,0:0:0:0:
192,48,57172,1,0,0:0:0:0:
192,48,57231,1,8,0:0:0:0:
192,48,57348,1,0,0:0:0:0:
192,48,57407,1,8,0:0:0:0:
192,48,57466,1,0,0:0:0:0:
192,48,57525,1,0,0:0:0:0:
192,48,57584,1,8,0:0:0:0:
192,48,57642,1,8,0:0:0:0:
192,48,57701,1,0,0:0:0:0:
184,32,57819,1,8,0:0:0:0:
184,32,57937,1,0,0:0:0:0:
152,56,58054,1,8,0:0:0:0:
184,72,58172,1,0,0:0:0:0:
184,72,58231,1,0,0:0:0:0:
184,72,58290,1,8,0:0:0:0:
184,72,58348,1,0,0:0:0:0:
184,72,58407,1,8,0:0:0:0:
200,24,58466,1,8,0:0:0:0:
200,24,58525,1,0,0:0:0:0:
200,24,58584,1,0,0:0:0:0:
200,24,58642,1,8,0:0:0:0:
248,128,58701,1,8,0:0:0:0:
248,128,58760,1,0,0:0:0:0:
248,128,58819,1,0,0:0:0:0:
248,128,58878,1,8,0:0:0:0:
184,64,58995,1,8,0:0:0:0:
184,64,59113,1,0,0:0:0:0:
184,64,59231,1,0,0:0:0:0:
184,64,59348,1,0,0:0:0:0:
184,64,59466,1,0,0:0:0:0:
184,64,59584,1,12,0:0:0:0:
184,64,59819,1,4,0:0:0:0:
208,176,59937,1,0,0:0:0:0:
208,176,60054,1,8,0:0:0:0:
344,240,60172,1,4,0:0:0:0:
208,176,60290,1,0,0:0:0:0:
208,176,60407,1,8,0:0:0:0:
336,232,60525,1,4,0:0:0:0:
184,64,60642,1,0,0:0:0:0:
184,64,60760,1,8,0:0:0:0:
192,72,60878,1,0,0:0:0:0:
192,64,60937,1,8,0:0:0:0:
192,72,60995,1,0,0:0:0:0:
192,64,61054,1,0,0:0:0:0:
192,64,61113,1,8,0:0:0:0:
192,72,61172,1,8,0:0:0:0:
192,72,61231,1,0,0:0:0:0:
192,72,61290,1,8,0:0:0:0:
192,72,61348,1,0,0:0:0:0:
192,72,61407,1,0,0:0:0:0:
192,72,61466,1,8,0:0:0:0:
232,96,61584,1,8,0:0:0:0:
232,96,61701,1,0,0:0:0:0:
248,144,61741,1,0,0:0:0:0:
248,144,61780,1,0,0:0:0:0:
200,64,61819,1,0,0:0:0:0:
200,64,61878,1,0,0:0:0:0:
192,32,61937,1,8,0:0:0:0:
184,48,62054,1,0,0:0:0:0:
248,144,62093,1,0,0:0:0:0:
248,144,62133,1,0,0:0:0:0:
208,32,62172,1,0,0:0:0:0:
192,32,62231,1,0,0:0:0:0:
192,32,62290,1,8,0:0:0:0:
193,107,62348,1,8,0:0:0:0:
184,48,62407,1,0,0:0:0:0:
200,48,62525,1,8,0:0:0:0:
192,88,62642,1,0,0:0:0:0:
184,80,62701,1,0,0:0:0:0:
184,80,62760,1,8,0:0:0:0:
184,80,62819,1,0,0:0:0:0:
184,80,62878,1,8,0:0:0:0:
184,80,62937,1,8,0:0:0:0:
184,80,62995,1,0,0:0:0:0:
184,80,63054,1,0,0:0:0:0:
184,80,63113,1,8,0:0:0:0:
176,56,63290,1,12,0:0:0:0:
176,56,63466,1,12,0:0:0:0:
176,56,63584,1,4,0:0:0:0:
208,128,63701,1,0,0:0:0:0:
208,128,63819,1,8,0:0:0:0:
208,128,63937,1,4,0:0:0:0:
208,128,64054,1,0,0:0:0:0:
208,128,64172,1,8,0:0:0:0:
208,128,64290,1,4,0:0:0:0:
208,128,64407,1,0,0:0:0:0:
208,128,64525,1,8,0:0:0:0:
208,128,64701,1,0,0:0:0:0:
144,56,64878,1,8,0:0:0:0:
144,56,65054,1,0,0:0:0:0:
144,56,65231,1,8,0:0:0:0:
171,75,65260,1,8,0:0:0:0:
216,48,65348,1,0,0:0:0:0:
176,16,65466,1,4,0:0:0:0:
256,144,65584,1,0,0:0:0:0:
256,144,65701,1,8,0:0:0:0:
256,144,65819,1,4,0:0:0:0:
256,144,65937,1,0,0:0:0:0:
256,144,66054,1,8,0:0:0:0:
136,48,66172,1,4,0:0:0:0:
136,48,66290,1,0,0:0:0:0:
136,48,66407,1,8,0:0:0:0:
192,48,66642,1,0,0:0:0:0:
192,48,66760,1,8,0:0:0:0:
192,48,66878,1,0,0:0:0:0:
192,48,67113,1,8,0:0:0:0:
200,40,67348,1,4,0:0:0:0:
160,64,67466,1,0,0:0:0:0:
160,64,67584,1,8,0:0:0:0:
160,64,67701,1,4,0:0:0:0:
160,64,67819,1,0,0:0:0:0:
160,64,67937,1,8,0:0:0:0:
160,64,68054,1,0,0:0:0:0:
160,64,68113,1,0,0:0:0:0:
160,64,68172,1,0,0:0:0:0:
160,64,68231,1,0,0:0:0:0:
160,64,68290,1,8,0:0:0:0:
160,48,68319,1,8,0:0:0:0:
206,68,68348,1,0,0:0:0:0:
176,48,68407,1,0,0:0:0:0:
176,48,68525,1,8,0:0:0:0:
232,48,68584,1,8,0:0:0:0:
232,48,68642,1,0,0:0:0:0:
176,120,68701,1,8,0:0:0:0:
144,80,68760,1,0,0:0:0:0:
168,56,68819,1,0,0:0:0:0:
152,80,68878,1,8,0:0:0:0:
152,80,68937,1,0,0:0:0:0:
152,80,68995,1,8,0:0:0:0:
152,80,69054,1,8,0:0:0:0:
152,80,69113,1,0,0:0:0:0:
152,80,69172,1,8,0:0:0:0:
152,80,69231,1,0,0:0:0:0:
168,40,69348,1,0,0:0:0:0:
168,40,69466,1,8,0:0:0:0:
168,40,69584,1,0,0:0:0:0:
168,40,69701,1,0,0:0:0:0:
168,40,69819,1,8,0:0:0:0:
168,40,69937,1,0,0:0:0:0:
168,40,69995,1,8,0:0:0:0:
168,40,70054,1,0,0:0:0:0:
168,40,70113,1,0,0:0:0:0:
168,40,70172,1,8,0:0:0:0:
168,24,70290,1,0,0:0:0:0:
168,24,70407,1,8,0:0:0:0:
152,16,70642,1,8,0:0:0:0:
144,16,70760,1,0,0:0:0:0:
144,16,70878,1,8,0:0:0:0:
144,16,70995,1,8,0:0:0:0:
144,16,71113,1,4,0:0:0:0:
176,88,74878,1,4,0:0:0:0:
152,88,75113,1,0,0:0:0:0:
152,88,75348,1,8,0:0:0:0:
152,88,75466,1,0,0:0:0:0:
176,64,75701,1,0,0:0:0:0:
184,56,75937,1,0,0:0:0:0:
184,56,76054,1,0,0:0:0:0:
184,56,76290,1,8,0:0:0:0:
200,64,76407,1,0,0:0:0:0:
200,64,76525,1,0,0:0:0:0:
192,64,76642,1,8,0:0:0:0:
192,64,76760,1,0,0:0:0:0:
184,96,76995,1,0,0:0:0:0:
184,96,77231,1,8,0:0:0:0:
184,96,77348,1,0,0:0:0:0:
224,104,77466,1,8,0:0:0:0:
200,112,77584,1,0,0:0:0:0:
200,112,77819,1,0,0:0:0:0:
200,112,77937,1,0,0:0:0:0:
200,112,78172,1,8,0:0:0:0:
216,144,78290,1,0,0:0:0:0:
216,144,78407,1,0,0:0:0:0:
216,144,78525,1,8,0:0:0:0:
216,144,78642,1,0,0:0:0:0:
192,96,78878,1,0,0:0:0:0:
192,96,79113,1,8,0:0:0:0:
192,96,79231,1,0,0:0:0:0:
192,96,79466,1,0,0:0:0:0:
144,96,79701,1,0,0:0:0:0:
144,96,79819,1,0,0:0:0:0:
136,56,80054,1,8,0:0:0:0:
128,40,80290,1,0,0:0:0:0:
128,48,80407,1,8,0:0:0:0:
128,48,80525,1,0,0:0:0:0:
160,40,80760,1,0,0:0:0:0:
160,40,80995,1,8,0:0:0:0:
160,40,81113,1,0,0:0:0:0:
192,24,81231,1,8,0:0:0:0:
192,24,81348,1,0,0:0:0:0:
160,48,81584,1,0,0:0:0:0:
160,48,81701,1,0,0:0:0:0:
160,48,81937,1,0,0:0:0:0:
152,48,81995,1,0,0:0:0:0:
160,48,82054,1,0,0:0:0:0:
152,48,82113,1,0,0:0:0:0:
160,48,82172,1,8,0:0:0:0:
184,48,82231,1,8,0:0:0:0:
160,48,82290,1,8,0:0:0:0:
184,48,82348,1,8,0:0:0:0:
160,48,82407,1,4,0:0:0:0:
120,96,82525,1,8,0:0:0:0:
176,72,82642,1,8,0:0:0:0:
176,72,82760,1,4,0:0:0:0:
176,72,82878,1,0,0:0:0:0:
176,72,82995,1,8,0:0:0:0:
176,72,83113,1,4,0:0:0:0:
224,32,83231,1,0,0:0:0:0:
224,32,83348,1,12,0:0:0:0:
152,64,83584,1,0,0:0:0:0:
152,64,83642,1,0,0:0:0:0:
152,64,83701,1,8,0:0:0:0:
152,64,83760,1,8,0:0:0:0:
152,64,83819,1,0,0:0:0:0:
120,88,83878,1,0,0:0:0:0:
168,64,83937,1,8,0:0:0:0:
120,88,84054,1,0,0:0:0:0:
168,64,84113,1,8,0:0:0:0:
182,122,84290,1,0,0:0:0:0:
161,127,84407,1,0,0:0:0:0:
173,112,84466,1,0,0:0:0:0:
161,127,84525,1,0,0:0:0:0:
161,127,84642,1,0,0:0:0:0:
161,127,84760,1,8,0:0:0:0:
178,82,84878,1,8,0:0:0:0:
176,87,84995,1,0,0:0:0:0:
178,82,85113,1,0,0:0:0:0:
175,88,85231,1,8,0:0:0:0:
184,48,85348,1,0,0:0:0:0:
184,56,85407,1,0,0:0:0:0:
184,56,85466,1,8,0:0:0:0:
184,56,85584,1,0,0:0:0:0:
184,56,85642,1,0,0:0:0:0:
184,56,85701,1,0,0:0:0:0:
184,32,85819,1,8,0:0:0:0:
168,32,85937,1,0,0:0:0:0:
168,32,86054,1,0,0:0:0:0:
168,32,86172,1,4,0:0:0:0:
176,24,86407,1,8,0:0:0:0:
176,24,86525,1,0,0:0:0:0:
160,112,86564,1,0,0:0:0:0:
160,112,86603,1,0,0:0:0:0:
176,24,86642,1,0,0:0:0:0:
176,24,86701,1,0,0:0:0:0:
176,24,86760,1,8,0:0:0:0:
176,24,86878,1,0,0:0:0:0:
208,32,86995,1,0,0:0:0:0:
208,32,87113,1,8,0:0:0:0:
192,48,87231,1,0,0:0:0:0:
192,56,87290,1,0,0:0:0:0:
192,56,87348,1,8,0:0:0:0:
192,56,87407,1,8,0:0:0:0:
192,56,87466,1,8,0:0:0:0:
192,56,87525,1,8,0:0:0:0:
192,56,87584,1,0,0:0:0:0:
176,72,87701,1,8,0:0:0:0:
176,72,87819,1,0,0:0:0:0:
176,72,87878,1,0,0:0:0:0:
176,72,87937,1,0,0:0:0:0:
176,72,87995,1,0,0:0:0:0:
176,72,88054,1,0,0:0:0:0:
176,40,88172,1,0,0:0:0:0:
176,40,88290,1,8,0:0:0:0:
184,40,88407,1,8,0:0:0:0:
184,40,88525,1,8,0:0:0:0:
184,24,88584,1,0,0:0:0:0:
184,40,88642,1,8,0:0:0:0:
200,24,88701,1,8,0:0:0:0:
200,32,88760,1,0,0:0:0:0:
200,32,88878,1,0,0:0:0:0:
184,32,88995,1,0,0:0:0:0:
184,8,89113,1,0,0:0:0:0:
184,8,89172,1,8,0:0:0:0:
184,16,89231,1,0,0:0:0:0:
184,16,89290,1,0,0:0:0:0:
184,16,89348,1,8,0:0:0:0:
192,16,89466,1,0,0:0:0:0:
168,32,89584,1,8,0:0:0:0:
168,32,89642,1,8,0:0:0:0:
168,32,89701,1,0,0:0:0:0:
168,32,89819,1,8,0:0:0:0:
248,56,89937,1,4,0:0:0:0:
168,96,90054,1,0,0:0:0:0:
168,96,90172,1,8,0:0:0:0:
168,96,90290,1,0,0:0:0:0:
168,96,90407,1,0,0:0:0:0:
168,96,90525,1,8,0:0:0:0:
168,96,90642,1,0,0:0:0:0:
168,96,90760,1,0,0:0:0:0:
168,96,90878,1,8,0:0:0:0:
192,48,90995,1,0,0:0:0:0:
192,48,91054,1,0,0:0:0:0:
192,48,91113,1,8,0:0:0:0:
192,48,91231,1,0,0:0:0:0:
168,72,91290,1,0,0:0:0:0:
168,72,91348,1,0,0:0:0:0:
160,72,91466,1,8,0:0:0:0:
168,40,91584,1,0,0:0:0:0:
168,8,91701,1,0,0:0:0:0:
168,8,91819,1,8,0:0:0:0:
168,56,91937,1,8,0:0:0:0:
168,56,91995,1,8,0:0:0:0:
168,56,92054,1,8,0:0:0:0:
168,56,92113,1,8,0:0:0:0:
160,40,92172,1,0,0:0:0:0:
208,48,92407,1,8,0:0:0:0:
192,40,92642,1,0,0:0:0:0:
192,40,92760,1,8,0:0:0:0:
176,88,92878,1,0,0:0:0:0:
176,88,92937,1,8,0:0:0:0:
176,88,93054,1,8,0:0:0:0:
160,40,93113,1,0,0:0:0:0:
176,48,93231,1,8,0:0:0:0:
200,64,93270,1,8,0:0:0:0:
200,64,93309,1,8,0:0:0:0:
200,64,93348,1,8,0:0:0:0:
312,104,93388,1,8,0:0:0:0:
312,104,93427,1,8,0:0:0:0:
200,48,93466,1,0,0:0:0:0:
200,64,93701,1,0,0:0:0:0:
168,16,93819,1,8,0:0:0:0:
168,16,93878,1,0,0:0:0:0:
200,32,93995,1,8,0:0:0:0:
176,32,94054,1,0,0:0:0:0:
184,64,94172,1,8,0:0:0:0:
152,64,94231,1,0,0:0:0:0:
184,24,94290,1,0,0:0:0:0:
184,32,94348,1,8,0:0:0:0:
152,64,94407,1,0,0:0:0:0:
184,56,94466,1,0,0:0:0:0:
184,32,94525,1,8,0:0:0:0:
176,56,94642,1,0,0:0:0:0:
176,56,94701,1,8,0:0:0:0:
176,56,94760,1,0,0:0:0:0:
208,32,94819,1,0,0:0:0:0:
184,16,94878,1,8,0:0:0:0:
160,32,94995,1,0,0:0:0:0:
160,32,95113,1,8,0:0:0:0:
168,24,95172,1,8,0:0:0:0:
168,16,95231,1,0,0:0:0:0:
168,0,95290,1,8,0:0:0:0:
168,0,95348,1,0,0:0:0:0:
176,24,95407,1,0,0:0:0:0:
176,24,95466,1,8,0:0:0:0:
168,64,95584,1,4,0:0:0:0:
160,32,95819,1,8,0:0:0:0:
168,24,95995,1,0,0:0:0:0:
176,24,96054,1,8,0:0:0:0:
264,216,96290,1,0,0:0:0:0:
264,216,96407,1,8,0:0:0:0:
264,216,96525,1,12,0:0:0:0:
192,16,96760,1,0,0:0:0:0:
192,16,96878,1,12,0:0:0:0:
192,16,97113,1,0,0:0:0:0:
192,16,97231,1,12,0:0:0:0:
176,40,97466,1,4,0:0:0:0:
184,224,97584,1,0,0:0:0:0:
184,224,97701,1,8,0:0:0:0:
184,224,97819,1,0,0:0:0:0:
184,224,97937,1,0,0:0:0:0:
184,224,98054,1,8,0:0:0:0:
184,224,98172,1,0,0:0:0:0:
184,224,98290,1,0,0:0:0:0:
184,224,98407,1,8,0:0:0:0:
176,64,98525,1,0,0:0:0:0:
176,64,98642,1,8,0:0:0:0:
176,64,98760,1,8,0:0:0:0:
176,64,98878,1,0,0:0:0:0:
176,64,98995,1,8,0:0:0:0:
176,64,99348,1,8,0:0:0:0:
168,24,99466,1,0,0:0:0:0:
168,24,99584,1,8,0:0:0:0:
168,24,99642,1,8,0:0:0:0:
168,24,99701,1,0,0:0:0:0:
168,24,99760,1,0,0:0:0:0:
168,24,99819,1,8,0:0:0:0:
168,24,99937,1,0,0:0:0:0:
168,16,99995,1,8,0:0:0:0:
168,24,100113,1,0,0:0:0:0:
184,40,100172,1,8,0:0:0:0:
192,32,100290,1,0,0:0:0:0:
176,40,100407,1,0,0:0:0:0:
176,40,100525,1,8,0:0:0:0:
176,40,100642,1,0,0:0:0:0:
176,40,100760,1,8,0:0:0:0:
144,40,100819,1,0,0:0:0:0:
176,40,100878,1,8,0:0:0:0:
144,40,100937,1,8,0:0:0:0:
176,40,100995,1,0,0:0:0:0:
144,40,101054,1,0,0:0:0:0:
176,40,101113,1,8,0:0:0:0:
144,40,101172,1,8,0:0:0:0:
176,40,101231,1,4,0:0:0:0:
168,24,101348,1,8,0:0:0:0:
168,24,101466,1,8,0:0:0:0:
168,24,101583,1,4,0:0:0:0:
192,8,101701,1,8,0:0:0:0:
192,8,101819,1,8,0:0:0:0:
192,8,101936,1,4,0:0:0:0:
176,64,102054,1,8,0:0:0:0:
176,64,102172,1,0,0:0:0:0:
184,64,102289,1,8,0:0:0:0:
184,64,102407,1,0,0:0:0:0:
184,64,102525,1,8,0:0:0:0:
184,64,102642,1,8,0:0:0:0:
176,8,102701,1,8,0:0:0:0:
184,64,102760,1,8,0:0:0:0:
176,8,102819,1,8,0:0:0:0:
184,64,102878,1,4,0:0:0:0:
184,64,102995,1,8,0:0:0:0:
216,32,103113,1,8,0:0:0:0:
192,48,103231,1,4,0:0:0:0:
192,56,103348,1,8,0:0:0:0:
192,56,103466,1,8,0:0:0:0:
192,48,103583,1,4,0:0:0:0:
200,40,103701,1,8,0:0:0:0:
168,64,103819,1,8,0:0:0:0:
200,32,103936,1,0,0:0:0:0:
192,64,103976,1,0,0:0:0:0:
192,64,104015,1,0,0:0:0:0:
192,64,104054,1,0,0:0:0:0:
304,64,104093,1,0,0:0:0:0:
304,64,104132,1,0,0:0:0:0:
192,64,104172,1,8,0:0:0:0:
184,64,104289,1,0,0:0:0:0:
184,64,104407,1,8,0:0:0:0:
184,64,104525,1,4,0:0:0:0:
200,40,104642,1,8,0:0:0:0:
200,40,104760,1,8,0:0:0:0:
200,40,104878,1,4,0:0:0:0:
200,40,104995,1,8,0:0:0:0:
200,40,105113,1,8,0:0:0:0:
200,40,105231,1,0,0:0:0:0:
184,32,105289,1,0,0:0:0:0:
184,32,105348,1,8,0:0:0:0:
184,32,105407,1,0,0:0:0:0:
184,32,105466,1,8,0:0:0:0:
176,32,105525,1,8,0:0:0:0:
176,32,105583,1,0,0:0:0:0:
176,32,105642,1,0,0:0:0:0:
176,32,105701,1,8,0:0:0:0:
200,16,105819,1,8,0:0:0:0:
200,16,105936,1,0,0:0:0:0:
192,16,106054,1,8,0:0:0:0:
192,16,106172,1,4,0:0:0:0:
200,136,106289,1,8,0:0:0:0:
200,136,106407,1,8,0:0:0:0:
192,136,106524,1,4,0:0:0:0:
192,136,106642,1,8,0:0:0:0:
192,136,106760,1,8,0:0:0:0:
192,136,106877,1,4,0:0:0:0:
160,56,106995,1,8,0:0:0:0:
160,56,107054,1,0,0:0:0:0:
160,56,107113,1,8,0:0:0:0:
176,32,107172,1,0,0:0:0:0:
176,32,107231,1,0,0:0:0:0:
176,32,107289,1,8,0:0:0:0:
176,32,107348,1,0,0:0:0:0:
176,32,107407,1,0,0:0:0:0:
176,32,107466,1,8,0:0:0:0:
176,32,107525,1,8,0:0:0:0:
176,32,107583,1,0,0:0:0:0:
176,32,107701,1,8,0:0:0:0:
176,32,107819,1,4,0:0:0:0:
224,160,107936,1,8,0:0:0:0:
176,8,108054,1,8,0:0:0:0:
176,8,108172,1,4,0:0:0:0:
176,8,108289,1,8,0:0:0:0:
176,8,108407,1,8,0:0:0:0:
176,8,108525,1,4,0:0:0:0:
176,8,108642,1,8,0:0:0:0:
176,8,108760,1,0,0:0:0:0:
176,8,108878,1,0,0:0:0:0:
176,8,108995,1,8,0:0:0:0:
200,24,109113,1,0,0:0:0:0:
192,24,109231,1,8,0:0:0:0:
192,24,109348,1,8,0:0:0:0:
192,24,109466,1,4,0:0:0:0:
200,56,109583,1,8,0:0:0:0:
200,56,109701,1,8,0:0:0:0:
200,56,109760,1,8,0:0:0:0:
200,56,109819,1,0,0:0:0:0:
168,48,109936,1,8,0:0:0:0:
168,48,110054,1,0,0:0:0:0:
168,48,110113,1,0,0:0:0:0:
168,48,110172,1,8,0:0:0:0:
184,32,110231,1,8,0:0:0:0:
184,56,110289,1,0,0:0:0:0:
184,40,110348,1,0,0:0:0:0:
184,56,110407,1,8,0:0:0:0:
168,40,110436,1,8,0:0:0:0:
168,40,110525,1,0,0:0:0:0:
168,40,110554,1,0,0:0:0:0:
168,40,110642,1,8,0:0:0:0:
168,40,110671,1,8,0:0:0:0:
168,24,110760,1,0,0:0:0:0:
168,24,110789,1,0,0:0:0:0:
168,24,110878,1,8,0:0:0:0:
176,95,110907,1,8,0:0:0:0:
176,32,110995,1,0,0:0:0:0:
120,80,111113,1,4,0:0:0:0:
120,80,111231,1,8,0:0:0:0:
160,48,111348,1,8,0:0:0:0:
160,48,111466,1,4,0:0:0:0:
152,48,111583,1,8,0:0:0:0:
152,48,111701,1,8,0:0:0:0:
160,32,111760,1,8,0:0:0:0:
152,48,111819,1,0,0:0:0:0:
168,40,111878,1,8,0:0:0:0:
152,48,111936,1,0,0:0:0:0:
168,40,111995,1,0,0:0:0:0:
160,48,112054,1,8,0:0:0:0:
280,200,112172,1,8,0:0:0:0:
160,48,112289,1,0,0:0:0:0:
160,48,112525,1,8,0:0:0:0:
160,48,112642,1,0,0:0:0:0:
160,48,112760,1,4,0:0:0:0:
160,32,112877,1,8,0:0:0:0:
160,32,112995,1,8,0:0:0:0:
160,32,113112,1,4,0:0:0:0:
160,32,113230,1,8,0:0:0:0:
144,32,113348,1,8,0:0:0:0:
144,32,113465,1,4,0:0:0:0:
208,80,113583,1,0,0:0:0:0:
208,80,113701,1,8,0:0:0:0:
208,80,113818,1,4,0:0:0:0:
208,80,113936,1,0,0:0:0:0:
208,80,114054,1,8,0:0:0:0:
208,80,114171,1,4,0:0:0:0:
216,40,114289,1,8,0:0:0:0:
216,40,114407,1,0,0:0:0:0:
216,40,114524,1,4,0:0:0:0:
176,16,114642,1,8,0:0:0:0:
256,192,115347,12,0,115582,0:0:0:0:
160,48,115818,5,0,0:0:0:0:
160,48,115935,1,8,0:0:0:0:
160,48,115994,1,8,0:0:0:0:
160,48,116053,1,0,0:0:0:0:
160,48,116112,1,8,0:0:0:0:
160,48,116171,1,0,0:0:0:0:
160,48,116288,1,8,0:0:0:0:
160,40,116406,1,0,0:0:0:0:
160,40,116465,1,0,0:0:0:0:
160,40,116524,1,8,0:0:0:0:
160,40,116582,1,8,0:0:0:0:
160,40,116641,1,8,0:0:0:0:
160,40,116700,1,8,0:0:0:0:
160,40,116759,1,4,0:0:0:0:
152,168,116877,1,0,0:0:0:0:
152,168,116994,1,8,0:0:0:0:
152,168,117112,1,4,0:0:0:0:
144,176,117229,1,0,0:0:0:0:
144,176,117347,1,8,0:0:0:0:
144,176,117465,1,4,0:0:0:0:
144,176,117582,1,8,0:0:0:0:
176,48,117641,1,0,0:0:0:0:
144,176,117700,1,8,0:0:0:0:
176,48,117759,1,8,0:0:0:0:
176,48,117818,1,0,0:0:0:0:
176,48,117877,1,0,0:0:0:0:
176,48,117935,1,8,0:0:0:0:
248,72,117975,1,8,0:0:0:0:
248,72,118014,1,8,0:0:0:0:
248,72,118053,1,0,0:0:0:0:
248,72,118112,1,8,0:0:0:0:
168,48,118171,1,0,0:0:0:0:
152,72,118288,1,8,0:0:0:0:
152,72,118347,1,8,0:0:0:0:
152,72,118406,1,0,0:0:0:0:
176,56,118524,1,8,0:0:0:0:
176,48,118641,1,4,0:0:0:0:
216,64,118759,1,0,0:0:0:0:
216,64,118877,1,8,0:0:0:0:
216,64,118994,1,4,0:0:0:0:
216,64,119112,1,4,0:0:0:0:
216,64,119229,1,8,0:0:0:0:
216,64,119347,1,4,0:0:0:0:
216,64,119465,1,0,0:0:0:0:
216,64,119582,1,8,0:0:0:0:
129,108,119641,1,8,0:0:0:0:
192,32,119700,1,0,0:0:0:0:
192,32,119759,1,0,0:0:0:0:
192,32,119818,1,8,0:0:0:0:
208,112,119877,1,0,0:0:0:0:
192,40,119935,1,8,0:0:0:0:
200,72,119994,1,8,0:0:0:0:
192,40,120053,1,0,0:0:0:0:
183,111,120112,1,0,0:0:0:0:
200,80,120171,1,8,0:0:0:0:
192,40,120288,1,8,0:0:0:0:
192,72,120524,1,4,0:0:0:0:
160,80,120641,1,8,0:0:0:0:
160,80,120759,1,8,0:0:0:0:
168,78,120877,1,4,0:0:0:0:
193,97,120994,1,8,0:0:0:0:
193,97,121112,1,8,0:0:0:0:
193,97,121171,1,8,0:0:0:0:
193,97,121229,1,0,0:0:0:0:
186,123,121347,1,0,0:0:0:0:
186,123,121465,1,8,0:0:0:0:
128,131,121524,1,0,0:0:0:0:
128,131,121582,1,0,0:0:0:0:
124,137,121641,1,0,0:0:0:0:
128,131,121700,1,8,0:0:0:0:
148,128,121818,1,0,0:0:0:0:
169,28,121877,1,8,0:0:0:0:
148,128,121935,1,0,0:0:0:0:
148,128,122053,5,8,0:0:0:0:
168,64,122171,1,0,0:0:0:0:
192,32,122406,1,4,0:0:0:0:
192,32,122524,1,0,0:0:0:0:
192,32,122641,1,8,0:0:0:0:
192,32,122759,1,4,0:0:0:0:
192,32,122877,1,0,0:0:0:0:
192,32,122994,1,8,0:0:0:0:
183,92,123053,1,8,0:0:0:0:
192,32,123112,1,0,0:0:0:0:
176,48,123171,1,0,0:0:0:0:
192,32,123229,1,8,0:0:0:0:
192,32,123347,1,8,0:0:0:0:
184,32,123465,1,0,0:0:0:0:
184,32,123524,1,0,0:0:0:0:
184,32,123582,1,0,0:0:0:0:
200,56,123641,1,0,0:0:0:0:
200,56,123700,1,8,0:0:0:0:
192,128,123818,1,0,0:0:0:0:
192,128,123935,1,0,0:0:0:0:
192,128,124053,1,4,0:0:0:0:
176,56,124288,1,4,0:0:0:0:
208,96,124406,1,0,0:0:0:0:
206,46,124465,1,0,0:0:0:0:
208,96,124524,1,8,0:0:0:0:
200,96,124582,1,0,0:0:0:0:
200,96,124641,1,8,0:0:0:0:
200,96,124700,1,8,0:0:0:0:
200,96,124759,1,0,0:0:0:0:
176,0,124818,1,0,0:0:0:0:
200,96,124877,1,8,0:0:0:0:
200,96,124935,1,8,0:0:0:0:
200,96,124994,1,0,0:0:0:0:
200,96,125053,1,0,0:0:0:0:
144,40,125112,1,8,0:0:0:0:
200,96,125229,1,0,0:0:0:0:
144,88,125347,1,0,0:0:0:0:
144,88,125465,1,8,0:0:0:0:
152,88,125582,1,0,0:0:0:0:
208,16,125641,1,0,0:0:0:0:
152,88,125700,1,0,0:0:0:0:
192,72,125759,1,0,0:0:0:0:
152,88,125818,1,8,0:0:0:0:
152,88,125935,1,0,0:0:0:0:
152,88,126053,1,8,0:0:0:0:
152,88,126171,1,4,0:0:0:0:
176,32,126406,1,0,0:0:0:0:
176,24,126641,1,8,0:0:0:0:
176,8,126877,1,4,0:0:0:0:
176,8,127053,1,4,0:0:0:0:
144,80,127229,1,4,0:0:0:0:
144,80,127406,1,4,0:0:0:0:
144,80,127582,1,4,0:0:0:0:
144,80,127759,1,4,0:0:0:0:
216,64,127935,1,4,0:0:0:0:
216,64,128053,1,8,0:0:0:0:
176,64,128171,1,8,0:0:0:0:
160,56,128229,1,8,0:0:0:0:
176,64,128288,1,0,0:0:0:0:
184,16,128347,1,0,0:0:0:0:
160,64,128406,1,8,0:0:0:0:
224,160,128465,1,0,0:0:0:0:
160,64,128524,1,8,0:0:0:0:
160,64,128582,1,8,0:0:0:0:
160,64,128641,1,0,0:0:0:0:
168,24,128700,1,0,0:0:0:0:
216,64,128759,1,8,0:0:0:0:
192,80,128877,1,8,0:0:0:0:
192,80,128935,1,8,0:0:0:0:
192,80,128994,1,0,0:0:0:0:
288,160,129053,1,8,0:0:0:0:
288,160,129112,1,0,0:0:0:0:
216,64,129171,1,0,0:0:0:0:
176,32,129229,1,8,0:0:0:0:
176,40,129347,1,8,0:0:0:0:
176,40,129465,1,8,0:0:0:0:
176,32,129524,1,0,0:0:0:0:
176,40,129582,1,8,0:0:0:0:
176,32,129641,1,8,0:0:0:0:
176,40,129700,1,0,0:0:0:0:
176,40,129759,1,8,0:0:0:0:
168,32,129818,1,0,0:0:0:0:
168,32,129935,1,8,0:0:0:0:
184,32,130053,1,0,0:0:0:0:
176,32,130112,1,0,0:0:0:0:
184,32,130171,1,8,0:0:0:0:
160,0,130288,1,0,0:0:0:0:
168,24,130347,1,0,0:0:0:0:
168,24,130406,1,8,0:0:0:0:
200,112,130524,1,0,0:0:0:0:
192,96,130582,1,0,0:0:0:0:
200,112,130641,5,8,0:0:0:0:
192,96,130759,1,0,0:0:0:0:
192,96,130818,1,0,0:0:0:0:
192,96,130877,1,8,0:0:0:0:
208,112,130955,1,8,0:0:0:0:
208,112,131033,1,8,0:0:0:0:
208,112,131112,1,8,0:0:0:0:
208,112,131190,1,8,0:0:0:0:
208,112,131269,1,8,0:0:0:0:
208,112,131347,1,8,0:0:0:0:
208,112,131426,1,8,0:0:0:0:
208,112,131504,1,8,0:0:0:0:
208,112,131582,1,8,0:0:0:0:
208,112,131661,1,8,0:0:0:0:
208,112,131739,1,8,0:0:0:0:
224,88,131818,5,4,0:0:0:0:
224,88,132053,1,8,0:0:0:0:
224,88,132288,1,0,0:0:0:0:
224,88,132406,1,0,0:0:0:0:
224,88,132524,1,8,0:0:0:0:
208,80,132641,1,0,0:0:0:0:
224,88,132759,1,8,0:0:0:0:
224,88,133003,1,0,0:0:0:0:
224,88,133248,1,8,0:0:0:0:
224,88,133371,1,8,0:0:0:0:
224,88,133493,1,0,0:0:0:0:
208,80,133616,1,0,0:0:0:0:
224,88,133738,1,8,0:0:0:0:
216,80,133989,1,0,0:0:0:0:
216,80,134240,1,0,0:0:0:0:
216,80,134365,1,0,0:0:0:0:
216,80,134491,1,8,0:0:0:0:
208,80,134742,1,8,0:0:0:0:
208,80,134997,1,0,0:0:0:0:
208,80,135252,1,0,0:0:0:0:
208,80,135380,1,0,0:0:0:0:
208,80,135507,1,8,0:0:0:0:
208,80,135763,1,0,0:0:0:0:
240,40,135892,1,0,0:0:0:0:
208,80,136022,1,8,0:0:0:0:
208,80,136282,1,0,0:0:0:0:
240,40,136542,1,8,0:0:0:0:
192,48,136801,1,8,0:0:0:0:
192,48,136931,1,8,0:0:0:0:
192,48,137061,1,0,0:0:0:0:
168,32,137321,1,0,0:0:0:0:
160,48,137457,1,0,0:0:0:0:
168,32,137593,1,8,0:0:0:0:
168,32,137866,1,8,0:0:0:0:
184,32,138136,1,0,0:0:0:0:
192,80,138406,1,0,0:0:0:0:
192,80,138676,1,8,0:0:0:0:
192,48,138947,1,8,0:0:0:0:
176,16,139247,1,0,0:0:0:0:
176,16,139570,1,0,0:0:0:0:
192,64,139952,1,8,0:0:0:0:
216,64,140167,1,8,0:0:0:0:
216,64,140419,1,0,0:0:0:0:
232,56,140704,1,0,0:0:0:0:
232,56,140990,1,8,0:0:0:0:
232,56,141276,1,0,0:0:0:0:
232,56,141419,1,0,0:0:0:0:
232,56,141561,1,8,0:0:0:0:
232,56,141704,1,8,0:0:0:0:
232,56,141847,1,0,0:0:0:0:
232,56,141990,1,0,0:0:0:0:
232,56,142133,1,8,0:0:0:0:
232,56,142276,1,8,0:0:0:0:
232,56,142419,1,0,0:0:0:0:
232,56,142561,1,8,0:0:0:0:
224,56,142704,1,0,0:0:0:0:
128,192,142990,1,0,0:0:0:0:
128,192,143276,1,8,0:0:0:0:
160,88,143561,1,0,0:0:0:0:
160,88,143704,1,0,0:0:0:0:
160,88,143847,1,8,0:0:0:0:
160,88,143990,1,8,0:0:0:0:
160,88,144133,1,0,0:0:0:0:
160,88,144276,1,8,0:0:0:0:
160,88,144419,1,8,0:0:0:0:
160,88,144561,1,0,0:0:0:0:
160,88,144704,1,0,0:0:0:0:
160,88,144847,1,8,0:0:0:0:
160,88,144990,1,0,0:0:0:0:
176,48,145287,1,0,0:0:0:0:
176,48,145580,1,8,0:0:0:0:
144,88,145873,1,0,0:0:0:0:
144,88,146019,1,8,0:0:0:0:
144,88,146165,1,0,0:0:0:0:
168,64,146458,1,0,0:0:0:0:
168,64,146751,1,8,0:0:0:0:
192,80,147043,1,8,0:0:0:0:
192,80,147190,1,8,0:0:0:0:
192,80,147336,1,0,0:0:0:0:
176,64,147629,1,0,0:0:0:0:
176,64,147775,1,0,0:0:0:0:
176,64,147921,1,8,0:0:0:0:
176,64,148068,1,8,0:0:0:0:
176,64,148214,1,0,0:0:0:0:
176,64,148360,1,0,0:0:0:0:
176,64,148507,1,8,0:0:0:0:
168,48,148946,1,8,0:0:0:0:
168,48,149092,1,0,0:0:0:0:
176,48,149677,1,8,0:0:0:0:
128,208,149977,1,0,0:0:0:0:
128,208,150277,1,8,0:0:0:0:
128,200,150577,1,0,0:0:0:0:
128,200,150727,1,0,0:0:0:0:
128,200,150877,1,8,0:0:0:0:
128,200,151027,1,8,0:0:0:0:
128,200,151177,1,0,0:0:0:0:
128,200,151327,1,0,0:0:0:0:
128,200,151477,1,8,0:0:0:0:
128,200,151627,1,0,0:0:0:0:
128,200,151777,1,0,0:0:0:0:
128,200,151927,1,8,0:0:0:0:
128,200,152077,1,0,0:0:0:0:
128,200,152377,1,0,0:0:0:0:
128,200,152677,1,8,0:0:0:0:
128,200,152977,1,0,0:0:0:0:
128,200,153127,1,0,0:0:0:0:
128,200,153277,1,8,0:0:0:0:
128,200,153434,1,8,0:0:0:0:
128,200,153592,1,0,0:0:0:0:
128,200,153750,1,8,0:0:0:0:
128,200,153908,1,0,0:0:0:0:
128,200,154066,1,0,0:0:0:0:
128,200,154224,1,8,0:0:0:0:
128,200,154382,1,8,0:0:0:0:
128,200,154540,1,0,0:0:0:0:
128,200,154855,1,0,0:0:0:0:
128,200,155171,1,8,0:0:0:0:
128,200,155487,1,0,0:0:0:0:
128,200,155645,1,8,0:0:0:0:
128,200,155803,1,0,0:0:0:0:
128,200,155961,1,8,0:0:0:0:
128,200,156125,1,8,0:0:0:0:
128,200,156297,1,8,0:0:0:0:
128,200,156465,1,8,0:0:0:0:
128,200,156637,1,8,0:0:0:0:
128,200,156809,1,8,0:0:0:0:
128,200,157123,1,0,0:0:0:0:
144,96,157190,1,8,0:0:0:0:
96,144,157258,1,0,0:0:0:0:
176,32,157325,1,0,0:0:0:0:
144,96,157393,1,8,0:0:0:0:
192,32,157528,1,0,0:0:0:0:
152,40,157595,1,0,0:0:0:0:
192,32,157663,1,8,0:0:0:0:
176,48,157798,1,0,0:0:0:0:
176,48,157933,1,8,0:0:0:0:
176,48,158001,1,8,0:0:0:0:
176,48,158068,1,0,0:0:0:0:
176,48,158136,1,0,0:0:0:0:
176,48,158204,1,8,0:0:0:0:
176,40,158474,1,0,0:0:0:0:
176,40,158541,1,8,0:0:0:0:
176,40,158609,1,0,0:0:0:0:
176,40,158677,1,0,0:0:0:0:
176,40,158744,1,8,0:0:0:0:
152,40,158812,1,8,0:0:0:0:
152,40,158879,1,0,0:0:0:0:
152,40,158947,1,0,0:0:0:0:
168,40,159014,1,8,0:0:0:0:
184,64,159150,1,8,0:0:0:0:
184,64,159285,1,4,0:0:0:0:
208,144,159420,1,0,0:0:0:0:
208,144,159555,1,8,0:0:0:0:
208,88,159690,1,0,0:0:0:0:
192,80,159758,1,8,0:0:0:0:
208,88,159825,1,0,0:0:0:0:
168,72,159893,1,0,0:0:0:0:
208,88,159960,1,8,0:0:0:0:
208,88,160095,1,0,0:0:0:0:
208,88,160231,1,8,0:0:0:0:
176,64,160298,1,8,0:0:0:0:
208,88,160366,1,0,0:0:0:0:
176,64,160501,1,0,0:0:0:0:
176,64,160636,1,8,0:0:0:0:
176,64,160771,1,0,0:0:0:0:
176,64,160839,1,8,0:0:0:0:
176,64,160906,1,0,0:0:0:0:
176,64,160974,1,8,0:0:0:0:
176,64,161041,1,0,0:0:0:0:
176,32,161109,1,0,0:0:0:0:
176,64,161177,1,8,0:0:0:0:
176,64,161312,1,0,0:0:0:0:
176,64,161379,1,0,0:0:0:0:
176,64,161447,1,0,0:0:0:0:
176,64,161582,1,0,0:0:0:0:
176,64,161717,1,8,0:0:0:0:
176,64,161852,1,0,0:0:0:0:
168,32,161920,1,0,0:0:0:0:
176,64,161987,1,8,0:0:0:0:
168,32,162055,1,0,0:0:0:0:
176,64,162123,1,8,0:0:0:0:
168,32,162190,1,8,0:0:0:0:
176,64,162258,1,0,0:0:0:0:
176,64,162393,1,8,0:0:0:0:
176,64,162460,1,8,0:0:0:0:
176,64,162528,1,0,0:0:0:0:
176,64,162663,1,0,0:0:0:0:
176,64,162798,1,8,0:0:0:0:
176,64,162933,1,8,0:0:0:0:
176,64,163001,1,0,0:0:0:0:
176,64,163068,1,8,0:0:0:0:
176,64,163136,1,8,0:0:0:0:
176,64,163204,1,0,0:0:0:0:
176,64,163339,1,8,0:0:0:0:
176,64,163474,1,8,0:0:0:0:
176,64,163609,1,0,0:0:0:0:
176,64,163744,1,0,0:0:0:0:
176,32,163812,1,0,0:0:0:0:
176,64,163879,1,8,0:0:0:0:
176,64,164014,1,0,0:0:0:0:
176,64,164150,1,0,0:0:0:0:
160,80,164217,1,0,0:0:0:0:
176,64,164285,1,8,0:0:0:0:
176,64,164420,1,8,0:0:0:0:
192,64,164487,1,0,0:0:0:0:
176,64,164555,1,8,0:0:0:0:
176,64,164623,1,8,0:0:0:0:
176,64,164690,1,0,0:0:0:0:
176,64,164825,1,0,0:0:0:0:
176,64,164960,1,8,0:0:0:0:
176,64,165095,1,0,0:0:0:0:
192,64,165163,1,8,0:0:0:0:
168,64,165231,1,0,0:0:0:0:
184,32,165298,1,0,0:0:0:0:
168,64,165366,1,8,0:0:0:0:
184,40,165433,1,0,0:0:0:0:
168,64,165501,1,8,0:0:0:0:
216,88,165591,1,8,0:0:0:0:
216,88,165681,1,8,0:0:0:0:
216,88,165771,1,0,0:0:0:0:
160,120,166041,1,0,0:0:0:0:
184,48,166109,1,0,0:0:0:0:
160,120,166177,1,8,0:0:0:0:
184,48,166244,1,8,0:0:0:0:
160,120,166312,1,0,0:0:0:0:
160,120,166447,1,8,0:0:0:0:
184,48,166514,1,0,0:0:0:0:
160,120,166582,1,8,0:0:0:0:
152,120,166650,1,8,0:0:0:0:
160,120,166717,1,0,0:0:0:0:
152,120,166852,1,8,0:0:0:0:
152,120,166987,1,0,0:0:0:0:
152,120,167055,1,8,0:0:0:0:
152,120,167123,1,0,0:0:0:0:
152,120,167190,1,0,0:0:0:0:
152,120,167258,1,8,0:0:0:0:
160,88,167303,1,8,0:0:0:0:
160,88,167348,1,8,0:0:0:0:
144,120,167393,1,0,0:0:0:0:
208,56,167460,1,0,0:0:0:0:
208,56,167528,1,8,0:0:0:0:
208,56,167629,1,0,0:0:0:0:
152,64,167731,1,0,0:0:0:0:
192,120,167798,1,8,0:0:0:0:
200,24,167933,1,4,0:0:0:0:
168,104,168068,1,0,0:0:0:0:
176,104,168204,1,8,0:0:0:0:
176,104,168339,1,0,0:0:0:0:
208,32,168406,1,8,0:0:0:0:
176,104,168474,1,0,0:0:0:0:
208,32,168541,1,0,0:0:0:0:
176,104,168609,1,8,0:0:0:0:
176,104,168744,1,0,0:0:0:0:
176,104,168879,1,8,0:0:0:0:
176,104,168947,1,8,0:0:0:0:
176,104,169014,1,0,0:0:0:0:
176,104,169150,1,0,0:0:0:0:
176,104,169285,1,8,0:0:0:0:
176,104,169420,1,0,0:0:0:0:
176,104,169487,1,8,0:0:0:0:
176,104,169555,1,0,0:0:0:0:
176,104,169623,1,0,0:0:0:0:
176,104,169690,1,8,0:0:0:0:
208,112,169758,1,8,0:0:0:0:
176,104,169825,1,0,0:0:0:0:
176,104,169960,1,8,0:0:0:0:
168,64,170028,1,8,0:0:0:0:
176,104,170095,1,0,0:0:0:0:
176,104,170231,1,0,0:0:0:0:
176,104,170366,1,8,0:0:0:0:
176,104,170501,1,0,0:0:0:0:
192,16,170568,1,8,0:0:0:0:
176,104,170636,1,0,0:0:0:0:
192,88,170704,1,0,0:0:0:0:
176,104,170771,1,8,0:0:0:0:
176,104,170906,1,0,0:0:0:0:
184,32,170974,1,0,0:0:0:0:
176,104,171041,1,8,0:0:0:0:
176,104,171109,1,8,0:0:0:0:
176,104,171177,1,0,0:0:0:0:
176,104,171312,1,0,0:0:0:0:
176,104,171447,1,8,0:0:0:0:
184,104,171582,1,0,0:0:0:0:
184,104,171650,1,8,0:0:0:0:
184,104,171717,1,0,0:0:0:0:
184,104,171785,1,0,0:0:0:0:
184,104,171852,1,8,0:0:0:0:
184,104,171987,1,8,0:0:0:0:
184,104,172122,1,8,0:0:0:0:
184,104,172258,1,4,0:0:0:0:
184,104,172393,1,0,0:0:0:0:
184,104,172528,1,8,0:0:0:0:
184,104,172595,1,0,0:0:0:0:
184,104,172663,1,8,0:0:0:0:
184,104,172731,1,8,0:0:0:0:
184,104,172798,1,0,0:0:0:0:
184,104,172866,1,8,0:0:0:0:
184,104,172933,1,0,0:0:0:0:
176,48,173001,1,0,0:0:0:0:
184,104,173068,1,8,0:0:0:0:
184,104,173136,1,8,0:0:0:0:
184,104,173204,1,0,0:0:0:0:
184,104,173339,1,4,0:0:0:0:
184,104,173474,1,0,0:0:0:0:
184,104,173609,1,8,0:0:0:0:
184,104,173677,1,0,0:0:0:0:
184,104,173744,1,8,0:0:0:0:
184,104,173812,1,8,0:0:0:0:
184,104,173879,1,0,0:0:0:0:
184,104,173947,1,0,0:0:0:0:
184,104,174014,1,8,0:0:0:0:
200,40,174082,1,8,0:0:0:0:
184,104,174150,1,0,0:0:0:0:
176,32,174217,1,8,0:0:0:0:
184,104,174285,1,0,0:0:0:0:
176,104,174420,1,4,0:0:0:0:
176,104,174555,1,8,0:0:0:0:
176,104,174690,1,0,0:0:0:0:
176,104,174825,1,8,0:0:0:0:
176,104,174893,1,8,0:0:0:0:
176,104,174960,1,8,0:0:0:0:
176,104,175028,1,8,0:0:0:0:
176,104,175095,1,0,0:0:0:0:
192,48,175163,1,8,0:0:0:0:
176,104,175231,1,0,0:0:0:0:
176,104,175298,1,0,0:0:0:0:
176,104,175366,1,0,0:0:0:0:
176,104,175433,5,0,0:0:0:0:
176,104,175501,1,8,0:0:0:0:
176,104,175636,1,8,0:0:0:0:
176,104,175771,1,0,0:0:0:0:
176,104,175906,1,0,0:0:0:0:
192,48,175951,1,0,0:0:0:0:
192,40,175996,1,0,0:0:0:0:
176,104,176041,1,8,0:0:0:0:
176,104,176177,1,8,0:0:0:0:
176,104,176312,1,0,0:0:0:0:
208,128,176582,5,8,0:0:0:0:
208,128,176717,1,0,0:0:0:0:
208,128,176852,1,0,0:0:0:0:
176,64,176984,1,8,0:0:0:0:
176,64,177117,1,0,0:0:0:0:
176,64,177250,1,0,0:0:0:0:
176,64,177382,1,8,0:0:0:0:
176,64,177511,1,0,0:0:0:0:
176,64,177641,1,8,0:0:0:0:
176,64,177770,1,0,0:0:0:0:
176,40,177899,1,0,0:0:0:0:
176,40,178028,1,8,0:0:0:0:
176,40,178158,1,0,0:0:0:0:
176,40,178287,1,0,0:0:0:0:
176,40,178416,1,8,0:0:0:0:
176,40,178546,1,0,0:0:0:0:
176,40,178675,1,8,0:0:0:0:
168,40,178802,1,0,0:0:0:0:
168,40,178929,1,0,0:0:0:0:
168,40,179056,1,8,0:0:0:0:
168,40,179183,1,0,0:0:0:0:
168,40,179305,1,0,0:0:0:0:
168,40,179428,1,8,0:0:0:0:
168,40,179551,1,0,0:0:0:0:
168,40,179674,1,8,0:0:0:0:
168,40,179796,1,0,0:0:0:0:
168,40,179919,1,0,0:0:0:0:
168,40,180042,1,8,0:0:0:0:
168,40,180165,1,0,0:0:0:0:
168,40,180288,1,0,0:0:0:0:
168,40,180411,1,8,0:0:0:0:
168,40,180534,1,0,0:0:0:0:
168,40,180657,1,8,0:0:0:0:
168,40,180778,1,0,0:0:0:0:
168,40,180900,1,0,0:0:0:0:
192,56,181022,1,8,0:0:0:0:
192,56,181144,1,0,0:0:0:0:
192,56,181266,1,0,0:0:0:0:
192,56,181388,1,8,0:0:0:0:
192,56,181510,1,0,0:0:0:0:
184,56,181632,1,8,0:0:0:0:
176,56,181752,1,0,0:0:0:0:
184,56,181872,1,0,0:0:0:0:
176,56,181993,1,8,0:0:0:0:
176,56,182113,1,0,0:0:0:0:
160,112,182232,1,0,0:0:0:0:
160,112,182351,1,8,0:0:0:0:
160,112,182470,1,0,0:0:0:0:
136,72,182589,1,8,0:0:0:0:
168,56,182706,1,0,0:0:0:0:
168,48,182824,1,0,0:0:0:0:
168,64,182939,1,8,0:0:0:0:
168,64,183054,1,0,0:0:0:0:
168,64,183168,1,0,0:0:0:0:
168,64,183283,1,8,0:0:0:0:
224,16,183397,1,0,0:0:0:0:
160,24,183512,1,8,0:0:0:0:
168,32,183572,1,8,0:0:0:0:
168,32,183632,1,0,0:0:0:0:
168,32,183692,1,0,0:0:0:0:
168,32,183752,1,8,0:0:0:0:
168,32,183812,1,8,0:0:0:0:
168,32,183872,1,0,0:0:0:0:
168,32,183932,1,0,0:0:0:0:
256,192,183992,12,0,184352,0:0:0:0:
168,64,184472,5,4,0:0:0:0:
160,64,184707,1,8,0:0:0:0:
200,112,184824,1,0,0:0:0:0:
200,112,184942,1,0,0:0:0:0:
200,112,185060,1,8,0:0:0:0:
200,112,185177,1,0,0:0:0:0:
200,112,185295,1,0,0:0:0:0:
200,112,185413,1,8,0:0:0:0:
192,112,185648,1,8,0:0:0:0:
200,72,185883,1,0,0:0:0:0:
200,72,186001,1,8,0:0:0:0:
176,56,186354,1,0,0:0:0:0:
160,80,186589,1,8,0:0:0:0:
160,80,186707,1,0,0:0:0:0:
160,80,186824,1,0,0:0:0:0:
160,80,186942,1,8,0:0:0:0:
160,80,187060,1,0,0:0:0:0:
160,80,187177,1,0,0:0:0:0:
160,80,187295,1,8,0:0:0:0:
152,40,187472,1,8,0:0:0:0:
152,40,187648,1,8,0:0:0:0:
152,40,187766,1,0,0:0:0:0:
184,64,188236,1,0,0:0:0:0:
184,64,188472,1,8,0:0:0:0:
184,64,188589,1,0,0:0:0:0:
184,64,188707,1,0,0:0:0:0:
184,64,188824,1,8,0:0:0:0:
184,64,188942,1,0,0:0:0:0:
184,64,189060,1,0,0:0:0:0:
184,64,189177,1,8,0:0:0:0:
216,48,189413,1,8,0:0:0:0:
216,48,189648,1,0,0:0:0:0:
216,48,189766,1,8,0:0:0:0:
216,48,190119,1,0,0:0:0:0:
192,56,190354,1,8,0:0:0:0:
192,56,190472,1,0,0:0:0:0:
192,56,190589,1,0,0:0:0:0:
192,56,190707,1,8,0:0:0:0:
192,56,190824,1,0,0:0:0:0:
192,56,190942,1,0,0:0:0:0:
192,56,191060,1,8,0:0:0:0:
240,112,191138,1,8,0:0:0:0:
240,112,191217,1,8,0:0:0:0:
240,112,191295,1,8,0:0:0:0:
240,112,191373,1,8,0:0:0:0:
240,104,191452,1,8,0:0:0:0:
240,104,191530,1,0,0:0:0:0:
208,96,192001,1,0,0:0:0:0:
208,96,192119,1,0,0:0:0:0:
208,96,192237,1,8,0:0:0:0:
208,96,192355,1,0,0:0:0:0:
208,96,192472,1,0,0:0:0:0:
208,96,192590,1,8,0:0:0:0:
208,96,192708,1,0,0:0:0:0:
208,96,192825,1,0,0:0:0:0:
64,64,192942,1,8,0:0:0:0:
192,40,193060,1,0,0:0:0:0:
192,16,193119,1,0,0:0:0:0:
192,40,193177,1,8,0:0:0:0:
216,80,193295,1,0,0:0:0:0:
216,80,193354,1,0,0:0:0:0:
216,80,193413,1,0,0:0:0:0:
184,40,193530,1,8,0:0:0:0:
208,32,193648,1,0,0:0:0:0:
208,32,193707,1,0,0:0:0:0:
208,32,193766,1,8,0:0:0:0:
208,32,193883,1,0,0:0:0:0:
192,40,194001,1,0,0:0:0:0:
192,40,194119,1,8,0:0:0:0:
192,40,194236,1,0,0:0:0:0:
192,40,194354,1,0,0:0:0:0:
192,40,194472,1,8,0:0:0:0:
192,40,194589,1,0,0:0:0:0:
192,40,194707,1,0,0:0:0:0:
192,40,194824,1,8,0:0:0:0:
240,56,194942,1,0,0:0:0:0:
240,56,195001,1,8,0:0:0:0:
240,56,195119,1,0,0:0:0:0:
200,56,195177,1,8,0:0:0:0:
200,64,195295,1,0,0:0:0:0:
208,72,195413,1,8,0:0:0:0:
184,48,195766,1,0,0:0:0:0:
168,48,195883,1,0,0:0:0:0:
168,48,196001,1,8,0:0:0:0:
168,48,196119,1,0,0:0:0:0:
168,48,196237,1,0,0:0:0:0:
168,48,196355,1,8,0:0:0:0:
168,48,196472,1,0,0:0:0:0:
168,48,196590,1,0,0:0:0:0:
168,48,196708,1,8,0:0:0:0:
200,32,196824,1,0,0:0:0:0:
200,32,196883,1,0,0:0:0:0:
200,32,196942,1,8,0:0:0:0:
200,48,197060,1,0,0:0:0:0:
192,48,197119,1,8,0:0:0:0:
192,48,197177,1,0,0:0:0:0:
192,48,197236,1,0,0:0:0:0:
176,8,197295,1,8,0:0:0:0:
184,40,197413,1,0,0:0:0:0:
184,40,197472,1,0,0:0:0:0:
184,40,197530,1,0,0:0:0:0:
184,40,197648,1,8,0:0:0:0:
184,64,197766,1,0,0:0:0:0:
184,64,197883,1,8,0:0:0:0:
184,64,198001,1,0,0:0:0:0:
184,64,198119,1,0,0:0:0:0:
184,64,198236,1,8,0:0:0:0:
184,64,198354,1,0,0:0:0:0:
184,64,198472,1,0,0:0:0:0:
184,64,198589,1,8,0:0:0:0:
184,32,198824,1,0,0:0:0:0:
184,32,199060,1,0,0:0:0:0:
184,32,199177,1,0,0:0:0:0:
184,32,199295,1,8,0:0:0:0:
184,8,199413,1,8,0:0:0:0:
184,16,199530,1,4,0:0:0:0:
208,96,199648,1,0,0:0:0:0:
208,96,199766,1,8,0:0:0:0:
208,96,199883,1,4,0:0:0:0:
208,96,200001,1,0,0:0:0:0:
208,96,200119,1,8,0:0:0:0:
208,96,200236,1,0,0:0:0:0:
208,48,200275,1,0,0:0:0:0:
208,48,200315,1,0,0:0:0:0:
208,96,200354,1,0,0:0:0:0:
176,72,200413,1,0,0:0:0:0:
208,96,200472,1,8,0:0:0:0:
176,48,200589,1,0,0:0:0:0:
176,48,200648,1,8,0:0:0:0:
176,48,200766,1,0,0:0:0:0:
176,48,200824,1,8,0:0:0:0:
176,48,200883,1,8,0:0:0:0:
176,48,200942,1,0,0:0:0:0:
176,48,201060,1,8,0:0:0:0:
176,48,201177,1,0,0:0:0:0:
176,32,201413,1,0,0:0:0:0:
144,48,201452,1,0,0:0:0:0:
144,48,201491,1,0,0:0:0:0:
136,48,201530,1,0,0:0:0:0:
144,48,201589,1,0,0:0:0:0:
144,48,201648,1,8,0:0:0:0:
136,64,201707,1,8,0:0:0:0:
136,64,201766,1,0,0:0:0:0:
136,64,201824,1,0,0:0:0:0:
136,64,201883,1,8,0:0:0:0:
152,48,202001,1,0,0:0:0:0:
152,48,202119,1,0,0:0:0:0:
152,48,202237,1,8,0:0:0:0:
144,48,202355,1,0,0:0:0:0:
176,24,202589,1,8,0:0:0:0:
176,24,202824,1,8,0:0:0:0:
176,24,203060,1,8,0:0:0:0:
224,48,203295,1,0,0:0:0:0:
216,32,203354,1,0,0:0:0:0:
216,32,203413,1,8,0:0:0:0:
216,32,203472,1,8,0:0:0:0:
216,32,203530,1,0,0:0:0:0:
184,48,203648,1,0,0:0:0:0:
184,48,203766,1,8,0:0:0:0:
168,40,203883,1,0,0:0:0:0:
168,40,204001,1,0,0:0:0:0:
176,64,204119,1,8,0:0:0:0:
184,72,204236,1,0,0:0:0:0:
176,64,204354,1,0,0:0:0:0:
176,64,204472,1,8,0:0:0:0:
152,72,204589,1,8,0:0:0:0:
152,72,204707,1,0,0:0:0:0:
152,72,204824,1,8,0:0:0:0:
192,40,204942,1,8,0:0:0:0:
192,40,205060,1,0,0:0:0:0:
192,40,205177,1,8,0:0:0:0:
240,88,205256,1,8,0:0:0:0:
240,88,205334,1,8,0:0:0:0:
240,88,205413,1,0,0:0:0:0:
176,96,205530,1,0,0:0:0:0:
176,96,205648,1,8,0:0:0:0:
176,96,205765,1,0,0:0:0:0:
176,96,205883,1,0,0:0:0:0:
176,40,206001,1,8,0:0:0:0:
176,176,206119,1,0,0:0:0:0:
224,136,206354,1,0,0:0:0:0:
224,136,206589,1,8,0:0:0:0:
168,56,206707,1,0,0:0:0:0:
168,56,206824,1,0,0:0:0:0:
176,48,207060,1,4,0:0:0:0:
152,32,207177,1,0,0:0:0:0:
152,32,207295,1,8,0:0:0:0:
152,32,207413,1,0,0:0:0:0:
152,32,207530,1,8,0:0:0:0:
192,56,207589,1,8,0:0:0:0:
192,56,207648,1,8,0:0:0:0:
192,56,207707,1,8,0:0:0:0:
192,56,207766,1,0,0:0:0:0:
264,112,207883,1,0,0:0:0:0:
264,112,208001,1,8,0:0:0:0:
208,40,208236,1,8,0:0:0:0:
208,48,208295,1,8,0:0:0:0:
208,40,208354,1,0,0:0:0:0:
208,48,208413,1,8,0:0:0:0:
208,48,208472,1,0,0:0:0:0:
208,48,208530,1,0,0:0:0:0:
208,48,208589,1,8,0:0:0:0:
208,48,208648,1,8,0:0:0:0:
208,48,208707,1,0,0:0:0:0:
208,48,208766,1,0,0:0:0:0:
208,48,208824,1,8,0:0:0:0:
208,48,208883,1,0,0:0:0:0:
208,48,208942,1,0,0:0:0:0:
184,64,209060,1,0,0:0:0:0:
184,64,209177,1,4,0:0:0:0:
184,40,209295,1,8,0:0:0:0:
184,40,209413,1,0,0:0:0:0:
184,40,209530,1,0,0:0:0:0:
176,40,209648,1,8,0:0:0:0:
176,40,209766,1,8,0:0:0:0:
176,40,209883,1,4,0:0:0:0:
256,192,210354,12,0,210707,0:0:0:0:
240,112,210824,5,4,0:0:0:0:
192,32,210942,1,8,0:0:0:0:
192,32,211060,1,8,0:0:0:0:
192,32,211177,1,4,0:0:0:0:
192,32,211295,1,8,0:0:0:0:
192,32,211413,1,4,0:0:0:0:
192,32,211530,1,8,0:0:0:0:
192,32,211647,1,8,0:0:0:0:
192,32,211765,1,4,0:0:0:0:
208,32,211883,1,8,0:0:0:0:
208,32,212001,1,8,0:0:0:0:
208,32,212119,1,4,0:0:0:0:
208,32,212236,1,8,0:0:0:0:
208,32,212354,1,8,0:0:0:0:
208,32,212472,1,4,0:0:0:0:
208,32,212589,1,8,0:0:0:0:
208,32,212707,1,8,0:0:0:0:
216,88,212824,1,4,0:0:0:0:
216,88,212942,1,8,0:0:0:0:
216,88,213060,1,4,0:0:0:0:
216,88,213177,1,8,0:0:0:0:
216,88,213295,1,8,0:0:0:0:
216,88,213413,1,4,0:0:0:0:
216,88,213530,1,8,0:0:0:0:
208,88,213648,1,4,0:0:0:0:
208,88,213766,1,8,0:0:0:0:
208,88,213883,1,8,0:0:0:0:
208,88,214001,1,4,0:0:0:0:
208,88,214119,1,8,0:0:0:0:
208,88,214236,1,4,0:0:0:0:
208,88,214354,1,0,0:0:0:0:
208,88,214472,1,8,0:0:0:0:
208,88,214589,1,4,0:0:0:0:
200,32,214707,1,0,0:0:0:0:
208,88,214824,1,8,0:0:0:0:
208,88,214942,1,4,0:0:0:0:
208,88,215060,1,0,0:0:0:0:
208,88,215177,1,8,0:0:0:0:
208,88,215295,1,4,0:0:0:0:
208,88,215413,1,8,0:0:0:0:
208,88,215530,1,4,0:0:0:0:
216,56,215648,1,0,0:0:0:0:
200,48,215766,1,8,0:0:0:0:
216,56,215883,1,4,0:0:0:0:
216,56,216001,1,0,0:0:0:0:
216,64,216119,1,8,0:0:0:0:
216,64,216236,1,4,0:0:0:0:
216,64,216354,1,8,0:0:0:0:
256,192,216942,12,0,217177,0:0:0:0:
200,64,217413,5,0,0:0:0:0:
192,64,217530,1,8,0:0:0:0:
192,64,217589,1,0,0:0:0:0:
192,64,217648,1,8,0:0:0:0:
192,64,217707,1,8,0:0:0:0:
192,72,217766,1,0,0:0:0:0:
192,72,217883,1,8,0:0:0:0:
192,72,218001,1,0,0:0:0:0:
192,72,218060,1,0,0:0:0:0:
168,88,218119,1,8,0:0:0:0:
160,48,218354,1,4,0:0:0:0:
192,136,218472,1,0,0:0:0:0:
200,136,218530,1,0,0:0:0:0:
192,136,218589,1,8,0:0:0:0:
200,136,218707,1,8,0:0:0:0:
184,32,218766,1,8,0:0:0:0:
176,48,218824,1,0,0:0:0:0:
176,24,218883,1,0,0:0:0:0:
176,48,218942,1,8,0:0:0:0:
176,48,219060,1,0,0:0:0:0:
208,56,219177,1,8,0:0:0:0:
208,56,219236,1,8,0:0:0:0:
208,72,219295,1,0,0:0:0:0:
208,72,219354,1,8,0:0:0:0:
208,72,219413,1,0,0:0:0:0:
208,72,219472,1,0,0:0:0:0:
208,72,219530,1,8,0:0:0:0:
208,72,219648,1,8,0:0:0:0:
208,72,219707,1,8,0:0:0:0:
208,32,219766,1,0,0:0:0:0:
176,40,219883,1,0,0:0:0:0:
192,32,219942,1,8,0:0:0:0:
232,104,220001,1,0,0:0:0:0:
232,104,220060,1,0,0:0:0:0:
232,112,220119,1,8,0:0:0:0:
208,112,220177,1,8,0:0:0:0:
232,104,220236,1,0,0:0:0:0:
184,112,220354,1,0,0:0:0:0:
184,112,220472,1,8,0:0:0:0:
184,120,220589,1,0,0:0:0:0:
176,120,220648,1,0,0:0:0:0:
176,120,220707,1,0,0:0:0:0:
176,120,220766,1,0,0:0:0:0:
176,120,220824,1,8,0:0:0:0:
168,120,220942,1,0,0:0:0:0:
168,120,221001,1,8,0:0:0:0:
168,120,221060,1,0,0:0:0:0:
168,120,221119,1,0,0:0:0:0:
168,120,221177,1,8,0:0:0:0:
168,48,221295,1,0,0:0:0:0:
240,128,221354,1,0,0:0:0:0:
168,48,221413,1,0,0:0:0:0:
168,48,221530,1,8,0:0:0:0:
168,48,221648,1,0,0:0:0:0:
168,32,221707,1,0,0:0:0:0:
168,48,221766,1,8,0:0:0:0:
176,32,221824,1,0,0:0:0:0:
168,48,221883,1,8,0:0:0:0:
176,40,221942,1,8,0:0:0:0:
176,40,222001,1,0,0:0:0:0:
176,40,222060,1,0,0:0:0:0:
176,40,222119,1,8,0:0:0:0:
192,56,222177,1,0,0:0:0:0:
192,56,222236,1,8,0:0:0:0:
192,56,222295,1,0,0:0:0:0:
192,56,222354,1,8,0:0:0:0:
192,56,222413,1,8,0:0:0:0:
192,56,222472,1,8,0:0:0:0:
192,56,222530,1,8,0:0:0:0:
192,56,222589,1,0,0:0:0:0:
192,56,222648,1,0,0:0:0:0:
192,56,222707,1,8,0:0:0:0:
192,56,222766,1,8,0:0:0:0:
192,56,222824,1,0,0:0:0:0:
192,56,222883,1,8,0:0:0:0:
192,56,222942,1,0,0:0:0:0:
192,56,223001,1,0,0:0:0:0:
192,56,223060,1,8,0:0:0:0:
152,64,223177,1,0,0:0:0:0:
152,64,223236,1,8,0:0:0:0:
152,64,223295,1,0,0:0:0:0:
152,64,223354,1,8,0:0:0:0:
152,64,223413,1,0,0:0:0:0:
152,64,223472,1,0,0:0:0:0:
152,64,223530,1,8,0:0:0:0:
168,64,223648,1,0,0:0:0:0:
168,64,223707,1,0,0:0:0:0:
168,64,223766,1,8,0:0:0:0:
168,64,223824,1,0,0:0:0:0:
168,64,223883,1,8,0:0:0:0:
168,64,223942,1,8,0:0:0:0:
168,64,224001,1,0,0:0:0:0:
200,48,224119,1,0,0:0:0:0:
200,48,224236,1,8,0:0:0:0:
176,16,224354,1,0,0:0:0:0:
192,32,224472,1,8,0:0:0:0:
240,112,224550,1,0,0:0:0:0:
240,112,224628,1,0,0:0:0:0:
240,112,224707,1,8,0:0:0:0:
240,112,224785,1,0,0:0:0:0:
208,48,224864,1,8,0:0:0:0:
240,112,224942,1,4,0:0:0:0:
224,96,225099,1,4,0:0:0:0:
224,96,225256,1,4,0:0:0:0:
224,96,225413,1,4,0:0:0:0:
224,96,225570,1,4,0:0:0:0:
224,96,225726,1,4,0:0:0:0:
224,96,225883,1,4,0:0:0:0:
200,96,226001,1,0,0:0:0:0:
200,96,226119,1,8,0:0:0:0:
192,16,226177,1,8,0:0:0:0:
200,96,226236,1,0,0:0:0:0:
200,96,226354,1,0,0:0:0:0:
200,96,226472,1,8,0:0:0:0:
184,40,226530,1,8,0:0:0:0:
200,96,226589,1,0,0:0:0:0:
200,96,226707,1,0,0:0:0:0:
192,96,226824,1,8,0:0:0:0:
296,184,226855,1,8,0:0:0:0:
288,176,226942,1,0,0:0:0:0:
296,184,226972,1,0,0:0:0:0:
296,184,227060,1,8,0:0:0:0:
184,24,227177,1,8,0:0:0:0:
184,24,227295,1,0,0:0:0:0:
208,32,227324,1,0,0:0:0:0:
208,32,227413,1,8,0:0:0:0:
208,32,227442,1,8,0:0:0:0:
208,32,227530,1,0,0:0:0:0:
224,80,227649,1,8,0:0:0:0:
224,80,227766,1,0,0:0:0:0:
184,64,227883,1,0,0:0:0:0:
208,32,227942,1,0,0:0:0:0:
184,64,228001,1,8,0:0:0:0:
176,72,228118,1,0,0:0:0:0:
208,32,228177,1,8,0:0:0:0:
176,64,228236,1,0,0:0:0:0:
208,32,228295,1,0,0:0:0:0:
176,72,228354,1,8,0:0:0:0:
176,72,228471,1,0,0:0:0:0:
184,40,228530,1,0,0:0:0:0:
176,72,228589,1,8,0:0:0:0:
176,72,228707,1,8,0:0:0:0:
264,80,228766,1,0,0:0:0:0:
176,48,228824,1,0,0:0:0:0:
176,48,228883,1,8,0:0:0:0:
264,80,228942,1,0,0:0:0:0:
176,48,229001,1,0,0:0:0:0:
176,48,229060,1,8,0:0:0:0:
168,77,229119,1,0,0:0:0:0:
176,48,229177,1,0,0:0:0:0:
176,48,229236,1,8,0:0:0:0:
264,80,229295,1,0,0:0:0:0:
176,48,229354,1,0,0:0:0:0:
176,48,229413,1,8,0:0:0:0:
176,48,229648,1,0,0:0:0:0:
184,56,229766,1,0,0:0:0:0:
160,64,229883,1,8,0:0:0:0:
168,96,229962,1,8,0:0:0:0:
168,96,230040,1,8,0:0:0:0:
168,96,230119,1,8,0:0:0:0:
168,96,230197,1,8,0:0:0:0:
168,96,230275,1,8,0:0:0:0:
192,72,230354,1,0,0:0:0:0:
232,104,230413,1,8,0:0:0:0:
184,48,230472,1,0,0:0:0:0:
200,56,230530,1,0,0:0:0:0:
184,48,230589,1,8,0:0:0:0:
224,112,230648,1,0,0:0:0:0:
224,112,230707,1,8,0:0:0:0:
224,112,230766,1,8,0:0:0:0:
224,112,230824,1,0,0:0:0:0:
160,64,230942,1,0,0:0:0:0:
160,64,231001,1,0,0:0:0:0:
160,64,231060,1,8,0:0:0:0:
176,40,231177,1,0,0:0:0:0:
176,40,231295,1,8,0:0:0:0:
200,48,231413,1,0,0:0:0:0:
200,48,231530,1,8,0:0:0:0:
184,48,231589,1,8,0:0:0:0:
184,56,231648,1,0,0:0:0:0:
184,56,231707,1,0,0:0:0:0:
184,56,231766,1,8,0:0:0:0:
208,56,231824,1,0,0:0:0:0:
208,56,231883,1,8,0:0:0:0:
208,56,231942,1,8,0:0:0:0:
208,56,232001,1,0,0:0:0:0:
176,40,232119,1,0,0:0:0:0:
184,40,232177,1,0,0:0:0:0:
176,40,232236,5,8,0:0:0:0:
184,40,232295,1,8,0:0:0:0:
184,40,232354,1,0,0:0:0:0:
168,16,232472,1,0,0:0:0:0:
176,32,232589,1,0,0:0:0:0:
192,56,232648,1,0,0:0:0:0:
192,56,232707,1,8,0:0:0:0:
192,64,232766,1,0,0:0:0:0:
192,32,232883,1,8,0:0:0:0:
216,24,232942,1,0,0:0:0:0:
192,64,233001,1,0,0:0:0:0:
184,72,233060,1,8,0:0:0:0:
224,56,233119,1,0,0:0:0:0:
224,56,233177,1,8,0:0:0:0:
176,96,233295,1,8,0:0:0:0:
240,176,233413,5,4,0:0:0:0:
240,224,233530,1,0,0:0:0:0:
240,224,233648,1,8,0:0:0:0:
240,224,233766,1,0,0:0:0:0:
240,224,233883,1,0,0:0:0:0:
232,224,234001,1,8,0:0:0:0:
232,224,234119,1,4,0:0:0:0:
152,16,234472,1,0,0:0:0:0:
152,16,234590,1,8,0:0:0:0:
152,16,234708,1,8,0:0:0:0:
192,48,234824,1,8,0:0:0:0:
192,48,234942,1,0,0:0:0:0:
192,48,235060,1,8,0:0:0:0:
192,48,235177,1,0,0:0:0:0:
192,48,235295,1,0,0:0:0:0:
208,40,235413,1,8,0:0:0:0:
208,40,235472,1,0,0:0:0:0:
208,40,235530,1,8,0:0:0:0:
176,48,235648,1,8,0:0:0:0:
176,48,235707,1,0,0:0:0:0:
176,48,235766,1,8,0:0:0:0:
176,56,235824,1,8,0:0:0:0:
176,56,235883,1,0,0:0:0:0:
176,56,236001,1,8,0:0:0:0:
176,56,236060,1,8,0:0:0:0:
176,56,236119,1,0,0:0:0:0:
176,56,236177,1,8,0:0:0:0:
176,56,236236,1,0,0:0:0:0:
192,16,236354,1,0,0:0:0:0:
176,40,236472,1,8,0:0:0:0:
192,24,236589,1,8,0:0:0:0:
192,24,236707,1,0,0:0:0:0:
192,24,236824,1,8,0:0:0:0:
192,24,236883,1,0,0:0:0:0:
184,64,237001,1,8,0:0:0:0:
184,64,237060,1,0,0:0:0:0:
176,56,237177,1,8,0:0:0:0:
160,96,237295,1,0,0:0:0:0:
160,96,237413,1,8,0:0:0:0:
160,96,237530,1,0,0:0:0:0:
160,96,237648,1,8,0:0:0:0:
160,96,237766,1,0,0:0:0:0:
160,96,237883,1,4,0:0:0:0:
160,96,238001,1,0,0:0:0:0:
160,104,238119,1,8,0:0:0:0:
176,24,238158,1,8,0:0:0:0:
224,64,238197,1,8,0:0:0:0:
224,64,238236,1,8,0:0:0:0:
224,64,238275,1,8,0:0:0:0:
224,64,238315,1,8,0:0:0:0:
224,64,238354,1,0,0:0:0:0:
176,80,238472,1,0,0:0:0:0:
192,96,238530,1,0,0:0:0:0:
192,96,238589,1,8,0:0:0:0:
184,96,238648,1,0,0:0:0:0:
184,96,238766,1,0,0:0:0:0:
144,96,238824,1,8,0:0:0:0:
160,112,238942,1,0,0:0:0:0:
160,112,239060,1,0,0:0:0:0:
200,128,239295,1,8,0:0:0:0:
168,64,239413,1,0,0:0:0:0:
192,128,239530,1,8,0:0:0:0:
216,48,239648,1,0,0:0:0:0:
216,48,239766,1,0,0:0:0:0:
216,48,239883,1,8,0:0:0:0:
216,24,240001,1,0,0:0:0:0:
192,32,240119,1,8,0:0:0:0:
208,56,240236,1,0,0:0:0:0:
208,56,240472,1,12,0:0:0:0:
240,80,240942,1,12,0:0:0:0:
240,96,241060,1,0,0:0:0:0:
240,96,241177,1,8,0:0:0:0:
240,96,241295,1,0,0:0:0:0:
240,96,241413,1,0,0:0:0:0:
240,96,241530,1,8,0:0:0:0:
240,96,241648,1,0,0:0:0:0:
240,96,241766,1,0,0:0:0:0:
240,96,241883,1,8,0:0:0:0:
192,40,242001,1,0,0:0:0:0:
192,40,242060,1,0,0:0:0:0:
192,40,242119,1,8,0:0:0:0:
208,64,242177,1,8,0:0:0:0:
208,64,242236,1,8,0:0:0:0:
184,32,242295,1,8,0:0:0:0:
184,32,242354,1,0,0:0:0:0:
176,40,242472,1,8,0:0:0:0:
176,40,242589,1,0,0:0:0:0:
176,40,242707,1,0,0:0:0:0:
168,40,242824,1,12,0:0:0:0:
176,40,242942,1,0,0:0:0:0:
176,40,243060,1,8,0:0:0:0:
176,40,243177,1,0,0:0:0:0:
168,40,243295,1,0,0:0:0:0:
168,40,243413,1,8,0:0:0:0:
168,48,243530,1,0,0:0:0:0:
168,48,243648,1,0,0:0:0:0:
168,48,243766,1,8,0:0:0:0:
192,16,243883,1,0,0:0:0:0:
192,16,243942,1,0,0:0:0:0:
160,64,244001,1,8,0:0:0:0:
216,80,244119,1,8,0:0:0:0:
288,96,244158,1,8,0:0:0:0:
288,96,244197,1,8,0:0:0:0:
216,80,244236,1,0,0:0:0:0:
168,40,244354,1,0,0:0:0:0:
208,48,244472,1,12,0:0:0:0:
192,96,244707,1,4,0:0:0:0:
192,96,244824,1,8,0:0:0:0:
192,96,244942,1,8,0:0:0:0:
192,96,245059,1,4,0:0:0:0:
192,96,245177,1,8,0:0:0:0:
192,96,245295,1,8,0:0:0:0:
192,96,245412,1,4,0:0:0:0:
184,96,245530,1,8,0:0:0:0:
184,96,245648,1,0,0:0:0:0:
184,96,245765,1,8,0:0:0:0:
184,96,245883,1,0,0:0:0:0:
184,96,246001,1,8,0:0:0:0:
184,96,246118,1,8,0:0:0:0:
184,96,246177,1,0,0:0:0:0:
184,96,246236,1,8,0:0:0:0:
184,96,246295,1,8,0:0:0:0:
184,96,246354,1,0,0:0:0:0:
200,8,246412,1,8,0:0:0:0:
192,80,246471,1,0,0:0:0:0:
192,80,246530,1,0,0:0:0:0:
192,80,246589,1,8,0:0:0:0:
184,40,246707,1,8,0:0:0:0:
152,64,246765,1,8,0:0:0:0:
216,40,246824,1,0,0:0:0:0:
192,64,246883,1,0,0:0:0:0:
192,64,246942,1,8,0:0:0:0:
192,64,247059,1,4,0:0:0:0:
208,48,247177,1,8,0:0:0:0:
176,160,247295,1,8,0:0:0:0:
168,24,247354,1,8,0:0:0:0:
152,40,247412,1,0,0:0:0:0:
192,72,247471,1,8,0:0:0:0:
152,40,247530,1,0,0:0:0:0:
192,72,247589,1,0,0:0:0:0:
184,32,247648,1,8,0:0:0:0:
176,48,247707,1,8,0:0:0:0:
184,32,247765,1,0,0:0:0:0:
176,48,247824,1,0,0:0:0:0:
184,32,247883,1,8,0:0:0:0:
184,32,248001,1,4,0:0:0:0:
176,48,248118,1,8,0:0:0:0:
176,48,248236,1,8,0:0:0:0:
176,48,248353,1,4,0:0:0:0:
176,48,248471,1,8,0:0:0:0:
176,48,248589,1,8,0:0:0:0:
176,48,248706,1,0,0:0:0:0:
232,104,248765,1,8,0:0:0:0:
232,104,248824,1,0,0:0:0:0:
232,104,248883,1,0,0:0:0:0:
232,104,248942,1,8,0:0:0:0:
192,72,249001,1,8,0:0:0:0:
192,64,249059,1,0,0:0:0:0:
192,56,249118,1,8,0:0:0:0:
184,48,249177,1,0,0:0:0:0:
176,96,249295,1,8,0:0:0:0:
176,96,249354,1,0,0:0:0:0:
176,96,249412,1,8,0:0:0:0:
176,32,249471,1,0,0:0:0:0:
176,40,249530,1,8,0:0:0:0:
176,40,249589,1,8,0:0:0:0:
168,40,249648,1,4,0:0:0:0:
200,48,249766,1,8,0:0:0:0:
200,48,249884,1,8,0:0:0:0:
200,48,250001,1,4,0:0:0:0:
168,32,250118,1,8,0:0:0:0:
168,32,250236,1,8,0:0:0:0:
200,56,250354,1,4,0:0:0:0:
208,64,250471,1,8,0:0:0:0:
264,192,250530,1,0,0:0:0:0:
208,72,250589,1,8,0:0:0:0:
208,80,250648,1,0,0:0:0:0:
208,80,250707,1,0,0:0:0:0:
208,80,250765,1,8,0:0:0:0:
208,80,250824,1,0,0:0:0:0:
208,80,250883,1,0,0:0:0:0:
208,80,250942,1,8,0:0:0:0:
208,80,251001,1,0,0:0:0:0:
208,80,251059,1,8,0:0:0:0:
208,80,251118,1,8,0:0:0:0:
208,80,251177,1,0,0:0:0:0:
208,80,251236,1,0,0:0:0:0:
208,80,251295,1,12,0:0:0:0:
264,184,251412,1,0,0:0:0:0:
264,184,251530,1,0,0:0:0:0:
264,184,251647,1,12,0:0:0:0:
264,184,251765,1,0,0:0:0:0:
264,184,251883,1,0,0:0:0:0:
176,16,252001,1,12,0:0:0:0:
176,40,252118,1,0,0:0:0:0:
264,104,252236,1,0,0:0:0:0:
264,104,252314,1,8,0:0:0:0:
264,104,252393,1,0,0:0:0:0:
264,104,252471,1,8,0:0:0:0:
264,104,252550,1,0,0:0:0:0:
264,104,252628,1,0,0:0:0:0:
264,104,252707,1,8,0:0:0:0:
216,32,252824,1,8,0:0:0:0:
208,40,252942,1,0,0:0:0:0:
179,6,252981,1,8,0:0:0:0:
192,80,253020,1,8,0:0:0:0:
192,80,253059,1,0,0:0:0:0:
192,80,253118,1,0,0:0:0:0:
192,80,253177,1,8,0:0:0:0:
192,96,253236,1,8,0:0:0:0:
192,96,253295,1,0,0:0:0:0:
136,112,253354,1,8,0:0:0:0:
136,112,253412,1,0,0:0:0:0:
195,30,253452,1,0,0:0:0:0:
184,16,253491,1,0,0:0:0:0:
192,24,253530,1,8,0:0:0:0:
200,32,253648,1,0,0:0:0:0:
184,40,253707,1,0,0:0:0:0:
216,64,253765,1,0,0:0:0:0:
192,24,253824,1,0,0:0:0:0:
216,64,253883,1,8,0:0:0:0:
176,64,254001,1,0,0:0:0:0:
176,64,254118,1,8,0:0:0:0:
176,48,254236,1,0,0:0:0:0:
200,56,254354,1,0,0:0:0:0:
200,56,254471,1,8,0:0:0:0:
200,16,254589,1,0,0:0:0:0:
184,104,254648,1,0,0:0:0:0:
184,104,254707,1,0,0:0:0:0:
184,104,254746,1,0,0:0:0:0:
190,65,254785,1,0,0:0:0:0:
184,104,254824,1,8,0:0:0:0:
240,48,254942,1,4,0:0:0:0:
224,48,255059,1,0,0:0:0:0:
192,88,255177,1,8,0:0:0:0:
192,88,255236,1,0,0:0:0:0:
192,88,255295,1,8,0:0:0:0:
192,88,255354,1,8,0:0:0:0:
192,88,255412,1,0,0:0:0:0:
192,88,255471,1,0,0:0:0:0:
168,24,255530,1,8,0:0:0:0:
184,24,255765,1,0,0:0:0:0:
192,32,255883,1,0,0:0:0:0:
192,40,256001,1,8,0:0:0:0:
464,256,256118,1,8,0:0:0:0:
192,40,256236,1,4,0:0:0:0:
216,104,256353,1,8,0:0:0:0:
216,104,256471,1,8,0:0:0:0:
200,64,256588,1,4,0:0:0:0:
208,136,256706,1,8,0:0:0:0:
216,144,256824,1,8,0:0:0:0:
200,64,256941,1,4,0:0:0:0:
216,144,257059,1,8,0:0:0:0:
216,144,257177,1,8,0:0:0:0:
200,64,257294,1,4,0:0:0:0:
216,144,257412,1,8,0:0:0:0:
216,144,257530,1,8,0:0:0:0:
168,32,257647,1,4,0:0:0:0:
216,144,257765,1,8,0:0:0:0:
216,144,257883,1,8,0:0:0:0:
168,32,258000,1,4,0:0:0:0:
216,144,258118,1,8,0:0:0:0:
216,144,258236,1,8,0:0:0:0:
168,32,258353,1,4,0:0:0:0:
216,144,258478,1,8,0:0:0:0:
216,144,258603,1,8,0:0:0:0:
168,32,258728,1,4,0:0:0:0:
216,144,258861,1,8,0:0:0:0:
216,144,258994,1,8,0:0:0:0:
168,32,259128,1,4,0:0:0:0:
216,144,259281,1,8,0:0:0:0:
216,144,259435,1,8,0:0:0:0:
168,32,259589,1,4,0:0:0:0:
216,144,259770,1,8,0:0:0:0:
216,144,259952,1,8,0:0:0:0:
168,32,260134,1,4,0:0:0:0:
216,144,260364,1,8,0:0:0:0:
216,144,260595,1,8,0:0:0:0:
168,32,260826,1,4,0:0:0:0:
216,144,261126,1,8,0:0:0:0:
216,144,261459,1,8,0:0:0:0:
168,32,261959,1,4,0:0:0:0:
304,240,264040,1,0,0:0:0:0:
168,128,264176,1,0,0:0:0:0:
160,136,264312,1,8,0:0:0:0:
160,136,264449,1,8,0:0:0:0:
152,72,264585,1,0,0:0:0:0:
152,72,264858,1,0,0:0:0:0:
152,72,265130,1,8,0:0:0:0:
152,72,265422,1,0,0:0:0:0:
152,72,265715,1,8,0:0:0:0:
152,72,265872,1,0,0:0:0:0:
152,72,266030,1,0,0:0:0:0:
152,72,266188,1,8,0:0:0:0:
152,72,266346,1,8,0:0:0:0:
152,72,266670,1,0,0:0:0:0:
152,72,266994,1,0,0:0:0:0:
152,72,267336,1,8,0:0:0:0:
152,72,267679,1,0,0:0:0:0:
152,72,268031,1,0,0:0:0:0:
152,72,268406,1,0,0:0:0:0:
152,72,268599,1,8,0:0:0:0:
152,72,268793,1,8,0:0:0:0:
144,72,268993,1,0,0:0:0:0:
144,72,269193,1,0,0:0:0:0:
152,80,269606,1,8,0:0:0:0:
152,80,270034,1,0,0:0:0:0:
152,80,270264,1,0,0:0:0:0:
152,80,270495,1,8,0:0:0:0:
152,80,270975,1,8,0:0:0:0:
152,80,271496,1,0,0:0:0:0:
152,80,271768,1,0,0:0:0:0:
152,80,272041,1,8,0:0:0:0:
152,80,272341,1,8,0:0:0:0:
152,80,272656,1,8,0:0:0:0:
152,80,273322,1,0,0:0:0:0:
152,80,273697,1,0,0:0:0:0:
152,80,274097,1,8,0:0:0:0:
152,80,274513,1,0,0:0:0:0:
152,80,274989,1,8,0:0:0:0:
152,80,275489,1,0,0:0:0:0:
152,80,276579,1,0,0:0:0:0:
152,80,277155,1,8,0:0:0:0:
152,80,277755,1,0,0:0:0:0:
152,80,278386,1,8,0:0:0:0:
152,80,279052,1,0,0:0:0:0:
152,80,279766,1,8,0:0:0:0:
152,80,280545,1,8,0:0:0:0:
152,80,281378,1,12,0:0:0:0:
216,40,282394,1,4,0:0:0:0:
