osu file format v14

[General]
AudioFilename: audio.mp3
AudioLeadIn: 0
PreviewTime: 156177
Countdown: 1
SampleSet: None
StackLeniency: 0.7
Mode: 0
LetterboxInBreaks: 0
WidescreenStoryboard: 1

[Editor]
DistanceSpacing: 0.8
BeatDivisor: 4
GridSize: 4
TimelineZoom: 5.099998

[Metadata]
Title:Nightmare of Hornets Squad
TitleUnicode:Nightmare of Hornets Squad
Artist:Camellia
ArtistUnicode:Camellia
Creator:Krovesia
Version:Section 2
Source:
Tags:
BeatmapID:2099170
BeatmapSetID:516819

[Difficulty]
HPDrainRate:7
CircleSize:4
OverallDifficulty:8
ApproachRate:10
SliderMultiplier:2
SliderTickRate:1

[Events]
//Background and Video events
0,0,"maxresdefault.jpg",0,0
//Break Periods
//Storyboard Layer 0 (Background)
//Storyboard Layer 1 (Fail)
//Storyboard Layer 2 (Pass)
//Storyboard Layer 3 (Foreground)
//Storyboard Sound Samples

[TimingPoints]
29830,235.294117647059,4,1,0,100,1,0
29830,-80,4,1,0,100,0,0
30182,-100,4,1,0,100,0,0
30771,-100,4,1,0,100,0,0
32653,-80,4,1,0,100,0,0
33594,-111.111111111111,4,1,0,100,0,0
36418,-80,4,1,0,100,0,0
37359,-100,4,1,0,100,0,0
38771,-100,4,1,0,100,0,0
40182,-83.3333333333333,4,1,0,100,0,0
43006,-100,4,1,0,100,0,0
43241,-125,4,1,0,100,0,0
43477,-166.666666666667,4,1,0,100,0,0
43712,-250,4,1,0,100,0,0
44418,-125,4,1,0,100,0,0
52653,-133.333333333333,4,1,0,100,0,0
55947,-100,4,1,0,100,0,0
57645,-100,4,1,0,100,0,0
57829,-100,4,1,0,100,0,0
131942,235.294117647059,4,1,0,100,1,0
133824,293.398533007335,4,1,0,100,1,0
134117,251.046025104603,4,1,0,100,1,0
136627,300,4,1,0,100,1,0
136927,255.863539445629,4,1,0,100,1,0
137695,288.461538461538,4,1,0,100,1,0
137983,271.493212669683,4,1,0,100,1,0
139068,305.343511450382,4,1,0,100,1,0
139373,323.450134770889,4,1,0,100,1,0
139702,383.450134770889,4,1,0,100,1,0
140085,383.450134770889,4,1,0,100,1,0
140544,571.428571428571,4,1,0,100,1,0
145115,606.960606060606,4,1,0,100,1,0
146292,572.428571428571,4,1,0,100,1,0
146863,607.208571428571,4,1,0,100,1,0
147470,571.548571428571,4,1,0,100,1,0
148041,571.548571428571,4,1,0,100,1,0
148628,571.428571428571,4,1,0,100,1,0
149199,601.428571428571,4,1,0,100,1,0
153409,639.428571428571,4,1,0,100,1,0
154048,631.578947368421,4,1,0,100,1,0
156573,669.488571428571,4,1,0,100,1,0
157242,270.27027027027,4,1,0,100,1,0
159404,-80,4,1,0,100,0,0
160485,-133.333333333333,4,1,0,100,0,0
161566,-83.3333333333333,4,1,0,100,0,0
161971,-100,4,1,0,100,0,0
162647,-133.333333333333,4,1,0,100,0,0
163998,-100,4,1,0,100,0,0
167512,-83.3333333333333,4,1,0,100,0,0
167579,-80,4,1,0,100,0,0
167782,-100,4,1,0,100,0,0
168052,-80,4,1,0,100,0,0
177512,254.237288135593,4,1,0,100,1,0
180562,239.043824701195,4,1,0,100,1,0
183191,210.526315789474,4,1,0,100,1,0
184607,235.294117647059,4,1,0,100,1,0
258959,337.354117647059,4,1,0,100,1,0
259633,431.654676258993,4,1,0,100,1,0
260065,609.137055837563,4,1,0,100,1,0
260674,1391.3488372093,4,1,0,100,1,0
264152,571.428571428571,4,1,0,100,1,0

[HitObjects]
80,85,157242,5,0,0:0:0:0:
126,101,157309,1,0,0:0:0:0:
154,141,157377,2,0,L|149:205,1,50
81,294,157512,5,0,0:0:0:0:
108,334,157579,1,0,0:0:0:0:
154,352,157647,1,0,0:0:0:0:
202,340,157714,1,0,0:0:0:0:
234,303,157782,2,0,L|229:253,1,50
311,158,157917,2,0,L|306:207,1,50
349,324,158052,5,0,0:0:0:0:
393,302,158120,1,0,0:0:0:0:
423,262,158187,1,0,0:0:0:0:
433,214,158255,1,0,0:0:0:0:
421,166,158323,2,0,L|425:116,1,50
354,89,158458,2,0,L|349:39,1,50
146,166,158593,5,0,0:0:0:0:
185,119,158660,1,0,0:0:0:0:
246,112,158728,1,0,0:0:0:0:
295,148,158795,1,0,0:0:0:0:
306,207,158863,2,0,L|301:256,1,50
157,335,158998,5,0,0:0:0:0:
205,301,159066,1,0,0:0:0:0:
221,245,159133,1,0,0:0:0:0:
197,191,159201,1,0,0:0:0:0:
145,165,159269,6,0,L|150:122,3,25
29,271,159404,6,0,P|99:239|149:259,1,125
273,347,159674,1,0,0:0:0:0:
374,130,159809,2,0,L|369:194,1,62.5
357,354,159944,6,0,B|361:267|361:267|350:282|332:291,1,125
145,166,160214,5,0,0:0:0:0:
102,313,160350,1,0,0:0:0:0:
226,66,160485,6,0,L|168:90,1,37.5000014305115
301,144,160620,2,0,L|239:130,1,37.5000014305115
317,250,160755,2,0,L|274:203,1,37.5000014305115
398,91,160890,5,0,0:0:0:0:
398,91,160958,1,0,0:0:0:0:
398,91,161025,2,0,L|356:81,1,37.5000014305115
419,229,161160,2,0,L|390:197,1,37.5000014305115
357,354,161295,6,0,L|349:295,1,37.5000014305115
296,185,161431,2,0,L|291:222,1,37.5000014305115
176,344,161566,6,0,P|264:314|290:338,1,119.999996337891
70,242,161836,6,0,B|86:279|86:279|80:321,1,59.9999981689454
159,147,161971,2,0,B|143:184|143:184|149:226,1,59.9999981689454
306,91,162106,6,0,P|257:65|194:87,1,100
291,294,162377,5,0,0:0:0:0:
248,147,162513,1,0,0:0:0:0:
59,290,162647,6,0,L|33:317,1,37.5000014305115
86,203,162782,2,0,L|49:211,1,37.5000014305115
159,147,162917,2,0,L|124:132,1,37.5000014305115
291,294,163052,6,0,L|254:302,1,37.5000014305115
337,184,163187,2,0,L|311:211,1,37.5000014305115
312,67,163323,6,0,L|307:104,1,37.5000014305115
222,207,163458,2,0,L|217:169,1,37.5000014305115
180,16,163593,2,0,L|175:53,1,37.5000014305115
142,264,163728,6,0,B|100:222|100:222|60:263,1,112.500004291535
291,294,163998,5,0,0:0:0:0:
260,363,164088,2,0,P|229:374|195:375,1,66.6666666666667
350,199,164269,5,0,0:0:0:0:
381,268,164359,2,0,P|411:279|445:280,1,66.6666666666667
291,104,164539,5,0,0:0:0:0:
260,173,164629,2,0,P|229:184|195:185,1,66.6666666666667
431,36,164809,6,0,L|429:104,1,50
350,199,164944,2,2,L|348:149,1,50
179,62,165079,5,0,0:0:0:0:
211,129,165169,2,0,P|242:141|276:141,1,66.6666666666667
120,157,165350,5,0,0:0:0:0:
90,226,165440,2,0,P|59:238|24:238,1,66.6666666666667
179,252,165620,5,0,0:0:0:0:
211,321,165710,2,0,P|242:333|276:333,1,66.6666666666667
350,199,165890,5,0,0:0:0:0:
386,354,166025,1,0,0:0:0:0:
459,222,166160,6,0,L|482:277,1,50
447,139,166296,6,0,L|502:161,1,50
379,88,166431,6,0,L|434:65,1,50
294,100,166566,6,0,L|316:44,1,50
242,168,166701,6,0,L|219:113,1,50
253,252,166836,6,0,L|197:229,1,50
350,199,166971,1,0,0:0:0:0:
363,246,167038,1,0,0:0:0:0:
353,295,167106,1,0,0:0:0:0:
324,335,167173,1,0,0:0:0:0:
280,357,167241,1,0,0:0:0:0:
230,358,167308,1,0,0:0:0:0:
185,337,167376,1,0,0:0:0:0:
154,299,167443,1,0,0:0:0:0:
143,250,167512,6,0,B|135:220|135:220|88:300,1,119.999996337891
13,279,167714,1,0,0:0:0:0:
13,279,167782,2,0,L|45:225,1,50
71,118,167917,2,0,L|33:180,1,50
154,299,168052,6,0,P|215:320|253:271,1,125
