osu file format v14

[General]
AudioFilename: audio.mp3
AudioLeadIn: 0
PreviewTime: 16618
Countdown: 0
SampleSet: None
StackLeniency: 0.7
Mode: 3
LetterboxInBreaks: 0
SpecialStyle: 1
WidescreenStoryboard: 1

[Editor]
Bookmarks: 5310,9060,16560,18435,20310,22185,24060,25935,27810,29685,37653,52536,102810,117810,168489,200494
DistanceSpacing: 1
BeatDivisor: 8
GridSize: 16
TimelineZoom: 2.5

[Metadata]
Title:Night Raid with a Dragon
TitleUnicode:Night Raid with a Dragon
Artist:Camellia
ArtistUnicode:かめりあ
Creator:Hydria
Version:Easy
Source:
Tags:CTCD-019 Camellia Blackmagik Blazing
BeatmapID:2183480
BeatmapSetID:1044481

[Difficulty]
HPDrainRate:6.9
CircleSize:4
OverallDifficulty:6.9
ApproachRate:5
SliderMultiplier:1.4
SliderTickRate:1

[Events]
//Background and Video events
0,0,"ccwcyVX2.jpg",0,0
//Break Periods
2,95505,101605
//Storyboard Layer 0 (Background)
//Storyboard Layer 1 (Fail)
//Storyboard Layer 2 (Pass)
//Storyboard Layer 3 (Foreground)
//Storyboard Layer 4 (Overlay)
//Storyboard Sound Samples

[TimingPoints]
1555,468.75,4,1,0,45,1,0
132805,454.545454545455,4,1,0,45,1,0
132805,-103.092783505155,4,1,0,45,0,0
134623,441.176470588235,4,1,0,45,1,0
134623,-106.382978723404,4,1,0,45,0,0
136387,425.531914893617,4,1,0,45,1,0
136387,-109.89010989011,4,1,0,45,0,0
138089,400,4,1,0,45,1,0
138089,-117.647058823529,4,1,0,45,0,0

[HitObjects]
64,192,1555,5,0,0:0:0:0:
320,192,1672,1,0,0:0:0:0:
64,192,1906,1,0,0:0:0:0:
320,192,2023,1,0,0:0:0:0:
192,192,2258,1,0,0:0:0:0:
320,192,2375,1,0,0:0:0:0:
448,192,2492,1,0,0:0:0:0:
192,192,2726,1,0,0:0:0:0:
448,192,2844,1,0,0:0:0:0:
192,192,3078,1,0,0:0:0:0:
448,192,3195,1,0,0:0:0:0:
320,192,3430,1,0,0:0:0:0:
64,192,3547,1,0,0:0:0:0:
64,192,3781,1,0,0:0:0:0:
320,192,3898,1,0,0:0:0:0:
64,192,4133,1,0,0:0:0:0:
192,192,4250,1,0,0:0:0:0:
320,192,4308,1,0,0:0:0:0:
448,192,4367,1,0,0:0:0:0:
192,192,4484,128,0,4836:0:0:0:0:
64,192,4836,1,0,0:0:0:0:
448,192,4953,128,0,5187:0:0:0:0:
320,192,5187,1,0,0:0:0:0:
64,192,5305,128,0,5422:0:0:0:0:
320,192,5422,1,0,0:0:0:0:
448,192,5539,128,0,5656:0:0:0:0:
192,192,5656,1,0,0:0:0:0:
320,192,5773,128,0,6242:0:0:0:0:
64,192,6242,128,0,6711:0:0:0:0:
448,192,6711,128,0,7648:0:0:0:0:
192,192,7180,1,0,0:0:0:0:
64,192,7297,1,0,0:0:0:0:
192,192,7531,1,0,0:0:0:0:
64,192,7648,1,0,0:0:0:0:
192,192,7883,1,0,0:0:0:0:
64,192,8000,1,0,0:0:0:0:
320,192,8058,1,0,0:0:0:0:
448,192,8117,1,0,0:0:0:0:
192,192,8234,128,0,8586:0:0:0:0:
320,192,8586,1,0,0:0:0:0:
64,192,8703,128,0,9055:0:0:0:0:
448,192,9055,1,0,0:0:0:0:
64,192,9406,1,0,0:0:0:0:
320,192,9523,1,0,0:0:0:0:
192,192,9758,1,0,0:0:0:0:
320,192,9875,1,0,0:0:0:0:
448,192,9992,1,0,0:0:0:0:
64,192,10226,1,0,0:0:0:0:
320,192,10344,1,0,0:0:0:0:
64,192,10578,1,0,0:0:0:0:
320,192,10695,1,0,0:0:0:0:
192,192,10930,1,0,0:0:0:0:
448,192,11047,1,0,0:0:0:0:
192,192,11281,1,0,0:0:0:0:
448,192,11398,1,0,0:0:0:0:
320,192,11633,1,0,0:0:0:0:
64,192,11750,1,0,0:0:0:0:
192,192,11808,1,0,0:0:0:0:
320,192,11867,1,0,0:0:0:0:
448,192,11984,128,0,12336:0:0:0:0:
64,192,12336,1,0,0:0:0:0:
320,192,12453,128,0,12687:0:0:0:0:
192,192,12687,1,0,0:0:0:0:
64,192,12805,1,0,0:0:0:0:
448,192,13039,1,0,0:0:0:0:
320,192,13097,1,0,0:0:0:0:
192,192,13156,1,0,0:0:0:0:
320,192,13273,1,0,0:0:0:0:
192,192,13332,1,0,0:0:0:0:
64,192,13390,1,0,0:0:0:0:
448,192,13508,128,0,14680:0:0:0:0:
64,192,13625,1,0,0:0:0:0:
192,192,13742,1,0,0:0:0:0:
64,192,13976,1,0,0:0:0:0:
192,192,14094,1,0,0:0:0:0:
64,192,14211,1,0,0:0:0:0:
320,192,14328,128,0,14680:0:0:0:0:
64,192,14680,128,0,14797:0:0:0:0:
448,192,14797,128,0,14914:0:0:0:0:
192,192,15031,128,0,15148:0:0:0:0:
448,192,15148,128,0,15265:0:0:0:0:
320,192,15265,128,0,15500:0:0:0:0:
448,192,15500,1,0,0:0:0:0:
192,192,15558,1,0,0:0:0:0:
64,192,15617,128,0,16555:0:0:0:0:
192,192,16555,1,0,0:0:0:0:
192,192,16672,1,0,0:0:0:0:
320,192,16789,1,0,0:0:0:0:
64,192,17023,1,0,0:0:0:0:
192,192,17199,1,0,0:0:0:0:
448,192,17258,128,0,17492:0:0:0:0:
192,192,17492,1,0,0:0:0:0:
192,192,17609,1,0,0:0:0:0:
320,192,17726,1,0,0:0:0:0:
64,192,17844,1,0,0:0:0:0:
64,192,17961,1,0,0:0:0:0:
320,192,18195,1,0,0:0:0:0:
192,192,18430,1,0,0:0:0:0:
192,192,18547,1,0,0:0:0:0:
448,192,18664,1,0,0:0:0:0:
448,192,18781,1,0,0:0:0:0:
64,192,18898,1,0,0:0:0:0:
320,192,19133,128,0,19367:0:0:0:0:
192,192,19367,1,0,0:0:0:0:
192,192,19484,1,0,0:0:0:0:
320,192,19601,1,0,0:0:0:0:
320,192,19719,1,0,0:0:0:0:
64,192,19836,1,0,0:0:0:0:
448,192,19992,1,0,0:0:0:0:
192,192,20070,1,0,0:0:0:0:
192,192,20226,1,0,0:0:0:0:
448,192,20305,1,0,0:0:0:0:
448,192,20422,1,0,0:0:0:0:
64,192,20539,1,0,0:0:0:0:
64,192,20656,1,0,0:0:0:0:
320,192,20773,1,0,0:0:0:0:
192,192,20890,1,0,0:0:0:0:
448,192,21008,1,0,0:0:0:0:
64,192,21125,1,0,0:0:0:0:
192,192,21242,1,0,0:0:0:0:
192,192,21359,1,0,0:0:0:0:
320,192,21476,1,0,0:0:0:0:
320,192,21594,1,0,0:0:0:0:
64,192,21711,1,0,0:0:0:0:
64,192,21828,1,0,0:0:0:0:
448,192,21945,1,0,0:0:0:0:
192,192,22062,1,0,0:0:0:0:
320,192,22180,1,0,0:0:0:0:
320,192,22297,1,0,0:0:0:0:
64,192,22414,1,0,0:0:0:0:
64,192,22531,1,0,0:0:0:0:
448,192,22648,1,0,0:0:0:0:
448,192,22765,1,0,0:0:0:0:
192,192,22883,1,0,0:0:0:0:
320,192,23000,1,0,0:0:0:0:
64,192,23117,1,0,0:0:0:0:
64,192,23234,1,0,0:0:0:0:
320,192,23351,1,0,0:0:0:0:
320,192,23469,1,0,0:0:0:0:
192,192,23586,1,0,0:0:0:0:
192,192,23703,1,0,0:0:0:0:
448,192,23820,1,0,0:0:0:0:
320,192,23879,1,0,0:0:0:0:
192,192,23937,1,0,0:0:0:0:
64,192,23996,1,0,0:0:0:0:
448,192,24055,1,0,0:0:0:0:
448,192,24172,1,0,0:0:0:0:
448,192,24289,1,0,0:0:0:0:
192,192,24347,1,0,0:0:0:0:
64,192,24406,1,0,0:0:0:0:
320,192,24523,1,0,0:0:0:0:
64,192,24640,1,0,0:0:0:0:
192,192,24758,1,0,0:0:0:0:
320,192,24816,1,0,0:0:0:0:
448,192,24875,1,0,0:0:0:0:
64,192,24992,1,0,0:0:0:0:
64,192,25109,1,0,0:0:0:0:
320,192,25226,1,0,0:0:0:0:
448,192,25285,1,0,0:0:0:0:
192,192,25344,1,0,0:0:0:0:
448,192,25461,1,0,0:0:0:0:
448,192,25578,1,0,0:0:0:0:
192,192,25695,1,0,0:0:0:0:
64,192,25754,1,0,0:0:0:0:
320,192,25812,1,0,0:0:0:0:
64,192,25930,1,0,0:0:0:0:
64,192,26047,1,0,0:0:0:0:
448,192,26164,1,0,0:0:0:0:
320,192,26222,1,0,0:0:0:0:
192,192,26281,1,0,0:0:0:0:
448,192,26398,1,0,0:0:0:0:
448,192,26515,1,0,0:0:0:0:
192,192,26633,1,0,0:0:0:0:
448,192,26691,1,0,0:0:0:0:
320,192,26750,1,0,0:0:0:0:
64,192,26867,1,0,0:0:0:0:
64,192,26984,1,0,0:0:0:0:
448,192,27101,1,0,0:0:0:0:
320,192,27160,1,0,0:0:0:0:
192,192,27219,1,0,0:0:0:0:
320,192,27336,1,0,0:0:0:0:
64,192,27453,1,0,0:0:0:0:
320,192,27570,1,0,0:0:0:0:
192,192,27629,1,0,0:0:0:0:
320,192,27687,1,0,0:0:0:0:
64,192,27805,1,0,0:0:0:0:
192,192,27863,1,0,0:0:0:0:
448,192,27922,1,0,0:0:0:0:
320,192,27980,1,0,0:0:0:0:
64,192,28039,1,0,0:0:0:0:
448,192,28156,1,0,0:0:0:0:
192,192,28273,1,0,0:0:0:0:
320,192,28332,1,0,0:0:0:0:
448,192,28390,1,0,0:0:0:0:
192,192,28449,1,0,0:0:0:0:
64,192,28508,1,0,0:0:0:0:
320,192,28625,1,0,0:0:0:0:
192,192,28742,1,0,0:0:0:0:
64,192,28801,1,0,0:0:0:0:
320,192,28859,1,0,0:0:0:0:
448,192,28918,1,0,0:0:0:0:
192,192,28976,1,0,0:0:0:0:
320,192,29094,1,0,0:0:0:0:
64,192,29211,1,0,0:0:0:0:
448,192,29269,1,0,0:0:0:0:
320,192,29328,1,0,0:0:0:0:
192,192,29387,1,0,0:0:0:0:
64,192,29445,1,0,0:0:0:0:
320,192,29562,1,0,0:0:0:0:
64,192,29680,1,0,0:0:0:0:
448,192,29797,1,0,0:0:0:0:
448,192,29914,1,0,0:0:0:0:
192,192,30031,1,0,0:0:0:0:
320,192,30148,1,0,0:0:0:0:
64,192,30265,1,0,0:0:0:0:
192,192,30383,1,0,0:0:0:0:
192,192,30500,1,0,0:0:0:0:
320,192,30617,1,0,0:0:0:0:
320,192,30734,1,0,0:0:0:0:
64,192,30851,1,0,0:0:0:0:
64,192,30969,1,0,0:0:0:0:
448,192,31086,1,0,0:0:0:0:
192,192,31320,1,0,0:0:0:0:
320,192,31437,1,0,0:0:0:0:
64,192,31555,1,0,0:0:0:0:
192,192,31672,1,0,0:0:0:0:
320,192,31730,1,0,0:0:0:0:
448,192,31789,1,0,0:0:0:0:
192,192,32023,1,0,0:0:0:0:
448,192,32140,1,0,0:0:0:0:
192,192,32258,1,0,0:0:0:0:
448,192,32375,1,0,0:0:0:0:
64,192,32609,1,0,0:0:0:0:
320,192,32726,1,0,0:0:0:0:
192,192,32961,1,0,0:0:0:0:
448,192,33078,1,0,0:0:0:0:
320,192,33195,1,0,0:0:0:0:
192,192,33312,1,0,0:0:0:0:
64,192,33430,128,0,33547:0:0:0:0:
320,192,33664,128,0,33781:0:0:0:0:
192,192,33898,1,0,0:0:0:0:
64,192,34133,1,0,0:0:0:0:
320,192,34250,1,0,0:0:0:0:
64,192,34484,1,0,0:0:0:0:
320,192,34601,1,0,0:0:0:0:
448,192,34836,1,0,0:0:0:0:
192,192,34953,1,0,0:0:0:0:
448,192,35070,128,0,35305:0:0:0:0:
64,192,35305,1,0,0:0:0:0:
320,192,35422,1,0,0:0:0:0:
448,192,35480,1,0,0:0:0:0:
192,192,35539,1,0,0:0:0:0:
64,192,35773,1,0,0:0:0:0:
320,192,36008,1,0,0:0:0:0:
64,192,36242,1,0,0:0:0:0:
320,192,36359,1,0,0:0:0:0:
64,192,36594,1,0,0:0:0:0:
320,192,36711,1,0,0:0:0:0:
192,192,36945,128,0,37180:0:0:0:0:
64,192,37180,128,0,37531:0:0:0:0:
320,192,37414,1,0,0:0:0:0:
448,192,37531,128,0,37648:0:0:0:0:
192,192,37648,128,0,37883:0:0:0:0:
320,192,37883,128,0,38117:0:0:0:0:
64,192,38117,1,0,0:0:0:0:
192,192,38234,1,0,0:0:0:0:
320,192,38293,1,0,0:0:0:0:
448,192,38351,1,0,0:0:0:0:
192,192,38469,1,0,0:0:0:0:
448,192,38586,1,0,0:0:0:0:
64,192,38703,1,0,0:0:0:0:
320,192,38820,128,0,39055:0:0:0:0:
64,192,39055,1,0,0:0:0:0:
192,192,39172,1,0,0:0:0:0:
64,192,39230,1,0,0:0:0:0:
448,192,39289,128,0,39523:0:0:0:0:
192,192,39523,1,0,0:0:0:0:
320,192,39640,1,0,0:0:0:0:
448,192,39758,1,0,0:0:0:0:
192,192,39875,1,0,0:0:0:0:
448,192,40109,1,0,0:0:0:0:
192,192,40226,1,0,0:0:0:0:
320,192,40285,1,0,0:0:0:0:
448,192,40344,1,0,0:0:0:0:
192,192,40461,1,0,0:0:0:0:
320,192,40578,1,0,0:0:0:0:
448,192,40695,128,0,40930:0:0:0:0:
64,192,40930,128,0,41164:0:0:0:0:
320,192,41164,128,0,41398:0:0:0:0:
192,192,41398,1,0,0:0:0:0:
64,192,41633,1,0,0:0:0:0:
320,192,41750,1,0,0:0:0:0:
64,192,41984,1,0,0:0:0:0:
320,192,42101,1,0,0:0:0:0:
192,192,42160,1,0,0:0:0:0:
64,192,42219,1,0,0:0:0:0:
320,192,42336,1,0,0:0:0:0:
64,192,42570,128,0,42805:0:0:0:0:
448,192,42805,1,0,0:0:0:0:
192,192,42922,1,0,0:0:0:0:
64,192,42980,1,0,0:0:0:0:
320,192,43039,1,0,0:0:0:0:
192,192,43273,128,0,43508:0:0:0:0:
448,192,43508,128,0,43742:0:0:0:0:
192,192,43742,1,0,0:0:0:0:
448,192,43859,1,0,0:0:0:0:
192,192,44094,1,0,0:0:0:0:
448,192,44211,1,0,0:0:0:0:
320,192,44445,128,0,44680:0:0:0:0:
448,192,44914,1,0,0:0:0:0:
448,192,45148,1,0,0:0:0:0:
192,192,45383,1,0,0:0:0:0:
64,192,45461,1,0,0:0:0:0:
192,192,45539,1,0,0:0:0:0:
448,192,45617,128,0,45851:0:0:0:0:
192,192,45851,128,0,46086:0:0:0:0:
64,192,46086,128,0,46320:0:0:0:0:
320,192,46320,128,0,46555:0:0:0:0:
64,192,46555,1,0,0:0:0:0:
192,192,46672,1,0,0:0:0:0:
320,192,46730,1,0,0:0:0:0:
448,192,46789,1,0,0:0:0:0:
64,192,47023,1,0,0:0:0:0:
320,192,47140,1,0,0:0:0:0:
192,192,47258,1,0,0:0:0:0:
64,192,47375,1,0,0:0:0:0:
448,192,47492,1,0,0:0:0:0:
192,192,47609,1,0,0:0:0:0:
64,192,47726,1,0,0:0:0:0:
320,192,47785,1,0,0:0:0:0:
448,192,47844,1,0,0:0:0:0:
192,192,47961,1,0,0:0:0:0:
320,192,48078,1,0,0:0:0:0:
448,192,48430,128,0,48664:0:0:0:0:
192,192,48664,128,0,48898:0:0:0:0:
320,192,48898,1,0,0:0:0:0:
64,192,49133,1,0,0:0:0:0:
448,192,49250,1,0,0:0:0:0:
320,192,49367,1,0,0:0:0:0:
192,192,49484,1,0,0:0:0:0:
64,192,49601,1,0,0:0:0:0:
320,192,49660,1,0,0:0:0:0:
448,192,49719,1,0,0:0:0:0:
192,192,49836,1,0,0:0:0:0:
64,192,49953,1,0,0:0:0:0:
448,192,50070,128,0,50305:0:0:0:0:
64,192,50305,128,0,50461:0:0:0:0:
320,192,50461,1,0,0:0:0:0:
448,192,50539,128,0,50773:0:0:0:0:
192,192,50773,128,0,51008:0:0:0:0:
320,192,51008,128,0,51242:0:0:0:0:
192,192,51242,1,0,0:0:0:0:
320,192,51359,1,0,0:0:0:0:
192,192,51594,1,0,0:0:0:0:
320,192,51711,1,0,0:0:0:0:
448,192,51945,128,0,52180:0:0:0:0:
64,192,52180,1,0,0:0:0:0:
320,192,52297,1,0,0:0:0:0:
320,192,52414,1,0,0:0:0:0:
192,192,52531,128,0,52883:0:0:0:0:
448,192,52883,128,0,53117:0:0:0:0:
320,192,53234,1,0,0:0:0:0:
320,192,53351,1,0,0:0:0:0:
448,192,53586,128,0,53820:0:0:0:0:
64,192,53820,1,0,0:0:0:0:
192,192,53879,1,0,0:0:0:0:
320,192,53937,1,0,0:0:0:0:
192,192,53996,1,0,0:0:0:0:
448,192,54055,128,0,54289:0:0:0:0:
64,192,54289,128,0,54523:0:0:0:0:
320,192,54523,1,0,0:0:0:0:
192,192,54640,1,0,0:0:0:0:
448,192,54758,1,0,0:0:0:0:
192,192,54875,1,0,0:0:0:0:
320,192,54992,1,0,0:0:0:0:
64,192,55109,1,0,0:0:0:0:
192,192,55226,1,0,0:0:0:0:
320,192,55344,1,0,0:0:0:0:
192,192,55461,1,0,0:0:0:0:
448,192,55578,1,0,0:0:0:0:
64,192,55695,1,0,0:0:0:0:
320,192,55754,1,0,0:0:0:0:
448,192,55812,1,0,0:0:0:0:
192,192,55930,128,0,56164:0:0:0:0:
320,192,56164,128,0,56398:0:0:0:0:
64,192,56398,1,0,0:0:0:0:
448,192,56633,1,0,0:0:0:0:
192,192,56750,1,0,0:0:0:0:
64,192,56867,1,0,0:0:0:0:
320,192,56984,1,0,0:0:0:0:
192,192,57101,1,0,0:0:0:0:
320,192,57160,1,0,0:0:0:0:
448,192,57219,1,0,0:0:0:0:
64,192,57336,1,0,0:0:0:0:
320,192,57453,1,0,0:0:0:0:
192,192,57570,128,0,57805:0:0:0:0:
448,192,57805,1,0,0:0:0:0:
320,192,57863,1,0,0:0:0:0:
64,192,57922,1,0,0:0:0:0:
448,192,57980,1,0,0:0:0:0:
192,192,58039,1,0,0:0:0:0:
320,192,58156,1,0,0:0:0:0:
64,192,58273,1,0,0:0:0:0:
192,192,58332,1,0,0:0:0:0:
448,192,58390,1,0,0:0:0:0:
64,192,58449,1,0,0:0:0:0:
320,192,58508,1,0,0:0:0:0:
192,192,58625,1,0,0:0:0:0:
64,192,58742,1,0,0:0:0:0:
192,192,58801,1,0,0:0:0:0:
320,192,58859,1,0,0:0:0:0:
448,192,58918,1,0,0:0:0:0:
320,192,58976,1,0,0:0:0:0:
192,192,59094,1,0,0:0:0:0:
448,192,59211,1,0,0:0:0:0:
320,192,59269,1,0,0:0:0:0:
192,192,59328,1,0,0:0:0:0:
64,192,59387,1,0,0:0:0:0:
192,192,59445,1,0,0:0:0:0:
320,192,59562,1,0,0:0:0:0:
64,192,59680,1,0,0:0:0:0:
448,192,59797,1,0,0:0:0:0:
448,192,59914,128,0,60148:0:0:0:0:
192,192,60148,128,0,60383:0:0:0:0:
320,192,60383,128,0,60617:0:0:0:0:
64,192,60617,128,0,60851:0:0:0:0:
448,192,60734,1,0,0:0:0:0:
448,192,60851,1,0,0:0:0:0:
320,192,61086,128,0,61320:0:0:0:0:
192,192,61320,128,0,61555:0:0:0:0:
448,192,61555,128,0,61906:0:0:0:0:
192,192,62023,1,0,0:0:0:0:
64,192,62140,1,0,0:0:0:0:
448,192,62258,1,0,0:0:0:0:
64,192,62375,1,0,0:0:0:0:
320,192,62609,1,0,0:0:0:0:
64,192,62726,1,0,0:0:0:0:
320,192,62844,1,0,0:0:0:0:
448,192,62961,1,0,0:0:0:0:
64,192,63078,1,0,0:0:0:0:
192,192,63195,1,0,0:0:0:0:
320,192,63430,128,0,63781:0:0:0:0:
192,192,63898,1,0,0:0:0:0:
64,192,64015,1,0,0:0:0:0:
320,192,64133,1,0,0:0:0:0:
448,192,64250,1,0,0:0:0:0:
192,192,64484,1,0,0:0:0:0:
320,192,64601,1,0,0:0:0:0:
192,192,64719,1,0,0:0:0:0:
448,192,64836,1,0,0:0:0:0:
64,192,64953,1,0,0:0:0:0:
320,192,65070,1,0,0:0:0:0:
64,192,65305,128,0,65656:0:0:0:0:
320,192,65773,1,0,0:0:0:0:
64,192,65890,1,0,0:0:0:0:
448,192,66008,1,0,0:0:0:0:
192,192,66125,1,0,0:0:0:0:
320,192,66359,1,0,0:0:0:0:
64,192,66476,1,0,0:0:0:0:
192,192,66594,1,0,0:0:0:0:
448,192,66711,1,0,0:0:0:0:
320,192,66828,1,0,0:0:0:0:
64,192,66945,1,0,0:0:0:0:
320,192,67180,128,0,67648:0:0:0:0:
192,192,67648,1,0,0:0:0:0:
448,192,67765,1,0,0:0:0:0:
64,192,67883,1,0,0:0:0:0:
64,192,68000,1,0,0:0:0:0:
192,192,68351,1,0,0:0:0:0:
448,192,68469,1,0,0:0:0:0:
192,192,68586,1,0,0:0:0:0:
320,192,68703,1,0,0:0:0:0:
192,192,68820,1,0,0:0:0:0:
64,192,68937,1,0,0:0:0:0:
448,192,69055,128,0,69406:0:0:0:0:
192,192,69523,1,0,0:0:0:0:
448,192,69640,1,0,0:0:0:0:
320,192,69758,1,0,0:0:0:0:
64,192,69875,1,0,0:0:0:0:
320,192,70109,1,0,0:0:0:0:
448,192,70226,1,0,0:0:0:0:
192,192,70344,1,0,0:0:0:0:
448,192,70461,1,0,0:0:0:0:
64,192,70578,1,0,0:0:0:0:
448,192,70695,1,0,0:0:0:0:
320,192,70754,1,0,0:0:0:0:
192,192,70812,1,0,0:0:0:0:
448,192,70930,128,0,71281:0:0:0:0:
64,192,71398,1,0,0:0:0:0:
320,192,71515,1,0,0:0:0:0:
192,192,71633,1,0,0:0:0:0:
448,192,71750,1,0,0:0:0:0:
320,192,71984,1,0,0:0:0:0:
64,192,72101,1,0,0:0:0:0:
320,192,72219,1,0,0:0:0:0:
448,192,72336,1,0,0:0:0:0:
320,192,72453,1,0,0:0:0:0:
192,192,72570,1,0,0:0:0:0:
64,192,72629,1,0,0:0:0:0:
448,192,72687,1,0,0:0:0:0:
192,192,72805,128,0,73039:0:0:0:0:
448,192,72922,1,0,0:0:0:0:
320,192,73039,1,0,0:0:0:0:
192,192,73156,1,0,0:0:0:0:
64,192,73273,1,0,0:0:0:0:
320,192,73390,1,0,0:0:0:0:
448,192,73508,1,0,0:0:0:0:
64,192,73625,1,0,0:0:0:0:
320,192,73742,1,0,0:0:0:0:
448,192,73859,1,0,0:0:0:0:
192,192,73976,1,0,0:0:0:0:
320,192,74094,1,0,0:0:0:0:
64,192,74211,1,0,0:0:0:0:
448,192,74328,1,0,0:0:0:0:
192,192,74445,1,0,0:0:0:0:
320,192,74504,1,0,0:0:0:0:
448,192,74562,1,0,0:0:0:0:
192,192,74680,1,0,0:0:0:0:
192,192,74914,1,0,0:0:0:0:
320,192,75148,1,0,0:0:0:0:
192,192,75226,1,0,0:0:0:0:
64,192,75305,1,0,0:0:0:0:
320,192,75383,1,0,0:0:0:0:
192,192,75500,1,0,0:0:0:0:
448,192,75617,1,0,0:0:0:0:
448,192,75734,1,0,0:0:0:0:
192,192,75851,1,0,0:0:0:0:
192,192,75969,1,0,0:0:0:0:
320,192,76086,1,0,0:0:0:0:
64,192,76203,1,0,0:0:0:0:
448,192,76320,1,0,0:0:0:0:
192,192,76555,1,0,0:0:0:0:
64,192,76672,1,0,0:0:0:0:
320,192,76730,1,0,0:0:0:0:
448,192,76789,128,0,76906:0:0:0:0:
448,192,77023,128,0,77140:0:0:0:0:
448,192,77258,128,0,77375:0:0:0:0:
448,192,77492,128,0,77609:0:0:0:0:
448,192,77726,128,0,77844:0:0:0:0:
448,192,77961,128,0,78078:0:0:0:0:
192,192,78078,1,0,0:0:0:0:
192,192,78195,128,0,78430:0:0:0:0:
320,192,78430,128,0,78664:0:0:0:0:
64,192,78664,1,0,0:0:0:0:
448,192,78781,1,0,0:0:0:0:
192,192,78898,1,0,0:0:0:0:
192,192,79015,1,0,0:0:0:0:
448,192,79133,128,0,79250:0:0:0:0:
64,192,79250,1,0,0:0:0:0:
448,192,79367,128,0,79484:0:0:0:0:
192,192,79484,1,0,0:0:0:0:
448,192,79601,128,0,79719:0:0:0:0:
64,192,79719,1,0,0:0:0:0:
320,192,79836,128,0,80070:0:0:0:0:
192,192,80070,128,0,80305:0:0:0:0:
448,192,80305,1,0,0:0:0:0:
64,192,80422,1,0,0:0:0:0:
320,192,80480,1,0,0:0:0:0:
448,192,80539,128,0,80773:0:0:0:0:
192,192,80773,128,0,81008:0:0:0:0:
320,192,81008,128,0,81242:0:0:0:0:
64,192,81242,128,0,81476:0:0:0:0:
448,192,81476,128,0,81594:0:0:0:0:
192,192,81594,1,0,0:0:0:0:
320,192,81711,128,0,81828:0:0:0:0:
64,192,81828,1,0,0:0:0:0:
192,192,81945,128,0,82180:0:0:0:0:
448,192,82180,128,0,82648:0:0:0:0:
64,192,82648,128,0,82883:0:0:0:0:
320,192,82765,1,0,0:0:0:0:
448,192,82883,128,0,83117:0:0:0:0:
192,192,83117,128,0,83351:0:0:0:0:
320,192,83351,128,0,83469:0:0:0:0:
64,192,83469,1,0,0:0:0:0:
448,192,83586,128,0,83820:0:0:0:0:
192,192,83820,1,0,0:0:0:0:
192,192,84055,1,0,0:0:0:0:
64,192,84172,1,0,0:0:0:0:
320,192,84230,1,0,0:0:0:0:
448,192,84289,1,0,0:0:0:0:
192,192,84406,1,0,0:0:0:0:
64,192,84523,128,0,84758:0:0:0:0:
320,192,84758,128,0,84992:0:0:0:0:
192,192,84992,1,0,0:0:0:0:
64,192,85148,1,0,0:0:0:0:
192,192,85305,1,0,0:0:0:0:
320,192,85461,1,0,0:0:0:0:
448,192,85617,1,0,0:0:0:0:
320,192,85773,1,0,0:0:0:0:
192,192,85930,128,0,86164:0:0:0:0:
448,192,86164,128,0,86398:0:0:0:0:
64,192,86398,128,0,86515:0:0:0:0:
64,192,86633,128,0,86750:0:0:0:0:
320,192,86867,1,0,0:0:0:0:
192,192,86984,1,0,0:0:0:0:
320,192,87043,1,0,0:0:0:0:
448,192,87101,1,0,0:0:0:0:
192,192,87219,1,0,0:0:0:0:
320,192,87336,1,0,0:0:0:0:
64,192,87453,1,0,0:0:0:0:
448,192,87570,1,0,0:0:0:0:
192,192,87687,1,0,0:0:0:0:
320,192,87805,1,0,0:0:0:0:
64,192,87922,1,0,0:0:0:0:
192,192,87980,1,0,0:0:0:0:
448,192,88039,128,0,88156:0:0:0:0:
64,192,88273,128,0,88508:0:0:0:0:
320,192,88508,128,0,88742:0:0:0:0:
192,192,88742,1,0,0:0:0:0:
448,192,88859,1,0,0:0:0:0:
448,192,88976,1,0,0:0:0:0:
320,192,89094,1,0,0:0:0:0:
192,192,89211,1,0,0:0:0:0:
192,192,89328,1,0,0:0:0:0:
448,192,89445,1,0,0:0:0:0:
320,192,89504,1,0,0:0:0:0:
192,192,89562,1,0,0:0:0:0:
64,192,89621,1,0,0:0:0:0:
448,192,89680,128,0,90031:0:0:0:0:
64,192,90148,1,0,0:0:0:0:
320,192,90265,1,0,0:0:0:0:
192,192,90383,128,0,90617:0:0:0:0:
64,192,90617,1,0,0:0:0:0:
448,192,90734,1,0,0:0:0:0:
448,192,90851,1,0,0:0:0:0:
64,192,90969,1,0,0:0:0:0:
192,192,91086,1,0,0:0:0:0:
192,192,91203,1,0,0:0:0:0:
320,192,91320,1,0,0:0:0:0:
448,192,91379,1,0,0:0:0:0:
192,192,91437,1,0,0:0:0:0:
64,192,91496,1,0,0:0:0:0:
320,192,91555,1,0,0:0:0:0:
192,192,91672,1,0,0:0:0:0:
448,192,91789,1,0,0:0:0:0:
320,192,91847,1,0,0:0:0:0:
64,192,91906,1,0,0:0:0:0:
192,192,91965,1,0,0:0:0:0:
320,192,92023,1,0,0:0:0:0:
192,192,92140,1,0,0:0:0:0:
448,192,92258,1,0,0:0:0:0:
320,192,92316,1,0,0:0:0:0:
64,192,92375,1,0,0:0:0:0:
448,192,92433,1,0,0:0:0:0:
192,192,92492,1,0,0:0:0:0:
320,192,92609,1,0,0:0:0:0:
192,192,92726,1,0,0:0:0:0:
64,192,92785,1,0,0:0:0:0:
448,192,92844,1,0,0:0:0:0:
320,192,92902,1,0,0:0:0:0:
192,192,92961,1,0,0:0:0:0:
64,192,93019,1,0,0:0:0:0:
320,192,93078,1,0,0:0:0:0:
192,192,93137,1,0,0:0:0:0:
448,192,93195,1,0,0:0:0:0:
320,192,93254,1,0,0:0:0:0:
192,192,93312,1,0,0:0:0:0:
64,192,93371,1,0,0:0:0:0:
320,192,93430,128,0,93664:0:0:0:0:
448,192,93664,128,0,93898:0:0:0:0:
192,192,93898,128,0,94133:0:0:0:0:
64,192,94133,128,0,94367:0:0:0:0:
448,192,94367,1,0,0:0:0:0:
320,192,94445,1,0,0:0:0:0:
192,192,94523,1,0,0:0:0:0:
64,192,94601,1,0,0:0:0:0:
320,192,94680,1,0,0:0:0:0:
192,192,94836,1,0,0:0:0:0:
448,192,94953,1,0,0:0:0:0:
192,192,95070,1,0,0:0:0:0:
448,192,95187,1,0,0:0:0:0:
64,192,95305,1,0,0:0:0:0:
64,192,102805,5,0,0:0:0:0:
64,192,103039,1,0,0:0:0:0:
448,192,103273,1,0,0:0:0:0:
192,192,103508,1,0,0:0:0:0:
192,192,103742,1,0,0:0:0:0:
448,192,103976,1,0,0:0:0:0:
320,192,104211,1,0,0:0:0:0:
192,192,104328,1,0,0:0:0:0:
64,192,104445,1,0,0:0:0:0:
64,192,104562,1,0,0:0:0:0:
64,192,105265,1,0,0:0:0:0:
64,192,105383,1,0,0:0:0:0:
320,192,105617,1,0,0:0:0:0:
192,192,105851,128,0,105969:0:0:0:0:
448,192,105969,128,0,106086:0:0:0:0:
320,192,106086,1,0,0:0:0:0:
320,192,106203,1,0,0:0:0:0:
192,192,106555,1,0,0:0:0:0:
64,192,106789,1,0,0:0:0:0:
448,192,107023,1,0,0:0:0:0:
320,192,107258,1,0,0:0:0:0:
192,192,107492,1,0,0:0:0:0:
64,192,107726,1,0,0:0:0:0:
448,192,107961,1,0,0:0:0:0:
192,192,108078,1,0,0:0:0:0:
320,192,108195,1,0,0:0:0:0:
192,192,108312,1,0,0:0:0:0:
448,192,108430,1,0,0:0:0:0:
64,192,108547,1,0,0:0:0:0:
192,192,108781,128,0,109015:0:0:0:0:
320,192,109015,128,0,109250:0:0:0:0:
320,192,109367,128,0,109601:0:0:0:0:
192,192,109601,1,0,0:0:0:0:
64,192,109719,1,0,0:0:0:0:
320,192,109836,1,0,0:0:0:0:
448,192,109953,1,0,0:0:0:0:
320,192,110070,1,0,0:0:0:0:
192,192,110187,1,0,0:0:0:0:
64,192,110305,5,0,0:0:0:0:
64,192,110539,1,0,0:0:0:0:
448,192,110773,1,0,0:0:0:0:
192,192,111008,1,0,0:0:0:0:
192,192,111242,1,0,0:0:0:0:
448,192,111476,1,0,0:0:0:0:
320,192,111711,1,0,0:0:0:0:
192,192,111828,1,0,0:0:0:0:
64,192,111945,1,0,0:0:0:0:
64,192,112062,1,0,0:0:0:0:
64,192,112765,1,0,0:0:0:0:
64,192,112883,1,0,0:0:0:0:
320,192,113117,1,0,0:0:0:0:
192,192,113351,128,0,113469:0:0:0:0:
448,192,113469,128,0,113586:0:0:0:0:
320,192,113586,1,0,0:0:0:0:
320,192,113703,1,0,0:0:0:0:
192,192,114055,1,0,0:0:0:0:
64,192,114289,1,0,0:0:0:0:
448,192,114523,1,0,0:0:0:0:
320,192,114758,1,0,0:0:0:0:
192,192,114992,1,0,0:0:0:0:
64,192,115226,1,0,0:0:0:0:
448,192,115461,1,0,0:0:0:0:
320,192,115578,1,0,0:0:0:0:
64,192,115695,1,0,0:0:0:0:
192,192,115812,1,0,0:0:0:0:
320,192,115930,1,0,0:0:0:0:
64,192,116047,1,0,0:0:0:0:
448,192,116164,1,0,0:0:0:0:
192,192,116281,128,0,116515:0:0:0:0:
320,192,116515,128,0,116750:0:0:0:0:
320,192,116867,128,0,117101:0:0:0:0:
192,192,117101,1,0,0:0:0:0:
64,192,117219,1,0,0:0:0:0:
320,192,117336,1,0,0:0:0:0:
448,192,117453,1,0,0:0:0:0:
320,192,117570,1,0,0:0:0:0:
192,192,117687,1,0,0:0:0:0:
64,192,117805,1,0,0:0:0:0:
64,192,118039,1,0,0:0:0:0:
320,192,118156,1,0,0:0:0:0:
64,192,118273,1,0,0:0:0:0:
192,192,118508,1,0,0:0:0:0:
320,192,118625,1,0,0:0:0:0:
448,192,118742,1,0,0:0:0:0:
192,192,118976,1,0,0:0:0:0:
448,192,119094,1,0,0:0:0:0:
64,192,119211,1,0,0:0:0:0:
320,192,119445,1,0,0:0:0:0:
320,192,119562,1,0,0:0:0:0:
64,192,119680,1,0,0:0:0:0:
192,192,119914,1,0,0:0:0:0:
448,192,120031,1,0,0:0:0:0:
64,192,120148,1,0,0:0:0:0:
320,192,120265,1,0,0:0:0:0:
192,192,120383,1,0,0:0:0:0:
64,192,120500,1,0,0:0:0:0:
320,192,120558,1,0,0:0:0:0:
448,192,120617,1,0,0:0:0:0:
192,192,120734,1,0,0:0:0:0:
64,192,120851,1,0,0:0:0:0:
320,192,120969,1,0,0:0:0:0:
192,192,121086,1,0,0:0:0:0:
192,192,121203,1,0,0:0:0:0:
64,192,121320,1,0,0:0:0:0:
320,192,121437,1,0,0:0:0:0:
192,192,121496,1,0,0:0:0:0:
64,192,121555,1,0,0:0:0:0:
320,192,121672,1,0,0:0:0:0:
192,192,121789,1,0,0:0:0:0:
320,192,121906,1,0,0:0:0:0:
448,192,122023,1,0,0:0:0:0:
64,192,122140,1,0,0:0:0:0:
320,192,122258,1,0,0:0:0:0:
192,192,122375,1,0,0:0:0:0:
64,192,122492,1,0,0:0:0:0:
448,192,122609,1,0,0:0:0:0:
192,192,122726,1,0,0:0:0:0:
320,192,122844,1,0,0:0:0:0:
192,192,122902,1,0,0:0:0:0:
64,192,122961,1,0,0:0:0:0:
448,192,123078,1,0,0:0:0:0:
64,192,123195,1,0,0:0:0:0:
320,192,123312,1,0,0:0:0:0:
192,192,123430,1,0,0:0:0:0:
448,192,123547,1,0,0:0:0:0:
192,192,123664,1,0,0:0:0:0:
320,192,123781,1,0,0:0:0:0:
64,192,123898,1,0,0:0:0:0:
192,192,124015,1,0,0:0:0:0:
320,192,124133,1,0,0:0:0:0:
448,192,124250,1,0,0:0:0:0:
64,192,124308,1,0,0:0:0:0:
192,192,124367,1,0,0:0:0:0:
320,192,124484,1,0,0:0:0:0:
448,192,124601,1,0,0:0:0:0:
64,192,124719,1,0,0:0:0:0:
320,192,124836,1,0,0:0:0:0:
192,192,124953,1,0,0:0:0:0:
448,192,125070,1,0,0:0:0:0:
64,192,125187,1,0,0:0:0:0:
320,192,125305,1,0,0:0:0:0:
320,192,125539,1,0,0:0:0:0:
192,192,125656,1,0,0:0:0:0:
448,192,125773,1,0,0:0:0:0:
64,192,126008,1,0,0:0:0:0:
320,192,126125,1,0,0:0:0:0:
448,192,126242,1,0,0:0:0:0:
192,192,126476,1,0,0:0:0:0:
64,192,126594,1,0,0:0:0:0:
320,192,126711,1,0,0:0:0:0:
192,192,126828,1,0,0:0:0:0:
448,192,126945,1,0,0:0:0:0:
448,192,127062,1,0,0:0:0:0:
64,192,127180,1,0,0:0:0:0:
320,192,127414,1,0,0:0:0:0:
192,192,127531,1,0,0:0:0:0:
448,192,127648,1,0,0:0:0:0:
64,192,127765,1,0,0:0:0:0:
320,192,127883,1,0,0:0:0:0:
192,192,128000,1,0,0:0:0:0:
320,192,128058,1,0,0:0:0:0:
448,192,128117,1,0,0:0:0:0:
64,192,128234,1,0,0:0:0:0:
320,192,128351,1,0,0:0:0:0:
192,192,128469,1,0,0:0:0:0:
64,192,128586,1,0,0:0:0:0:
448,192,128703,1,0,0:0:0:0:
192,192,128820,1,0,0:0:0:0:
320,192,128937,1,0,0:0:0:0:
192,192,128996,1,0,0:0:0:0:
64,192,129055,1,0,0:0:0:0:
64,192,129289,1,0,0:0:0:0:
320,192,129406,1,0,0:0:0:0:
64,192,129523,1,0,0:0:0:0:
192,192,129640,1,0,0:0:0:0:
448,192,129758,1,0,0:0:0:0:
64,192,129875,1,0,0:0:0:0:
320,192,129992,1,0,0:0:0:0:
192,192,130109,1,0,0:0:0:0:
448,192,130226,128,0,130344:0:0:0:0:
64,192,130344,128,0,130461:0:0:0:0:
448,192,130461,128,0,130578:0:0:0:0:
192,192,130578,128,0,130695:0:0:0:0:
64,192,130695,128,0,130930:0:0:0:0:
320,192,130930,128,0,131398:0:0:0:0:
192,192,131398,128,0,131867:0:0:0:0:
64,192,131867,1,0,0:0:0:0:
448,192,131984,1,0,0:0:0:0:
192,192,132101,1,0,0:0:0:0:
320,192,132219,1,0,0:0:0:0:
64,192,132336,1,0,0:0:0:0:
448,192,132492,1,0,0:0:0:0:
192,192,132648,1,0,0:0:0:0:
64,192,132805,1,0,0:0:0:0:
64,192,132918,1,0,0:0:0:0:
320,192,133032,1,0,0:0:0:0:
320,192,133145,1,0,0:0:0:0:
192,192,133259,1,0,0:0:0:0:
64,192,133430,1,0,0:0:0:0:
320,192,133486,1,0,0:0:0:0:
192,192,133714,1,0,0:0:0:0:
192,192,133827,1,0,0:0:0:0:
448,192,133941,1,0,0:0:0:0:
448,192,134055,1,0,0:0:0:0:
64,192,134168,1,0,0:0:0:0:
320,192,134395,1,0,0:0:0:0:
192,192,134509,1,0,0:0:0:0:
64,192,134623,1,0,0:0:0:0:
64,192,134733,1,0,0:0:0:0:
320,192,134843,1,0,0:0:0:0:
320,192,134953,1,0,0:0:0:0:
192,192,135064,1,0,0:0:0:0:
448,192,135284,128,0,135505:0:0:0:0:
192,192,135505,1,0,0:0:0:0:
192,192,135615,1,0,0:0:0:0:
320,192,135725,1,0,0:0:0:0:
320,192,135836,1,0,0:0:0:0:
64,192,135946,1,0,0:0:0:0:
448,192,136093,1,0,0:0:0:0:
192,192,136167,1,0,0:0:0:0:
192,192,136314,1,0,0:0:0:0:
448,192,136387,1,0,0:0:0:0:
448,192,136493,1,0,0:0:0:0:
64,192,136599,1,0,0:0:0:0:
64,192,136706,1,0,0:0:0:0:
320,192,136812,1,0,0:0:0:0:
192,192,136918,1,0,0:0:0:0:
448,192,137025,1,0,0:0:0:0:
192,192,137131,1,0,0:0:0:0:
320,192,137238,1,0,0:0:0:0:
320,192,137344,1,0,0:0:0:0:
64,192,137450,1,0,0:0:0:0:
64,192,137557,1,0,0:0:0:0:
448,192,137663,1,0,0:0:0:0:
448,192,137769,1,0,0:0:0:0:
192,192,137876,1,0,0:0:0:0:
320,192,137982,1,0,0:0:0:0:
192,192,138089,1,0,0:0:0:0:
320,192,138189,1,0,0:0:0:0:
192,192,138289,1,0,0:0:0:0:
320,192,138389,1,0,0:0:0:0:
64,192,138489,1,0,0:0:0:0:
64,192,138589,1,0,0:0:0:0:
448,192,138689,1,0,0:0:0:0:
448,192,138789,1,0,0:0:0:0:
192,192,138889,1,0,0:0:0:0:
192,192,138989,1,0,0:0:0:0:
448,192,139089,1,0,0:0:0:0:
64,192,139189,1,0,0:0:0:0:
320,192,139289,128,0,139389:0:0:0:0:
192,192,139489,128,0,139589:0:0:0:0:
448,192,139689,1,0,0:0:0:0:
448,192,139789,1,0,0:0:0:0:
448,192,139889,1,0,0:0:0:0:
64,192,139989,1,0,0:0:0:0:
320,192,140089,1,0,0:0:0:0:
192,192,140189,1,0,0:0:0:0:
64,192,140289,128,0,140489:0:0:0:0:
320,192,140489,1,0,0:0:0:0:
320,192,140589,1,0,0:0:0:0:
192,192,140689,1,0,0:0:0:0:
64,192,140789,1,0,0:0:0:0:
320,192,140889,1,0,0:0:0:0:
320,192,140989,1,0,0:0:0:0:
64,192,141089,1,0,0:0:0:0:
320,192,141189,1,0,0:0:0:0:
192,192,141289,1,0,0:0:0:0:
192,192,141389,1,0,0:0:0:0:
448,192,141489,1,0,0:0:0:0:
64,192,141589,1,0,0:0:0:0:
320,192,141689,1,0,0:0:0:0:
320,192,141789,1,0,0:0:0:0:
192,192,141889,1,0,0:0:0:0:
448,192,141989,1,0,0:0:0:0:
320,192,142089,1,0,0:0:0:0:
320,192,142189,1,0,0:0:0:0:
64,192,142289,1,0,0:0:0:0:
64,192,142389,1,0,0:0:0:0:
448,192,142489,1,0,0:0:0:0:
320,192,142589,1,0,0:0:0:0:
192,192,142689,1,0,0:0:0:0:
192,192,142789,1,0,0:0:0:0:
448,192,142889,1,0,0:0:0:0:
64,192,142989,1,0,0:0:0:0:
320,192,143089,1,0,0:0:0:0:
192,192,143139,1,0,0:0:0:0:
64,192,143189,1,0,0:0:0:0:
448,192,143239,1,0,0:0:0:0:
320,192,143289,1,0,0:0:0:0:
64,192,143389,1,0,0:0:0:0:
192,192,143489,1,0,0:0:0:0:
320,192,143539,1,0,0:0:0:0:
448,192,143589,1,0,0:0:0:0:
192,192,143639,1,0,0:0:0:0:
64,192,143689,1,0,0:0:0:0:
320,192,143789,1,0,0:0:0:0:
192,192,143889,1,0,0:0:0:0:
448,192,143939,1,0,0:0:0:0:
320,192,143989,1,0,0:0:0:0:
192,192,144039,1,0,0:0:0:0:
64,192,144089,1,0,0:0:0:0:
320,192,144189,1,0,0:0:0:0:
64,192,144289,1,0,0:0:0:0:
192,192,144339,1,0,0:0:0:0:
448,192,144389,1,0,0:0:0:0:
320,192,144439,1,0,0:0:0:0:
192,192,144489,1,0,0:0:0:0:
64,192,144689,1,0,0:0:0:0:
64,192,144789,1,0,0:0:0:0:
64,192,144889,1,0,0:0:0:0:
320,192,145089,1,0,0:0:0:0:
192,192,145139,1,0,0:0:0:0:
320,192,145189,1,0,0:0:0:0:
448,192,145239,1,0,0:0:0:0:
64,192,145289,1,0,0:0:0:0:
192,192,145389,1,0,0:0:0:0:
192,192,145489,1,0,0:0:0:0:
64,192,145689,128,0,145789:0:0:0:0:
320,192,145889,128,0,145989:0:0:0:0:
64,192,146089,1,0,0:0:0:0:
448,192,146189,1,0,0:0:0:0:
192,192,146239,1,0,0:0:0:0:
320,192,146289,1,0,0:0:0:0:
64,192,146489,1,0,0:0:0:0:
64,192,146589,1,0,0:0:0:0:
320,192,146689,1,0,0:0:0:0:
320,192,146789,1,0,0:0:0:0:
192,192,146889,1,0,0:0:0:0:
192,192,146989,1,0,0:0:0:0:
448,192,147089,128,0,147289:0:0:0:0:
320,192,147289,1,0,0:0:0:0:
320,192,147389,1,0,0:0:0:0:
192,192,147489,1,0,0:0:0:0:
192,192,147589,1,0,0:0:0:0:
320,192,147689,128,0,147889:0:0:0:0:
64,192,147889,128,0,148089:0:0:0:0:
448,192,148089,1,0,0:0:0:0:
192,192,148289,1,0,0:0:0:0:
192,192,148389,1,0,0:0:0:0:
448,192,148489,1,0,0:0:0:0:
448,192,148589,1,0,0:0:0:0:
64,192,148689,128,0,148889:0:0:0:0:
320,192,148889,1,0,0:0:0:0:
320,192,148989,1,0,0:0:0:0:
192,192,149089,128,0,149289:0:0:0:0:
64,192,149289,1,0,0:0:0:0:
320,192,149389,1,0,0:0:0:0:
192,192,149439,1,0,0:0:0:0:
448,192,149489,1,0,0:0:0:0:
192,192,149639,1,0,0:0:0:0:
448,192,149739,128,0,149889:0:0:0:0:
320,192,149889,1,0,0:0:0:0:
192,192,150089,128,0,150289:0:0:0:0:
320,192,150289,1,0,0:0:0:0:
192,192,150489,128,0,150689:0:0:0:0:
64,192,150689,1,0,0:0:0:0:
64,192,150889,1,0,0:0:0:0:
448,192,151089,1,0,0:0:0:0:
192,192,151289,1,0,0:0:0:0:
192,192,151489,1,0,0:0:0:0:
192,192,151689,1,0,0:0:0:0:
192,192,151889,1,0,0:0:0:0:
320,192,151989,1,0,0:0:0:0:
192,192,152089,1,0,0:0:0:0:
448,192,152189,1,0,0:0:0:0:
320,192,152289,128,0,152489:0:0:0:0:
64,192,152489,1,0,0:0:0:0:
448,192,152589,1,0,0:0:0:0:
192,192,152639,1,0,0:0:0:0:
320,192,152689,1,0,0:0:0:0:
192,192,152889,1,0,0:0:0:0:
192,192,152989,1,0,0:0:0:0:
320,192,153089,1,0,0:0:0:0:
320,192,153189,1,0,0:0:0:0:
64,192,153289,1,0,0:0:0:0:
64,192,153389,1,0,0:0:0:0:
448,192,153489,128,0,153689:0:0:0:0:
192,192,153689,1,0,0:0:0:0:
192,192,153789,1,0,0:0:0:0:
320,192,153889,1,0,0:0:0:0:
320,192,153989,1,0,0:0:0:0:
64,192,154089,128,0,154289:0:0:0:0:
448,192,154289,128,0,154389:0:0:0:0:
320,192,154489,1,0,0:0:0:0:
192,192,154689,1,0,0:0:0:0:
192,192,154789,1,0,0:0:0:0:
64,192,154889,1,0,0:0:0:0:
448,192,154989,1,0,0:0:0:0:
448,192,155089,128,0,155289:0:0:0:0:
192,192,155289,1,0,0:0:0:0:
320,192,155422,1,0,0:0:0:0:
192,192,155555,1,0,0:0:0:0:
64,192,155689,1,0,0:0:0:0:
320,192,155789,1,0,0:0:0:0:
192,192,155839,1,0,0:0:0:0:
448,192,155889,1,0,0:0:0:0:
192,192,156089,1,0,0:0:0:0:
448,192,156189,128,0,156489:0:0:0:0:
64,192,156489,1,0,0:0:0:0:
320,192,156589,1,0,0:0:0:0:
64,192,156689,1,0,0:0:0:0:
448,192,156789,1,0,0:0:0:0:
192,192,156889,1,0,0:0:0:0:
64,192,156955,1,0,0:0:0:0:
320,192,157022,1,0,0:0:0:0:
192,192,157089,1,0,0:0:0:0:
448,192,157155,1,0,0:0:0:0:
320,192,157222,1,0,0:0:0:0:
64,192,157289,1,0,0:0:0:0:
448,192,157489,1,0,0:0:0:0:
448,192,157689,1,0,0:0:0:0:
448,192,157889,1,0,0:0:0:0:
192,192,157939,1,0,0:0:0:0:
64,192,157989,1,0,0:0:0:0:
192,192,158039,1,0,0:0:0:0:
320,192,158089,128,0,158289:0:0:0:0:
192,192,158289,1,0,0:0:0:0:
448,192,158489,128,0,158689:0:0:0:0:
192,192,158689,128,0,158889:0:0:0:0:
64,192,158889,1,0,0:0:0:0:
320,192,158989,1,0,0:0:0:0:
448,192,159039,1,0,0:0:0:0:
192,192,159089,1,0,0:0:0:0:
64,192,159289,1,0,0:0:0:0:
320,192,159389,1,0,0:0:0:0:
448,192,159489,1,0,0:0:0:0:
192,192,159589,1,0,0:0:0:0:
320,192,159689,1,0,0:0:0:0:
64,192,159789,1,0,0:0:0:0:
192,192,159889,1,0,0:0:0:0:
320,192,159939,1,0,0:0:0:0:
448,192,159989,1,0,0:0:0:0:
192,192,160039,1,0,0:0:0:0:
64,192,160089,1,0,0:0:0:0:
320,192,160189,1,0,0:0:0:0:
192,192,160289,128,0,160489:0:0:0:0:
448,192,160489,128,0,160689:0:0:0:0:
64,192,160689,128,0,160889:0:0:0:0:
320,192,160889,1,0,0:0:0:0:
192,192,161089,1,0,0:0:0:0:
64,192,161189,1,0,0:0:0:0:
320,192,161289,1,0,0:0:0:0:
192,192,161389,1,0,0:0:0:0:
64,192,161489,1,0,0:0:0:0:
320,192,161539,1,0,0:0:0:0:
448,192,161589,1,0,0:0:0:0:
192,192,161689,1,0,0:0:0:0:
320,192,161789,1,0,0:0:0:0:
64,192,161889,128,0,162089:0:0:0:0:
448,192,162089,1,0,0:0:0:0:
192,192,162189,1,0,0:0:0:0:
320,192,162239,1,0,0:0:0:0:
448,192,162289,1,0,0:0:0:0:
320,192,162489,128,0,162689:0:0:0:0:
192,192,162689,1,0,0:0:0:0:
192,192,162889,128,0,163089:0:0:0:0:
64,192,163089,1,0,0:0:0:0:
64,192,163289,128,0,163489:0:0:0:0:
320,192,163489,1,0,0:0:0:0:
320,192,163789,1,0,0:0:0:0:
320,192,163889,1,0,0:0:0:0:
64,192,163989,1,0,0:0:0:0:
64,192,164289,1,0,0:0:0:0:
64,192,164589,1,0,0:0:0:0:
320,192,164689,1,0,0:0:0:0:
64,192,164889,1,0,0:0:0:0:
448,192,165089,1,0,0:0:0:0:
192,192,165289,1,0,0:0:0:0:
64,192,165389,1,0,0:0:0:0:
320,192,165439,1,0,0:0:0:0:
448,192,165489,128,0,165589:0:0:0:0:
192,192,165689,128,0,165889:0:0:0:0:
320,192,165889,128,0,166089:0:0:0:0:
64,192,166089,1,0,0:0:0:0:
448,192,166289,1,0,0:0:0:0:
192,192,166489,1,0,0:0:0:0:
320,192,166589,1,0,0:0:0:0:
192,192,166689,1,0,0:0:0:0:
64,192,166789,1,0,0:0:0:0:
448,192,166889,128,0,166989:0:0:0:0:
448,192,167089,128,0,167189:0:0:0:0:
448,192,167289,128,0,167589:0:0:0:0:
192,192,167689,128,0,167889:0:0:0:0:
64,192,167889,128,0,168089:0:0:0:0:
320,192,168089,1,0,0:0:0:0:
320,192,168189,1,0,0:0:0:0:
192,192,168289,1,0,0:0:0:0:
64,192,168389,1,0,0:0:0:0:
448,192,168489,1,0,0:0:0:0:
192,192,168589,1,0,0:0:0:0:
320,192,168639,1,0,0:0:0:0:
448,192,168689,1,0,0:0:0:0:
64,192,168739,1,0,0:0:0:0:
192,192,168789,1,0,0:0:0:0:
320,192,168839,1,0,0:0:0:0:
64,192,168889,1,0,0:0:0:0:
448,192,168989,1,0,0:0:0:0:
192,192,169089,1,0,0:0:0:0:
64,192,169139,1,0,0:0:0:0:
448,192,169189,1,0,0:0:0:0:
320,192,169239,1,0,0:0:0:0:
192,192,169289,1,0,0:0:0:0:
448,192,169389,1,0,0:0:0:0:
64,192,169489,1,0,0:0:0:0:
320,192,169589,1,0,0:0:0:0:
64,192,169689,1,0,0:0:0:0:
192,192,169789,1,0,0:0:0:0:
448,192,169889,1,0,0:0:0:0:
320,192,169939,1,0,0:0:0:0:
192,192,169989,1,0,0:0:0:0:
64,192,170039,1,0,0:0:0:0:
448,192,170089,1,0,0:0:0:0:
192,192,170189,1,0,0:0:0:0:
192,192,170289,1,0,0:0:0:0:
320,192,170489,1,0,0:0:0:0:
64,192,170689,128,0,170889:0:0:0:0:
448,192,170889,128,0,171089:0:0:0:0:
192,192,170989,1,0,0:0:0:0:
192,192,171089,1,0,0:0:0:0:
320,192,171289,128,0,171489:0:0:0:0:
64,192,171489,128,0,171689:0:0:0:0:
448,192,171689,128,0,172089:0:0:0:0:
64,192,172089,1,0,0:0:0:0:
320,192,172189,1,0,0:0:0:0:
192,192,172289,1,0,0:0:0:0:
64,192,172389,128,0,172989:0:0:0:0:
448,192,172989,1,0,0:0:0:0:
448,192,173089,1,0,0:0:0:0:
448,192,173289,1,0,0:0:0:0:
192,192,173389,1,0,0:0:0:0:
320,192,173489,1,0,0:0:0:0:
192,192,173589,1,0,0:0:0:0:
64,192,173689,1,0,0:0:0:0:
320,192,173889,1,0,0:0:0:0:
192,192,174089,1,0,0:0:0:0:
64,192,174289,1,0,0:0:0:0:
320,192,174389,1,0,0:0:0:0:
448,192,174489,1,0,0:0:0:0:
192,192,174555,1,0,0:0:0:0:
320,192,174622,1,0,0:0:0:0:
64,192,174689,1,0,0:0:0:0:
320,192,174755,1,0,0:0:0:0:
192,192,174822,1,0,0:0:0:0:
448,192,174889,1,0,0:0:0:0:
64,192,174989,1,0,0:0:0:0:
320,192,175039,1,0,0:0:0:0:
448,192,175089,1,0,0:0:0:0:
192,192,175289,1,0,0:0:0:0:
192,192,175389,1,0,0:0:0:0:
320,192,175489,1,0,0:0:0:0:
320,192,175589,1,0,0:0:0:0:
64,192,175689,128,0,175889:0:0:0:0:
448,192,175889,1,0,0:0:0:0:
448,192,175989,1,0,0:0:0:0:
64,192,176089,1,0,0:0:0:0:
320,192,176189,1,0,0:0:0:0:
320,192,176289,1,0,0:0:0:0:
192,192,176389,1,0,0:0:0:0:
448,192,176489,128,0,176689:0:0:0:0:
64,192,176689,128,0,176889:0:0:0:0:
320,192,176889,1,0,0:0:0:0:
448,192,177089,1,0,0:0:0:0:
448,192,177189,1,0,0:0:0:0:
192,192,177289,1,0,0:0:0:0:
320,192,177389,1,0,0:0:0:0:
320,192,177489,1,0,0:0:0:0:
192,192,177539,1,0,0:0:0:0:
64,192,177589,1,0,0:0:0:0:
448,192,177689,1,0,0:0:0:0:
320,192,177755,1,0,0:0:0:0:
192,192,177822,1,0,0:0:0:0:
448,192,177889,1,0,0:0:0:0:
64,192,177955,1,0,0:0:0:0:
320,192,178022,1,0,0:0:0:0:
192,192,178089,1,0,0:0:0:0:
64,192,178189,1,0,0:0:0:0:
320,192,178239,1,0,0:0:0:0:
192,192,178289,1,0,0:0:0:0:
192,192,178489,128,0,178589:0:0:0:0:
448,192,178689,128,0,178789:0:0:0:0:
192,192,178889,128,0,178989:0:0:0:0:
448,192,179089,128,0,179189:0:0:0:0:
448,192,179289,128,0,179389:0:0:0:0:
448,192,179489,128,0,179589:0:0:0:0:
192,192,179689,128,0,179789:0:0:0:0:
448,192,179889,128,0,179989:0:0:0:0:
192,192,180089,128,0,180189:0:0:0:0:
448,192,180289,1,0,0:0:0:0:
320,192,180339,1,0,0:0:0:0:
64,192,180389,1,0,0:0:0:0:
192,192,180489,128,0,180589:0:0:0:0:
320,192,180589,1,0,0:0:0:0:
192,192,180689,128,0,180789:0:0:0:0:
448,192,180889,128,0,181289:0:0:0:0:
192,192,181289,1,0,0:0:0:0:
64,192,181389,1,0,0:0:0:0:
320,192,181439,1,0,0:0:0:0:
448,192,181489,1,0,0:0:0:0:
192,192,181689,1,0,0:0:0:0:
192,192,181789,1,0,0:0:0:0:
320,192,181889,1,0,0:0:0:0:
320,192,181989,1,0,0:0:0:0:
64,192,182089,128,0,182289:0:0:0:0:
448,192,182289,1,0,0:0:0:0:
448,192,182389,1,0,0:0:0:0:
64,192,182489,1,0,0:0:0:0:
320,192,182589,1,0,0:0:0:0:
320,192,182689,1,0,0:0:0:0:
192,192,182789,1,0,0:0:0:0:
448,192,182889,128,0,183089:0:0:0:0:
64,192,183089,128,0,183289:0:0:0:0:
320,192,183289,1,0,0:0:0:0:
448,192,183489,1,0,0:0:0:0:
448,192,183589,1,0,0:0:0:0:
192,192,183689,1,0,0:0:0:0:
320,192,183789,1,0,0:0:0:0:
320,192,183889,1,0,0:0:0:0:
192,192,183939,1,0,0:0:0:0:
64,192,183989,1,0,0:0:0:0:
448,192,184089,1,0,0:0:0:0:
192,192,184155,1,0,0:0:0:0:
320,192,184222,1,0,0:0:0:0:
64,192,184289,1,0,0:0:0:0:
192,192,184339,1,0,0:0:0:0:
320,192,184389,1,0,0:0:0:0:
448,192,184439,1,0,0:0:0:0:
192,192,184489,1,0,0:0:0:0:
64,192,184589,1,0,0:0:0:0:
320,192,184639,1,0,0:0:0:0:
192,192,184689,1,0,0:0:0:0:
448,192,184789,1,0,0:0:0:0:
192,192,185089,128,0,185289:0:0:0:0:
448,192,185289,128,0,185389:0:0:0:0:
320,192,185489,128,0,185589:0:0:0:0:
192,192,185689,128,0,185789:0:0:0:0:
64,192,185889,128,0,185989:0:0:0:0:
320,192,186089,1,0,0:0:0:0:
448,192,186289,1,0,0:0:0:0:
448,192,186489,1,0,0:0:0:0:
192,192,186689,1,0,0:0:0:0:
320,192,186739,1,0,0:0:0:0:
448,192,186789,1,0,0:0:0:0:
320,192,186839,1,0,0:0:0:0:
64,192,186889,128,0,187089:0:0:0:0:
192,192,187089,128,0,187289:0:0:0:0:
448,192,187289,128,0,187489:0:0:0:0:
320,192,187489,128,0,187689:0:0:0:0:
192,192,187689,1,0,0:0:0:0:
64,192,187789,1,0,0:0:0:0:
320,192,187839,1,0,0:0:0:0:
448,192,187889,1,0,0:0:0:0:
192,192,187989,1,0,0:0:0:0:
320,192,188089,1,0,0:0:0:0:
320,192,188239,1,0,0:0:0:0:
320,192,188389,1,0,0:0:0:0:
64,192,188489,1,0,0:0:0:0:
64,192,188639,1,0,0:0:0:0:
64,192,188789,1,0,0:0:0:0:
320,192,188889,1,0,0:0:0:0:
448,192,188989,1,0,0:0:0:0:
192,192,189089,1,0,0:0:0:0:
320,192,189189,1,0,0:0:0:0:
448,192,189289,128,0,189489:0:0:0:0:
192,192,189489,128,0,189689:0:0:0:0:
64,192,189689,1,0,0:0:0:0:
64,192,189839,1,0,0:0:0:0:
320,192,189889,1,0,0:0:0:0:
64,192,189989,1,0,0:0:0:0:
448,192,190089,1,0,0:0:0:0:
448,192,190239,1,0,0:0:0:0:
448,192,190389,1,0,0:0:0:0:
192,192,190489,1,0,0:0:0:0:
320,192,190589,1,0,0:0:0:0:
64,192,190689,1,0,0:0:0:0:
192,192,190789,1,0,0:0:0:0:
448,192,190889,1,0,0:0:0:0:
64,192,190989,1,0,0:0:0:0:
320,192,191039,1,0,0:0:0:0:
448,192,191089,1,0,0:0:0:0:
320,192,191289,128,0,191489:0:0:0:0:
192,192,191489,1,0,0:0:0:0:
192,192,191689,128,0,191789:0:0:0:0:
192,192,191989,128,0,192089:0:0:0:0:
64,192,192289,128,0,192789:0:0:0:0:
320,192,192589,1,0,0:0:0:0:
320,192,192689,1,0,0:0:0:0:
448,192,192789,128,0,192989:0:0:0:0:
320,192,193089,1,0,0:0:0:0:
192,192,193189,1,0,0:0:0:0:
64,192,193389,1,0,0:0:0:0:
64,192,193489,1,0,0:0:0:0:
320,192,193689,1,0,0:0:0:0:
192,192,193889,1,0,0:0:0:0:
448,192,193939,1,0,0:0:0:0:
64,192,193989,1,0,0:0:0:0:
320,192,194039,1,0,0:0:0:0:
192,192,194089,1,0,0:0:0:0:
64,192,194189,1,0,0:0:0:0:
320,192,194239,1,0,0:0:0:0:
448,192,194289,1,0,0:0:0:0:
192,192,194489,1,0,0:0:0:0:
320,192,194589,1,0,0:0:0:0:
64,192,194689,1,0,0:0:0:0:
320,192,194789,1,0,0:0:0:0:
192,192,194889,1,0,0:0:0:0:
64,192,194989,1,0,0:0:0:0:
448,192,195089,1,0,0:0:0:0:
192,192,195139,1,0,0:0:0:0:
320,192,195189,1,0,0:0:0:0:
64,192,195289,1,0,0:0:0:0:
192,192,195389,1,0,0:0:0:0:
448,192,195489,1,0,0:0:0:0:
320,192,195539,1,0,0:0:0:0:
192,192,195589,1,0,0:0:0:0:
64,192,195639,1,0,0:0:0:0:
448,192,195689,128,0,195889:0:0:0:0:
192,192,195889,128,0,196089:0:0:0:0:
320,192,196089,1,0,0:0:0:0:
64,192,196289,1,0,0:0:0:0:
448,192,196389,1,0,0:0:0:0:
192,192,196489,1,0,0:0:0:0:
320,192,196589,1,0,0:0:0:0:
64,192,196689,1,0,0:0:0:0:
192,192,196739,1,0,0:0:0:0:
448,192,196789,1,0,0:0:0:0:
320,192,196889,1,0,0:0:0:0:
64,192,196989,1,0,0:0:0:0:
448,192,197089,1,0,0:0:0:0:
320,192,197139,1,0,0:0:0:0:
192,192,197189,1,0,0:0:0:0:
64,192,197239,1,0,0:0:0:0:
448,192,197289,1,0,0:0:0:0:
320,192,197389,1,0,0:0:0:0:
64,192,197489,1,0,0:0:0:0:
192,192,197539,1,0,0:0:0:0:
320,192,197589,1,0,0:0:0:0:
448,192,197639,1,0,0:0:0:0:
64,192,197689,1,0,0:0:0:0:
320,192,197789,1,0,0:0:0:0:
192,192,197889,1,0,0:0:0:0:
64,192,197939,1,0,0:0:0:0:
320,192,197989,1,0,0:0:0:0:
448,192,198039,1,0,0:0:0:0:
192,192,198089,1,0,0:0:0:0:
320,192,198189,1,0,0:0:0:0:
64,192,198289,1,0,0:0:0:0:
192,192,198339,1,0,0:0:0:0:
320,192,198389,1,0,0:0:0:0:
448,192,198439,1,0,0:0:0:0:
64,192,198489,1,0,0:0:0:0:
320,192,198589,1,0,0:0:0:0:
448,192,198689,1,0,0:0:0:0:
192,192,198739,1,0,0:0:0:0:
64,192,198789,1,0,0:0:0:0:
320,192,198839,1,0,0:0:0:0:
192,192,198889,128,0,198989:0:0:0:0:
448,192,199089,128,0,199189:0:0:0:0:
320,192,199289,128,0,199389:0:0:0:0:
192,192,199489,128,0,199589:0:0:0:0:
448,192,199689,128,0,199889:0:0:0:0:
64,192,199889,1,0,0:0:0:0:
320,192,200089,1,0,0:0:0:0:
192,192,200189,1,0,0:0:0:0:
320,192,200289,1,0,0:0:0:0:
192,192,200389,1,0,0:0:0:0:
64,192,200489,1,0,0:0:0:0:
448,192,200489,1,0,0:0:0:0:
