osu file format v14

[General]
AudioFilename: audio.mp3
AudioLeadIn: 0
PreviewTime: -1
Countdown: 1
SampleSet: Normal
StackLeniency: 0.7
Mode: 1
LetterboxInBreaks: 0
WidescreenStoryboard: 0

[Editor]
Bookmarks: 16464,174877
DistanceSpacing: 1.3
BeatDivisor: 8
GridSize: 32
TimelineZoom: 2.999999

[Metadata]
Title:Night Raid with a Dragon
TitleUnicode:Night Raid with a Dragon
Artist:Camellia
ArtistUnicode:かめりあ
Creator:Capu
Version:Ryojin
Source:
Tags:
BeatmapID:2519340
BeatmapSetID:1210098

[Difficulty]
HPDrainRate:5
CircleSize:2
OverallDifficulty:7
ApproachRate:10
SliderMultiplier:2.8
SliderTickRate:1

[Events]
//Background and Video events
0,0,"dragon.jpg",0,0
//Break Periods
2,95414,98514
2,99398,102264
//Storyboard Layer 0 (Background)
//Storyboard Layer 1 (Fail)
//Storyboard Layer 2 (Pass)
//Storyboard Layer 3 (Foreground)
//Storyboard Layer 4 (Overlay)
//Storyboard Sound Samples

[TimingPoints]
1464,468.75,4,1,0,100,1,0
133651,447.761194029851,4,1,0,100,1,0
134546,444.444444444444,4,1,0,100,1,0
135434,441.176470588235,4,1,0,100,1,0
136316,419.58041958042,4,1,0,100,1,0
137994,408.163265306122,4,1,0,100,1,0
139627,400,4,1,0,100,1,0

[HitObjects]
256,192,16464,5,8,0:0:0:0:
256,192,16581,1,8,0:0:0:0:
256,192,16698,1,8,0:0:0:0:
256,192,16815,1,0,0:0:0:0:
256,192,16932,1,8,0:0:0:0:
256,192,17167,1,8,0:0:0:0:
256,192,17401,1,0,0:0:0:0:
256,192,17518,1,8,0:0:0:0:
256,192,17577,1,8,0:0:0:0:
256,192,17635,1,0,0:0:0:0:
256,192,17753,1,0,0:0:0:0:
256,192,17870,1,8,0:0:0:0:
256,192,17987,1,8,0:0:0:0:
256,192,18104,1,0,0:0:0:0:
256,192,18163,1,0,0:0:0:0:
256,192,18221,1,8,0:0:0:0:
256,192,18280,1,8,0:0:0:0:
256,192,18339,1,0,0:0:0:0:
256,192,18456,1,0,0:0:0:0:
256,192,18573,1,8,0:0:0:0:
256,192,18690,1,0,0:0:0:0:
256,192,18807,1,8,0:0:0:0:
256,192,18924,1,0,0:0:0:0:
256,192,19042,1,8,0:0:0:0:
256,192,19159,1,8,0:0:0:0:
256,192,19276,1,0,0:0:0:0:
256,192,19393,1,8,0:0:0:0:
256,192,19510,1,0,0:0:0:0:
256,192,19628,1,0,0:0:0:0:
256,192,19745,1,8,0:0:0:0:
256,192,19862,1,0,0:0:0:0:
256,192,19979,1,8,0:0:0:0:
256,192,20038,1,8,0:0:0:0:
256,192,20096,1,8,0:0:0:0:
256,192,20155,1,8,0:0:0:0:
256,192,20214,1,0,0:0:0:0:
256,192,20331,1,8,0:0:0:0:
256,192,20448,1,0,0:0:0:0:
256,192,20565,1,0,0:0:0:0:
256,192,20682,1,8,0:0:0:0:
256,192,20799,1,0,0:0:0:0:
256,192,20917,1,8,0:0:0:0:
256,192,21034,1,0,0:0:0:0:
256,192,21151,1,0,0:0:0:0:
256,192,21268,1,8,0:0:0:0:
256,192,21385,1,0,0:0:0:0:
256,192,21503,1,8,0:0:0:0:
256,192,21620,1,8,0:0:0:0:
256,192,21737,1,0,0:0:0:0:
256,192,21854,1,8,0:0:0:0:
256,192,21913,1,8,0:0:0:0:
256,192,21971,1,0,0:0:0:0:
256,192,22030,1,0,0:0:0:0:
256,192,22089,1,8,0:0:0:0:
256,192,22206,1,8,0:0:0:0:
256,192,22323,1,0,0:0:0:0:
256,192,22440,1,0,0:0:0:0:
256,192,22557,1,8,0:0:0:0:
256,192,22674,1,0,0:0:0:0:
256,192,22792,1,8,0:0:0:0:
256,192,22909,1,0,0:0:0:0:
256,192,23026,1,0,0:0:0:0:
256,192,23143,1,8,0:0:0:0:
256,192,23260,1,8,0:0:0:0:
256,192,23378,1,0,0:0:0:0:
256,192,23495,1,8,0:0:0:0:
256,192,23612,1,0,0:0:0:0:
256,192,23729,1,8,0:0:0:0:
256,192,23788,1,8,0:0:0:0:
256,192,23846,1,8,0:0:0:0:
256,192,23905,1,8,0:0:0:0:
256,192,23964,1,0,0:0:0:0:
256,192,24081,1,0,0:0:0:0:
256,192,24198,1,8,0:0:0:0:
256,192,24256,1,8,0:0:0:0:
256,192,24315,1,0,0:0:0:0:
256,192,24374,1,0,0:0:0:0:
256,192,24432,1,8,0:0:0:0:
256,192,24549,1,0,0:0:0:0:
256,192,24667,1,8,0:0:0:0:
256,192,24725,1,8,0:0:0:0:
256,192,24784,1,8,0:0:0:0:
256,192,24842,1,8,0:0:0:0:
256,192,24901,1,0,0:0:0:0:
256,192,25018,1,8,0:0:0:0:
256,192,25135,1,0,0:0:0:0:
256,192,25194,1,0,0:0:0:0:
256,192,25253,1,8,0:0:0:0:
256,192,25311,1,0,0:0:0:0:
256,192,25370,1,8,0:0:0:0:
256,192,25487,1,0,0:0:0:0:
256,192,25604,1,8,0:0:0:0:
256,192,25663,1,0,0:0:0:0:
256,192,25721,1,8,0:0:0:0:
256,192,25780,1,8,0:0:0:0:
256,192,25839,1,0,0:0:0:0:
256,192,25956,1,8,0:0:0:0:
256,192,26073,1,0,0:0:0:0:
256,192,26131,1,8,0:0:0:0:
256,192,26190,1,8,0:0:0:0:
256,192,26249,1,0,0:0:0:0:
256,192,26307,1,8,0:0:0:0:
256,192,26424,1,0,0:0:0:0:
256,192,26542,1,8,0:0:0:0:
256,192,26600,1,8,0:0:0:0:
256,192,26659,1,0,0:0:0:0:
256,192,26717,1,0,0:0:0:0:
256,192,26776,1,8,0:0:0:0:
256,192,26893,1,0,0:0:0:0:
256,192,27010,1,8,0:0:0:0:
256,192,27069,1,0,0:0:0:0:
256,192,27128,1,0,0:0:0:0:
256,192,27186,1,0,0:0:0:0:
256,192,27245,1,8,0:0:0:0:
256,192,27362,1,0,0:0:0:0:
256,192,27479,1,8,0:0:0:0:
256,192,27538,1,0,0:0:0:0:
256,192,27596,1,8,0:0:0:0:
256,192,27655,1,0,0:0:0:0:
256,192,27714,1,8,0:0:0:0:
256,192,27772,1,8,0:0:0:0:
256,192,27831,1,8,0:0:0:0:
256,192,27889,1,8,0:0:0:0:
256,192,27948,1,0,0:0:0:0:
256,192,28006,1,0,0:0:0:0:
256,192,28065,1,0,0:0:0:0:
256,192,28124,1,0,0:0:0:0:
256,192,28182,1,8,0:0:0:0:
256,192,28241,1,8,0:0:0:0:
256,192,28299,1,8,0:0:0:0:
256,192,28358,1,8,0:0:0:0:
256,192,28417,1,0,0:0:0:0:
256,192,28475,1,0,0:0:0:0:
256,192,28534,1,0,0:0:0:0:
256,192,28592,1,0,0:0:0:0:
256,192,28651,1,8,0:0:0:0:
256,192,28710,1,8,0:0:0:0:
256,192,28768,1,8,0:0:0:0:
256,192,28827,1,8,0:0:0:0:
256,192,28885,1,0,0:0:0:0:
256,192,28944,1,0,0:0:0:0:
256,192,29003,1,0,0:0:0:0:
256,192,29061,1,0,0:0:0:0:
256,192,29120,1,8,0:0:0:0:
256,192,29178,1,8,0:0:0:0:
256,192,29237,1,8,0:0:0:0:
256,192,29296,1,8,0:0:0:0:
256,192,29354,1,0,0:0:0:0:
256,192,29413,1,0,0:0:0:0:
256,192,29471,1,0,0:0:0:0:
256,192,29530,1,0,0:0:0:0:
256,192,29589,1,8,0:0:0:0:
256,192,29706,1,8,0:0:0:0:
256,192,29823,1,8,0:0:0:0:
256,192,29940,1,0,0:0:0:0:
256,192,30057,1,8,0:0:0:0:
256,192,30174,1,0,0:0:0:0:
256,192,30292,1,8,0:0:0:0:
256,192,30409,1,8,0:0:0:0:
256,192,30526,1,0,0:0:0:0:
256,192,30643,1,8,0:0:0:0:
256,192,30760,1,8,0:0:0:0:
256,192,30878,1,0,0:0:0:0:
256,192,30995,1,8,0:0:0:0:
256,192,31112,1,8,0:0:0:0:
256,192,31229,1,0,0:0:0:0:
256,192,31346,1,0,0:0:0:0:
256,192,31464,1,8,0:0:0:0:
256,192,31522,1,8,0:0:0:0:
256,192,31581,1,0,0:0:0:0:
256,192,31639,1,0,0:0:0:0:
256,192,31698,1,8,0:0:0:0:
256,192,31932,1,8,0:0:0:0:
256,192,32049,1,0,0:0:0:0:
256,192,32167,1,0,0:0:0:0:
256,192,32284,1,8,0:0:0:0:
256,192,32401,1,0,0:0:0:0:
256,192,32518,1,8,0:0:0:0:
256,192,32635,1,0,0:0:0:0:
256,192,32694,1,0,0:0:0:0:
256,192,32753,1,8,0:0:0:0:
256,192,32870,1,8,0:0:0:0:
256,192,32987,1,0,0:0:0:0:
256,192,33104,1,8,0:0:0:0:
256,192,33163,1,0,0:0:0:0:
256,192,33221,1,0,0:0:0:0:
256,192,33280,1,0,0:0:0:0:
256,192,33339,1,8,0:0:0:0:
256,192,33573,1,0,0:0:0:0:
256,192,33807,1,8,0:0:0:0:
256,192,33924,1,0,0:0:0:0:
256,192,34042,1,8,0:0:0:0:
256,192,34159,1,8,0:0:0:0:
256,192,34276,1,0,0:0:0:0:
256,192,34393,1,8,0:0:0:0:
256,192,34510,1,8,0:0:0:0:
256,192,34569,1,0,0:0:0:0:
256,192,34628,1,0,0:0:0:0:
256,192,34745,1,8,0:0:0:0:
256,192,34862,1,0,0:0:0:0:
256,192,34921,1,0,0:0:0:0:
256,192,34979,1,8,0:0:0:0:
256,192,35214,1,8,0:0:0:0:
256,192,35272,1,8,0:0:0:0:
256,192,35331,1,0,0:0:0:0:
256,192,35389,1,0,0:0:0:0:
256,192,35448,1,8,0:0:0:0:
256,192,35682,1,0,0:0:0:0:
256,192,35741,1,0,0:0:0:0:
256,192,35799,1,0,0:0:0:0:
256,192,35858,1,0,0:0:0:0:
256,192,35917,1,8,0:0:0:0:
256,192,35975,1,8,0:0:0:0:
256,192,36034,1,8,0:0:0:0:
256,192,36092,1,8,0:0:0:0:
256,192,36151,1,0,0:0:0:0:
256,192,36268,1,8,0:0:0:0:
256,192,36327,1,8,0:0:0:0:
256,192,36385,1,0,0:0:0:0:
256,192,36503,1,0,0:0:0:0:
256,192,36620,1,8,0:0:0:0:
256,192,36678,1,8,0:0:0:0:
256,192,36737,1,0,0:0:0:0:
256,192,36854,1,8,0:0:0:0:
256,192,36971,1,8,0:0:0:0:
256,192,37089,1,0,0:0:0:0:
256,192,37206,1,0,0:0:0:0:
256,192,37264,1,0,0:0:0:0:
256,192,37323,1,8,0:0:0:0:
256,192,37440,1,0,0:0:0:0:
256,192,37557,1,8,0:0:0:0:
256,192,37616,1,8,0:0:0:0:
256,192,37674,1,0,0:0:0:0:
256,192,37792,1,8,0:0:0:0:
256,192,37850,1,0,0:0:0:0:
256,192,37909,1,0,0:0:0:0:
256,192,38026,1,0,0:0:0:0:
256,192,38143,1,8,0:0:0:0:
256,192,38202,1,0,0:0:0:0:
256,192,38260,1,8,0:0:0:0:
256,192,38378,1,0,0:0:0:0:
256,192,38495,1,8,0:0:0:0:
256,192,38729,1,0,0:0:0:0:
256,192,38846,1,0,0:0:0:0:
256,192,38964,1,8,0:0:0:0:
256,192,39022,1,8,0:0:0:0:
256,192,39081,1,0,0:0:0:0:
256,192,39139,1,0,0:0:0:0:
256,192,39198,1,8,0:0:0:0:
256,192,39432,1,8,0:0:0:0:
256,192,39549,1,0,0:0:0:0:
256,192,39667,1,0,0:0:0:0:
256,192,39784,1,8,0:0:0:0:
256,192,39901,1,0,0:0:0:0:
256,192,40018,1,8,0:0:0:0:
256,192,40135,1,0,0:0:0:0:
256,192,40194,1,0,0:0:0:0:
256,192,40253,1,8,0:0:0:0:
256,192,40370,1,8,0:0:0:0:
256,192,40487,1,0,0:0:0:0:
256,192,40604,1,8,0:0:0:0:
256,192,40663,1,0,0:0:0:0:
256,192,40721,1,0,0:0:0:0:
256,192,40780,1,0,0:0:0:0:
256,192,40839,1,8,0:0:0:0:
256,192,41073,1,0,0:0:0:0:
256,192,41307,1,8,0:0:0:0:
256,192,41424,1,0,0:0:0:0:
256,192,41542,1,8,0:0:0:0:
256,192,41659,1,8,0:0:0:0:
256,192,41776,1,0,0:0:0:0:
256,192,41893,1,8,0:0:0:0:
256,192,42010,1,8,0:0:0:0:
256,192,42069,1,0,0:0:0:0:
256,192,42128,1,0,0:0:0:0:
256,192,42245,1,8,0:0:0:0:
256,192,42362,1,0,0:0:0:0:
256,192,42421,1,0,0:0:0:0:
256,192,42479,1,8,0:0:0:0:
256,192,42714,1,8,0:0:0:0:
256,192,42772,1,8,0:0:0:0:
256,192,42831,1,0,0:0:0:0:
256,192,42889,1,0,0:0:0:0:
256,192,42948,1,8,0:0:0:0:
256,192,43182,1,0,0:0:0:0:
256,192,43241,1,0,0:0:0:0:
256,192,43299,1,0,0:0:0:0:
256,192,43358,1,0,0:0:0:0:
256,192,43417,1,8,0:0:0:0:
256,192,43475,1,8,0:0:0:0:
256,192,43534,1,8,0:0:0:0:
256,192,43592,1,8,0:0:0:0:
256,192,43651,1,0,0:0:0:0:
256,192,43768,1,8,0:0:0:0:
256,192,43827,1,8,0:0:0:0:
256,192,43885,1,0,0:0:0:0:
256,192,44003,1,0,0:0:0:0:
256,192,44120,1,8,0:0:0:0:
256,192,44178,1,8,0:0:0:0:
256,192,44237,1,0,0:0:0:0:
256,192,44354,1,8,0:0:0:0:
256,192,44471,1,8,0:0:0:0:
256,192,44589,1,0,0:0:0:0:
256,192,44823,1,8,0:0:0:0:
256,192,45057,1,8,0:0:0:0:
256,192,45174,1,0,0:0:0:0:
256,192,45292,1,8,0:0:0:0:
256,192,45350,1,0,0:0:0:0:
256,192,45409,1,8,0:0:0:0:
256,192,45467,1,0,0:0:0:0:
256,192,45526,1,8,0:0:0:0:
256,192,45643,1,0,0:0:0:0:
256,192,45760,1,8,0:0:0:0:
256,192,45878,1,0,0:0:0:0:
256,192,45995,1,8,0:0:0:0:
256,192,46053,1,0,0:0:0:0:
256,192,46112,1,0,0:0:0:0:
256,192,46171,1,0,0:0:0:0:
256,192,46229,1,8,0:0:0:0:
256,192,46464,1,8,0:0:0:0:
256,192,46522,1,8,0:0:0:0:
256,192,46581,1,0,0:0:0:0:
256,192,46639,1,0,0:0:0:0:
256,192,46698,1,8,0:0:0:0:
256,192,46932,1,4,0:0:0:0:
256,192,47049,1,0,0:0:0:0:
256,192,47167,1,8,0:0:0:0:
256,192,47225,1,0,0:0:0:0:
256,192,47284,1,0,0:0:0:0:
256,192,47401,1,0,0:0:0:0:
256,192,47518,1,8,0:0:0:0:
256,192,47635,1,8,0:0:0:0:
256,192,47694,1,8,0:0:0:0:
256,192,47753,1,0,0:0:0:0:
256,192,47870,1,8,0:0:0:0:
256,192,47987,1,0,0:0:0:0:
256,192,48104,1,8,0:0:0:0:
256,192,48163,1,0,0:0:0:0:
256,192,48221,1,8,0:0:0:0:
256,192,48280,1,8,0:0:0:0:
256,192,48339,1,0,0:0:0:0:
256,192,48573,1,8,0:0:0:0:
256,192,48807,1,0,0:0:0:0:
256,192,49042,1,8,0:0:0:0:
256,192,49159,1,8,0:0:0:0:
256,192,49276,1,0,0:0:0:0:
256,192,49393,1,8,0:0:0:0:
256,192,49510,1,0,0:0:0:0:
256,192,49569,1,0,0:0:0:0:
256,192,49628,1,8,0:0:0:0:
256,192,49745,1,0,0:0:0:0:
256,192,49862,1,0,0:0:0:0:
256,192,49979,1,8,0:0:0:0:
256,192,50038,1,0,0:0:0:0:
256,192,50096,1,0,0:0:0:0:
256,192,50214,1,8,0:0:0:0:
256,192,50272,1,8,0:0:0:0:
256,192,50331,1,0,0:0:0:0:
256,192,50389,1,0,0:0:0:0:
256,192,50448,1,8,0:0:0:0:
256,192,50682,1,0,0:0:0:0:
256,192,50741,1,0,0:0:0:0:
256,192,50799,1,0,0:0:0:0:
256,192,50858,1,0,0:0:0:0:
256,192,50917,1,8,0:0:0:0:
256,192,50975,1,8,0:0:0:0:
256,192,51034,1,8,0:0:0:0:
256,192,51092,1,8,0:0:0:0:
256,192,51151,1,0,0:0:0:0:
256,192,51268,1,8,0:0:0:0:
256,192,51327,1,8,0:0:0:0:
256,192,51385,1,0,0:0:0:0:
256,192,51503,1,0,0:0:0:0:
256,192,51620,1,8,0:0:0:0:
256,192,51678,1,8,0:0:0:0:
256,192,51737,1,0,0:0:0:0:
256,192,51854,1,8,0:0:0:0:
256,192,51971,1,8,0:0:0:0:
256,192,52089,1,0,0:0:0:0:
256,192,52206,1,8,0:0:0:0:
256,192,52323,1,8,0:0:0:0:
256,192,52440,1,4,0:0:0:0:
256,192,52792,1,4,0:0:0:0:
256,192,53143,1,4,0:0:0:0:
256,192,53495,1,4,0:0:0:0:
256,192,53729,1,0,0:0:0:0:
256,192,53788,1,0,0:0:0:0:
256,192,53846,1,0,0:0:0:0:
256,192,53905,1,0,0:0:0:0:
256,192,53964,1,8,0:0:0:0:
256,192,54022,1,8,0:0:0:0:
256,192,54081,1,0,0:0:0:0:
256,192,54139,1,0,0:0:0:0:
256,192,54198,1,8,0:0:0:0:
256,192,54432,1,4,0:0:0:0:
256,192,54549,1,0,0:0:0:0:
256,192,54667,1,8,0:0:0:0:
256,192,54784,1,0,0:0:0:0:
256,192,54901,1,8,0:0:0:0:
256,192,55018,1,8,0:0:0:0:
256,192,55135,1,0,0:0:0:0:
256,192,55194,1,0,0:0:0:0:
256,192,55253,1,8,0:0:0:0:
256,192,55370,1,0,0:0:0:0:
256,192,55487,1,8,0:0:0:0:
256,192,55604,1,0,0:0:0:0:
256,192,55663,1,0,0:0:0:0:
256,192,55721,1,8,0:0:0:0:
256,192,55780,1,8,0:0:0:0:
256,192,55839,1,0,0:0:0:0:
256,192,55897,1,8,0:0:0:0:
256,192,55956,1,0,0:0:0:0:
256,192,56014,1,0,0:0:0:0:
256,192,56073,1,8,0:0:0:0:
256,192,56190,1,0,0:0:0:0:
256,192,56307,1,8,0:0:0:0:
256,192,56366,1,8,0:0:0:0:
256,192,56424,1,0,0:0:0:0:
256,192,56542,1,8,0:0:0:0:
256,192,56659,1,0,0:0:0:0:
256,192,56776,1,8,0:0:0:0:
256,192,56893,1,8,0:0:0:0:
256,192,57010,1,0,0:0:0:0:
256,192,57069,1,0,0:0:0:0:
256,192,57128,1,8,0:0:0:0:
256,192,57245,1,0,0:0:0:0:
256,192,57362,1,8,0:0:0:0:
256,192,57479,1,0,0:0:0:0:
256,192,57538,1,0,0:0:0:0:
256,192,57596,1,0,0:0:0:0:
256,192,57655,1,0,0:0:0:0:
256,192,57714,1,8,0:0:0:0:
256,192,57772,1,8,0:0:0:0:
256,192,57831,1,0,0:0:0:0:
256,192,57889,1,0,0:0:0:0:
256,192,57948,1,8,0:0:0:0:
256,192,58006,1,0,0:0:0:0:
256,192,58065,1,8,0:0:0:0:
256,192,58124,1,8,0:0:0:0:
256,192,58182,1,0,0:0:0:0:
256,192,58299,1,8,0:0:0:0:
256,192,58417,1,0,0:0:0:0:
256,192,58475,1,8,0:0:0:0:
256,192,58534,1,8,0:0:0:0:
256,192,58592,1,0,0:0:0:0:
256,192,58651,1,8,0:0:0:0:
256,192,58768,1,8,0:0:0:0:
256,192,58885,1,0,0:0:0:0:
256,192,58944,1,8,0:0:0:0:
256,192,59003,1,0,0:0:0:0:
256,192,59120,1,8,0:0:0:0:
256,192,59178,1,0,0:0:0:0:
256,192,59237,1,8,0:0:0:0:
256,192,59296,1,8,0:0:0:0:
256,192,59354,1,0,0:0:0:0:
256,192,59413,1,0,0:0:0:0:
256,192,59471,1,8,0:0:0:0:
256,192,59530,1,8,0:0:0:0:
256,192,59589,1,0,0:0:0:0:
256,192,59706,12,0,61229,0:0:0:0:
256,192,61464,5,4,0:0:0:0:
256,192,61815,1,0,0:0:0:0:
256,192,61874,1,0,0:0:0:0:
256,192,61932,1,8,0:0:0:0:
256,192,62049,1,8,0:0:0:0:
256,192,62167,1,0,0:0:0:0:
256,192,62284,1,8,0:0:0:0:
256,192,62401,1,0,0:0:0:0:
256,192,62518,1,0,0:0:0:0:
256,192,62635,1,8,0:0:0:0:
256,192,62753,1,0,0:0:0:0:
256,192,62870,1,8,0:0:0:0:
256,192,62987,1,0,0:0:0:0:
256,192,63104,1,8,0:0:0:0:
256,192,63221,1,0,0:0:0:0:
256,192,63339,1,8,0:0:0:0:
256,192,63690,1,0,0:0:0:0:
256,192,63749,1,8,0:0:0:0:
256,192,63807,1,0,0:0:0:0:
256,192,63924,1,0,0:0:0:0:
256,192,64042,1,8,0:0:0:0:
256,192,64159,1,8,0:0:0:0:
256,192,64276,1,0,0:0:0:0:
256,192,64510,1,0,0:0:0:0:
256,192,64745,1,8,0:0:0:0:
256,192,64979,1,8,0:0:0:0:
256,192,65214,1,12,0:0:0:0:
256,192,65565,1,0,0:0:0:0:
256,192,65682,1,8,0:0:0:0:
256,192,65799,1,8,0:0:0:0:
256,192,65917,1,0,0:0:0:0:
256,192,66034,1,8,0:0:0:0:
256,192,66151,1,0,0:0:0:0:
256,192,66268,1,0,0:0:0:0:
256,192,66385,1,8,0:0:0:0:
256,192,66503,1,0,0:0:0:0:
256,192,66620,1,8,0:0:0:0:
256,192,66737,1,0,0:0:0:0:
256,192,66854,1,8,0:0:0:0:
256,192,66971,1,8,0:0:0:0:
256,192,67089,1,0,0:0:0:0:
256,192,67440,1,0,0:0:0:0:
256,192,67499,1,0,0:0:0:0:
256,192,67557,1,8,0:0:0:0:
256,192,67674,1,8,0:0:0:0:
256,192,67792,1,0,0:0:0:0:
256,192,67909,1,8,0:0:0:0:
256,192,68026,1,0,0:0:0:0:
256,192,68202,1,0,0:0:0:0:
256,192,68260,1,8,0:0:0:0:
256,192,68378,1,8,0:0:0:0:
256,192,68495,1,0,0:0:0:0:
256,192,68612,1,8,0:0:0:0:
256,192,68729,1,0,0:0:0:0:
256,192,68846,1,0,0:0:0:0:
256,192,68964,1,8,0:0:0:0:
256,192,69198,1,0,0:0:0:0:
256,192,69315,1,8,0:0:0:0:
256,192,69374,1,0,0:0:0:0:
256,192,69432,1,8,0:0:0:0:
256,192,69549,1,0,0:0:0:0:
256,192,69667,1,8,0:0:0:0:
256,192,69784,1,8,0:0:0:0:
256,192,69901,1,0,0:0:0:0:
256,192,70018,1,0,0:0:0:0:
256,192,70135,1,8,0:0:0:0:
256,192,70253,1,0,0:0:0:0:
256,192,70370,1,8,0:0:0:0:
256,192,70487,1,0,0:0:0:0:
256,192,70604,1,8,0:0:0:0:
256,192,70721,1,0,0:0:0:0:
256,192,70780,1,0,0:0:0:0:
256,192,70839,1,8,0:0:0:0:
256,192,71190,1,0,0:0:0:0:
256,192,71307,1,8,0:0:0:0:
256,192,71424,1,8,0:0:0:0:
256,192,71542,1,0,0:0:0:0:
256,192,71659,1,8,0:0:0:0:
256,192,71776,1,0,0:0:0:0:
256,192,71893,1,0,0:0:0:0:
256,192,72010,1,8,0:0:0:0:
256,192,72128,1,0,0:0:0:0:
256,192,72245,1,8,0:0:0:0:
256,192,72362,1,8,0:0:0:0:
256,192,72479,1,0,0:0:0:0:
256,192,72538,1,0,0:0:0:0:
256,192,72596,1,0,0:0:0:0:
256,192,72655,1,0,0:0:0:0:
256,192,72714,1,8,0:0:0:0:
256,192,72831,1,0,0:0:0:0:
256,192,72948,1,8,0:0:0:0:
256,192,73006,1,0,0:0:0:0:
256,192,73065,1,0,0:0:0:0:
256,192,73124,1,0,0:0:0:0:
256,192,73182,1,8,0:0:0:0:
256,192,73299,1,0,0:0:0:0:
256,192,73417,1,8,0:0:0:0:
256,192,73475,1,8,0:0:0:0:
256,192,73534,1,0,0:0:0:0:
256,192,73592,1,0,0:0:0:0:
256,192,73651,1,8,0:0:0:0:
256,192,73768,1,0,0:0:0:0:
256,192,73885,1,8,0:0:0:0:
256,192,73944,1,8,0:0:0:0:
256,192,74003,1,8,0:0:0:0:
256,192,74061,1,0,0:0:0:0:
256,192,74120,1,8,0:0:0:0:
256,192,74178,1,8,0:0:0:0:
256,192,74237,1,0,0:0:0:0:
256,192,74354,1,8,0:0:0:0:
256,192,74413,1,8,0:0:0:0:
256,192,74471,1,0,0:0:0:0:
256,192,74589,1,8,0:0:0:0:
256,192,76464,1,8,0:0:0:0:
256,192,76522,1,8,0:0:0:0:
256,192,76581,1,0,0:0:0:0:
256,192,76639,1,0,0:0:0:0:
256,192,76698,1,8,0:0:0:0:
256,192,76932,1,8,0:0:0:0:
256,192,76971,1,8,0:0:0:0:
256,192,77167,1,8,0:0:0:0:
256,192,77206,1,8,0:0:0:0:
256,192,77401,1,8,0:0:0:0:
256,192,77440,1,8,0:0:0:0:
256,192,77635,1,8,0:0:0:0:
256,192,77674,1,8,0:0:0:0:
256,192,77870,1,8,0:0:0:0:
256,192,77909,1,8,0:0:0:0:
256,192,78339,1,8,0:0:0:0:
256,192,78397,1,0,0:0:0:0:
256,192,78456,1,0,0:0:0:0:
256,192,78573,1,8,0:0:0:0:
256,192,78690,1,8,0:0:0:0:
256,192,78807,1,0,0:0:0:0:
256,192,78924,1,0,0:0:0:0:
256,192,79042,1,8,0:0:0:0:
256,192,79081,1,8,0:0:0:0:
256,192,79276,1,8,0:0:0:0:
256,192,79315,1,8,0:0:0:0:
256,192,79510,1,8,0:0:0:0:
256,192,79549,1,8,0:0:0:0:
256,192,79745,1,0,0:0:0:0:
256,192,79862,1,8,0:0:0:0:
256,192,79979,1,0,0:0:0:0:
256,192,80214,1,8,0:0:0:0:
256,192,80272,1,8,0:0:0:0:
256,192,80331,1,0,0:0:0:0:
256,192,80389,1,0,0:0:0:0:
256,192,80448,1,8,0:0:0:0:
256,192,80682,1,8,0:0:0:0:
256,192,80799,1,0,0:0:0:0:
256,192,80917,1,8,0:0:0:0:
256,192,80956,1,0,0:0:0:0:
256,192,80995,1,0,0:0:0:0:
256,192,81151,1,8,0:0:0:0:
256,192,81190,1,0,0:0:0:0:
256,192,81229,1,0,0:0:0:0:
256,192,81385,1,8,0:0:0:0:
256,192,81503,1,0,0:0:0:0:
256,192,81620,1,8,0:0:0:0:
256,192,81854,1,0,0:0:0:0:
256,192,81971,1,8,0:0:0:0:
256,192,82089,1,0,0:0:0:0:
256,192,82147,1,0,0:0:0:0:
256,192,82206,1,8,0:0:0:0:
256,192,82264,1,0,0:0:0:0:
256,192,82323,1,0,0:0:0:0:
256,192,82557,1,0,0:0:0:0:
256,192,82674,1,0,0:0:0:0:
256,192,82792,1,8,0:0:0:0:
256,192,82831,1,0,0:0:0:0:
256,192,82870,1,0,0:0:0:0:
256,192,83026,1,8,0:0:0:0:
256,192,83065,1,0,0:0:0:0:
256,192,83104,1,0,0:0:0:0:
256,192,83260,1,8,0:0:0:0:
256,192,83378,1,0,0:0:0:0:
256,192,83495,1,8,0:0:0:0:
256,192,83534,1,8,0:0:0:0:
256,192,83573,1,0,0:0:0:0:
256,192,83729,1,8,0:0:0:0:
256,192,83846,1,0,0:0:0:0:
256,192,83964,1,8,0:0:0:0:
256,192,84022,1,8,0:0:0:0:
256,192,84081,1,0,0:0:0:0:
256,192,84139,1,0,0:0:0:0:
256,192,84198,1,8,0:0:0:0:
256,192,84315,1,8,0:0:0:0:
256,192,84432,1,0,0:0:0:0:
256,192,84549,1,0,0:0:0:0:
256,192,84667,1,8,0:0:0:0:
256,192,84901,1,0,0:0:0:0:
256,192,85057,1,0,0:0:0:0:
256,192,85214,1,0,0:0:0:0:
256,192,85370,1,8,0:0:0:0:
256,192,85526,1,8,0:0:0:0:
256,192,85682,1,8,0:0:0:0:
256,192,85839,1,0,0:0:0:0:
256,192,85956,1,0,0:0:0:0:
256,192,86073,1,8,0:0:0:0:
256,192,86190,1,0,0:0:0:0:
256,192,86307,1,8,0:0:0:0:
256,192,86424,1,8,0:0:0:0:
256,192,86542,1,0,0:0:0:0:
256,192,86776,1,8,0:0:0:0:
256,192,86893,1,0,0:0:0:0:
256,192,86952,1,0,0:0:0:0:
256,192,87010,1,8,0:0:0:0:
256,192,87128,1,8,0:0:0:0:
256,192,87245,1,0,0:0:0:0:
256,192,87362,1,8,0:0:0:0:
256,192,87479,1,0,0:0:0:0:
256,192,87596,1,0,0:0:0:0:
256,192,87714,1,8,0:0:0:0:
256,192,87772,1,8,0:0:0:0:
256,192,87831,1,0,0:0:0:0:
256,192,87889,1,0,0:0:0:0:
256,192,87948,1,8,0:0:0:0:
256,192,88182,1,12,0:0:0:0:
256,192,88417,1,8,0:0:0:0:
256,192,88456,1,0,0:0:0:0:
256,192,88495,1,0,0:0:0:0:
256,192,88651,1,8,0:0:0:0:
256,192,88690,1,0,0:0:0:0:
256,192,88729,1,0,0:0:0:0:
256,192,88885,1,8,0:0:0:0:
256,192,89003,1,0,0:0:0:0:
256,192,89120,1,8,0:0:0:0:
256,192,89237,1,8,0:0:0:0:
256,192,89354,1,0,0:0:0:0:
256,192,89413,1,0,0:0:0:0:
256,192,89471,1,0,0:0:0:0:
256,192,89530,1,0,0:0:0:0:
256,192,89589,1,8,0:0:0:0:
256,192,89647,1,8,0:0:0:0:
256,192,89706,1,8,0:0:0:0:
256,192,89764,1,8,0:0:0:0:
256,192,89823,1,0,0:0:0:0:
256,192,90057,1,0,0:0:0:0:
256,192,90174,1,0,0:0:0:0:
256,192,90292,1,8,0:0:0:0:
256,192,90331,1,8,0:0:0:0:
256,192,90370,1,0,0:0:0:0:
256,192,90526,1,8,0:0:0:0:
256,192,90565,1,8,0:0:0:0:
256,192,90604,1,0,0:0:0:0:
256,192,90760,1,8,0:0:0:0:
256,192,90878,1,0,0:0:0:0:
256,192,90995,1,8,0:0:0:0:
256,192,91034,1,8,0:0:0:0:
256,192,91073,1,8,0:0:0:0:
256,192,91229,1,0,0:0:0:0:
256,192,91288,1,0,0:0:0:0:
256,192,91346,1,0,0:0:0:0:
256,192,91405,1,0,0:0:0:0:
256,192,91464,1,8,0:0:0:0:
256,192,91522,1,8,0:0:0:0:
256,192,91581,1,0,0:0:0:0:
256,192,91698,1,8,0:0:0:0:
256,192,91756,1,0,0:0:0:0:
256,192,91815,1,8,0:0:0:0:
256,192,91874,1,8,0:0:0:0:
256,192,91932,1,0,0:0:0:0:
256,192,92049,1,8,0:0:0:0:
256,192,92108,1,0,0:0:0:0:
256,192,92167,1,8,0:0:0:0:
256,192,92225,1,8,0:0:0:0:
256,192,92284,1,0,0:0:0:0:
256,192,92342,1,0,0:0:0:0:
256,192,92401,1,8,0:0:0:0:
256,192,92518,1,0,0:0:0:0:
256,192,92577,1,8,0:0:0:0:
256,192,92635,1,0,0:0:0:0:
256,192,92694,1,0,0:0:0:0:
256,192,92753,1,8,0:0:0:0:
256,192,92811,1,0,0:0:0:0:
256,192,92870,1,8,0:0:0:0:
256,192,92928,1,8,0:0:0:0:
256,192,92987,1,0,0:0:0:0:
256,192,93046,1,0,0:0:0:0:
256,192,93104,1,8,0:0:0:0:
256,192,93163,1,8,0:0:0:0:
256,192,93221,1,0,0:0:0:0:
256,192,93280,1,0,0:0:0:0:
256,192,93339,1,8,0:0:0:0:
256,192,93456,12,0,94042,0:0:0:0:
256,192,94276,12,0,94628,0:0:0:0:
256,192,94745,5,0,0:0:0:0:
256,192,94979,1,0,0:0:0:0:
256,192,95214,1,12,0:0:0:0:
256,192,98964,5,4,0:0:0:0:
256,192,99198,1,0,0:0:0:0:
256,192,102714,5,4,0:0:0:0:
256,192,102948,1,0,0:0:0:0:
256,192,103182,1,8,0:0:0:0:
256,192,103417,1,8,0:0:0:0:
256,192,103651,1,0,0:0:0:0:
256,192,103885,1,8,0:0:0:0:
256,192,104120,1,0,0:0:0:0:
256,192,104237,1,0,0:0:0:0:
256,192,104354,1,8,0:0:0:0:
256,192,104471,1,0,0:0:0:0:
256,192,104940,1,8,0:0:0:0:
256,192,105174,1,0,0:0:0:0:
256,192,105292,1,8,0:0:0:0:
256,192,105526,1,8,0:0:0:0:
256,192,105995,1,0,0:0:0:0:
256,192,106112,1,0,0:0:0:0:
256,192,106464,1,8,0:0:0:0:
256,192,106698,1,0,0:0:0:0:
256,192,106932,1,8,0:0:0:0:
256,192,107167,1,0,0:0:0:0:
256,192,107401,1,0,0:0:0:0:
256,192,107635,1,8,0:0:0:0:
256,192,107870,1,0,0:0:0:0:
256,192,107987,1,8,0:0:0:0:
256,192,108104,1,0,0:0:0:0:
256,192,108221,1,0,0:0:0:0:
256,192,108339,1,8,0:0:0:0:
256,192,108456,1,8,0:0:0:0:
256,192,108573,1,0,0:0:0:0:
256,192,108690,1,0,0:0:0:0:
256,192,108807,1,0,0:0:0:0:
256,192,108924,1,8,0:0:0:0:
256,192,109042,1,0,0:0:0:0:
256,192,109276,1,8,0:0:0:0:
256,192,109510,1,0,0:0:0:0:
256,192,109628,1,0,0:0:0:0:
256,192,109745,1,8,0:0:0:0:
256,192,109862,1,0,0:0:0:0:
256,192,109979,1,0,0:0:0:0:
256,192,110096,1,0,0:0:0:0:
256,192,110214,1,8,0:0:0:0:
256,192,110448,1,0,0:0:0:0:
256,192,110682,1,8,0:0:0:0:
256,192,110917,1,8,0:0:0:0:
256,192,111151,1,0,0:0:0:0:
256,192,111385,1,8,0:0:0:0:
256,192,111620,1,8,0:0:0:0:
256,192,111737,1,8,0:0:0:0:
256,192,111854,1,0,0:0:0:0:
256,192,111971,1,0,0:0:0:0:
256,192,112440,1,8,0:0:0:0:
256,192,112557,1,0,0:0:0:0:
256,192,112674,1,0,0:0:0:0:
256,192,112792,1,8,0:0:0:0:
256,192,113026,1,8,0:0:0:0:
256,192,113143,1,0,0:0:0:0:
256,192,113260,1,0,0:0:0:0:
256,192,113378,1,8,0:0:0:0:
256,192,113495,1,0,0:0:0:0:
256,192,113612,1,0,0:0:0:0:
256,192,113729,1,8,0:0:0:0:
256,192,113846,1,0,0:0:0:0:
256,192,113964,1,8,0:0:0:0:
256,192,114198,1,0,0:0:0:0:
256,192,114432,1,8,0:0:0:0:
256,192,114667,1,8,0:0:0:0:
256,192,114901,1,0,0:0:0:0:
256,192,115135,1,8,0:0:0:0:
256,192,115253,1,8,0:0:0:0:
256,192,115370,1,0,0:0:0:0:
256,192,115487,1,8,0:0:0:0:
256,192,115604,1,0,0:0:0:0:
256,192,115721,1,0,0:0:0:0:
256,192,115839,1,8,0:0:0:0:
256,192,115956,1,0,0:0:0:0:
256,192,116073,1,0,0:0:0:0:
256,192,116190,1,8,0:0:0:0:
256,192,116307,1,0,0:0:0:0:
256,192,116424,1,0,0:0:0:0:
256,192,116542,1,8,0:0:0:0:
256,192,116659,1,0,0:0:0:0:
256,192,116776,1,8,0:0:0:0:
256,192,116893,1,0,0:0:0:0:
256,192,117010,1,8,0:0:0:0:
256,192,117128,1,8,0:0:0:0:
256,192,117245,1,0,0:0:0:0:
256,192,117362,1,8,0:0:0:0:
256,192,117479,1,8,0:0:0:0:
256,192,117596,1,0,0:0:0:0:
256,192,117714,1,8,0:0:0:0:
256,192,117831,1,0,0:0:0:0:
256,192,117948,1,8,0:0:0:0:
256,192,118065,1,0,0:0:0:0:
256,192,118182,1,8,0:0:0:0:
256,192,118299,1,8,0:0:0:0:
256,192,118417,1,0,0:0:0:0:
256,192,118534,1,8,0:0:0:0:
256,192,118651,1,0,0:0:0:0:
256,192,118768,1,8,0:0:0:0:
256,192,118885,1,0,0:0:0:0:
256,192,119003,1,0,0:0:0:0:
256,192,119120,1,8,0:0:0:0:
256,192,119237,1,0,0:0:0:0:
256,192,119354,1,8,0:0:0:0:
256,192,119471,1,8,0:0:0:0:
256,192,119589,1,0,0:0:0:0:
256,192,119706,1,0,0:0:0:0:
256,192,119823,1,8,0:0:0:0:
256,192,119940,1,0,0:0:0:0:
256,192,120057,1,0,0:0:0:0:
256,192,120174,1,8,0:0:0:0:
256,192,120292,1,8,0:0:0:0:
256,192,120409,1,0,0:0:0:0:
256,192,120467,1,0,0:0:0:0:
256,192,120526,1,8,0:0:0:0:
256,192,120643,1,0,0:0:0:0:
256,192,120760,1,8,0:0:0:0:
256,192,120878,1,0,0:0:0:0:
256,192,120995,1,8,0:0:0:0:
256,192,121112,1,8,0:0:0:0:
256,192,121229,1,0,0:0:0:0:
256,192,121346,1,0,0:0:0:0:
256,192,121464,1,8,0:0:0:0:
256,192,121581,1,0,0:0:0:0:
256,192,121698,1,8,0:0:0:0:
256,192,121815,1,0,0:0:0:0:
256,192,121932,1,8,0:0:0:0:
256,192,122049,1,8,0:0:0:0:
256,192,122167,1,0,0:0:0:0:
256,192,122284,1,8,0:0:0:0:
256,192,122401,1,0,0:0:0:0:
256,192,122518,1,0,0:0:0:0:
256,192,122635,1,8,0:0:0:0:
256,192,122753,1,0,0:0:0:0:
256,192,122870,1,8,0:0:0:0:
256,192,122987,1,8,0:0:0:0:
256,192,123104,1,0,0:0:0:0:
256,192,123221,1,0,0:0:0:0:
256,192,123339,1,8,0:0:0:0:
256,192,123456,1,0,0:0:0:0:
256,192,123573,1,8,0:0:0:0:
256,192,123690,1,0,0:0:0:0:
256,192,123807,1,8,0:0:0:0:
256,192,123924,1,8,0:0:0:0:
256,192,124042,1,0,0:0:0:0:
256,192,124159,1,8,0:0:0:0:
256,192,124217,1,8,0:0:0:0:
256,192,124276,1,0,0:0:0:0:
256,192,124393,1,8,0:0:0:0:
256,192,124510,1,0,0:0:0:0:
256,192,124628,1,0,0:0:0:0:
256,192,124745,1,8,0:0:0:0:
256,192,124862,1,0,0:0:0:0:
256,192,124979,1,0,0:0:0:0:
256,192,125096,1,8,0:0:0:0:
256,192,125214,1,12,0:0:0:0:
256,192,125331,1,0,0:0:0:0:
256,192,125448,1,8,0:0:0:0:
256,192,125565,1,0,0:0:0:0:
256,192,125682,1,8,0:0:0:0:
256,192,125799,1,8,0:0:0:0:
256,192,125917,1,0,0:0:0:0:
256,192,126034,1,8,0:0:0:0:
256,192,126151,1,0,0:0:0:0:
256,192,126268,1,8,0:0:0:0:
256,192,126385,1,0,0:0:0:0:
256,192,126503,1,0,0:0:0:0:
256,192,126620,1,8,0:0:0:0:
256,192,126737,1,8,0:0:0:0:
256,192,126854,1,0,0:0:0:0:
256,192,126971,1,0,0:0:0:0:
256,192,127089,1,8,0:0:0:0:
256,192,127206,1,0,0:0:0:0:
256,192,127323,1,8,0:0:0:0:
256,192,127440,1,0,0:0:0:0:
256,192,127557,1,8,0:0:0:0:
256,192,127674,1,0,0:0:0:0:
256,192,127792,1,0,0:0:0:0:
256,192,127909,1,8,0:0:0:0:
256,192,127967,1,8,0:0:0:0:
256,192,128026,1,0,0:0:0:0:
256,192,128143,1,8,0:0:0:0:
256,192,128260,1,0,0:0:0:0:
256,192,128378,1,0,0:0:0:0:
256,192,128495,1,8,0:0:0:0:
256,192,128612,1,8,0:0:0:0:
256,192,128729,1,0,0:0:0:0:
256,192,128846,1,8,0:0:0:0:
256,192,128905,1,0,0:0:0:0:
256,192,128964,1,8,0:0:0:0:
256,192,129081,1,0,0:0:0:0:
256,192,129198,1,8,0:0:0:0:
256,192,129315,1,0,0:0:0:0:
256,192,129432,1,8,0:0:0:0:
256,192,129549,1,8,0:0:0:0:
256,192,129667,1,0,0:0:0:0:
256,192,129784,1,8,0:0:0:0:
256,192,129901,1,0,0:0:0:0:
256,192,130018,1,8,0:0:0:0:
256,192,130135,1,0,0:0:0:0:
256,192,130253,1,0,0:0:0:0:
256,192,130370,1,8,0:0:0:0:
256,192,130487,1,8,0:0:0:0:
256,192,130604,1,0,0:0:0:0:
256,192,130721,1,0,0:0:0:0:
256,192,130839,12,0,132479,0:0:0:0:
256,192,132714,5,8,0:0:0:0:
256,192,132831,1,8,0:0:0:0:
256,192,132948,1,8,0:0:0:0:
256,192,133065,1,0,0:0:0:0:
256,192,133182,1,8,0:0:0:0:
256,192,133417,1,8,0:0:0:0:
256,192,133651,1,0,0:0:0:0:
256,192,133762,1,8,0:0:0:0:
256,192,133818,1,8,0:0:0:0:
256,192,133874,1,0,0:0:0:0:
256,192,133986,1,0,0:0:0:0:
256,192,134098,1,8,0:0:0:0:
256,192,134210,1,8,0:0:0:0:
256,192,134322,1,0,0:0:0:0:
256,192,134378,1,0,0:0:0:0:
256,192,134434,1,8,0:0:0:0:
256,192,134490,1,8,0:0:0:0:
256,192,134546,1,0,0:0:0:0:
256,192,134657,1,0,0:0:0:0:
256,192,134768,1,8,0:0:0:0:
256,192,134879,1,0,0:0:0:0:
256,192,134990,1,8,0:0:0:0:
256,192,135101,1,0,0:0:0:0:
256,192,135212,1,8,0:0:0:0:
256,192,135323,1,8,0:0:0:0:
256,192,135434,1,0,0:0:0:0:
256,192,135544,1,8,0:0:0:0:
256,192,135654,1,0,0:0:0:0:
256,192,135764,1,0,0:0:0:0:
256,192,135875,1,8,0:0:0:0:
256,192,135985,1,0,0:0:0:0:
256,192,136095,1,8,0:0:0:0:
256,192,136150,1,8,0:0:0:0:
256,192,136206,1,8,0:0:0:0:
256,192,136261,1,8,0:0:0:0:
256,192,136316,1,0,0:0:0:0:
256,192,136420,1,8,0:0:0:0:
256,192,136525,1,0,0:0:0:0:
256,192,136630,1,0,0:0:0:0:
256,192,136735,1,8,0:0:0:0:
256,192,136840,1,0,0:0:0:0:
256,192,136945,1,8,0:0:0:0:
256,192,137050,1,0,0:0:0:0:
256,192,137155,1,0,0:0:0:0:
256,192,137260,1,8,0:0:0:0:
256,192,137364,1,0,0:0:0:0:
256,192,137469,1,8,0:0:0:0:
256,192,137574,1,8,0:0:0:0:
256,192,137679,1,0,0:0:0:0:
256,192,137784,1,8,0:0:0:0:
256,192,137836,1,8,0:0:0:0:
256,192,137889,1,0,0:0:0:0:
256,192,137941,1,0,0:0:0:0:
256,192,137994,1,8,0:0:0:0:
256,192,138096,1,8,0:0:0:0:
256,192,138198,1,0,0:0:0:0:
256,192,138300,1,0,0:0:0:0:
256,192,138402,1,8,0:0:0:0:
256,192,138504,1,0,0:0:0:0:
256,192,138606,1,8,0:0:0:0:
256,192,138708,1,0,0:0:0:0:
256,192,138810,1,0,0:0:0:0:
256,192,138912,1,8,0:0:0:0:
256,192,139014,1,8,0:0:0:0:
256,192,139116,1,0,0:0:0:0:
256,192,139218,1,8,0:0:0:0:
256,192,139320,1,0,0:0:0:0:
256,192,139422,1,8,0:0:0:0:
256,192,139473,1,8,0:0:0:0:
256,192,139524,1,8,0:0:0:0:
256,192,139575,1,8,0:0:0:0:
256,192,139627,1,0,0:0:0:0:
256,192,139727,1,0,0:0:0:0:
256,192,139827,1,8,0:0:0:0:
256,192,139877,1,8,0:0:0:0:
256,192,139927,1,0,0:0:0:0:
256,192,139977,1,0,0:0:0:0:
256,192,140027,1,8,0:0:0:0:
256,192,140127,1,8,0:0:0:0:
256,192,140227,1,0,0:0:0:0:
256,192,140277,1,0,0:0:0:0:
256,192,140327,1,0,0:0:0:0:
256,192,140377,1,0,0:0:0:0:
256,192,140427,1,8,0:0:0:0:
256,192,140527,1,8,0:0:0:0:
256,192,140627,1,0,0:0:0:0:
256,192,140677,1,0,0:0:0:0:
256,192,140727,1,8,0:0:0:0:
256,192,140777,1,8,0:0:0:0:
256,192,140827,1,0,0:0:0:0:
256,192,140927,1,8,0:0:0:0:
256,192,141027,1,8,0:0:0:0:
256,192,141077,1,8,0:0:0:0:
256,192,141127,1,0,0:0:0:0:
256,192,141177,1,0,0:0:0:0:
256,192,141227,1,8,0:0:0:0:
256,192,141327,1,0,0:0:0:0:
256,192,141427,1,8,0:0:0:0:
256,192,141477,1,8,0:0:0:0:
256,192,141527,1,8,0:0:0:0:
256,192,141577,1,8,0:0:0:0:
256,192,141627,1,0,0:0:0:0:
256,192,141727,1,8,0:0:0:0:
256,192,141827,1,0,0:0:0:0:
256,192,141877,1,0,0:0:0:0:
256,192,141927,1,0,0:0:0:0:
256,192,141977,1,0,0:0:0:0:
256,192,142027,1,8,0:0:0:0:
256,192,142127,1,0,0:0:0:0:
256,192,142227,1,8,0:0:0:0:
256,192,142277,1,8,0:0:0:0:
256,192,142327,1,0,0:0:0:0:
256,192,142377,1,0,0:0:0:0:
256,192,142427,1,8,0:0:0:0:
256,192,142527,1,0,0:0:0:0:
256,192,142627,1,8,0:0:0:0:
256,192,142677,1,0,0:0:0:0:
256,192,142727,1,8,0:0:0:0:
256,192,142777,1,0,0:0:0:0:
256,192,142827,1,8,0:0:0:0:
256,192,142877,1,8,0:0:0:0:
256,192,142927,1,8,0:0:0:0:
256,192,142977,1,8,0:0:0:0:
256,192,143027,1,0,0:0:0:0:
256,192,143077,1,0,0:0:0:0:
256,192,143127,1,0,0:0:0:0:
256,192,143177,1,0,0:0:0:0:
256,192,143227,1,8,0:0:0:0:
256,192,143277,1,8,0:0:0:0:
256,192,143327,1,8,0:0:0:0:
256,192,143377,1,8,0:0:0:0:
256,192,143427,1,0,0:0:0:0:
256,192,143477,1,0,0:0:0:0:
256,192,143527,1,0,0:0:0:0:
256,192,143577,1,0,0:0:0:0:
256,192,143627,1,8,0:0:0:0:
256,192,143677,1,8,0:0:0:0:
256,192,143727,1,8,0:0:0:0:
256,192,143777,1,8,0:0:0:0:
256,192,143827,1,0,0:0:0:0:
256,192,143877,1,0,0:0:0:0:
256,192,143927,1,0,0:0:0:0:
256,192,143977,1,0,0:0:0:0:
256,192,144027,1,8,0:0:0:0:
256,192,144077,1,8,0:0:0:0:
256,192,144127,1,8,0:0:0:0:
256,192,144177,1,8,0:0:0:0:
256,192,144227,1,0,0:0:0:0:
256,192,144277,1,0,0:0:0:0:
256,192,144327,1,8,0:0:0:0:
256,192,144377,1,8,0:0:0:0:
256,192,144427,1,0,0:0:0:0:
256,192,144627,1,8,0:0:0:0:
256,192,144727,1,8,0:0:0:0:
256,192,144827,1,8,0:0:0:0:
256,192,145027,1,0,0:0:0:0:
256,192,145077,1,0,0:0:0:0:
256,192,145127,1,8,0:0:0:0:
256,192,145177,1,8,0:0:0:0:
256,192,145227,1,0,0:0:0:0:
256,192,145327,1,8,0:0:0:0:
256,192,145427,1,8,0:0:0:0:
256,192,145527,1,0,0:0:0:0:
256,192,145627,1,8,0:0:0:0:
256,192,145727,1,0,0:0:0:0:
256,192,145827,1,8,0:0:0:0:
256,192,145927,1,0,0:0:0:0:
256,192,146027,5,8,0:0:0:0:
256,192,146077,1,8,0:0:0:0:
256,192,146127,1,0,0:0:0:0:
256,192,146177,1,0,0:0:0:0:
256,192,146227,1,8,0:0:0:0:
256,192,146327,1,8,0:0:0:0:
256,192,146427,1,0,0:0:0:0:
256,192,146527,1,0,0:0:0:0:
256,192,146627,1,8,0:0:0:0:
256,192,146677,1,0,0:0:0:0:
256,192,146727,1,0,0:0:0:0:
256,192,146777,1,0,0:0:0:0:
256,192,146827,1,8,0:0:0:0:
256,192,146927,1,8,0:0:0:0:
256,192,147027,1,8,0:0:0:0:
256,192,147077,1,8,0:0:0:0:
256,192,147127,1,0,0:0:0:0:
256,192,147227,1,8,0:0:0:0:
256,192,147327,1,0,0:0:0:0:
256,192,147427,1,8,0:0:0:0:
256,192,147477,1,8,0:0:0:0:
256,192,147527,1,8,0:0:0:0:
256,192,147627,1,0,0:0:0:0:
256,192,147652,1,0,0:0:0:0:
256,192,147827,1,8,0:0:0:0:
256,192,147852,1,8,0:0:0:0:
256,192,148027,1,0,0:0:0:0:
256,192,148127,1,0,0:0:0:0:
256,192,148227,1,8,0:0:0:0:
256,192,148327,1,0,0:0:0:0:
256,192,148427,1,8,0:0:0:0:
256,192,148527,1,0,0:0:0:0:
256,192,148627,1,8,0:0:0:0:
256,192,148677,1,8,0:0:0:0:
256,192,148727,1,0,0:0:0:0:
256,192,148827,1,8,0:0:0:0:
256,192,148927,1,8,0:0:0:0:
256,192,149027,1,0,0:0:0:0:
256,192,149127,1,0,0:0:0:0:
256,192,149227,1,8,0:0:0:0:
256,192,149277,1,8,0:0:0:0:
256,192,149327,1,0,0:0:0:0:
256,192,149377,1,0,0:0:0:0:
256,192,149427,1,8,0:0:0:0:
256,192,149527,1,0,0:0:0:0:
256,192,149627,1,8,0:0:0:0:
256,192,149677,1,8,0:0:0:0:
256,192,149727,1,8,0:0:0:0:
256,192,149827,1,8,0:0:0:0:
256,192,149927,1,0,0:0:0:0:
256,192,150027,1,8,0:0:0:0:
256,192,150077,1,8,0:0:0:0:
256,192,150127,1,0,0:0:0:0:
256,192,150227,1,8,0:0:0:0:
256,192,150327,1,0,0:0:0:0:
256,192,150427,1,8,0:0:0:0:
256,192,150477,1,0,0:0:0:0:
256,192,150527,1,0,0:0:0:0:
256,192,150627,1,8,0:0:0:0:
256,192,150727,1,0,0:0:0:0:
256,192,150827,1,0,0:0:0:0:
256,192,150927,1,8,0:0:0:0:
256,192,151027,1,8,0:0:0:0:
256,192,151127,1,0,0:0:0:0:
256,192,151227,1,8,0:0:0:0:
256,192,151277,1,0,0:0:0:0:
256,192,151327,1,0,0:0:0:0:
256,192,151427,1,8,0:0:0:0:
256,192,151477,1,0,0:0:0:0:
256,192,151527,1,0,0:0:0:0:
256,192,151627,1,8,0:0:0:0:
256,192,151677,1,0,0:0:0:0:
256,192,151727,1,0,0:0:0:0:
256,192,151827,1,8,0:0:0:0:
256,192,151927,1,0,0:0:0:0:
256,192,152027,1,8,0:0:0:0:
256,192,152127,1,0,0:0:0:0:
256,192,152227,1,0,0:0:0:0:
256,192,152427,1,8,0:0:0:0:
256,192,152477,1,8,0:0:0:0:
256,192,152527,1,0,0:0:0:0:
256,192,152577,1,0,0:0:0:0:
256,192,152627,1,8,0:0:0:0:
256,192,152727,1,0,0:0:0:0:
256,192,152827,1,8,0:0:0:0:
256,192,152927,1,8,0:0:0:0:
256,192,153027,1,0,0:0:0:0:
256,192,153127,1,0,0:0:0:0:
256,192,153227,1,8,0:0:0:0:
256,192,153327,1,0,0:0:0:0:
256,192,153427,1,8,0:0:0:0:
256,192,153477,1,8,0:0:0:0:
256,192,153527,1,0,0:0:0:0:
256,192,153627,1,8,0:0:0:0:
256,192,153727,1,0,0:0:0:0:
256,192,153827,1,8,0:0:0:0:
256,192,153877,1,8,0:0:0:0:
256,192,153927,1,8,0:0:0:0:
256,192,154027,1,0,0:0:0:0:
256,192,154052,1,0,0:0:0:0:
256,192,154227,1,8,0:0:0:0:
256,192,154252,1,8,0:0:0:0:
256,192,154427,1,0,0:0:0:0:
256,192,154527,1,0,0:0:0:0:
256,192,154627,1,8,0:0:0:0:
256,192,154677,1,0,0:0:0:0:
256,192,154727,1,0,0:0:0:0:
256,192,154827,1,8,0:0:0:0:
256,192,154927,1,8,0:0:0:0:
256,192,155027,1,0,0:0:0:0:
256,192,155077,1,0,0:0:0:0:
256,192,155127,1,8,0:0:0:0:
256,192,155227,1,0,0:0:0:0:
256,192,155327,1,8,0:0:0:0:
256,192,155377,1,0,0:0:0:0:
256,192,155477,1,8,0:0:0:0:
256,192,155527,1,0,0:0:0:0:
256,192,155627,1,8,0:0:0:0:
256,192,155677,1,8,0:0:0:0:
256,192,155727,1,0,0:0:0:0:
256,192,155777,1,0,0:0:0:0:
256,192,155827,1,8,0:0:0:0:
256,192,155927,1,0,0:0:0:0:
256,192,156027,1,8,0:0:0:0:
256,192,156077,1,0,0:0:0:0:
256,192,156127,1,0,0:0:0:0:
256,192,156177,1,0,0:0:0:0:
256,192,156227,1,8,0:0:0:0:
256,192,156277,1,8,0:0:0:0:
256,192,156327,1,0,0:0:0:0:
256,192,156377,1,0,0:0:0:0:
256,192,156427,1,8,0:0:0:0:
256,192,156527,1,8,0:0:0:0:
256,192,156627,1,8,0:0:0:0:
256,192,156727,1,8,0:0:0:0:
256,192,156827,1,0,0:0:0:0:
256,192,156877,1,0,0:0:0:0:
256,192,156927,1,0,0:0:0:0:
256,192,156977,1,0,0:0:0:0:
256,192,157027,1,8,0:0:0:0:
256,192,157077,1,8,0:0:0:0:
256,192,157127,1,8,0:0:0:0:
256,192,157177,1,8,0:0:0:0:
256,192,157227,1,0,0:0:0:0:
256,192,157427,1,8,0:0:0:0:
256,192,157627,1,8,0:0:0:0:
256,192,157827,1,8,0:0:0:0:
256,192,157877,1,8,0:0:0:0:
256,192,157927,1,8,0:0:0:0:
256,192,157977,1,8,0:0:0:0:
256,192,158027,1,0,0:0:0:0:
256,192,158227,1,8,0:0:0:0:
256,192,158427,1,8,0:0:0:0:
256,192,158627,1,0,0:0:0:0:
256,192,158827,1,8,0:0:0:0:
256,192,158877,1,8,0:0:0:0:
256,192,158927,1,0,0:0:0:0:
256,192,158977,1,0,0:0:0:0:
256,192,159027,1,8,0:0:0:0:
256,192,159127,1,0,0:0:0:0:
256,192,159227,1,8,0:0:0:0:
256,192,159277,1,8,0:0:0:0:
256,192,159327,1,0,0:0:0:0:
256,192,159427,1,8,0:0:0:0:
256,192,159527,1,0,0:0:0:0:
256,192,159627,1,8,0:0:0:0:
256,192,159727,1,8,0:0:0:0:
256,192,159827,1,0,0:0:0:0:
256,192,159877,1,0,0:0:0:0:
256,192,159927,1,8,0:0:0:0:
256,192,159977,1,0,0:0:0:0:
256,192,160027,1,8,0:0:0:0:
256,192,160077,1,8,0:0:0:0:
256,192,160127,1,8,0:0:0:0:
256,192,160177,1,8,0:0:0:0:
256,192,160227,1,0,0:0:0:0:
256,192,160427,1,8,0:0:0:0:
256,192,160452,1,8,0:0:0:0:
256,192,160627,1,0,0:0:0:0:
256,192,160652,1,0,0:0:0:0:
256,192,160827,1,8,0:0:0:0:
256,192,161027,1,0,0:0:0:0:
256,192,161127,1,0,0:0:0:0:
256,192,161227,1,8,0:0:0:0:
256,192,161327,1,0,0:0:0:0:
256,192,161427,1,8,0:0:0:0:
256,192,161527,1,0,0:0:0:0:
256,192,161577,1,0,0:0:0:0:
256,192,161627,1,8,0:0:0:0:
256,192,161677,1,8,0:0:0:0:
256,192,161727,1,0,0:0:0:0:
256,192,161777,1,0,0:0:0:0:
256,192,161827,1,8,0:0:0:0:
256,192,161927,1,0,0:0:0:0:
256,192,162027,1,8,0:0:0:0:
256,192,162077,1,8,0:0:0:0:
256,192,162127,1,0,0:0:0:0:
256,192,162177,1,0,0:0:0:0:
256,192,162227,1,8,0:0:0:0:
256,192,162327,1,0,0:0:0:0:
256,192,162427,1,8,0:0:0:0:
256,192,162477,1,8,0:0:0:0:
256,192,162527,1,8,0:0:0:0:
256,192,162627,1,8,0:0:0:0:
256,192,162727,1,0,0:0:0:0:
256,192,162827,1,8,0:0:0:0:
256,192,162877,1,8,0:0:0:0:
256,192,162927,1,0,0:0:0:0:
256,192,163027,1,8,0:0:0:0:
256,192,163127,1,0,0:0:0:0:
256,192,163227,1,8,0:0:0:0:
256,192,163277,1,0,0:0:0:0:
256,192,163327,1,0,0:0:0:0:
256,192,163427,1,8,0:0:0:0:
256,192,163627,1,0,0:0:0:0:
256,192,163727,1,8,0:0:0:0:
256,192,163827,1,8,0:0:0:0:
256,192,163927,1,4,0:0:0:0:
256,192,164227,1,4,0:0:0:0:
256,192,164527,1,4,0:0:0:0:
256,192,164827,1,4,0:0:0:0:
256,192,165027,1,0,0:0:0:0:
256,192,165227,1,8,0:0:0:0:
256,192,165260,1,8,0:0:0:0:
256,192,165293,1,8,0:0:0:0:
256,192,165327,1,0,0:0:0:0:
256,192,165360,1,0,0:0:0:0:
256,192,165393,1,0,0:0:0:0:
256,192,165427,1,8,0:0:0:0:
256,192,165627,1,0,0:0:0:0:
256,192,165660,1,0,0:0:0:0:
256,192,165693,1,8,0:0:0:0:
256,192,165727,1,8,0:0:0:0:
256,192,165760,1,8,0:0:0:0:
256,192,165793,1,8,0:0:0:0:
256,192,165827,1,0,0:0:0:0:
256,192,166027,1,12,0:0:0:0:
256,192,166227,1,0,0:0:0:0:
256,192,166277,1,0,0:0:0:0:
256,192,166327,1,8,0:0:0:0:
256,192,166377,1,8,0:0:0:0:
256,192,166427,1,0,0:0:0:0:
256,192,166527,1,0,0:0:0:0:
256,192,166627,1,8,0:0:0:0:
256,192,166677,1,8,0:0:0:0:
256,192,166727,1,8,0:0:0:0:
256,192,166777,1,8,0:0:0:0:
256,192,166827,1,0,0:0:0:0:
256,192,166852,1,0,0:0:0:0:
256,192,167027,1,0,0:0:0:0:
256,192,167052,1,0,0:0:0:0:
256,192,167227,1,0,0:0:0:0:
256,192,167252,1,0,0:0:0:0:
256,192,167427,1,8,0:0:0:0:
256,192,167527,1,0,0:0:0:0:
256,192,167627,1,8,0:0:0:0:
256,192,167727,1,0,0:0:0:0:
256,192,167827,1,0,0:0:0:0:
256,192,167877,1,0,0:0:0:0:
256,192,167927,1,8,0:0:0:0:
256,192,168027,1,8,0:0:0:0:
256,192,168127,1,0,0:0:0:0:
256,192,168227,1,0,0:0:0:0:
256,192,168277,1,0,0:0:0:0:
256,192,168327,1,0,0:0:0:0:
256,192,168377,1,0,0:0:0:0:
256,192,168427,1,8,0:0:0:0:
256,192,168477,1,8,0:0:0:0:
256,192,168527,1,0,0:0:0:0:
256,192,168577,1,0,0:0:0:0:
256,192,168627,1,8,0:0:0:0:
256,192,168677,1,8,0:0:0:0:
256,192,168727,1,0,0:0:0:0:
256,192,168777,1,8,0:0:0:0:
256,192,168827,1,0,0:0:0:0:
256,192,168927,1,8,0:0:0:0:
256,192,168977,1,0,0:0:0:0:
256,192,169027,1,8,0:0:0:0:
256,192,169077,1,8,0:0:0:0:
256,192,169127,1,0,0:0:0:0:
256,192,169177,1,8,0:0:0:0:
256,192,169227,1,0,0:0:0:0:
256,192,169327,1,8,0:0:0:0:
256,192,169427,1,0,0:0:0:0:
256,192,169477,1,8,0:0:0:0:
256,192,169527,1,8,0:0:0:0:
256,192,169577,1,8,0:0:0:0:
256,192,169627,1,0,0:0:0:0:
256,192,169727,1,0,0:0:0:0:
256,192,169827,1,0,0:0:0:0:
256,192,169927,1,0,0:0:0:0:
256,192,170027,1,0,0:0:0:0:
256,192,170077,1,0,0:0:0:0:
256,192,170127,1,0,0:0:0:0:
256,192,170177,1,0,0:0:0:0:
256,192,170227,1,0,0:0:0:0:
256,192,170277,1,0,0:0:0:0:
256,192,170327,1,0,0:0:0:0:
256,192,170377,1,0,0:0:0:0:
256,192,170427,1,0,0:0:0:0:
256,192,170477,1,0,0:0:0:0:
256,192,170527,1,0,0:0:0:0:
256,192,170577,1,0,0:0:0:0:
256,192,170627,1,0,0:0:0:0:
256,192,170677,1,0,0:0:0:0:
256,192,170727,1,0,0:0:0:0:
256,192,170777,1,0,0:0:0:0:
256,192,170827,1,0,0:0:0:0:
256,192,170877,1,0,0:0:0:0:
256,192,170927,1,0,0:0:0:0:
256,192,170977,1,0,0:0:0:0:
256,192,171027,1,0,0:0:0:0:
256,192,171077,1,0,0:0:0:0:
256,192,171127,1,0,0:0:0:0:
256,192,171177,1,0,0:0:0:0:
256,192,171227,1,0,0:0:0:0:
256,192,171277,1,0,0:0:0:0:
256,192,171327,1,0,0:0:0:0:
256,192,171377,1,0,0:0:0:0:
256,192,171427,1,0,0:0:0:0:
256,192,171477,1,0,0:0:0:0:
256,192,171527,1,0,0:0:0:0:
256,192,171577,1,0,0:0:0:0:
256,192,171627,1,12,0:0:0:0:
256,192,171977,1,0,0:0:0:0:
256,192,172027,1,8,0:0:0:0:
256,192,172127,1,8,0:0:0:0:
256,192,172227,1,8,0:0:0:0:
256,192,172327,1,0,0:0:0:0:
256,192,172927,1,8,0:0:0:0:
256,192,173027,1,8,0:0:0:0:
256,192,173227,1,0,0:0:0:0:
256,192,173427,1,0,0:0:0:0:
256,192,173627,1,0,0:0:0:0:
256,192,173827,1,0,0:0:0:0:
256,192,174027,1,0,0:0:0:0:
256,192,174227,1,0,0:0:0:0:
256,192,174427,1,8,0:0:0:0:
256,192,174477,1,8,0:0:0:0:
256,192,174527,1,0,0:0:0:0:
256,192,174577,1,0,0:0:0:0:
256,192,174627,1,8,0:0:0:0:
256,192,174677,1,0,0:0:0:0:
256,192,174727,1,0,0:0:0:0:
256,192,174777,1,0,0:0:0:0:
256,192,174827,1,8,0:0:0:0:
256,192,174877,1,8,0:0:0:0:
256,192,174927,1,0,0:0:0:0:
256,192,174977,1,0,0:0:0:0:
256,192,175027,1,8,0:0:0:0:
256,192,175227,1,8,0:0:0:0:
256,192,175277,1,8,0:0:0:0:
256,192,175327,1,0,0:0:0:0:
256,192,175427,1,8,0:0:0:0:
256,192,175527,1,8,0:0:0:0:
256,192,175627,1,0,0:0:0:0:
256,192,175677,1,0,0:0:0:0:
256,192,175727,1,0,0:0:0:0:
256,192,175827,1,8,0:0:0:0:
256,192,175927,1,0,0:0:0:0:
256,192,176027,1,8,0:0:0:0:
256,192,176077,1,8,0:0:0:0:
256,192,176127,1,0,0:0:0:0:
256,192,176227,1,8,0:0:0:0:
256,192,176427,1,8,0:0:0:0:
256,192,176452,1,8,0:0:0:0:
256,192,176627,1,0,0:0:0:0:
256,192,176652,1,0,0:0:0:0:
256,192,176827,1,0,0:0:0:0:
256,192,177027,1,8,0:0:0:0:
256,192,177127,1,0,0:0:0:0:
256,192,177227,1,8,0:0:0:0:
256,192,177327,1,8,0:0:0:0:
256,192,177427,1,0,0:0:0:0:
256,192,177477,1,0,0:0:0:0:
256,192,177527,1,8,0:0:0:0:
256,192,177627,1,8,0:0:0:0:
256,192,177677,1,0,0:0:0:0:
256,192,177727,1,8,0:0:0:0:
256,192,177777,1,0,0:0:0:0:
256,192,177827,1,8,0:0:0:0:
256,192,177877,1,0,0:0:0:0:
256,192,177927,1,8,0:0:0:0:
256,192,178027,1,8,0:0:0:0:
256,192,178077,1,8,0:0:0:0:
256,192,178127,1,0,0:0:0:0:
256,192,178177,1,0,0:0:0:0:
256,192,178227,1,8,0:0:0:0:
256,192,178427,1,8,0:0:0:0:
256,192,178452,1,8,0:0:0:0:
256,192,178627,1,0,0:0:0:0:
256,192,178827,1,8,0:0:0:0:
256,192,178852,1,8,0:0:0:0:
256,192,179027,1,8,0:0:0:0:
256,192,179052,1,8,0:0:0:0:
256,192,179227,1,8,0:0:0:0:
256,192,179252,1,8,0:0:0:0:
256,192,179427,1,0,0:0:0:0:
256,192,179452,1,0,0:0:0:0:
256,192,179627,1,8,0:0:0:0:
256,192,179652,1,8,0:0:0:0:
256,192,179827,1,8,0:0:0:0:
256,192,179852,1,8,0:0:0:0:
256,192,180027,1,8,0:0:0:0:
256,192,180052,1,8,0:0:0:0:
256,192,180227,1,0,0:0:0:0:
256,192,180277,1,0,0:0:0:0:
256,192,180327,1,0,0:0:0:0:
256,192,180427,1,8,0:0:0:0:
256,192,180452,1,8,0:0:0:0:
256,192,180627,1,8,0:0:0:0:
256,192,180652,1,8,0:0:0:0:
256,192,180827,1,0,0:0:0:0:
256,192,181227,1,8,0:0:0:0:
256,192,181277,1,8,0:0:0:0:
256,192,181327,1,0,0:0:0:0:
256,192,181377,1,0,0:0:0:0:
256,192,181427,1,8,0:0:0:0:
256,192,181627,1,8,0:0:0:0:
256,192,181677,1,8,0:0:0:0:
256,192,181727,1,0,0:0:0:0:
256,192,181827,1,8,0:0:0:0:
256,192,181927,1,8,0:0:0:0:
256,192,182027,1,0,0:0:0:0:
256,192,182077,1,0,0:0:0:0:
256,192,182127,1,0,0:0:0:0:
256,192,182227,1,8,0:0:0:0:
256,192,182327,1,0,0:0:0:0:
256,192,182427,1,8,0:0:0:0:
256,192,182477,1,8,0:0:0:0:
256,192,182527,1,0,0:0:0:0:
256,192,182627,1,8,0:0:0:0:
256,192,182827,1,8,0:0:0:0:
256,192,182852,1,8,0:0:0:0:
256,192,183027,1,0,0:0:0:0:
256,192,183052,1,0,0:0:0:0:
256,192,183227,1,0,0:0:0:0:
256,192,183427,1,8,0:0:0:0:
256,192,183527,1,0,0:0:0:0:
256,192,183627,1,8,0:0:0:0:
256,192,183727,1,8,0:0:0:0:
256,192,183827,1,0,0:0:0:0:
256,192,183877,1,0,0:0:0:0:
256,192,183927,1,8,0:0:0:0:
256,192,184027,1,8,0:0:0:0:
256,192,184127,1,0,0:0:0:0:
256,192,184177,1,8,0:0:0:0:
256,192,184227,1,0,0:0:0:0:
256,192,184277,1,0,0:0:0:0:
256,192,184327,1,0,0:0:0:0:
256,192,184427,1,8,0:0:0:0:
256,192,184477,1,8,0:0:0:0:
256,192,184527,1,0,0:0:0:0:
256,192,184577,1,0,0:0:0:0:
256,192,184627,1,8,0:0:0:0:
256,192,184727,1,0,0:0:0:0:
256,192,185027,1,0,0:0:0:0:
256,192,185077,1,0,0:0:0:0:
256,192,185127,1,0,0:0:0:0:
256,192,185177,1,0,0:0:0:0:
256,192,185227,1,8,0:0:0:0:
256,192,185252,1,8,0:0:0:0:
256,192,185427,1,8,0:0:0:0:
256,192,185452,1,8,0:0:0:0:
256,192,185627,1,0,0:0:0:0:
256,192,185652,1,0,0:0:0:0:
256,192,185827,1,0,0:0:0:0:
256,192,185852,1,0,0:0:0:0:
256,192,186027,1,8,0:0:0:0:
256,192,186227,1,8,0:0:0:0:
256,192,186427,1,0,0:0:0:0:
256,192,186527,1,0,0:0:0:0:
256,192,186627,1,8,0:0:0:0:
256,192,186677,1,8,0:0:0:0:
256,192,186727,1,8,0:0:0:0:
256,192,186777,1,8,0:0:0:0:
256,192,186827,1,0,0:0:0:0:
256,192,187027,1,0,0:0:0:0:
256,192,187227,1,0,0:0:0:0:
256,192,187277,1,0,0:0:0:0:
256,192,187327,1,0,0:0:0:0:
256,192,187377,1,0,0:0:0:0:
256,192,187427,1,8,0:0:0:0:
256,192,187627,1,8,0:0:0:0:
256,192,187677,1,8,0:0:0:0:
256,192,187727,1,0,0:0:0:0:
256,192,187777,1,0,0:0:0:0:
256,192,187827,1,8,0:0:0:0:
256,192,187927,1,0,0:0:0:0:
256,192,188027,1,8,0:0:0:0:
256,192,188177,1,8,0:0:0:0:
256,192,188327,1,0,0:0:0:0:
256,192,188427,1,8,0:0:0:0:
256,192,188577,1,8,0:0:0:0:
256,192,188727,1,0,0:0:0:0:
256,192,188827,1,8,0:0:0:0:
256,192,189027,1,0,0:0:0:0:
256,192,189227,1,8,0:0:0:0:
256,192,189252,1,8,0:0:0:0:
256,192,189427,1,0,0:0:0:0:
256,192,189452,1,0,0:0:0:0:
256,192,189627,1,0,0:0:0:0:
256,192,189693,1,8,0:0:0:0:
256,192,189760,1,8,0:0:0:0:
256,192,189827,1,0,0:0:0:0:
256,192,189927,1,0,0:0:0:0:
256,192,190027,1,8,0:0:0:0:
256,192,190160,1,8,0:0:0:0:
256,192,190293,1,8,0:0:0:0:
256,192,190427,1,8,0:0:0:0:
256,192,190627,1,0,0:0:0:0:
256,192,190652,1,0,0:0:0:0:
256,192,190827,1,8,0:0:0:0:
256,192,190877,1,8,0:0:0:0:
256,192,190927,1,0,0:0:0:0:
256,192,190977,1,0,0:0:0:0:
256,192,191027,1,8,0:0:0:0:
256,192,191127,1,8,0:0:0:0:
256,192,191227,1,0,0:0:0:0:
256,192,191252,1,0,0:0:0:0:
256,192,191427,1,0,0:0:0:0:
256,192,191627,1,12,0:0:0:0:
256,192,191927,1,12,0:0:0:0:
256,192,192227,1,12,0:0:0:0:
256,192,192527,1,8,0:0:0:0:
256,192,192627,1,8,0:0:0:0:
256,192,192727,1,0,0:0:0:0:
256,192,193027,1,8,0:0:0:0:
256,192,193227,1,0,0:0:0:0:
256,192,193327,1,8,0:0:0:0:
256,192,193427,1,8,0:0:0:0:
256,192,193527,1,0,0:0:0:0:
256,192,193627,1,8,0:0:0:0:
256,192,193827,1,0,0:0:0:0:
256,192,193877,1,0,0:0:0:0:
256,192,193927,1,0,0:0:0:0:
256,192,193977,1,0,0:0:0:0:
256,192,194027,1,8,0:0:0:0:
256,192,194077,1,8,0:0:0:0:
256,192,194127,1,0,0:0:0:0:
256,192,194177,1,0,0:0:0:0:
256,192,194227,1,8,0:0:0:0:
256,192,194327,1,0,0:0:0:0:
256,192,194427,1,8,0:0:0:0:
256,192,194527,1,8,0:0:0:0:
256,192,194627,1,0,0:0:0:0:
256,192,194727,1,8,0:0:0:0:
256,192,194827,1,0,0:0:0:0:
256,192,194927,1,0,0:0:0:0:
256,192,195027,1,8,0:0:0:0:
256,192,195077,1,8,0:0:0:0:
256,192,195127,1,0,0:0:0:0:
256,192,195227,1,8,0:0:0:0:
256,192,195327,1,8,0:0:0:0:
256,192,195427,1,0,0:0:0:0:
256,192,195477,1,0,0:0:0:0:
256,192,195527,1,8,0:0:0:0:
256,192,195577,1,8,0:0:0:0:
256,192,195627,1,0,0:0:0:0:
256,192,195827,1,0,0:0:0:0:
256,192,195927,1,0,0:0:0:0:
256,192,196027,1,8,0:0:0:0:
256,192,196227,1,8,0:0:0:0:
256,192,196327,1,8,0:0:0:0:
256,192,196427,1,0,0:0:0:0:
256,192,196527,1,8,0:0:0:0:
256,192,196627,1,8,0:0:0:0:
256,192,196727,1,8,0:0:0:0:
256,192,196827,1,0,0:0:0:0:
256,192,196927,1,8,0:0:0:0:
256,192,197027,1,0,0:0:0:0:
256,192,197077,1,0,0:0:0:0:
256,192,197127,1,0,0:0:0:0:
256,192,197177,1,0,0:0:0:0:
256,192,197227,1,8,0:0:0:0:
256,192,197277,1,8,0:0:0:0:
256,192,197327,1,0,0:0:0:0:
256,192,197377,1,0,0:0:0:0:
256,192,197427,1,8,0:0:0:0:
256,192,197477,1,0,0:0:0:0:
256,192,197527,1,8,0:0:0:0:
256,192,197577,1,8,0:0:0:0:
256,192,197627,1,0,0:0:0:0:
256,192,197727,1,8,0:0:0:0:
256,192,197827,1,0,0:0:0:0:
256,192,197877,1,8,0:0:0:0:
256,192,197927,1,8,0:0:0:0:
256,192,197977,1,0,0:0:0:0:
256,192,198027,1,8,0:0:0:0:
256,192,198127,1,8,0:0:0:0:
256,192,198227,1,0,0:0:0:0:
256,192,198277,1,8,0:0:0:0:
256,192,198327,1,8,0:0:0:0:
256,192,198377,1,8,0:0:0:0:
256,192,198427,1,0,0:0:0:0:
256,192,198477,1,0,0:0:0:0:
256,192,198527,1,0,0:0:0:0:
256,192,198577,1,0,0:0:0:0:
256,192,198627,1,0,0:0:0:0:
256,192,198677,1,0,0:0:0:0:
256,192,198727,1,0,0:0:0:0:
256,192,198777,1,0,0:0:0:0:
256,192,198827,1,8,0:0:0:0:
256,192,199627,12,8,199927,0:0:0:0:
256,192,200027,5,0,0:0:0:0:
256,192,200227,1,0,0:0:0:0:
256,192,200427,1,12,0:0:0:0:
256,192,200627,12,0,206827,0:0:0:0:
