osu file format v14

[General]
AudioFilename: audio.mp3
AudioLeadIn: 0
PreviewTime: 188828
Countdown: 0
SampleSet: Normal
StackLeniency: 0.7
Mode: 1
LetterboxInBreaks: 0
WidescreenStoryboard: 1

[Editor]
DistanceSpacing: 0.3
BeatDivisor: 4
GridSize: 32
TimelineZoom: 2.2

[Metadata]
Title:Newspapers for Magicians
TitleUnicode:Newspapers for Magicians
Artist:Camellia
ArtistUnicode:かめりあ
Creator:Ph0eNiiXZ
Version:MTNT's Oni
Source:
Tags:electronic instrumental phoeniixz phoenix mtntwarz TaikOseania osu!taiko featured artist cup #1 2nd second place o!tfac#1 60k 10k 3k ep cametek kamelcamellia かめるかめりあ melodic dubstep 60+3+10k E.P. fa mpg mappers' guild
BeatmapID:3530821
BeatmapSetID:1726022

[Difficulty]
HPDrainRate:5.6
CircleSize:5
OverallDifficulty:5
ApproachRate:10
SliderMultiplier:1.4
SliderTickRate:1

[Events]
//Background and Video events
0,0,"mag.jpg",0,10
//Break Periods
2,119028,124778
//Storyboard Layer 0 (Background)
//Storyboard Layer 1 (Fail)
//Storyboard Layer 2 (Pass)
//Storyboard Layer 3 (Foreground)
//Storyboard Layer 4 (Overlay)
//Storyboard Sound Samples

[TimingPoints]
428,400,4,1,0,40,1,0
428,-133.333333333333,4,1,0,40,0,0
1828,-133.333333333333,4,1,0,40,0,0
3628,400,4,1,0,40,1,0
3628,-125,4,1,0,40,0,0
13028,-125,4,1,0,50,0,0
16428,-111.111111111111,4,1,0,70,0,0
35627,-111.111115,4,1,0,70,0,0
36027,-109.488785,4,1,0,70,0,0
36427,-107.91315,4,1,0,70,0,0
36627,-107.14221,4,1,0,70,0,0
36827,-106.38222,4,1,0,70,0,0
37227,-104.89413,4,1,0,70,0,0
37627,-103.44709,4,1,0,70,0,0
37827,-102.73844,4,1,0,70,0,0
38027,-102.03943,4,1,0,70,0,0
38227,-101.34987,4,1,0,70,0,0
38427,-100.66956,4,1,0,70,0,0
38827,-99.336,4,1,0,75,0,0
39027,-98.682365,4,1,0,75,0,0
39127,-98.35878,4,1,0,75,0,0
39227,-98.03729,4,1,0,77,0,0
39427,-97.40059,4,1,0,77,0,0
39627,-96.77212,4,1,0,80,0,0
39727,-96.46091,4,1,0,80,0,0
39827,-96.15169,4,1,0,80,0,0
40027,-95.53918,4,1,0,82,0,0
40227,-94.9344,4,1,0,82,0,0
40427,-94.33725,4,1,0,85,0,0
40627,-93.74757,4,1,0,85,0,0
40727,-93.455475,4,1,0,85,0,0
40827,-93.16519,4,1,0,90,0,0
40927,-92.87672,4,1,0,90,0,0
41027,-92.59003,4,1,0,100,0,0
41227,-92.021904,4,1,0,100,0,0
41427,-91.46072,4,1,0,100,0,0
41527,-91.182686,4,1,0,100,0,0
41627,-90.906334,4,1,0,100,0,0
42027,-76.92308,4,1,0,100,0,0
42227,-78.43138,4,1,0,100,0,0
42427,-80,4,1,0,100,0,0
42627,-81.63265,4,1,0,100,0,0
42827,-83.33333,4,1,0,100,0,0
43227,-100,4,1,0,100,0,0
43527,-95.2381,4,1,0,100,0,0
43827,-90.90909,4,1,0,100,0,0
44127,-86.95652,4,1,0,100,0,0
44227,-85.71429,4,1,0,100,0,0
44327,-84.50705,4,1,0,100,0,0
44427,-83.33333,4,1,0,100,0,0
44627,-76.9230769230769,4,1,0,100,0,0
46027,-83.34201,4,1,0,100,0,0
46227,-85.1143,4,1,0,100,0,0
46327,-86.02902,4,1,0,100,0,0
46527,-87.918724,4,1,0,100,0,0
46627,-88.89506,4,1,0,100,0,0
46727,-89.89332,4,1,0,100,0,0
46827,-90.91425,4,1,0,100,0,0
47027,-93.027306,4,1,0,100,0,0
47227,-95.24094,4,1,0,100,0,0
47427,-97.56246,4,1,0,100,0,0
47627,-100,4,1,0,100,0,0
47828,-100,4,1,0,100,0,0
48128,-86.9565217391304,4,1,0,100,0,0
48427,-76.92308,4,1,0,100,0,0
48627,-78.94738,4,1,0,100,0,0
48827,-81.081085,4,1,0,100,0,0
49027,-83.33333,4,1,0,100,0,0
49227,-85.71429,4,1,0,100,0,0
49427,-88.2353,4,1,0,100,0,0
49493,-89.10008,4,1,0,100,0,0
49560,-89.9955,4,1,0,100,0,0
49627,-90.90909,4,1,0,100,0,0
49927,-88.888885,4,1,0,100,0,0
50227,-86.95652,4,1,0,100,0,0
50527,-85.106384,4,1,0,100,0,0
50627,-84.50705,4,1,0,100,0,0
50727,-83.91608,4,1,0,100,0,0
50827,-83.33333,4,1,0,100,0,0
51028,-76.9230769230769,4,1,0,100,0,0
51627,-76.92308,4,1,0,100,0,0
51827,-79.207924,4,1,0,100,0,0
51927,-80.402016,4,1,0,100,0,0
52227,-84.210526,4,1,0,100,0,0
52427,-86.95652,4,1,0,100,0,0
52627,-100,4,1,0,100,0,0
52727,-98.65471,4,1,0,100,0,0
52827,-97.34514,4,1,0,100,0,0
52927,-96.06986,4,1,0,100,0,0
53027,-94.82759,4,1,0,100,0,0
53227,-92.43698,4,1,0,100,0,0
53360,-90.91285,4,1,0,100,0,0
53493,-89.43817,4,1,0,100,0,0
53627,-88,4,1,0,100,0,0
53827,-85.9375,4,1,0,100,0,0
53927,-84.942085,4,1,0,100,0,0
54027,-83.96947,4,1,0,100,0,0
54227,-82.08956,4,1,0,100,0,0
54327,-81.18082,4,1,0,100,0,0
54427,-80.29197,4,1,0,100,0,0
54527,-79.42239,4,1,0,100,0,0
54627,-78.571434,4,1,0,100,0,0
54827,-76.92308,4,1,0,100,0,0
55228,-100,4,1,0,85,0,0
61227,-100,4,1,0,100,0,0
61627,-97.83736,4,1,0,100,0,0
61827,-96.773636,4,1,0,100,0,0
61927,-96.246124,4,1,0,100,0,0
62027,-95.72149,4,1,0,100,0,0
62127,-95.19971,4,1,0,100,0,0
62227,-94.68078,4,1,0,100,0,0
62427,-93.65138,4,1,0,100,0,0
62627,-92.63317,4,1,0,100,0,0
62727,-92.12822,4,1,0,100,0,0
62827,-91.62603,4,1,0,100,0,0
63027,-90.629845,4,1,0,100,0,0
63227,-89.64449,4,1,0,100,0,0
63427,-88.669846,4,1,0,100,0,0
63527,-88.186516,4,1,0,100,0,0
63627,-87.7058,4,1,0,100,0,0
63727,-87.22772,4,1,0,100,0,0
63827,-86.752235,4,1,0,100,0,0
64027,-85.809044,4,1,0,100,0,0
64227,-84.8761,4,1,0,100,0,0
64327,-84.41344,4,1,0,100,0,0
64427,-83.9533,4,1,0,100,0,0
64627,-83.040535,4,1,0,100,0,0
64727,-82.58788,4,1,0,100,0,0
64827,-82.13769,4,1,0,100,0,0
65027,-81.24466,4,1,0,100,0,0
65127,-80.8018,4,1,0,100,0,0
65227,-80.36135,4,1,0,100,0,0
65327,-79.9233,4,1,0,100,0,0
65427,-79.48763,4,1,0,100,0,0
65627,-78.62342,4,1,0,100,0,0
65727,-78.19485,4,1,0,100,0,0
65827,-77.76861,4,1,0,100,0,0
66027,-76.92308,4,1,0,100,0,0
67027,-100,4,1,0,100,0,0
67127,-96,4,1,0,100,0,0
67227,-92.307686,4,1,0,100,0,0
67327,-88.888885,4,1,0,100,0,0
67427,-85.71429,4,1,0,100,0,0
67628,-80,4,1,0,100,0,1
78827,-80,4,1,0,100,0,1
79027,-81.39535,4,1,0,100,0,1
79127,-82.111435,4,1,0,100,0,1
79327,-83.58209,4,1,0,100,0,1
79427,-84.33734,4,1,0,100,0,1
79628,-85.88957,4,1,0,50,0,0
79727,-86.68731,4,1,0,50,0,0
79827,-87.49999,4,1,0,50,0,0
79927,-88.32807,4,1,0,100,0,0
80027,-89.17198,4,1,0,100,0,0
80127,-90.03215,4,1,0,100,0,0
80227,-90.90909,4,1,0,100,0,0
80428,-80,4,1,0,100,0,1
85228,-80,4,1,0,100,0,0
85427,-82.75862,4,1,0,100,0,0
85527,-84.210526,4,1,0,100,0,0
85627,-85.71429,4,1,0,100,0,0
85727,-87.27273,4,1,0,100,0,0
85827,-88.888885,4,1,0,100,0,0
85927,-90.56604,4,1,0,100,0,0
86027,-92.307686,4,1,0,100,0,0
86427,-100,4,1,0,100,0,0
86827,-90.90909,4,1,0,100,0,0
87027,-90.368324,4,1,0,100,0,0
87127,-90.099144,4,1,0,100,0,0
87227,-89.83077,4,1,0,100,0,0
87427,-89.29642,4,1,0,100,0,0
87527,-89.030426,4,1,0,100,0,0
87627,-88.765236,4,1,0,100,0,0
87727,-88.50083,4,1,0,100,0,0
87827,-88.23723,4,1,0,100,0,0
88027,-87.71235,4,1,0,100,0,0
88227,-87.1906,4,1,0,100,0,0
88427,-86.67195,4,1,0,100,0,0
88527,-86.41378,4,1,0,100,0,0
88627,-86.15638,4,1,0,100,0,0
88827,-85.643875,4,1,0,100,0,0
89027,-85.13443,4,1,0,100,0,0
89127,-84.88085,4,1,0,100,0,0
89227,-84.62802,4,1,0,100,0,0
89327,-84.37594,4,1,0,100,0,0
89427,-84.12462,4,1,0,100,0,0
89627,-83.6242,4,1,0,100,0,0
89827,-83.12677,4,1,0,100,0,0
90027,-82.6323,4,1,0,100,0,0
90293,-81.979195,4,1,0,100,0,0
90427,-81.65215,4,1,0,100,0,0
90693,-81.0068,4,1,0,100,0,0
90827,-80.683624,4,1,0,100,0,0
90960,-80.36415,4,1,0,100,0,0
91093,-80.04593,4,1,0,100,0,0
91227,-79.7266,4,1,0,100,0,0
91493,-79.096466,4,1,0,100,0,0
91627,-78.78092,4,1,0,100,0,0
91827,-78.312294,4,1,0,100,0,0
91927,-78.079025,4,1,0,100,0,0
92027,-77.84646,4,1,0,100,0,0
92127,-77.61457,4,1,0,100,0,0
92227,-77.38339,4,1,0,100,0,0
92327,-77.15289,4,1,0,100,0,0
92427,-76.92308,4,1,0,100,0,0
93228,-76.92308,4,1,0,100,0,1
93427,-79.31732,4,1,0,100,0,1
93627,-81.78609,4,1,0,100,0,1
93827,-84.33168,4,1,0,100,0,1
94027,-86.95652,4,1,0,100,0,1
94227,-83.33333,4,1,0,100,0,1
94327,-84.42568,4,1,0,100,0,1
94427,-85.53235,4,1,0,100,0,1
94527,-86.6535,4,1,0,100,0,1
94727,-88.94013,4,1,0,100,0,1
94827,-90.10598,4,1,0,100,0,1
94927,-91.28709,4,1,0,100,0,1
95127,-93.695984,4,1,0,100,0,1
95227,-94.924164,4,1,0,100,0,1
95327,-96.16844,4,1,0,100,0,1
95527,-98.70615,4,1,0,100,0,1
95627,-99.972115,4,1,0,100,0,1
95827,-94.54779,4,1,0,100,0,1
96127,-86.95811,4,1,0,100,0,1
96427,-79.97769,4,1,0,100,0,1
97027,-86.963264,4,1,0,100,0,1
97227,-88.32352,4,1,0,100,0,1
97427,-89.70503,4,1,0,100,0,1
97627,-91.10815,4,1,0,100,0,1
97727,-91.817924,4,1,0,100,0,1
97827,-92.53322,4,1,0,100,0,1
98027,-93.98059,4,1,0,100,0,1
98127,-94.71274,4,1,0,100,0,1
98227,-95.450584,4,1,0,100,0,1
98427,-96.94359,4,1,0,100,0,1
98527,-97.69883,4,1,0,100,0,1
98627,-98.45993,4,1,0,100,0,1
98827,-100,4,1,0,100,0,1
99027,-93.65138,4,1,0,100,0,1
99327,-84.8761,4,1,0,100,0,1
99627,-76.93486,4,1,0,100,0,1
99827,-79.32643,4,1,0,100,0,1
100027,-81.79234,4,1,0,100,0,1
100227,-84.334915,4,1,0,100,0,1
100427,-86.95652,4,1,0,100,0,1
100627,-83.33333,4,1,0,100,0,1
100727,-84.42568,4,1,0,100,0,1
100827,-85.53235,4,1,0,100,0,1
100927,-86.6535,4,1,0,100,0,1
101127,-88.94013,4,1,0,100,0,1
101227,-90.10598,4,1,0,100,0,1
101327,-91.28709,4,1,0,100,0,1
101527,-93.695984,4,1,0,100,0,1
101627,-94.924164,4,1,0,100,0,1
101727,-96.16844,4,1,0,100,0,1
101927,-98.70615,4,1,0,100,0,1
102027,-100,4,1,0,100,0,1
102227,-94.57416,4,1,0,100,0,1
102527,-86.982376,4,1,0,100,0,1
102827,-80,4,1,0,100,0,1
103427,-83.33333,4,1,0,100,0,1
103627,-86.4281,4,1,0,100,0,1
103827,-89.63782,4,1,0,100,0,1
103927,-91.28709,4,1,0,100,0,1
104027,-92.96673,4,1,0,100,0,1
104127,-94.67725,4,1,0,100,0,1
104227,-96.41925,4,1,0,100,0,1
104427,-100,4,1,0,100,0,1
104627,-96.86251,4,1,0,100,0,1
104827,-93.823456,4,1,0,100,0,1
105027,-90.879745,4,1,0,100,0,1
105228,-88.028404,4,1,0,100,0,0
105327,-86.63646,4,1,0,100,0,0
105427,-85.266525,4,1,0,100,0,0
105527,-83.91824,4,1,0,100,0,0
105627,-82.59129,4,1,0,100,0,0
105727,-81.285324,4,1,0,100,0,0
105827,-80,4,1,0,100,0,0
106028,-76.92308,4,1,0,100,0,1
106227,-79.31732,4,1,0,100,0,1
106427,-81.78609,4,1,0,100,0,1
106627,-84.33168,4,1,0,100,0,1
106827,-86.95652,4,1,0,100,0,1
107003,-83.33333,4,1,0,100,0,1
107103,-84.42568,4,1,0,100,0,1
107203,-85.53235,4,1,0,100,0,1
107303,-86.6535,4,1,0,100,0,1
107503,-88.94013,4,1,0,100,0,1
107603,-90.10598,4,1,0,100,0,1
107703,-91.28709,4,1,0,100,0,1
107903,-93.695984,4,1,0,100,0,1
108003,-94.924164,4,1,0,100,0,1
108103,-96.16844,4,1,0,100,0,1
108303,-98.70615,4,1,0,100,0,1
108403,-99.972115,4,1,0,100,0,1
108603,-94.54779,4,1,0,100,0,1
108903,-86.95811,4,1,0,100,0,1
109203,-79.97769,4,1,0,100,0,1
109827,-83.33333,4,1,0,100,0,1
110027,-84.5103,4,1,0,100,0,1
110227,-85.70387,4,1,0,100,0,1
110427,-86.91432,4,1,0,100,0,1
110527,-87.52594,4,1,0,100,0,1
110627,-88.14186,4,1,0,100,0,1
110827,-89.386734,4,1,0,100,0,1
110927,-90.015755,4,1,0,100,0,1
111027,-90.6492,4,1,0,100,0,1
111227,-91.929474,4,1,0,100,0,1
111327,-92.57639,4,1,0,100,0,1
111427,-93.227844,4,1,0,100,0,1
111527,-93.883896,4,1,0,100,0,1
111627,-94.54456,4,1,0,100,0,1
111827,-95.87987,4,1,0,100,0,1
112027,-97.234024,4,1,0,100,0,1
112160,-98.14511,4,1,0,100,0,1
112293,-99.06475,4,1,0,100,0,1
112428,-100,4,1,0,100,0,0
112827,-97.83736,4,1,0,85,0,0
113027,-96.773636,4,1,0,85,0,0
113127,-96.246124,4,1,0,85,0,0
113227,-95.72149,4,1,0,85,0,0
113427,-94.68078,4,1,0,85,0,0
113627,-93.65138,4,1,0,85,0,0
113727,-93.140884,4,1,0,85,0,0
113827,-92.63317,4,1,0,85,0,0
113927,-92.12822,4,1,0,85,0,0
114027,-91.62603,4,1,0,85,0,0
114227,-90.629845,4,1,0,85,0,0
114427,-89.64449,4,1,0,85,0,0
114527,-89.15584,4,1,0,85,0,0
114727,-88.186516,4,1,0,85,0,0
114827,-87.7058,4,1,0,85,0,0
115027,-86.752235,4,1,0,85,0,0
115227,-85.809044,4,1,0,85,0,0
115327,-85.34129,4,1,0,85,0,0
115427,-84.8761,4,1,0,85,0,0
115527,-84.41344,4,1,0,100,0,0
115627,-83.9533,4,1,0,100,0,0
115827,-83.040535,4,1,0,100,0,0
115927,-82.58788,4,1,0,100,0,0
116027,-82.13769,4,1,0,100,0,0
116227,-81.24466,4,1,0,100,0,0
116427,-80.36135,4,1,0,100,0,0
116527,-79.9233,4,1,0,100,0,0
116627,-79.48763,4,1,0,100,0,0
116727,-79.05435,4,1,0,100,0,0
116827,-78.62342,4,1,0,100,0,0
117027,-77.76861,4,1,0,100,0,0
117093,-77.488556,4,1,0,100,0,0
117160,-77.2053,4,1,0,100,0,0
117227,-76.92308,4,1,0,100,0,0
118828,-66.6666666666667,4,1,0,60,0,0
120428,-100,4,1,0,60,0,0
125227,-100,4,1,0,100,0,0
125427,-98.75735,4,1,0,100,0,0
125527,-98.14183,4,1,0,100,0,0
125627,-97.530136,4,1,0,100,0,0
125827,-96.318184,4,1,0,100,0,0
125927,-95.71786,4,1,0,100,0,0
126027,-95.121284,4,1,0,100,0,0
126127,-94.52842,4,1,0,100,0,0
126227,-93.93926,4,1,0,100,0,0
126427,-92.77193,4,1,0,100,0,0
126627,-91.61909,4,1,0,100,0,0
126727,-91.04806,4,1,0,100,0,0
126827,-90.48058,4,1,0,100,0,0
127027,-89.356224,4,1,0,100,0,0
127227,-88.24585,4,1,0,100,0,0
127427,-87.149254,4,1,0,100,0,0
127527,-86.60608,4,1,0,100,0,0
127627,-86.06629,4,1,0,100,0,0
127727,-85.52987,4,1,0,100,0,0
127827,-84.996796,4,1,0,100,0,0
128027,-83.94058,4,1,0,100,0,0
128227,-82.89749,4,1,0,100,0,0
128327,-82.38082,4,1,0,100,0,0
128427,-81.86736,4,1,0,100,0,0
128627,-80.85004,4,1,0,100,0,0
128727,-80.34612,4,1,0,100,0,0
128827,-79.84535,4,1,0,100,0,0
129027,-78.85316,4,1,0,100,0,0
129127,-78.361694,4,1,0,100,0,0
129227,-77.87329,4,1,0,100,0,0
129327,-77.38793,4,1,0,100,0,0
129427,-76.905594,4,1,0,100,0,0
129627,-75.94993,4,1,0,100,0,0
129727,-75.476555,4,1,0,100,0,0
129827,-75.006134,4,1,0,100,0,0
130027,-74.07407,4,1,0,40,0,0
131628,-66.6666666666667,4,1,0,100,0,1
132427,-76.92308,4,1,0,100,0,1
132527,-77.738525,4,1,0,100,0,1
132727,-79.42239,4,1,0,100,0,1
132827,-80.29197,4,1,0,100,0,1
133027,-82.08956,4,1,0,100,0,1
133227,-83.96947,4,1,0,100,0,1
133327,-84.942085,4,1,0,100,0,1
133527,-86.95652,4,1,0,100,0,1
133627,-88,4,1,0,100,0,1
133827,-90.16393,4,1,0,100,0,1
134027,-92.43698,4,1,0,100,0,1
134127,-93.61703,4,1,0,100,0,1
134227,-94.82758,4,1,0,100,0,1
134327,-96.06987,4,1,0,100,0,1
134427,-97.34514,4,1,0,100,0,1
134627,-100,4,1,0,100,0,1
134827,-100,4,1,0,100,0,1
134927,-97.560974,4,1,0,100,0,1
135027,-95.2381,4,1,0,100,0,1
135127,-93.023254,4,1,0,100,0,1
135227,-90.90909,4,1,0,100,0,1
135427,-86.95652,4,1,0,100,0,1
135627,-71.435524,4,1,0,100,0,1
135927,-73.58497,4,1,0,100,0,1
136027,-74.33049,4,1,0,100,0,1
136427,-77.46999,4,1,0,100,0,1
136727,-80.004364,4,1,0,100,0,1
136827,-80.886406,4,1,0,100,0,1
137227,-84.61804,4,1,0,100,0,1
137427,-86.616035,4,1,0,100,0,1
137627,-88.710655,4,1,0,100,0,1
137727,-89.79642,4,1,0,100,0,1
137827,-90.90909,4,1,0,100,0,1
138028,-66.6666666666667,4,1,0,100,0,1
138827,-76.92308,4,1,0,100,0,1
138927,-77.66991,4,1,0,100,0,1
139127,-79.207924,4,1,0,100,0,1
139227,-80.00001,4,1,0,100,0,1
139427,-81.63266,4,1,0,100,0,1
139627,-83.333336,4,1,0,100,0,1
139727,-84.21053,4,1,0,100,0,1
139927,-86.02151,4,1,0,100,0,1
140027,-86.95652,4,1,0,100,0,1
140227,-88.888885,4,1,0,100,0,1
140427,-90.90909,4,1,0,100,0,1
140527,-91.954025,4,1,0,100,0,1
140627,-93.023254,4,1,0,100,0,1
140727,-94.117645,4,1,0,100,0,1
140827,-95.2381,4,1,0,100,0,1
141027,-97.560974,4,1,0,100,0,1
141227,-99.99074,4,1,0,100,0,1
141427,-83.3333333333333,4,1,0,100,0,1
141627,-71.43966,4,1,0,100,0,1
141727,-72.56665,4,1,0,100,0,1
141827,-73.72977,4,1,0,100,0,1
142027,-76.17155,4,1,0,100,0,1
142227,-78.78062,4,1,0,100,0,1
142427,-81.57475,4,1,0,100,0,1
142527,-83.047485,4,1,0,100,0,1
142627,-84.57436,4,1,0,100,0,1
142827,-87.80302,4,1,0,100,0,1
142927,-89.51158,4,1,0,100,0,1
143027,-91.28796,4,1,0,100,0,1
143227,-95.06096,4,1,0,100,0,1
143327,-97.06689,4,1,0,100,0,1
143427,-99.1593,4,1,0,100,0,1
143628,-103.626945,4,1,0,100,0,0
143727,-106.015205,4,1,0,100,0,0
143827,-108.51615,4,1,0,100,0,0
143927,-111.137955,4,1,0,100,0,0
144428,-66.6666666666667,4,1,0,100,0,1
145227,-76.92308,4,1,0,100,0,1
145360,-77.919556,4,1,0,100,0,1
145627,-80.00001,4,1,0,100,0,1
145727,-80.80808,4,1,0,100,0,1
145827,-81.63266,4,1,0,100,0,1
146027,-83.333336,4,1,0,100,0,1
146160,-84.504074,4,1,0,100,0,1
146427,-86.95652,4,1,0,100,0,1
146527,-87.91209,4,1,0,100,0,1
146627,-88.888885,4,1,0,100,0,1
146827,-90.90909,4,1,0,100,0,1
146960,-92.304146,4,1,0,100,0,1
147227,-95.2381,4,1,0,100,0,1
147327,-96.38554,4,1,0,100,0,1
147427,-97.560974,4,1,0,100,0,1
147527,-98.76543,4,1,0,100,0,1
147627,-99.984375,4,1,0,100,0,1
147893,-95.9964,4,1,0,100,0,1
148027,-94.10554,4,1,0,100,0,1
148160,-92.30103,4,1,0,100,0,1
148293,-90.56444,4,1,0,100,0,1
148427,-71.433075,4,1,0,100,0,1
148693,-72.65149,4,1,0,100,0,1
148827,-73.28116,4,1,0,100,0,1
149093,-74.564,4,1,0,100,0,1
149227,-75.22741,4,1,0,100,0,1
149493,-76.579926,4,1,0,100,0,1
149627,-77.27986,4,1,0,100,0,1
149893,-78.707886,4,1,0,100,0,1
150027,-79.44745,4,1,0,100,0,1
150293,-80.95748,4,1,0,100,0,1
150427,-81.740135,4,1,0,100,0,1
150560,-82.53205,4,1,0,100,0,1
150693,-83.33946,4,1,0,100,0,1
150827,-66.666664,4,1,0,100,0,1
151627,-76.92308,4,1,0,100,0,1
151760,-77.919556,4,1,0,100,0,1
152027,-80.00001,4,1,0,100,0,1
152127,-80.80808,4,1,0,100,0,1
152227,-81.63266,4,1,0,100,0,1
152427,-83.333336,4,1,0,100,0,1
152560,-84.504074,4,1,0,100,0,1
152827,-86.95652,4,1,0,100,0,1
152927,-87.91209,4,1,0,100,0,1
153027,-88.888885,4,1,0,100,0,1
153227,-90.90909,4,1,0,100,0,1
153360,-92.304146,4,1,0,100,0,1
153493,-93.74268,4,1,0,100,0,1
153627,-95.2381,4,1,0,100,0,1
153827,-97.560974,4,1,0,100,0,1
154028,-100,4,1,0,100,0,0
154293,-97.172874,4,1,0,100,0,0
154427,-95.80838,4,1,0,100,0,0
154693,-93.21023,4,1,0,100,0,0
154827,-91.954025,4,1,0,100,0,0
155093,-89.55809,4,1,0,100,0,0
155227,-88.39779,4,1,0,100,0,0
155360,-87.275505,4,1,0,100,0,0
155493,-86.18136,4,1,0,100,0,0
155627,-85.106384,4,1,0,100,0,0
155893,-83.05002,4,1,0,100,0,0
156027,-82.051285,4,1,0,100,0,0
156293,-80.13824,4,1,0,100,0,0
156427,-79.20792,4,1,0,100,0,0
156627,-77.85889,4,1,0,100,0,0
156727,-77.20145,4,1,0,100,0,0
156827,-76.55502,4,1,0,100,0,0
157027,-75.29412,4,1,0,100,0,0
157127,-74.679115,4,1,0,100,0,0
157227,-74.07407,4,1,0,100,0,0
158828,-125,4,1,0,40,0,0
169227,-125,4,1,0,85,0,0
169427,-117.64706,4,1,0,85,0,0
169527,-114.28571,4,1,0,85,0,0
169627,-111.111115,4,1,0,85,0,0
169827,-105.26316,4,1,0,85,0,0
170027,-99.99516,4,1,0,85,0,0
170427,-98.09691,4,1,0,85,0,0
170627,-97.17455,4,1,0,85,0,0
170827,-96.26939,4,1,0,85,0,0
171127,-94.94282,4,1,0,85,0,0
171227,-94.508705,4,1,0,85,0,0
171427,-93.65231,4,1,0,85,0,0
171627,-92.81128,4,1,0,85,0,0
171827,-91.98523,4,1,0,85,0,0
172027,-91.173744,4,1,0,85,0,0
172127,-90.77335,4,1,0,85,0,0
172227,-90.376465,4,1,0,85,0,0
172427,-89.593,4,1,0,85,0,0
172527,-89.20634,4,1,0,85,0,0
172627,-88.823,4,1,0,85,0,0
172727,-88.44294,4,1,0,85,0,0
172827,-88.06613,4,1,0,85,0,0
173027,-87.322044,4,1,0,85,0,0
173227,-86.59043,4,1,0,85,0,0
173627,-85.16337,4,1,0,85,0,0
173827,-84.46733,4,1,0,85,0,0
174027,-83.782585,4,1,0,85,0,0
174327,-82.77603,4,1,0,85,0,0
174427,-82.44586,4,1,0,85,0,0
174627,-81.793365,4,1,0,85,0,0
174827,-81.151115,4,1,0,85,0,0
175027,-80.518875,4,1,0,85,0,0
175127,-80.20644,4,1,0,85,0,0
175227,-79.89642,4,1,0,85,0,0
175427,-79.2835,4,1,0,85,0,0
175627,-78.679924,4,1,0,85,0,0
175727,-78.38156,4,1,0,85,0,0
175827,-78.08546,4,1,0,85,0,0
175927,-77.79158,4,1,0,85,0,0
176027,-77.49991,4,1,0,85,0,0
176127,-77.21042,4,1,0,85,0,0
176227,-76.92308,4,1,0,85,0,0
176427,-71.42857,4,1,0,100,0,0
176527,-74.07407,4,1,0,100,0,0
176627,-76.92308,4,1,0,100,0,0
176727,-80,4,1,0,100,0,0
176827,-83.33333,4,1,0,100,0,0
177194,-71.42857,4,1,0,100,0,0
177294,-74.07407,4,1,0,100,0,0
177394,-76.92308,4,1,0,100,0,0
177494,-80,4,1,0,100,0,0
177594,-83.33333,4,1,0,100,0,0
177994,-71.42857,4,1,0,100,0,0
178094,-74.07407,4,1,0,100,0,0
178194,-76.92308,4,1,0,100,0,0
178294,-80,4,1,0,100,0,0
178394,-83.33333,4,1,0,100,0,0
178794,-71.42857,4,1,0,100,0,0
178894,-74.07407,4,1,0,100,0,0
178994,-76.92308,4,1,0,100,0,0
179094,-80,4,1,0,100,0,0
179194,-83.33333,4,1,0,100,0,0
179627,-100,4,1,0,100,0,0
179827,-97.71987,4,1,0,100,0,0
179927,-96.61836,4,1,0,100,0,0
180027,-95.541405,4,1,0,100,0,0
180227,-93.45794,4,1,0,100,0,0
180327,-92.44992,4,1,0,100,0,0
180427,-91.46341,4,1,0,100,0,0
180527,-90.497734,4,1,0,100,0,0
180627,-89.55224,4,1,0,100,0,0
180827,-87.7193,4,1,0,100,0,0
181027,-85.959885,4,1,0,100,0,0
181127,-85.106384,4,1,0,100,0,0
181227,-84.26967,4,1,0,100,0,0
181427,-82.64462,4,1,0,100,0,0
181527,-81.855385,4,1,0,100,0,0
181627,-81.08108,4,1,0,100,0,0
181727,-80.32128,4,1,0,100,0,0
181827,-79.5756,4,1,0,100,0,0
181927,-78.84363,4,1,0,100,0,0
182027,-78.125,4,1,0,100,0,0
182227,-76.72635,4,1,0,100,0,0
182427,-75.376884,4,1,0,100,0,0
182493,-74.94192,4,1,0,100,0,0
182560,-74.50547,4,1,0,100,0,0
182627,-74.07407,4,1,0,100,0,0
182827,-111.111115,4,1,0,50,0,0
183227,-107.757904,4,1,0,50,0,0
183327,-106.935524,4,1,0,50,0,0
183627,-104.505875,4,1,0,50,0,0
183727,-103.70832,4,1,0,50,0,0
184027,-101.35199,4,1,0,50,0,0
184127,-100.5785,4,1,0,50,0,0
184227,-99.81092,4,1,0,50,0,0
184427,-98.29329,4,1,0,50,0,0
184627,-96.79873,4,1,0,50,0,0
184827,-95.3269,4,1,0,50,0,0
184927,-94.5994,4,1,0,50,0,0
185227,-92.450035,4,1,0,50,0,0
185327,-91.74449,4,1,0,50,0,0
185627,-89.65999,4,1,0,50,0,0
185727,-88.97574,4,1,0,50,0,0
185827,-88.29671,4,1,0,50,0,0
186027,-86.95415,4,1,0,100,0,0
186227,-85.631996,4,1,0,100,0,0
186327,-84.97848,4,1,0,100,0,0
186427,-84.32995,4,1,0,100,0,0
186627,-83.04772,4,1,0,100,0,0
186827,-81.784966,4,1,0,100,0,0
186927,-81.160805,4,1,0,100,0,0
187027,-80.54143,4,1,0,100,0,0
187127,-79.92676,4,1,0,100,0,0
187227,-79.31678,4,1,0,100,0,0
187427,-78.11076,4,1,0,100,0,0
187493,-77.71682,4,1,0,100,0,0
187560,-77.318924,4,1,0,100,0,0
187627,-76.92308,4,1,0,100,0,0
188828,-80,4,1,0,80,0,0
189228,-71.4285714285714,4,1,0,100,0,1
200427,-71.42857,4,1,0,100,0,1
200627,-72.16495,4,1,0,100,0,1
200727,-72.538864,4,1,0,100,0,1
200927,-73.29843,4,1,0,100,0,1
201027,-73.68421,4,1,0,100,0,1
201228,-74.468094,4,1,0,100,0,0
201293,-74.730446,4,1,0,100,0,0
201360,-74.99867,4,1,0,100,0,0
201427,-75.26882,4,1,0,100,0,0
201627,-76.08696,4,1,0,100,0,0
201727,-76.50274,4,1,0,100,0,0
201827,-76.92308,4,1,0,100,0,0
202028,-66.6666666666667,4,1,0,100,0,1
202828,-71.4285714285714,4,1,0,100,0,1
206027,-71.42857,4,1,0,100,0,1
206227,-72.289154,4,1,0,100,0,1
206327,-72.72727,4,1,0,100,0,1
206427,-73.17073,4,1,0,100,0,1
206527,-73.61963,4,1,0,100,0,1
206627,-74.07407,4,1,0,100,0,1
206827,-75,4,1,0,100,0,1
207027,-75.94936,4,1,0,100,0,1
207227,-76.92308,4,1,0,100,0,1
207327,-77.41936,4,1,0,100,0,1
207427,-77.92208,4,1,0,100,0,1
207527,-78.43137,4,1,0,100,0,1
207627,-78.94737,4,1,0,100,0,1
207827,-80,4,1,0,100,0,1
207927,-80.53691,4,1,0,100,0,1
208027,-81.08108,4,1,0,100,0,1
208127,-81.63265,4,1,0,100,0,1
208227,-82.19178,4,1,0,100,0,1
208428,-83.33333,4,1,0,100,0,0
211627,-83.33333,4,1,0,100,0,0
211927,-80.808075,4,1,0,100,0,0
212227,-78.431366,4,1,0,100,0,0
212427,-76.92308,4,1,0,100,0,0
212527,-76.190475,4,1,0,100,0,0
212827,-74.07407,4,1,0,100,0,0
212927,-73.3945,4,1,0,100,0,0
213027,-72.72727,4,1,0,100,0,0
213127,-72.07207,4,1,0,100,0,0
213227,-71.42857,4,1,0,100,0,0
214428,-125,4,1,0,80,0,0
214827,-100,4,1,0,80,0,0
215027,-98.523384,4,1,0,80,0,0
215227,-97.06857,4,1,0,80,0,0
215327,-96.34925,4,1,0,80,0,0
215627,-94.22309,4,1,0,80,0,0
215727,-93.52484,4,1,0,80,0,0
216027,-91.461006,4,1,0,60,0,0
216127,-90.78323,4,1,0,60,0,0
216227,-90.11049,4,1,0,60,0,0
216427,-88.77991,4,1,0,60,0,0
216627,-87.46896,4,1,0,60,0,0
216827,-86.17739,4,1,0,80,0,0
216927,-85.538765,4,1,0,80,0,0
217227,-83.65116,4,1,0,80,0,0
217293,-83.241516,4,1,0,80,0,0
217360,-82.827705,4,1,0,80,0,0
217427,-82.41596,4,1,0,80,0,0
217627,-81.199,4,1,0,80,0,0
217827,-80,4,1,0,80,0,0
218028,-71.4285714285714,4,1,0,100,0,1
219627,-71.42857,4,1,0,100,0,1
219827,-72.81827,4,1,0,100,0,1
219927,-73.52321,4,1,0,100,0,1
220127,-74.95366,4,1,0,100,0,1
220227,-75.67928,4,1,0,100,0,1
220427,-77.15167,4,1,0,100,0,1
220527,-77.898575,4,1,0,100,0,1
220627,-78.65272,4,1,0,100,0,1
220827,-80.18296,4,1,0,100,0,1
220927,-80.959206,4,1,0,100,0,1
221027,-81.742966,4,1,0,100,0,1
221127,-82.53432,4,1,0,100,0,1
221228,-83.33333,4,1,0,100,0,0
221628,-71.42857,4,1,0,100,0,1
221827,-73.287476,4,1,0,100,0,1
221927,-74.23499,4,1,0,100,0,1
222027,-75.194756,4,1,0,100,0,1
222127,-76.16693,4,1,0,100,0,1
222327,-78.14915,4,1,0,100,0,1
222427,-79.15952,4,1,0,100,0,1
222627,-81.21961,4,1,0,100,0,1
222727,-82.269684,4,1,0,100,0,1
222828,-83.33333,4,1,0,100,0,0
223228,-71.42857,4,1,0,100,0,1
223427,-73.01898,4,1,0,100,0,1
223527,-73.82742,4,1,0,100,0,1
223627,-74.64481,4,1,0,100,0,1
223727,-75.47125,4,1,0,100,0,1
223927,-77.15167,4,1,0,100,0,1
224027,-78.00587,4,1,0,100,0,1
224227,-79.74273,4,1,0,100,0,1
224327,-80.62561,4,1,0,100,0,1
224427,-81.518265,4,1,0,100,0,1
224527,-82.4208,4,1,0,100,0,1
224627,-83.33333,4,1,0,100,0,1
224828,-71.4285714285714,4,1,0,100,0,1
226027,-71.42857,4,1,0,100,0,1
226227,-74.496864,4,1,0,100,0,1
226327,-76.08008,4,1,0,100,0,1
226427,-77.69695,4,1,0,100,0,1
226527,-79.34818,4,1,0,100,0,1
226727,-82.75667,4,1,0,100,0,1
226828,-84.51542,4,1,0,100,0,0
227027,-88.14588,4,1,0,100,0,0
227127,-90.019165,4,1,0,100,0,0
227227,-91.93228,4,1,0,100,0,0
227327,-93.88603,4,1,0,100,0,0
227427,-95.881325,4,1,0,100,0,0
227627,-99.99349,4,1,0,100,0,0
228227,-96.16353,4,1,0,100,0,0
228427,-94.919754,4,1,0,100,0,0
228827,-92.48025,4,1,0,60,0,0
229127,-90.69187,4,1,0,60,0,0
229427,-88.938065,4,1,0,60,0,0
229627,-87.78774,4,1,0,80,0,0
229727,-87.21817,4,1,0,80,0,0
229827,-86.6523,4,1,0,80,0,0
230027,-85.53155,4,1,0,80,0,0
230093,-85.16488,4,1,0,80,0,0
230160,-84.79428,4,1,0,80,0,0
230227,-84.42528,4,1,0,80,0,0
230427,-83.33333,4,1,0,80,0,0
230828,-71.4285714285714,4,1,0,100,0,1
232427,-71.42857,4,1,0,100,0,1
232627,-73.01898,4,1,0,100,0,1
232727,-73.82742,4,1,0,100,0,1
232827,-74.64481,4,1,0,100,0,1
232927,-75.47125,4,1,0,100,0,1
233027,-76.30683,4,1,0,100,0,1
233227,-78.00587,4,1,0,100,0,1
233327,-78.86952,4,1,0,100,0,1
233427,-79.74273,4,1,0,100,0,1
233527,-80.62561,4,1,0,100,0,1
233627,-81.518265,4,1,0,100,0,1
233727,-82.4208,4,1,0,100,0,1
233827,-83.33333,4,1,0,100,0,1
234028,-71.42857,4,1,0,100,0,0
234128,-74.07407,4,1,0,100,0,0
234228,-76.92308,4,1,0,100,0,0
234328,-80,4,1,0,100,0,0
234428,-83.33333,4,1,0,100,0,0
234795,-71.42857,4,1,0,100,0,0
234895,-74.07407,4,1,0,100,0,0
234995,-76.92308,4,1,0,100,0,0
235095,-80,4,1,0,100,0,0
235195,-83.33333,4,1,0,100,0,0
235595,-71.42857,4,1,0,100,0,0
235695,-74.07407,4,1,0,100,0,0
235795,-76.92308,4,1,0,100,0,0
235895,-80,4,1,0,100,0,0
235995,-83.33333,4,1,0,100,0,0
236395,-71.42857,4,1,0,100,0,0
236495,-74.07407,4,1,0,100,0,0
236595,-76.92308,4,1,0,100,0,0
236695,-80,4,1,0,100,0,0
236795,-83.33333,4,1,0,100,0,0
237227,-100,4,1,0,100,0,0
237493,-97.134,4,1,0,100,0,0
237627,-95.72149,4,1,0,100,0,0
237893,-92.97811,4,1,0,100,0,0
238027,-91.62603,4,1,0,100,0,0
238160,-90.30349,4,1,0,100,0,0
238293,-89.00003,4,1,0,100,0,0
238427,-87.7058,4,1,0,100,0,0
238693,-85.192154,4,1,0,100,0,0
238827,-83.9533,4,1,0,100,0,0
238960,-82.74151,4,1,0,100,0,0
239093,-81.5472,4,1,0,100,0,0
239227,-80.36135,4,1,0,100,0,0
239360,-79.20139,4,1,0,100,0,0
239493,-78.05819,4,1,0,100,0,0
239627,-76.92308,4,1,0,100,0,0
240428,-76.92308,4,1,0,100,0,1
240627,-79.31732,4,1,0,100,0,1
240827,-81.78609,4,1,0,100,0,1
241027,-84.33168,4,1,0,100,0,1
241227,-86.95652,4,1,0,100,0,1
241427,-83.33333,4,1,0,100,0,1
241527,-84.42568,4,1,0,100,0,1
241627,-85.53235,4,1,0,100,0,1
241727,-86.6535,4,1,0,100,0,1
241927,-88.94013,4,1,0,100,0,1
242027,-90.10598,4,1,0,100,0,1
242127,-91.28709,4,1,0,100,0,1
242327,-93.695984,4,1,0,100,0,1
242427,-94.924164,4,1,0,100,0,1
242527,-96.16844,4,1,0,100,0,1
242727,-98.70615,4,1,0,100,0,1
242827,-99.972115,4,1,0,100,0,1
243027,-94.54779,4,1,0,100,0,1
243327,-86.95811,4,1,0,100,0,1
243627,-79.97769,4,1,0,100,0,1
244227,-86.963264,4,1,0,100,0,1
244427,-88.32352,4,1,0,100,0,1
244627,-89.70503,4,1,0,100,0,1
244827,-91.10815,4,1,0,100,0,1
244927,-91.817924,4,1,0,100,0,1
245027,-92.53322,4,1,0,100,0,1
245227,-93.98059,4,1,0,100,0,1
245327,-94.71274,4,1,0,100,0,1
245427,-95.450584,4,1,0,100,0,1
245627,-96.94359,4,1,0,100,0,1
245727,-97.69883,4,1,0,100,0,1
245827,-98.45993,4,1,0,100,0,1
246027,-100,4,1,0,100,0,1
246227,-93.65138,4,1,0,100,0,1
246527,-84.8761,4,1,0,100,0,1
246828,-99.94977,4,1,0,100,0,0
246927,-95.05171,4,1,0,100,0,0
247027,-90.393684,4,1,0,100,0,0
247127,-85.96393,4,1,0,100,0,0
247228,-81.75125,4,1,0,100,0,1
247427,-84.334915,4,1,0,100,0,1
247627,-86.95652,4,1,0,100,0,1
247827,-83.33333,4,1,0,100,0,1
247927,-84.42568,4,1,0,100,0,1
248027,-85.53235,4,1,0,100,0,1
248127,-86.6535,4,1,0,100,0,1
248327,-88.94013,4,1,0,100,0,1
248427,-90.10598,4,1,0,100,0,1
248527,-91.28709,4,1,0,100,0,1
248727,-93.695984,4,1,0,100,0,1
248827,-94.924164,4,1,0,100,0,1
248927,-96.16844,4,1,0,100,0,1
249127,-98.70615,4,1,0,100,0,1
249227,-100,4,1,0,100,0,1
249427,-94.57416,4,1,0,100,0,1
249727,-86.982376,4,1,0,100,0,1
250027,-80,4,1,0,100,0,1
250627,-83.33333,4,1,0,100,0,1
250827,-86.4281,4,1,0,100,0,1
251027,-89.63782,4,1,0,100,0,1
251127,-91.28709,4,1,0,100,0,1
251227,-92.96673,4,1,0,100,0,1
251327,-94.67725,4,1,0,100,0,1
251427,-96.41925,4,1,0,100,0,1
251628,-100,4,1,0,100,0,1
251827,-96.86251,4,1,0,100,0,1
252027,-93.823456,4,1,0,100,0,1
252227,-90.879745,4,1,0,100,0,1
252428,-88.028404,4,1,0,100,0,0
252527,-86.63646,4,1,0,100,0,0
252627,-85.266525,4,1,0,100,0,0
252727,-83.91824,4,1,0,100,0,0
252827,-82.59129,4,1,0,100,0,0
252927,-81.285324,4,1,0,100,0,0
253027,-80,4,1,0,100,0,0
253228,-76.92308,4,1,0,100,0,1
253428,-78.43138,4,1,0,100,0,1
253628,-80,4,1,0,100,0,1
253828,-81.63265,4,1,0,100,0,1
254028,-83.33333,4,1,0,100,0,1
254428,-100,4,1,0,100,0,1
254728,-95.2381,4,1,0,100,0,1
255028,-90.90909,4,1,0,100,0,1
255328,-86.95652,4,1,0,100,0,1
255428,-85.71429,4,1,0,100,0,1
255528,-84.50705,4,1,0,100,0,1
255628,-83.33333,4,1,0,100,0,1
255828,-76.9230769230769,4,1,0,100,0,1
257228,-83.34201,4,1,0,100,0,1
257428,-85.1143,4,1,0,100,0,1
257528,-86.02902,4,1,0,100,0,1
257728,-87.918724,4,1,0,100,0,1
257828,-88.89506,4,1,0,100,0,1
257928,-89.89332,4,1,0,100,0,1
258028,-90.91425,4,1,0,100,0,1
258228,-93.027306,4,1,0,100,0,1
258428,-95.24094,4,1,0,100,0,1
258628,-97.56246,4,1,0,100,0,1
258828,-100,4,1,0,100,0,1
259029,-100,4,1,0,100,0,1
259328,-86.9565217391304,4,1,0,100,0,1
259628,-76.92308,4,1,0,100,0,1
259828,-78.94738,4,1,0,100,0,1
260028,-81.081085,4,1,0,100,0,1
260228,-83.33333,4,1,0,100,0,1
260428,-85.71429,4,1,0,100,0,1
260628,-88.2353,4,1,0,100,0,1
260694,-89.10008,4,1,0,100,0,1
260761,-89.9955,4,1,0,100,0,1
260828,-90.90909,4,1,0,100,0,1
261128,-88.888885,4,1,0,100,0,1
261428,-86.95652,4,1,0,100,0,1
261728,-85.106384,4,1,0,100,0,1
261828,-84.50705,4,1,0,100,0,1
261928,-83.91608,4,1,0,100,0,1
262028,-83.33333,4,1,0,100,0,1
262228,-76.9230769230769,4,1,0,100,0,1
262828,-76.92308,4,1,0,100,0,1
263028,-79.207924,4,1,0,100,0,1
263128,-80.402016,4,1,0,100,0,1
263428,-84.210526,4,1,0,100,0,1
263628,-86.95652,4,1,0,100,0,1
263828,-100,4,1,0,100,0,1
263928,-98.65471,4,1,0,100,0,1
264028,-97.34514,4,1,0,100,0,1
264128,-96.06986,4,1,0,100,0,1
264228,-94.82759,4,1,0,100,0,1
264428,-92.43698,4,1,0,100,0,1
264561,-90.91285,4,1,0,100,0,1
264694,-89.43817,4,1,0,100,0,1
264828,-88,4,1,0,100,0,1
265028,-85.9375,4,1,0,100,0,1
265128,-84.942085,4,1,0,100,0,1
265228,-83.96947,4,1,0,100,0,1
265428,-82.08956,4,1,0,100,0,1
265528,-81.18082,4,1,0,100,0,1
265628,-80.29197,4,1,0,100,0,1
265728,-79.42239,4,1,0,100,0,1
265828,-78.571434,4,1,0,100,0,1
266028,-76.92308,4,1,0,100,0,0
266427,-76.92308,4,1,0,60,0,0
266527,-77.15153,4,1,0,60,0,0
266627,-77.38068,4,1,0,60,0,0
266827,-77.84098,4,1,0,60,0,0
267027,-78.30404,4,1,0,60,0,0
267227,-78.76984,4,1,0,60,0,0
267327,-79.003784,4,1,0,60,0,0
267427,-79.23841,4,1,0,60,0,0
267627,-79.70978,4,1,0,60,0,0
268027,-80.660934,4,1,0,60,0,0
268127,-80.9005,4,1,0,60,0,0
268227,-81.140755,4,1,0,60,0,0
268427,-81.623436,4,1,0,60,0,0
268627,-82.108986,4,1,0,60,0,0
268827,-82.59742,4,1,0,60,0,0
268927,-82.842735,4,1,0,60,0,0
269027,-83.08877,4,1,0,60,0,0
269227,-83.58304,4,1,0,60,0,0
269627,-84.58041,4,1,0,60,0,0
269727,-84.831604,4,1,0,60,0,0
269827,-85.08355,4,1,0,60,0,0
270027,-85.58968,4,1,0,60,0,0
270227,-86.09883,4,1,0,60,0,0
270427,-86.611,4,1,0,60,0,0
270527,-86.86823,4,1,0,60,0,0
270627,-87.12621,4,1,0,60,0,0
270827,-87.6445,4,1,0,60,0,0
271227,-88.69034,4,1,0,60,0,0
271327,-88.953735,4,1,0,60,0,0
271427,-89.21794,4,1,0,60,0,0
271627,-89.74866,4,1,0,60,0,0
271827,-90.282555,4,1,0,60,0,0
272027,-90.81961,4,1,0,60,0,0
272127,-91.08933,4,1,0,60,0,0
272227,-91.35986,4,1,0,60,0,0
272427,-91.90333,4,1,0,50,0,0
272827,-92.999985,4,1,0,50,0,0
272927,-93.27619,4,1,0,50,0,0
273027,-93.553215,4,1,0,50,0,0
273227,-94.10974,4,1,0,50,0,0
273427,-94.669556,4,1,0,50,0,0
273627,-95.23271,4,1,0,50,0,0
273727,-95.51555,4,1,0,50,0,0
273827,-95.79922,4,1,0,50,0,0
274027,-96.369095,4,1,0,50,0,0
274427,-97.51905,4,1,0,45,0,0
274527,-97.80866,4,1,0,45,0,0
274627,-98.099144,4,1,0,45,0,0
274827,-98.68272,4,1,0,45,0,0
275027,-99.269745,4,1,0,45,0,0
275227,-99.86027,4,1,0,45,0,0
275327,-100.15684,4,1,0,45,0,0
275427,-100.45431,4,1,0,45,0,0
275627,-101.05187,4,1,0,40,0,0
276027,-102.25769,4,1,0,40,0,0
276127,-102.5614,4,1,0,40,0,0
276227,-102.86599,4,1,0,40,0,0
276427,-103.477905,4,1,0,40,0,0
276627,-104.09346,4,1,0,40,0,0
276827,-104.71268,4,1,0,40,0,0
276927,-105.023674,4,1,0,40,0,0
277027,-105.33558,4,1,0,40,0,0
277227,-105.9622,4,1,0,40,0,0
277627,-107.2266,4,1,0,35,0,0
277727,-107.545074,4,1,0,35,0,0
277827,-107.864456,4,1,0,35,0,0
278027,-108.50611,4,1,0,35,0,0
278227,-109.151566,4,1,0,35,0,0
278427,-109.80088,4,1,0,35,0,0
278527,-110.126976,4,1,0,35,0,0
278627,-110.454056,4,1,0,35,0,0
278827,-111.111111111111,4,1,0,30,0,0
280428,-117.647058823529,4,1,0,25,0,0
282028,-125,4,1,0,20,0,0
283628,-133.333333333333,4,1,0,15,0,0

[HitObjects]
256,192,1828,12,0,3428,0:0:0:0:
256,192,3628,5,0,0:0:0:0:
256,192,6628,1,8,1:0:0:0:
256,192,6728,1,8,1:0:0:0:
256,192,6828,1,8,1:0:0:0:
256,192,10028,1,0,1:0:0:0:
256,192,13028,1,8,1:0:0:0:
256,192,13128,1,8,1:0:0:0:
256,192,13228,1,8,1:0:0:0:
256,192,15228,1,8,1:0:0:0:
256,192,15428,1,0,1:0:0:0:
256,192,15628,1,8,1:0:0:0:
256,192,15828,1,8,1:0:0:0:
256,192,16028,1,0,1:0:0:0:
256,192,16228,1,0,1:0:0:0:
256,192,16428,1,8,1:0:0:0:
256,192,17028,1,0,1:0:0:0:
256,192,17228,1,8,1:0:0:0:
256,192,19228,1,8,1:0:0:0:
256,192,19428,1,8,1:0:0:0:
256,192,19528,1,8,1:0:0:0:
256,192,19628,1,0,1:0:0:0:
256,192,20228,1,0,1:0:0:0:
256,192,20428,1,8,1:0:0:0:
256,192,22028,1,0,1:0:0:0:
256,192,22628,1,8,1:0:0:0:
256,192,22728,1,0,1:0:0:0:
256,192,22828,1,0,1:0:0:0:
256,192,24028,1,8,1:0:0:0:
256,192,24228,1,8,1:0:0:0:
256,192,24328,1,8,1:0:0:0:
256,192,24428,1,0,1:0:0:0:
256,192,24828,1,0,1:0:0:0:
256,192,25228,1,8,1:0:0:0:
256,192,25628,1,0,1:0:0:0:
256,192,26028,1,0,1:0:0:0:
256,192,26628,1,8,1:0:0:0:
256,192,27428,1,0,1:0:0:0:
256,192,27528,1,0,1:0:0:0:
256,192,27628,1,8,1:0:0:0:
256,192,28428,1,0,1:0:0:0:
256,192,28828,1,0,1:0:0:0:
256,192,29228,1,8,1:0:0:0:
256,192,29828,1,0,1:0:0:0:
256,192,30028,1,8,1:0:0:0:
256,192,32028,1,8,1:0:0:0:
256,192,32228,1,8,1:0:0:0:
256,192,32328,1,8,1:0:0:0:
256,192,32428,1,0,1:0:0:0:
256,192,33028,1,0,1:0:0:0:
256,192,33228,1,8,1:0:0:0:
256,192,34028,1,0,1:0:0:0:
256,192,34428,1,8,1:0:0:0:
256,192,34828,1,8,1:0:0:0:
256,192,35128,1,0,1:0:0:0:
256,192,35428,1,0,1:0:0:0:
256,192,35628,1,8,1:0:0:0:
256,192,36428,12,0,41028,0:0:0:0:
256,192,41228,5,8,1:0:0:0:
256,192,41428,1,8,1:0:0:0:
256,192,41528,1,8,1:0:0:0:
256,192,41628,1,0,1:0:0:0:
256,192,41828,1,8,0:0:0:0:
256,192,42028,1,4,0:0:0:0:
256,192,42228,1,8,1:0:0:0:
256,192,42428,1,8,1:0:0:0:
256,192,42628,1,4,1:0:0:0:
256,192,42828,1,8,1:0:0:0:
256,192,43228,1,0,1:0:0:0:
256,192,43528,1,0,1:0:0:0:
256,192,43828,1,0,1:0:0:0:
256,192,44128,1,8,1:0:0:0:
256,192,44228,1,0,1:0:0:0:
256,192,44328,1,0,1:0:0:0:
256,192,44428,1,8,1:0:0:0:
256,192,44628,1,4,1:0:0:0:
256,192,44928,1,4,1:0:0:0:
256,192,45228,1,12,1:0:0:0:
256,192,45828,1,4,1:0:0:0:
256,192,46028,1,8,1:0:0:0:
256,192,46228,1,0,1:0:0:0:
256,192,46328,1,8,1:0:0:0:
256,192,46528,1,8,1:0:0:0:
256,192,46628,1,0,1:0:0:0:
256,192,46728,1,8,1:0:0:0:
256,192,46828,1,0,1:0:0:0:
256,192,47028,1,8,1:0:0:0:
256,192,47228,1,8,1:0:0:0:
256,192,47428,1,8,1:0:0:0:
256,192,47628,1,0,1:0:0:0:
256,192,47828,1,12,1:0:0:0:
256,192,48128,1,12,1:0:0:0:
256,192,48428,1,4,1:0:0:0:
256,192,48628,1,8,1:0:0:0:
256,192,48828,1,8,1:0:0:0:
256,192,49028,1,4,1:0:0:0:
256,192,49228,1,8,1:0:0:0:
256,192,49428,1,0,1:0:0:0:
256,192,49494,1,0,1:0:0:0:
256,192,49561,1,0,1:0:0:0:
256,192,49628,1,0,1:0:0:0:
256,192,49928,1,8,1:0:0:0:
256,192,50228,1,8,1:0:0:0:
256,192,50528,1,0,1:0:0:0:
256,192,50628,1,0,1:0:0:0:
256,192,50728,1,0,1:0:0:0:
256,192,50828,1,8,1:0:0:0:
256,192,51028,1,4,1:0:0:0:
256,192,51328,1,4,1:0:0:0:
256,192,51628,1,12,1:0:0:0:
256,192,51828,1,0,1:0:0:0:
256,192,51928,1,0,1:0:0:0:
256,192,52228,1,4,1:0:0:0:
256,192,52428,1,8,1:0:0:0:
256,192,52628,1,0,1:0:0:0:
256,192,52728,1,0,1:0:0:0:
256,192,52828,1,8,1:0:0:0:
256,192,52928,1,8,1:0:0:0:
256,192,53028,1,0,1:0:0:0:
256,192,53228,1,8,1:0:0:0:
256,192,53361,1,8,1:0:0:0:
256,192,53494,1,8,1:0:0:0:
256,192,53628,1,8,1:0:0:0:
256,192,53828,1,0,1:0:0:0:
256,192,53928,1,0,1:0:0:0:
256,192,54028,1,8,1:0:0:0:
256,192,54228,1,0,1:0:0:0:
256,192,54328,1,8,1:0:0:0:
256,192,54428,1,0,1:0:0:0:
256,192,54528,1,0,1:0:0:0:
256,192,54628,1,8,1:0:0:0:
256,192,54828,1,4,1:0:0:0:
256,192,55228,1,8,1:0:0:0:
256,192,55428,1,0,1:0:0:0:
256,192,55628,1,8,1:0:0:0:
256,192,55928,1,0,1:0:0:0:
256,192,56028,1,0,1:0:0:0:
256,192,56228,1,0,1:0:0:0:
256,192,56328,1,8,1:0:0:0:
256,192,56528,1,8,1:0:0:0:
256,192,56628,1,8,1:0:0:0:
256,192,56828,1,0,1:0:0:0:
256,192,56928,1,8,1:0:0:0:
256,192,57028,1,0,1:0:0:0:
256,192,57228,1,0,1:0:0:0:
256,192,57428,1,8,1:0:0:0:
256,192,57628,1,8,1:0:0:0:
256,192,57728,1,0,1:0:0:0:
256,192,57928,1,0,1:0:0:0:
256,192,58028,1,8,1:0:0:0:
256,192,58428,1,8,1:0:0:0:
256,192,58628,1,0,1:0:0:0:
256,192,58828,1,8,1:0:0:0:
256,192,59128,1,0,1:0:0:0:
256,192,59228,1,8,1:0:0:0:
256,192,59328,1,0,1:0:0:0:
256,192,59528,1,8,1:0:0:0:
256,192,59628,1,0,1:0:0:0:
256,192,59828,1,8,1:0:0:0:
256,192,60028,1,8,1:0:0:0:
256,192,60228,1,8,1:0:0:0:
256,192,60428,1,0,1:0:0:0:
256,192,60628,1,8,1:0:0:0:
256,192,60828,1,0,1:0:0:0:
256,192,60928,1,8,1:0:0:0:
256,192,61128,1,8,1:0:0:0:
256,192,61228,1,0,1:0:0:0:
256,192,61628,1,0,1:0:0:0:
256,192,61828,1,8,1:0:0:0:
256,192,61928,1,8,1:0:0:0:
256,192,62028,1,0,1:0:0:0:
256,192,62128,1,8,1:0:0:0:
256,192,62228,1,0,1:0:0:0:
256,192,62428,1,8,1:0:0:0:
256,192,62628,1,0,1:0:0:0:
256,192,62728,1,0,1:0:0:0:
256,192,62828,1,8,1:0:0:0:
256,192,63028,1,0,1:0:0:0:
256,192,63228,1,0,1:0:0:0:
256,192,63428,1,8,1:0:0:0:
256,192,63528,1,8,1:0:0:0:
256,192,63628,1,0,1:0:0:0:
256,192,63728,1,0,1:0:0:0:
256,192,63828,1,0,1:0:0:0:
256,192,64028,1,8,1:0:0:0:
256,192,64228,1,0,1:0:0:0:
256,192,64328,1,0,1:0:0:0:
256,192,64428,1,8,1:0:0:0:
256,192,64628,1,0,1:0:0:0:
256,192,64728,1,8,1:0:0:0:
256,192,64828,1,0,1:0:0:0:
256,192,65028,1,8,1:0:0:0:
256,192,65128,1,8,1:0:0:0:
256,192,65228,1,8,1:0:0:0:
256,192,65328,1,8,1:0:0:0:
256,192,65428,1,0,1:0:0:0:
256,192,65628,1,0,1:0:0:0:
256,192,65728,1,0,1:0:0:0:
256,192,65828,1,0,1:0:0:0:
256,192,65928,1,0,0:0:0:0:
256,192,67028,1,0,1:0:0:0:
256,192,67128,1,0,1:0:0:0:
256,192,67228,1,8,1:0:0:0:
256,192,67328,1,0,1:0:0:0:
256,192,67428,1,8,1:0:0:0:
256,192,67628,1,4,1:0:0:0:
256,192,67828,1,8,1:0:0:0:
256,192,67928,1,8,1:0:0:0:
256,192,68028,1,0,1:0:0:0:
256,192,68228,1,8,1:0:0:0:
256,192,68428,1,0,1:0:0:0:
256,192,68628,1,0,1:0:0:0:
256,192,68828,1,8,1:0:0:0:
256,192,68928,1,0,1:0:0:0:
256,192,69028,1,8,1:0:0:0:
256,192,69128,1,8,1:0:0:0:
256,192,69228,1,0,1:0:0:0:
256,192,69428,1,8,1:0:0:0:
256,192,69528,1,0,1:0:0:0:
256,192,69628,1,8,1:0:0:0:
256,192,69828,1,8,1:0:0:0:
256,192,70028,1,0,1:0:0:0:
256,192,70228,1,0,1:0:0:0:
256,192,70428,1,8,1:0:0:0:
256,192,70528,1,8,1:0:0:0:
256,192,70628,1,0,1:0:0:0:
256,192,70728,1,8,1:0:0:0:
256,192,70828,1,0,1:0:0:0:
256,192,71228,1,8,1:0:0:0:
256,192,71428,1,0,1:0:0:0:
256,192,71528,1,8,1:0:0:0:
256,192,71628,1,0,1:0:0:0:
256,192,71828,1,0,1:0:0:0:
256,192,72028,1,8,1:0:0:0:
256,192,72128,1,8,1:0:0:0:
256,192,72228,1,0,1:0:0:0:
256,192,72328,1,0,1:0:0:0:
256,192,72428,1,8,1:0:0:0:
256,192,72628,1,0,1:0:0:0:
256,192,72728,1,0,1:0:0:0:
256,192,72828,1,8,1:0:0:0:
256,192,73028,1,8,1:0:0:0:
256,192,73228,1,0,1:0:0:0:
256,192,73428,1,8,1:0:0:0:
256,192,73528,1,8,1:0:0:0:
256,192,73628,1,0,1:0:0:0:
256,192,73828,1,8,1:0:0:0:
256,192,74028,1,0,1:0:0:0:
256,192,74228,1,8,1:0:0:0:
256,192,74328,1,0,1:0:0:0:
256,192,74428,1,8,1:0:0:0:
256,192,74628,1,8,1:0:0:0:
256,192,74828,1,0,1:0:0:0:
256,192,75028,1,0,1:0:0:0:
256,192,75228,1,8,1:0:0:0:
256,192,75328,1,0,1:0:0:0:
256,192,75428,1,8,1:0:0:0:
256,192,75528,1,8,1:0:0:0:
256,192,75628,1,0,1:0:0:0:
256,192,75828,1,8,1:0:0:0:
256,192,75928,1,8,1:0:0:0:
256,192,76028,1,0,1:0:0:0:
256,192,76228,1,8,1:0:0:0:
256,192,76428,1,0,1:0:0:0:
256,192,76628,1,0,1:0:0:0:
256,192,76828,1,8,1:0:0:0:
256,192,76928,1,8,1:0:0:0:
256,192,77028,1,0,1:0:0:0:
256,192,77128,1,8,1:0:0:0:
256,192,77228,1,0,1:0:0:0:
256,192,77628,1,8,1:0:0:0:
256,192,77828,1,0,1:0:0:0:
256,192,77928,1,8,1:0:0:0:
256,192,78028,1,0,1:0:0:0:
256,192,78228,1,0,1:0:0:0:
256,192,78428,1,8,1:0:0:0:
256,192,78528,1,8,1:0:0:0:
256,192,78628,1,0,1:0:0:0:
256,192,78728,1,0,1:0:0:0:
256,192,78828,1,8,1:0:0:0:
256,192,79028,1,0,1:0:0:0:
256,192,79128,1,8,1:0:0:0:
256,192,79328,1,8,1:0:0:0:
256,192,79428,1,0,1:0:0:0:
256,192,79628,1,0,1:0:0:0:
256,192,79728,1,0,1:0:0:0:
256,192,79828,1,0,1:0:0:0:
256,192,79928,1,0,1:0:0:0:
256,192,80028,1,8,1:0:0:0:
256,192,80128,1,8,1:0:0:0:
256,192,80228,1,0,1:0:0:0:
256,192,80428,1,12,1:0:0:0:
256,192,80828,1,8,1:0:0:0:
256,192,81028,1,0,1:0:0:0:
256,192,81128,1,0,1:0:0:0:
256,192,81228,1,8,1:0:0:0:
256,192,81428,1,0,1:0:0:0:
256,192,81628,1,8,1:0:0:0:
256,192,81728,1,0,1:0:0:0:
256,192,81828,1,8,1:0:0:0:
256,192,81928,1,8,1:0:0:0:
256,192,82028,1,0,1:0:0:0:
256,192,82228,1,8,1:0:0:0:
256,192,82328,1,0,1:0:0:0:
256,192,82428,1,8,1:0:0:0:
256,192,82628,1,8,1:0:0:0:
256,192,82828,1,0,1:0:0:0:
256,192,83028,1,0,1:0:0:0:
256,192,83228,1,8,1:0:0:0:
256,192,83328,1,8,1:0:0:0:
256,192,83428,1,0,1:0:0:0:
256,192,83528,1,8,1:0:0:0:
256,192,83628,1,0,1:0:0:0:
256,192,83828,1,8,1:0:0:0:
256,192,83928,1,8,1:0:0:0:
256,192,84028,1,0,1:0:0:0:
256,192,84228,1,8,1:0:0:0:
256,192,84428,1,0,1:0:0:0:
256,192,84628,1,0,1:0:0:0:
256,192,84828,1,8,1:0:0:0:
256,192,84928,1,8,1:0:0:0:
256,192,85028,1,0,1:0:0:0:
256,192,85128,1,0,1:0:0:0:
256,192,85228,1,8,1:0:0:0:
256,192,85428,1,0,1:0:0:0:
256,192,85528,1,0,1:0:0:0:
256,192,85628,1,8,1:0:0:0:
256,192,85728,1,8,1:0:0:0:
256,192,85828,1,0,1:0:0:0:
256,192,85928,1,0,1:0:0:0:
256,192,86028,1,8,1:0:0:0:
256,192,86428,1,0,1:0:0:0:
256,192,86828,1,12,1:0:0:0:
256,192,87028,1,0,1:0:0:0:
256,192,87128,1,0,1:0:0:0:
256,192,87228,1,8,1:0:0:0:
256,192,87428,1,8,1:0:0:0:
256,192,87528,1,8,1:0:0:0:
256,192,87628,1,0,1:0:0:0:
256,192,87728,1,0,1:0:0:0:
256,192,87828,1,0,1:0:0:0:
256,192,88028,1,8,1:0:0:0:
256,192,88228,1,0,1:0:0:0:
256,192,88428,1,8,1:0:0:0:
256,192,88528,1,8,1:0:0:0:
256,192,88628,1,0,1:0:0:0:
256,192,88828,1,0,1:0:0:0:
256,192,89028,1,8,1:0:0:0:
256,192,89128,1,8,1:0:0:0:
256,192,89228,1,8,1:0:0:0:
256,192,89328,1,8,1:0:0:0:
256,192,89428,1,0,1:0:0:0:
256,192,89628,1,8,1:0:0:0:
256,192,89828,1,0,1:0:0:0:
256,192,90028,1,8,1:0:0:0:
256,192,90294,1,8,1:0:0:0:
256,192,90428,1,0,1:0:0:0:
256,192,90694,1,0,1:0:0:0:
256,192,90828,1,8,1:0:0:0:
256,192,90961,1,8,1:0:0:0:
256,192,91094,1,0,1:0:0:0:
256,192,91228,1,8,1:0:0:0:
256,192,91494,1,0,1:0:0:0:
256,192,91628,1,8,1:0:0:0:
256,192,91828,1,0,1:0:0:0:
256,192,91928,1,0,1:0:0:0:
256,192,92028,1,8,1:0:0:0:
256,192,92128,1,8,1:0:0:0:
256,192,92228,1,8,1:0:0:0:
256,192,92328,1,8,1:0:0:0:
256,192,92428,1,0,1:0:0:0:
256,192,93228,1,4,1:0:0:0:
256,192,93428,1,8,1:0:0:0:
256,192,93628,1,8,1:0:0:0:
256,192,93828,1,8,1:0:0:0:
256,192,94028,1,0,1:0:0:0:
256,192,94228,1,8,1:0:0:0:
256,192,94328,1,8,1:0:0:0:
256,192,94428,1,0,1:0:0:0:
256,192,94528,1,8,1:0:0:0:
256,192,94728,1,0,1:0:0:0:
256,192,94828,1,8,1:0:0:0:
256,192,94928,1,8,1:0:0:0:
256,192,95128,1,0,1:0:0:0:
256,192,95228,1,0,1:0:0:0:
256,192,95328,1,8,1:0:0:0:
256,192,95528,1,0,1:0:0:0:
256,192,95628,1,8,1:0:0:0:
256,192,95828,1,0,1:0:0:0:
256,192,96128,1,0,1:0:0:0:
256,192,96428,1,8,1:0:0:0:
256,192,97028,1,0,1:0:0:0:
256,192,97228,1,8,1:0:0:0:
256,192,97428,1,0,1:0:0:0:
256,192,97628,1,0,1:0:0:0:
256,192,97728,1,0,1:0:0:0:
256,192,97828,1,8,1:0:0:0:
256,192,98028,1,8,1:0:0:0:
256,192,98128,1,8,1:0:0:0:
256,192,98228,1,8,1:0:0:0:
256,192,98428,1,0,1:0:0:0:
256,192,98528,1,8,1:0:0:0:
256,192,98628,1,8,1:0:0:0:
256,192,98828,1,0,1:0:0:0:
256,192,99028,1,8,1:0:0:0:
256,192,99328,1,8,1:0:0:0:
256,192,99628,1,0,1:0:0:0:
256,192,99828,1,8,1:0:0:0:
256,192,100028,1,8,1:0:0:0:
256,192,100228,1,8,1:0:0:0:
256,192,100428,1,0,1:0:0:0:
256,192,100628,1,8,1:0:0:0:
256,192,100728,1,8,1:0:0:0:
256,192,100828,1,0,1:0:0:0:
256,192,100928,1,8,1:0:0:0:
256,192,101128,1,0,1:0:0:0:
256,192,101228,1,8,1:0:0:0:
256,192,101328,1,8,1:0:0:0:
256,192,101528,1,0,1:0:0:0:
256,192,101628,1,0,1:0:0:0:
256,192,101728,1,8,1:0:0:0:
256,192,101928,1,0,1:0:0:0:
256,192,102028,1,8,1:0:0:0:
256,192,102228,1,0,1:0:0:0:
256,192,102528,1,0,1:0:0:0:
256,192,102828,1,8,1:0:0:0:
256,192,103428,1,0,1:0:0:0:
256,192,103628,1,8,1:0:0:0:
256,192,103828,1,0,1:0:0:0:
256,192,103928,1,8,1:0:0:0:
256,192,104028,1,0,1:0:0:0:
256,192,104128,1,0,1:0:0:0:
256,192,104228,1,8,1:0:0:0:
256,192,104428,1,0,1:0:0:0:
256,192,104628,1,0,1:0:0:0:
256,192,104828,1,8,1:0:0:0:
256,192,105028,1,8,1:0:0:0:
256,192,105228,1,0,1:0:0:0:
256,192,105328,1,0,1:0:0:0:
256,192,105428,1,8,1:0:0:0:
256,192,105528,1,8,1:0:0:0:
256,192,105628,1,0,1:0:0:0:
256,192,105728,1,0,1:0:0:0:
256,192,105828,1,8,1:0:0:0:
256,192,106028,1,4,1:0:0:0:
256,192,106228,1,8,1:0:0:0:
256,192,106428,1,8,1:0:0:0:
256,192,106628,1,8,1:0:0:0:
256,192,106828,1,0,1:0:0:0:
256,192,107028,1,8,1:0:0:0:
256,192,107128,1,8,1:0:0:0:
256,192,107228,1,0,1:0:0:0:
256,192,107328,1,8,1:0:0:0:
256,192,107528,1,0,1:0:0:0:
256,192,107628,1,8,1:0:0:0:
256,192,107728,1,8,1:0:0:0:
256,192,107928,1,0,1:0:0:0:
256,192,108028,1,0,1:0:0:0:
256,192,108128,1,8,1:0:0:0:
256,192,108328,1,0,1:0:0:0:
256,192,108428,1,8,1:0:0:0:
256,192,108628,1,0,1:0:0:0:
256,192,108928,1,0,1:0:0:0:
256,192,109228,1,8,1:0:0:0:
256,192,109828,1,0,1:0:0:0:
256,192,110028,1,8,1:0:0:0:
256,192,110228,1,0,1:0:0:0:
256,192,110428,1,0,1:0:0:0:
256,192,110528,1,0,1:0:0:0:
256,192,110628,1,8,1:0:0:0:
256,192,110828,1,8,1:0:0:0:
256,192,110928,1,8,1:0:0:0:
256,192,111028,1,8,1:0:0:0:
256,192,111228,1,0,1:0:0:0:
256,192,111328,1,0,1:0:0:0:
256,192,111428,1,8,1:0:0:0:
256,192,111528,1,8,1:0:0:0:
256,192,111628,1,8,1:0:0:0:
256,192,111828,1,0,1:0:0:0:
256,192,112028,1,8,1:0:0:0:
256,192,112161,1,8,1:0:0:0:
256,192,112294,1,8,1:0:0:0:
256,192,112428,1,4,1:0:0:0:
256,192,112828,1,8,1:0:0:0:
256,192,113028,1,0,1:0:0:0:
256,192,113128,1,0,1:0:0:0:
256,192,113228,1,8,1:0:0:0:
256,192,113428,1,0,1:0:0:0:
256,192,113628,1,8,1:0:0:0:
256,192,113728,1,8,1:0:0:0:
256,192,113828,1,0,1:0:0:0:
256,192,113928,1,0,1:0:0:0:
256,192,114028,1,8,1:0:0:0:
256,192,114228,1,0,1:0:0:0:
256,192,114428,1,8,1:0:0:0:
256,192,114528,1,8,1:0:0:0:
256,192,114728,1,0,1:0:0:0:
256,192,114828,1,8,1:0:0:0:
256,192,115028,1,0,1:0:0:0:
256,192,115228,1,0,1:0:0:0:
256,192,115328,1,8,1:0:0:0:
256,192,115428,1,0,1:0:0:0:
256,192,115528,1,0,1:0:0:0:
256,192,115628,1,12,1:0:0:0:
256,192,115828,1,0,1:0:0:0:
256,192,115928,1,0,1:0:0:0:
256,192,116028,1,8,1:0:0:0:
256,192,116228,1,0,1:0:0:0:
256,192,116428,1,8,1:0:0:0:
256,192,116528,1,8,1:0:0:0:
256,192,116628,1,0,1:0:0:0:
256,192,116728,1,0,1:0:0:0:
256,192,116828,1,8,1:0:0:0:
256,192,117028,1,8,1:0:0:0:
256,192,117094,1,8,1:0:0:0:
256,192,117161,1,8,1:0:0:0:
256,192,117228,1,0,1:0:0:0:
256,192,118828,1,4,1:0:0:0:
256,192,125228,5,4,1:0:0:0:
256,192,125428,1,8,1:0:0:0:
256,192,125528,1,8,1:0:0:0:
256,192,125628,1,0,1:0:0:0:
256,192,125828,1,8,1:0:0:0:
256,192,125928,1,8,1:0:0:0:
256,192,126028,1,0,1:0:0:0:
256,192,126128,1,8,1:0:0:0:
256,192,126228,1,0,1:0:0:0:
256,192,126428,1,8,1:0:0:0:
256,192,126628,1,0,1:0:0:0:
256,192,126728,1,0,1:0:0:0:
256,192,126828,1,8,1:0:0:0:
256,192,127028,1,8,1:0:0:0:
256,192,127228,1,0,1:0:0:0:
256,192,127428,1,8,1:0:0:0:
256,192,127528,1,8,1:0:0:0:
256,192,127628,1,0,1:0:0:0:
256,192,127728,1,0,1:0:0:0:
256,192,127828,1,0,1:0:0:0:
256,192,128028,1,8,1:0:0:0:
256,192,128228,1,0,1:0:0:0:
256,192,128328,1,0,1:0:0:0:
256,192,128428,1,8,1:0:0:0:
256,192,128628,1,0,1:0:0:0:
256,192,128728,1,8,1:0:0:0:
256,192,128828,1,0,1:0:0:0:
256,192,129028,1,8,1:0:0:0:
256,192,129128,1,8,1:0:0:0:
256,192,129228,1,8,1:0:0:0:
256,192,129328,1,8,1:0:0:0:
256,192,129428,1,0,1:0:0:0:
256,192,129628,1,0,1:0:0:0:
256,192,129728,1,0,1:0:0:0:
256,192,129828,1,0,1:0:0:0:
256,192,130028,1,8,1:0:0:0:
256,192,131628,1,4,1:0:0:0:
256,192,132428,1,0,1:0:0:0:
256,192,132528,1,8,1:0:0:0:
256,192,132728,1,0,1:0:0:0:
256,192,132828,1,8,1:0:0:0:
256,192,133028,1,8,1:0:0:0:
256,192,133228,1,0,1:0:0:0:
256,192,133328,1,8,1:0:0:0:
256,192,133528,1,0,1:0:0:0:
256,192,133628,1,8,1:0:0:0:
256,192,133828,1,0,1:0:0:0:
256,192,134028,1,8,1:0:0:0:
256,192,134128,1,0,1:0:0:0:
256,192,134228,1,8,1:0:0:0:
256,192,134328,1,0,1:0:0:0:
256,192,134428,1,8,1:0:0:0:
256,192,134628,1,0,1:0:0:0:
256,192,134828,1,0,1:0:0:0:
256,192,134928,1,0,1:0:0:0:
256,192,135028,1,8,1:0:0:0:
256,192,135128,1,8,1:0:0:0:
256,192,135228,1,0,1:0:0:0:
256,192,135428,1,0,1:0:0:0:
256,192,135628,1,8,1:0:0:0:
256,192,135928,1,8,1:0:0:0:
256,192,136028,1,0,1:0:0:0:
256,192,136428,1,0,1:0:0:0:
256,192,136728,1,0,1:0:0:0:
256,192,136828,1,8,1:0:0:0:
256,192,137228,1,0,1:0:0:0:
256,192,137428,1,8,1:0:0:0:
256,192,137628,1,0,1:0:0:0:
256,192,137728,1,0,1:0:0:0:
256,192,137828,1,0,1:0:0:0:
256,192,138028,1,12,1:0:0:0:
256,192,138828,1,0,1:0:0:0:
256,192,138928,1,8,1:0:0:0:
256,192,139128,1,0,1:0:0:0:
256,192,139228,1,8,1:0:0:0:
256,192,139428,1,0,1:0:0:0:
256,192,139628,1,0,1:0:0:0:
256,192,139728,1,8,1:0:0:0:
256,192,139928,1,0,1:0:0:0:
256,192,140028,1,8,1:0:0:0:
256,192,140228,1,0,1:0:0:0:
256,192,140428,1,0,1:0:0:0:
256,192,140528,1,8,1:0:0:0:
256,192,140628,1,0,1:0:0:0:
256,192,140728,1,8,1:0:0:0:
256,192,140828,1,0,1:0:0:0:
256,192,141028,1,0,1:0:0:0:
256,192,141228,1,8,1:0:0:0:
256,192,141428,1,0,1:0:0:0:
256,192,141628,1,8,1:0:0:0:
256,192,141728,1,8,1:0:0:0:
256,192,141828,1,0,1:0:0:0:
256,192,142028,1,8,1:0:0:0:
256,192,142228,1,0,1:0:0:0:
256,192,142428,1,0,1:0:0:0:
256,192,142528,1,8,1:0:0:0:
256,192,142628,1,0,1:0:0:0:
256,192,142828,1,8,1:0:0:0:
256,192,142928,1,8,1:0:0:0:
256,192,143028,1,8,1:0:0:0:
256,192,143228,1,0,1:0:0:0:
256,192,143328,1,8,1:0:0:0:
256,192,143428,1,8,1:0:0:0:
256,192,143628,1,8,1:0:0:0:
256,192,143728,1,0,1:0:0:0:
256,192,143828,1,8,1:0:0:0:
256,192,143928,1,0,1:0:0:0:
256,192,144428,1,12,1:0:0:0:
256,192,145228,1,0,1:0:0:0:
256,192,145361,1,8,1:0:0:0:
256,192,145628,1,8,1:0:0:0:
256,192,145728,1,8,1:0:0:0:
256,192,145828,1,0,1:0:0:0:
256,192,146028,1,0,1:0:0:0:
256,192,146161,1,8,1:0:0:0:
256,192,146428,1,8,1:0:0:0:
256,192,146528,1,0,1:0:0:0:
256,192,146628,1,0,1:0:0:0:
256,192,146828,1,8,1:0:0:0:
256,192,146961,1,8,1:0:0:0:
256,192,147228,1,8,1:0:0:0:
256,192,147328,1,8,1:0:0:0:
256,192,147428,1,0,1:0:0:0:
256,192,147528,1,0,1:0:0:0:
256,192,147628,1,8,1:0:0:0:
256,192,147894,1,0,1:0:0:0:
256,192,148028,1,8,1:0:0:0:
256,192,148161,1,0,1:0:0:0:
256,192,148294,1,8,1:0:0:0:
256,192,148428,1,0,1:0:0:0:
256,192,148694,1,8,1:0:0:0:
256,192,148828,1,0,1:0:0:0:
256,192,149094,1,0,1:0:0:0:
256,192,149228,1,8,1:0:0:0:
256,192,149494,1,8,1:0:0:0:
256,192,149628,1,0,1:0:0:0:
256,192,149894,1,0,1:0:0:0:
256,192,150028,1,8,1:0:0:0:
256,192,150294,1,0,1:0:0:0:
256,192,150428,1,8,1:0:0:0:
256,192,150561,1,8,1:0:0:0:
256,192,150694,1,8,1:0:0:0:
256,192,150828,1,4,1:0:0:0:
256,192,151628,1,0,1:0:0:0:
256,192,151761,1,8,1:0:0:0:
256,192,152028,1,0,1:0:0:0:
256,192,152128,1,8,1:0:0:0:
256,192,152228,1,0,1:0:0:0:
256,192,152428,1,0,1:0:0:0:
256,192,152561,1,8,1:0:0:0:
256,192,152828,1,8,1:0:0:0:
256,192,152928,1,8,1:0:0:0:
256,192,153028,1,0,1:0:0:0:
256,192,153228,1,8,1:0:0:0:
256,192,153361,1,8,1:0:0:0:
256,192,153494,1,8,1:0:0:0:
256,192,153628,1,8,1:0:0:0:
256,192,153828,1,0,1:0:0:0:
256,192,154028,1,8,1:0:0:0:
256,192,154294,1,0,1:0:0:0:
256,192,154428,1,8,1:0:0:0:
256,192,154694,1,8,1:0:0:0:
256,192,154828,1,0,1:0:0:0:
256,192,155094,1,0,1:0:0:0:
256,192,155228,1,8,1:0:0:0:
256,192,155361,1,8,1:0:0:0:
256,192,155494,1,8,1:0:0:0:
256,192,155628,1,0,1:0:0:0:
256,192,155894,1,0,1:0:0:0:
256,192,156028,1,8,1:0:0:0:
256,192,156294,1,0,1:0:0:0:
256,192,156428,1,8,1:0:0:0:
256,192,156628,1,0,1:0:0:0:
256,192,156728,1,0,1:0:0:0:
256,192,156828,1,8,1:0:0:0:
256,192,157028,1,8,1:0:0:0:
256,192,157128,1,8,1:0:0:0:
256,192,157228,1,4,1:0:0:0:
256,192,160428,1,8,1:0:0:0:
256,192,162028,1,0,1:0:0:0:
256,192,163628,1,0,1:0:0:0:
256,192,165228,1,8,1:0:0:0:
256,192,166828,1,0,1:0:0:0:
256,192,168428,1,8,1:0:0:0:
256,192,169228,1,0,1:0:0:0:
256,192,169428,1,8,1:0:0:0:
256,192,169528,1,0,1:0:0:0:
256,192,169628,1,8,1:0:0:0:
256,192,169828,1,0,1:0:0:0:
256,192,170028,1,8,1:0:0:0:
256,192,170428,1,8,1:0:0:0:
256,192,170628,1,0,1:0:0:0:
256,192,170828,1,8,1:0:0:0:
256,192,171128,1,0,1:0:0:0:
256,192,171228,1,8,1:0:0:0:
256,192,171428,1,0,1:0:0:0:
256,192,171628,1,8,1:0:0:0:
256,192,171828,1,0,1:0:0:0:
256,192,172028,1,8,1:0:0:0:
256,192,172128,1,0,1:0:0:0:
256,192,172228,1,0,1:0:0:0:
256,192,172428,1,8,1:0:0:0:
256,192,172528,1,8,1:0:0:0:
256,192,172628,1,0,1:0:0:0:
256,192,172728,1,0,1:0:0:0:
256,192,172828,1,8,1:0:0:0:
256,192,173028,1,0,1:0:0:0:
256,192,173228,1,8,1:0:0:0:
256,192,173628,1,0,1:0:0:0:
256,192,173828,1,0,1:0:0:0:
256,192,174028,1,8,1:0:0:0:
256,192,174328,1,0,1:0:0:0:
256,192,174428,1,8,1:0:0:0:
256,192,174628,1,8,1:0:0:0:
256,192,174828,1,0,1:0:0:0:
256,192,175028,1,8,1:0:0:0:
256,192,175128,1,8,1:0:0:0:
256,192,175228,1,0,1:0:0:0:
256,192,175428,1,8,1:0:0:0:
256,192,175628,1,0,1:0:0:0:
256,192,175728,1,0,1:0:0:0:
256,192,175828,1,0,1:0:0:0:
256,192,175928,1,0,1:0:0:0:
256,192,176028,1,8,1:0:0:0:
256,192,176128,1,8,1:0:0:0:
256,192,176228,1,0,1:0:0:0:
256,192,176428,1,0,1:0:0:0:
256,192,176528,1,0,1:0:0:0:
256,192,176628,1,0,1:0:0:0:
256,192,176728,1,0,1:0:0:0:
256,192,176828,1,0,1:0:0:0:
256,192,177228,1,0,1:0:0:0:
256,192,177328,1,0,1:0:0:0:
256,192,177428,1,0,1:0:0:0:
256,192,177528,1,0,1:0:0:0:
256,192,177628,1,8,1:0:0:0:
256,192,178028,1,0,1:0:0:0:
256,192,178128,1,0,1:0:0:0:
256,192,178228,1,8,1:0:0:0:
256,192,178328,1,8,1:0:0:0:
256,192,178428,1,8,1:0:0:0:
256,192,178828,1,8,1:0:0:0:
256,192,178928,1,8,1:0:0:0:
256,192,179028,1,8,1:0:0:0:
256,192,179128,1,8,1:0:0:0:
256,192,179228,1,0,1:0:0:0:
256,192,179628,1,0,1:0:0:0:
256,192,179828,1,8,1:0:0:0:
256,192,179928,1,8,1:0:0:0:
256,192,180028,1,0,1:0:0:0:
256,192,180228,1,0,1:0:0:0:
256,192,180328,1,8,1:0:0:0:
256,192,180428,1,8,1:0:0:0:
256,192,180528,1,8,1:0:0:0:
256,192,180628,1,0,1:0:0:0:
256,192,180828,1,0,1:0:0:0:
256,192,181028,1,8,1:0:0:0:
256,192,181128,1,8,1:0:0:0:
256,192,181228,1,0,1:0:0:0:
256,192,181428,1,0,1:0:0:0:
256,192,181528,1,0,1:0:0:0:
256,192,181628,1,8,1:0:0:0:
256,192,181728,1,0,1:0:0:0:
256,192,181828,1,8,1:0:0:0:
256,192,181928,1,8,1:0:0:0:
256,192,182028,1,0,1:0:0:0:
256,192,182228,1,0,1:0:0:0:
256,192,182428,5,8,1:0:0:0:
256,192,182494,1,8,1:0:0:0:
256,192,182561,1,8,1:0:0:0:
256,192,182628,1,8,1:0:0:0:
256,192,182828,5,0,1:0:0:0:
256,192,183228,1,8,1:0:0:0:
256,192,183328,1,8,1:0:0:0:
256,192,183628,1,8,1:0:0:0:
256,192,183728,1,8,1:0:0:0:
256,192,184028,1,8,1:0:0:0:
256,192,184128,1,8,1:0:0:0:
256,192,184228,1,0,1:0:0:0:
256,192,184428,1,8,1:0:0:0:
256,192,184628,1,0,1:0:0:0:
256,192,184828,1,8,1:0:0:0:
256,192,184928,1,8,1:0:0:0:
256,192,185228,1,8,1:0:0:0:
256,192,185328,1,8,1:0:0:0:
256,192,185628,1,8,1:0:0:0:
256,192,185728,1,8,1:0:0:0:
256,192,185828,1,0,1:0:0:0:
256,192,186028,5,0,1:0:0:0:
256,192,186228,1,8,1:0:0:0:
256,192,186328,1,0,1:0:0:0:
256,192,186428,1,8,1:0:0:0:
256,192,186628,1,0,1:0:0:0:
256,192,186828,1,8,1:0:0:0:
256,192,186928,1,8,1:0:0:0:
256,192,187028,1,0,1:0:0:0:
256,192,187128,1,0,1:0:0:0:
256,192,187228,1,0,1:0:0:0:
256,192,187428,1,8,1:0:0:0:
256,192,187494,1,8,1:0:0:0:
256,192,187561,1,8,1:0:0:0:
256,192,187628,1,0,1:0:0:0:
256,192,188828,1,8,1:0:0:0:
256,192,189028,1,8,1:0:0:0:
256,192,189228,1,4,1:0:0:0:
256,192,189428,1,0,1:0:0:0:
256,192,189528,1,0,1:0:0:0:
256,192,189628,1,8,1:0:0:0:
256,192,189728,1,8,1:0:0:0:
256,192,189928,1,0,1:0:0:0:
256,192,190028,1,8,1:0:0:0:
256,192,190228,1,0,1:0:0:0:
256,192,190328,1,0,1:0:0:0:
256,192,190428,1,8,1:0:0:0:
256,192,190528,1,8,1:0:0:0:
256,192,190628,1,8,1:0:0:0:
256,192,190828,1,0,1:0:0:0:
256,192,191028,1,8,1:0:0:0:
256,192,191128,1,0,1:0:0:0:
256,192,191228,1,8,1:0:0:0:
256,192,191328,1,8,1:0:0:0:
256,192,191528,1,0,1:0:0:0:
256,192,191628,1,8,1:0:0:0:
256,192,191828,1,0,1:0:0:0:
256,192,192028,1,8,1:0:0:0:
256,192,192128,1,8,1:0:0:0:
256,192,192228,1,0,1:0:0:0:
256,192,192328,1,0,1:0:0:0:
256,192,192428,1,8,1:0:0:0:
256,192,192828,1,8,1:0:0:0:
256,192,192928,1,0,1:0:0:0:
256,192,193128,1,8,1:0:0:0:
256,192,193228,1,8,1:0:0:0:
256,192,193428,1,0,1:0:0:0:
256,192,193628,1,8,1:0:0:0:
256,192,193728,1,8,1:0:0:0:
256,192,193828,1,0,1:0:0:0:
256,192,193928,1,8,1:0:0:0:
256,192,194028,1,0,1:0:0:0:
256,192,194228,1,8,1:0:0:0:
256,192,194328,1,0,1:0:0:0:
256,192,194528,1,0,1:0:0:0:
256,192,194628,1,8,1:0:0:0:
256,192,194828,1,0,1:0:0:0:
256,192,194928,1,8,1:0:0:0:
256,192,195028,1,0,1:0:0:0:
256,192,195228,1,8,1:0:0:0:
256,192,195328,1,8,1:0:0:0:
256,192,195428,1,0,1:0:0:0:
256,192,195528,1,0,1:0:0:0:
256,192,195628,1,8,1:0:0:0:
256,192,195828,1,0,1:0:0:0:
256,192,195928,1,0,1:0:0:0:
256,192,196028,1,8,1:0:0:0:
256,192,196128,1,8,1:0:0:0:
256,192,196328,1,0,1:0:0:0:
256,192,196428,1,8,1:0:0:0:
256,192,196628,1,0,1:0:0:0:
256,192,196728,1,0,1:0:0:0:
256,192,196828,1,8,1:0:0:0:
256,192,196928,1,8,1:0:0:0:
256,192,197028,1,0,1:0:0:0:
256,192,197228,1,8,1:0:0:0:
256,192,197428,1,0,1:0:0:0:
256,192,197528,1,0,1:0:0:0:
256,192,197628,1,8,1:0:0:0:
256,192,197728,1,0,1:0:0:0:
256,192,197928,1,0,1:0:0:0:
256,192,198028,1,8,1:0:0:0:
256,192,198228,1,0,1:0:0:0:
256,192,198428,1,0,1:0:0:0:
256,192,198528,1,0,1:0:0:0:
256,192,198628,1,8,1:0:0:0:
256,192,198728,1,8,1:0:0:0:
256,192,198828,1,8,1:0:0:0:
256,192,199228,1,8,1:0:0:0:
256,192,199328,1,8,1:0:0:0:
256,192,199528,1,0,1:0:0:0:
256,192,199628,1,8,1:0:0:0:
256,192,199828,1,0,1:0:0:0:
256,192,199928,1,0,1:0:0:0:
256,192,200028,1,8,1:0:0:0:
256,192,200128,1,8,1:0:0:0:
256,192,200228,1,0,1:0:0:0:
256,192,200428,1,8,1:0:0:0:
256,192,200628,1,0,1:0:0:0:
256,192,200728,1,8,1:0:0:0:
256,192,200928,1,8,1:0:0:0:
256,192,201028,1,0,1:0:0:0:
256,192,201228,1,8,1:0:0:0:
256,192,201294,1,8,1:0:0:0:
256,192,201361,1,8,1:0:0:0:
256,192,201428,1,8,1:0:0:0:
256,192,201628,1,0,1:0:0:0:
256,192,201728,1,0,1:0:0:0:
256,192,201828,1,8,1:0:0:0:
256,192,202028,1,4,1:0:0:0:
256,192,202228,1,4,1:0:0:0:
256,192,202428,1,12,1:0:0:0:
256,192,202828,1,0,1:0:0:0:
256,192,203028,1,8,1:0:0:0:
256,192,203128,1,0,1:0:0:0:
256,192,203228,1,8,1:0:0:0:
256,192,203328,1,8,1:0:0:0:
256,192,203428,1,0,1:0:0:0:
256,192,203628,1,0,1:0:0:0:
256,192,203828,1,0,1:0:0:0:
256,192,203928,1,0,1:0:0:0:
256,192,204028,1,8,1:0:0:0:
256,192,204128,1,8,1:0:0:0:
256,192,204328,1,0,1:0:0:0:
256,192,204428,1,8,1:0:0:0:
256,192,204628,1,0,1:0:0:0:
256,192,204728,1,0,1:0:0:0:
256,192,204828,1,8,1:0:0:0:
256,192,204928,1,8,1:0:0:0:
256,192,205028,1,0,1:0:0:0:
256,192,205228,1,8,1:0:0:0:
256,192,205328,1,0,1:0:0:0:
256,192,205528,1,0,1:0:0:0:
256,192,205628,1,8,1:0:0:0:
256,192,206028,1,8,1:0:0:0:
256,192,206228,1,0,1:0:0:0:
256,192,206328,1,0,1:0:0:0:
256,192,206428,1,8,1:0:0:0:
256,192,206528,1,0,1:0:0:0:
256,192,206628,1,8,1:0:0:0:
256,192,206828,1,8,1:0:0:0:
256,192,207028,1,0,1:0:0:0:
256,192,207228,1,8,1:0:0:0:
256,192,207328,1,0,1:0:0:0:
256,192,207428,1,8,1:0:0:0:
256,192,207528,1,8,1:0:0:0:
256,192,207628,1,0,1:0:0:0:
256,192,207828,1,0,1:0:0:0:
256,192,207928,1,0,1:0:0:0:
256,192,208028,1,8,1:0:0:0:
256,192,208128,1,0,1:0:0:0:
256,192,208228,1,0,1:0:0:0:
256,192,208428,1,12,1:0:0:0:
256,192,208628,1,0,1:0:0:0:
256,192,208828,1,8,1:0:0:0:
256,192,208928,1,0,1:0:0:0:
256,192,209128,1,0,1:0:0:0:
256,192,209228,1,8,1:0:0:0:
256,192,209428,1,0,1:0:0:0:
256,192,209628,1,8,1:0:0:0:
256,192,209728,1,0,1:0:0:0:
256,192,209828,1,0,1:0:0:0:
256,192,210028,1,8,1:0:0:0:
256,192,210228,1,0,1:0:0:0:
256,192,210428,1,8,1:0:0:0:
256,192,210528,1,0,1:0:0:0:
256,192,210728,1,8,1:0:0:0:
256,192,210828,1,8,1:0:0:0:
256,192,211028,1,0,1:0:0:0:
256,192,211228,1,8,1:0:0:0:
256,192,211328,1,0,1:0:0:0:
256,192,211428,1,8,1:0:0:0:
256,192,211528,1,8,1:0:0:0:
256,192,211628,1,0,1:0:0:0:
256,192,211928,1,0,1:0:0:0:
256,192,212228,1,0,1:0:0:0:
256,192,212428,1,8,1:0:0:0:
256,192,212528,1,0,1:0:0:0:
256,192,212828,1,8,1:0:0:0:
256,192,212928,1,8,1:0:0:0:
256,192,213028,1,8,1:0:0:0:
256,192,213128,1,8,1:0:0:0:
256,192,213228,1,4,1:0:0:0:
256,192,214428,1,8,1:0:0:0:
256,192,214628,1,8,1:0:0:0:
256,192,214828,1,4,1:0:0:0:
256,192,215028,1,0,1:0:0:0:
256,192,215228,1,8,1:0:0:0:
256,192,215328,1,8,1:0:0:0:
256,192,215628,1,8,1:0:0:0:
256,192,215728,1,8,1:0:0:0:
256,192,216028,1,8,1:0:0:0:
256,192,216128,1,0,1:0:0:0:
256,192,216228,1,0,1:0:0:0:
256,192,216428,1,8,1:0:0:0:
256,192,216628,1,0,1:0:0:0:
256,192,216828,1,8,1:0:0:0:
256,192,216928,1,8,1:0:0:0:
256,192,217228,1,0,1:0:0:0:
256,192,217294,1,0,1:0:0:0:
256,192,217361,1,0,1:0:0:0:
256,192,217428,1,0,1:0:0:0:
256,192,217628,1,8,1:0:0:0:
256,192,217828,1,0,1:0:0:0:
256,192,218028,1,12,1:0:0:0:
256,192,218228,1,0,1:0:0:0:
256,192,218328,1,0,1:0:0:0:
256,192,218428,1,8,1:0:0:0:
256,192,218528,1,8,1:0:0:0:
256,192,218728,1,0,1:0:0:0:
256,192,218828,1,8,1:0:0:0:
256,192,219028,1,0,1:0:0:0:
256,192,219128,1,0,1:0:0:0:
256,192,219228,1,8,1:0:0:0:
256,192,219328,1,8,1:0:0:0:
256,192,219428,1,8,1:0:0:0:
256,192,219628,1,0,1:0:0:0:
256,192,219828,1,8,1:0:0:0:
256,192,219928,1,0,1:0:0:0:
256,192,220128,1,0,1:0:0:0:
256,192,220228,1,8,1:0:0:0:
256,192,220428,1,0,1:0:0:0:
256,192,220528,1,8,1:0:0:0:
256,192,220628,1,0,1:0:0:0:
256,192,220828,1,8,1:0:0:0:
256,192,220928,1,0,1:0:0:0:
256,192,221028,1,8,1:0:0:0:
256,192,221128,1,8,1:0:0:0:
256,192,221228,1,0,1:0:0:0:
256,192,221628,1,12,1:0:0:0:
256,192,221828,1,0,1:0:0:0:
256,192,221928,1,0,1:0:0:0:
256,192,222028,1,8,1:0:0:0:
256,192,222128,1,8,1:0:0:0:
256,192,222328,1,0,1:0:0:0:
256,192,222428,1,8,1:0:0:0:
256,192,222628,1,0,1:0:0:0:
256,192,222728,1,0,1:0:0:0:
256,192,222828,1,8,1:0:0:0:
256,192,223228,1,12,1:0:0:0:
256,192,223428,1,0,1:0:0:0:
256,192,223528,1,0,1:0:0:0:
256,192,223628,1,8,1:0:0:0:
256,192,223728,1,0,1:0:0:0:
256,192,223928,1,0,1:0:0:0:
256,192,224028,1,8,1:0:0:0:
256,192,224228,1,8,1:0:0:0:
256,192,224328,1,8,1:0:0:0:
256,192,224428,1,0,1:0:0:0:
256,192,224528,1,8,1:0:0:0:
256,192,224628,1,0,1:0:0:0:
256,192,224828,1,12,1:0:0:0:
256,192,225028,1,0,1:0:0:0:
256,192,225228,1,0,1:0:0:0:
256,192,225628,1,12,1:0:0:0:
256,192,225828,1,0,1:0:0:0:
256,192,225928,1,0,1:0:0:0:
256,192,226028,1,8,1:0:0:0:
256,192,226228,1,0,1:0:0:0:
256,192,226328,1,8,1:0:0:0:
256,192,226428,1,8,1:0:0:0:
256,192,226528,1,0,1:0:0:0:
256,192,226728,1,8,1:0:0:0:
256,192,226828,1,8,1:0:0:0:
256,192,227028,1,0,1:0:0:0:
256,192,227128,1,0,1:0:0:0:
256,192,227228,1,8,1:0:0:0:
256,192,227328,1,8,1:0:0:0:
256,192,227428,1,8,1:0:0:0:
256,192,227628,1,4,1:0:0:0:
256,192,228228,1,0,1:0:0:0:
256,192,228428,1,8,1:0:0:0:
256,192,228828,1,8,1:0:0:0:
256,192,229128,1,8,1:0:0:0:
256,192,229428,1,8,1:0:0:0:
256,192,229628,1,0,1:0:0:0:
256,192,229728,1,0,1:0:0:0:
256,192,229828,1,8,1:0:0:0:
256,192,230028,1,0,1:0:0:0:
256,192,230094,1,0,1:0:0:0:
256,192,230161,1,0,1:0:0:0:
256,192,230228,1,0,1:0:0:0:
256,192,230428,1,8,1:0:0:0:
256,192,230828,1,12,1:0:0:0:
256,192,231028,1,0,1:0:0:0:
256,192,231128,1,0,1:0:0:0:
256,192,231228,1,8,1:0:0:0:
256,192,231328,1,8,1:0:0:0:
256,192,231528,1,0,1:0:0:0:
256,192,231628,1,8,1:0:0:0:
256,192,231828,1,0,1:0:0:0:
256,192,231928,1,0,1:0:0:0:
256,192,232028,1,8,1:0:0:0:
256,192,232128,1,8,1:0:0:0:
256,192,232228,1,0,1:0:0:0:
256,192,232428,1,8,1:0:0:0:
256,192,232628,1,0,1:0:0:0:
256,192,232728,1,0,1:0:0:0:
256,192,232828,1,8,1:0:0:0:
256,192,232928,1,0,1:0:0:0:
256,192,233028,1,8,1:0:0:0:
256,192,233228,1,0,1:0:0:0:
256,192,233328,1,0,1:0:0:0:
256,192,233428,1,8,1:0:0:0:
256,192,233528,1,8,1:0:0:0:
256,192,233628,1,0,1:0:0:0:
256,192,233728,1,0,1:0:0:0:
256,192,233828,1,8,1:0:0:0:
256,192,234028,1,0,1:0:0:0:
256,192,234128,1,0,1:0:0:0:
256,192,234228,1,0,1:0:0:0:
256,192,234328,1,0,1:0:0:0:
256,192,234428,1,0,1:0:0:0:
256,192,234828,1,0,1:0:0:0:
256,192,234928,1,0,1:0:0:0:
256,192,235028,1,0,1:0:0:0:
256,192,235128,1,0,1:0:0:0:
256,192,235228,1,8,1:0:0:0:
256,192,235628,1,0,1:0:0:0:
256,192,235728,1,0,1:0:0:0:
256,192,235828,1,8,1:0:0:0:
256,192,235928,1,8,1:0:0:0:
256,192,236028,1,8,1:0:0:0:
256,192,236428,1,8,1:0:0:0:
256,192,236528,1,8,1:0:0:0:
256,192,236628,1,8,1:0:0:0:
256,192,236728,1,8,1:0:0:0:
256,192,236828,1,0,1:0:0:0:
256,192,237228,1,0,1:0:0:0:
256,192,237494,1,0,1:0:0:0:
256,192,237628,1,8,1:0:0:0:
256,192,237894,1,8,1:0:0:0:
256,192,238028,1,0,1:0:0:0:
256,192,238161,1,8,1:0:0:0:
256,192,238294,1,8,1:0:0:0:
256,192,238428,1,0,1:0:0:0:
256,192,238694,1,0,1:0:0:0:
256,192,238828,1,8,1:0:0:0:
256,192,238961,1,0,1:0:0:0:
256,192,239094,1,0,1:0:0:0:
256,192,239228,1,8,1:0:0:0:
256,192,239361,1,0,1:0:0:0:
256,192,239494,1,0,1:0:0:0:
256,192,239628,1,8,1:0:0:0:
256,192,240428,1,4,1:0:0:0:
256,192,240628,1,8,1:0:0:0:
256,192,240828,1,8,1:0:0:0:
256,192,241028,1,8,1:0:0:0:
256,192,241228,1,0,1:0:0:0:
256,192,241428,1,8,1:0:0:0:
256,192,241528,1,8,1:0:0:0:
256,192,241628,1,0,1:0:0:0:
256,192,241728,1,8,1:0:0:0:
256,192,241928,1,0,1:0:0:0:
256,192,242028,1,8,1:0:0:0:
256,192,242128,1,8,1:0:0:0:
256,192,242328,1,0,1:0:0:0:
256,192,242428,1,0,1:0:0:0:
256,192,242528,1,8,1:0:0:0:
256,192,242728,1,0,1:0:0:0:
256,192,242828,1,8,1:0:0:0:
256,192,243028,1,0,1:0:0:0:
256,192,243328,1,0,1:0:0:0:
256,192,243628,1,8,1:0:0:0:
256,192,244228,1,0,1:0:0:0:
256,192,244428,1,8,1:0:0:0:
256,192,244628,1,0,1:0:0:0:
256,192,244828,1,0,1:0:0:0:
256,192,244928,1,0,1:0:0:0:
256,192,245028,1,8,1:0:0:0:
256,192,245228,1,8,1:0:0:0:
256,192,245328,1,8,1:0:0:0:
256,192,245428,1,8,1:0:0:0:
256,192,245628,1,0,1:0:0:0:
256,192,245728,1,8,1:0:0:0:
256,192,245828,1,8,1:0:0:0:
256,192,246028,1,0,1:0:0:0:
256,192,246228,1,8,1:0:0:0:
256,192,246528,1,8,1:0:0:0:
256,192,246828,1,0,1:0:0:0:
256,192,246928,1,0,1:0:0:0:
256,192,247028,1,0,1:0:0:0:
256,192,247128,1,0,1:0:0:0:
256,192,247228,1,12,1:0:0:0:
256,192,247428,1,8,1:0:0:0:
256,192,247628,1,0,1:0:0:0:
256,192,247828,1,8,1:0:0:0:
256,192,247928,1,8,1:0:0:0:
256,192,248028,1,0,1:0:0:0:
256,192,248128,1,8,1:0:0:0:
256,192,248328,1,0,1:0:0:0:
256,192,248428,1,8,1:0:0:0:
256,192,248528,1,8,1:0:0:0:
256,192,248728,1,0,1:0:0:0:
256,192,248828,1,0,1:0:0:0:
256,192,248928,1,8,1:0:0:0:
256,192,249128,1,0,1:0:0:0:
256,192,249228,1,8,1:0:0:0:
256,192,249428,1,0,1:0:0:0:
256,192,249728,1,0,1:0:0:0:
256,192,250028,1,8,1:0:0:0:
256,192,250628,1,0,1:0:0:0:
256,192,250828,1,8,1:0:0:0:
256,192,251028,1,0,1:0:0:0:
256,192,251128,1,8,1:0:0:0:
256,192,251228,1,0,1:0:0:0:
256,192,251328,1,0,1:0:0:0:
256,192,251428,1,8,1:0:0:0:
256,192,251628,1,0,1:0:0:0:
256,192,251828,1,0,1:0:0:0:
256,192,252028,1,8,1:0:0:0:
256,192,252228,1,8,1:0:0:0:
256,192,252428,1,0,1:0:0:0:
256,192,252528,1,0,1:0:0:0:
256,192,252628,1,8,1:0:0:0:
256,192,252728,1,8,1:0:0:0:
256,192,252828,1,0,1:0:0:0:
256,192,252928,1,0,1:0:0:0:
256,192,253028,1,8,1:0:0:0:
256,192,253228,1,4,1:0:0:0:
256,192,253428,1,8,1:0:0:0:
256,192,253628,1,8,1:0:0:0:
256,192,253828,1,4,1:0:0:0:
256,192,254028,1,8,1:0:0:0:
256,192,254428,1,0,1:0:0:0:
256,192,254728,1,0,1:0:0:0:
256,192,255028,1,0,1:0:0:0:
256,192,255328,1,8,1:0:0:0:
256,192,255428,1,0,1:0:0:0:
256,192,255528,1,0,1:0:0:0:
256,192,255628,1,8,1:0:0:0:
256,192,255828,1,4,1:0:0:0:
256,192,256128,1,4,1:0:0:0:
256,192,256428,1,12,1:0:0:0:
256,192,257028,1,4,1:0:0:0:
256,192,257228,1,8,1:0:0:0:
256,192,257428,1,0,1:0:0:0:
256,192,257528,1,8,1:0:0:0:
256,192,257728,1,8,1:0:0:0:
256,192,257828,1,0,1:0:0:0:
256,192,257928,1,8,1:0:0:0:
256,192,258028,1,0,1:0:0:0:
256,192,258228,1,8,1:0:0:0:
256,192,258428,1,8,1:0:0:0:
256,192,258628,1,8,1:0:0:0:
256,192,258828,1,0,1:0:0:0:
256,192,259028,1,12,1:0:0:0:
256,192,259328,1,12,1:0:0:0:
256,192,259628,1,4,1:0:0:0:
256,192,259828,1,8,1:0:0:0:
256,192,260028,1,8,1:0:0:0:
256,192,260228,1,4,1:0:0:0:
256,192,260428,1,8,1:0:0:0:
256,192,260628,1,0,1:0:0:0:
256,192,260694,1,0,1:0:0:0:
256,192,260761,1,0,1:0:0:0:
256,192,260828,1,0,1:0:0:0:
256,192,261128,1,8,1:0:0:0:
256,192,261428,1,8,1:0:0:0:
256,192,261728,1,0,1:0:0:0:
256,192,261828,1,0,1:0:0:0:
256,192,261928,1,0,1:0:0:0:
256,192,262028,1,8,1:0:0:0:
256,192,262228,1,4,1:0:0:0:
256,192,262528,1,4,1:0:0:0:
256,192,262828,1,12,1:0:0:0:
256,192,263028,1,0,1:0:0:0:
256,192,263128,1,0,1:0:0:0:
256,192,263428,1,4,1:0:0:0:
256,192,263628,1,8,1:0:0:0:
256,192,263828,1,0,1:0:0:0:
256,192,263928,1,0,1:0:0:0:
256,192,264028,1,8,1:0:0:0:
256,192,264128,1,8,1:0:0:0:
256,192,264228,1,0,1:0:0:0:
256,192,264428,1,8,1:0:0:0:
256,192,264561,1,8,1:0:0:0:
256,192,264694,1,8,1:0:0:0:
256,192,264828,1,8,1:0:0:0:
256,192,265028,1,0,1:0:0:0:
256,192,265128,1,0,1:0:0:0:
256,192,265228,1,8,1:0:0:0:
256,192,265428,1,0,1:0:0:0:
256,192,265528,1,8,1:0:0:0:
256,192,265628,1,0,1:0:0:0:
256,192,265728,1,0,1:0:0:0:
256,192,265828,1,8,1:0:0:0:
256,192,266028,1,4,1:0:0:0:
256,192,266428,1,8,1:0:0:0:
256,192,266528,1,8,1:0:0:0:
256,192,266628,1,0,1:0:0:0:
256,192,266828,1,8,1:0:0:0:
256,192,267028,1,0,1:0:0:0:
256,192,267228,1,8,1:0:0:0:
256,192,267328,1,8,1:0:0:0:
256,192,267428,1,0,1:0:0:0:
256,192,267628,1,0,1:0:0:0:
256,192,268028,1,8,1:0:0:0:
256,192,268128,1,8,1:0:0:0:
256,192,268228,1,0,1:0:0:0:
256,192,268428,1,8,1:0:0:0:
256,192,268628,1,0,1:0:0:0:
256,192,268828,1,8,1:0:0:0:
256,192,268928,1,8,1:0:0:0:
256,192,269028,1,0,1:0:0:0:
256,192,269228,1,0,1:0:0:0:
256,192,269628,1,8,1:0:0:0:
256,192,269728,1,8,1:0:0:0:
256,192,269828,1,0,1:0:0:0:
256,192,270028,1,8,1:0:0:0:
256,192,270228,1,0,1:0:0:0:
256,192,270428,1,8,1:0:0:0:
256,192,270528,1,8,1:0:0:0:
256,192,270628,1,0,1:0:0:0:
256,192,270828,1,0,1:0:0:0:
256,192,271228,1,8,1:0:0:0:
256,192,271328,1,8,1:0:0:0:
256,192,271428,1,0,1:0:0:0:
256,192,271628,1,8,1:0:0:0:
256,192,271828,1,0,1:0:0:0:
256,192,272028,1,8,1:0:0:0:
256,192,272128,1,8,1:0:0:0:
256,192,272228,1,0,1:0:0:0:
256,192,272428,1,0,1:0:0:0:
256,192,272828,1,8,1:0:0:0:
256,192,272928,1,8,1:0:0:0:
256,192,273028,1,0,1:0:0:0:
256,192,273228,1,8,1:0:0:0:
256,192,273428,1,0,1:0:0:0:
256,192,273628,1,8,1:0:0:0:
256,192,273728,1,8,1:0:0:0:
256,192,273828,1,0,1:0:0:0:
256,192,274028,1,0,1:0:0:0:
256,192,274428,1,8,1:0:0:0:
256,192,274528,1,8,1:0:0:0:
256,192,274628,1,0,1:0:0:0:
256,192,274828,1,8,1:0:0:0:
256,192,275028,1,0,1:0:0:0:
256,192,275228,1,8,1:0:0:0:
256,192,275328,1,8,1:0:0:0:
256,192,275428,1,0,1:0:0:0:
256,192,275628,1,0,1:0:0:0:
256,192,276028,1,8,1:0:0:0:
256,192,276128,1,8,1:0:0:0:
256,192,276228,1,0,1:0:0:0:
256,192,276428,1,8,1:0:0:0:
256,192,276628,1,0,1:0:0:0:
256,192,276828,1,8,1:0:0:0:
256,192,276928,1,8,1:0:0:0:
256,192,277028,1,0,1:0:0:0:
256,192,277228,1,0,1:0:0:0:
256,192,277628,1,8,1:0:0:0:
256,192,277728,1,8,1:0:0:0:
256,192,277828,1,0,1:0:0:0:
256,192,278028,1,8,1:0:0:0:
256,192,278228,1,0,1:0:0:0:
256,192,278428,1,8,1:0:0:0:
256,192,278528,1,8,1:0:0:0:
256,192,278628,1,0,1:0:0:0:
256,192,278828,1,0,1:0:0:0:
256,192,279028,12,0,285228,1:0:0:0:
