osu file format v14

[General]
AudioFilename: audio.mp3
AudioLeadIn: 0
PreviewTime: 212379
Countdown: 0
SampleSet: Soft
StackLeniency: 0.7
Mode: 0
LetterboxInBreaks: 0
WidescreenStoryboard: 0

[Editor]
Bookmarks: 32458,39958,43708,47458,54958,58708,62458,77926,88708,92458,99958,107458,111208,114958,129958,144958,159958,174958,182458,197458,204958,212458,216208,227458,227926,242458,249958,255583,257301,260270
DistanceSpacing: 0.5
BeatDivisor: 6
GridSize: 8
TimelineZoom: 3.699999

[Metadata]
Title:Nasty * Nasty * Spell
TitleUnicode:Nasty * Nasty * Spell
Artist:Camellia
ArtistUnicode:Camellia
Creator:Livia
Version:Extra spell
Source:osu!
Tags:
BeatmapID:2246889
BeatmapSetID:1073575

[Difficulty]
HPDrainRate:4
CircleSize:4
OverallDifficulty:8
ApproachRate:9.6
SliderMultiplier:3.2
SliderTickRate:0.5

[Events]
//Background and Video events
0,0,"77573187_p0.jpg",0,0
//Break Periods
2,145158,159449
//Storyboard Layer 0 (Background)
//Storyboard Layer 1 (Fail)
//Storyboard Layer 2 (Pass)
//Storyboard Layer 3 (Foreground)
//Storyboard Layer 4 (Overlay)
//Storyboard Sound Samples

[TimingPoints]
2437,468.75,4,2,0,70,1,0
8062,-133.333333333333,4,2,0,70,0,0
8530,-200,4,2,0,70,0,0
16030,-133.333333333333,4,2,0,70,0,0
16733,-166.666666666667,4,2,0,70,0,0
17437,-111.111111111111,4,2,0,70,0,0
17905,-222.222222222221,4,2,0,70,0,0
18374,-111.111111111111,4,2,0,70,0,0
18843,-333.333333333333,4,2,0,70,0,0
19312,-111.111111111111,4,2,0,70,0,0
19780,-222.222222222221,4,2,0,70,0,0
20249,-166.666666666667,4,2,0,70,0,0
20952,-250.000000000001,4,2,0,70,0,0
21187,-166.666666666667,4,2,0,70,0,0
21421,-125,4,2,0,70,0,0
22007,-166.666666666667,4,2,0,70,0,0
22827,-250.000000000001,4,2,0,70,0,0
23062,-133.333333333333,4,2,0,70,0,0
26812,-111.111111111111,4,2,0,70,0,0
27749,-133.333333333333,4,2,0,70,0,0
28687,-200,4,2,0,70,0,0
29155,-66.6666666666667,4,2,0,70,0,0
29507,-142.857142857143,4,2,0,70,0,0
30327,-200,4,2,0,70,0,0
30583,468.75,4,2,0,70,1,0
30583,-66.6666666666667,4,2,0,70,0,0
30817,-133.333333333333,4,2,0,70,0,0
31051,-66.6666666666667,4,2,0,70,0,0
31989,-250,4,2,0,70,0,0
32458,-66.6666666666667,4,2,0,70,0,0
32692,-133.333333333333,4,2,0,70,0,0
38317,-200,4,2,0,70,0,0
38668,-100,4,2,0,70,0,0
38903,-111.111111111111,4,2,0,70,0,0
39489,-200,4,2,0,70,0,0
39958,-166.666666666667,4,2,0,70,0,0
40426,-133.333333333333,4,2,0,70,0,0
40895,-111.111111111111,4,2,0,70,0,0
41364,-90.9090909090909,4,2,0,70,0,0
41833,-79.9999999999999,4,2,0,70,0,0
42301,-100,4,2,0,70,0,0
42770,-133.333333333333,4,2,0,70,0,0
43239,-200,4,2,0,70,0,0
43708,-66.6666666666667,4,2,0,70,0,0
44059,-133.333333333333,4,2,0,70,0,0
44293,-200,4,2,0,70,0,0
44645,-66.6666666666667,4,2,0,70,0,0
44996,-133.333333333333,4,2,0,70,0,0
45465,-200,4,2,0,70,0,0
46989,-333.333333333333,4,2,0,70,0,0
47458,-133.333333333333,4,2,0,70,0,0
49333,-57.1428571428571,4,2,0,70,0,0
49958,-133.333333333333,4,2,0,70,0,0
51208,-43.4782608695652,4,2,0,70,0,0
51833,-133.333333333333,4,2,0,70,0,0
53083,-43.4782608695652,4,2,0,70,0,0
53551,-133.333333333333,4,2,0,70,0,0
54723,-79.9999999999999,4,2,0,70,0,0
54958,-66.6666666666667,4,2,0,70,0,0
55583,-133.333333333333,4,2,0,70,0,0
55895,-66.6666666666667,4,2,0,70,0,0
56520,-133.333333333333,4,2,0,70,0,0
56833,-66.6666666666667,4,2,0,70,0,0
57458,-133.333333333333,4,2,0,70,0,0
57770,-66.6666666666667,4,2,0,70,0,0
58395,-133.333333333333,4,2,0,70,0,0
60583,-79.9999999999999,4,2,0,70,0,0
61520,-133.333333333333,4,2,0,70,0,0
62458,-50,4,2,0,70,0,1
62692,-133.333333333333,4,2,0,70,0,1
62926,-50,4,2,0,70,0,1
63161,-133.333333333333,4,2,0,70,0,1
63317,-66.6666666666667,4,2,0,70,0,1
63629,-133.333333333333,4,2,0,70,0,1
63942,-200,4,2,0,70,0,1
64333,-66.6666666666667,4,2,0,70,0,1
64567,-133.333333333333,4,2,0,70,0,1
64801,-50,4,2,0,70,0,1
65036,-133.333333333333,4,2,0,70,0,1
65192,-100,4,2,0,70,0,1
66208,-66.6666666666667,4,2,0,70,0,1
66676,-133.333333333333,4,2,0,70,0,1
66911,-66.6666666666667,4,2,0,70,0,1
67145,-133.333333333333,4,2,0,70,0,1
67379,-79.9999999999999,4,2,0,70,0,1
67614,-66.6666666666667,4,2,0,70,0,1
67848,-100,4,2,0,70,0,1
68083,-50,4,2,0,70,0,1
68317,-133.333333333333,4,2,0,70,0,1
68551,-66.6666666666667,4,2,0,70,0,1
68786,-133.333333333333,4,2,0,70,0,1
69176,-66.6666666666667,4,2,0,70,0,1
69645,-133.333333333333,4,2,0,70,0,1
70192,-50,4,2,0,70,0,1
70426,-133.333333333333,4,2,0,70,0,1
70817,-66.6666666666667,4,2,0,70,0,1
71442,-133.333333333333,4,2,0,70,0,1
72067,-66.6666666666667,4,2,0,70,0,1
72301,-133.333333333333,4,2,0,70,0,1
72536,-66.6666666666667,4,2,0,70,0,1
73083,-100,4,2,0,70,0,1
73395,-133.333333333333,4,2,0,70,0,1
73708,-66.6666666666667,4,2,0,70,0,1
74176,-100,4,2,0,70,0,1
74411,-66.6666666666667,4,2,0,70,0,1
74567,-133.333333333333,4,2,0,70,0,1
74801,-66.6666666666667,4,2,0,70,0,1
75348,-133.333333333333,4,2,0,70,0,1
75583,-100,4,2,0,70,0,1
75817,-111.111111111111,4,2,0,70,0,1
76051,-125,4,2,0,70,0,1
76286,-142.857142857143,4,2,0,70,0,1
76520,-166.666666666667,4,2,0,70,0,1
77458,-133.333333333333,4,2,0,70,0,1
77926,-66.6666666666667,4,2,0,70,0,1
78395,-100,4,2,0,70,0,1
78864,-133.333333333333,4,2,0,70,0,1
79333,-79.9999999999999,4,2,0,70,0,1
79567,-133.333333333333,4,2,0,70,0,1
79879,-66.6666666666667,4,2,0,70,0,1
80895,-100,4,2,0,70,0,1
81208,-79.9999999999999,4,2,0,70,0,1
81442,-100,4,2,0,70,0,1
82145,-66.6666666666667,4,2,0,70,0,1
82614,-100,4,2,0,70,0,1
82848,-66.6666666666667,4,2,0,70,0,1
83317,-100,4,2,0,70,0,1
83629,-66.6666666666667,4,2,0,70,0,1
84645,-133.333333333333,4,2,0,70,0,1
84958,-79.9999999999999,4,2,0,70,0,1
86520,-133.333333333333,4,2,0,70,0,1
86833,-66.6666666666667,4,2,0,70,0,1
87067,-133.333333333333,4,2,0,70,0,1
87301,-100,4,2,0,70,0,1
87536,-133.333333333333,4,2,0,70,0,1
87692,-100,4,2,0,70,0,1
88708,-57.1428571428571,4,2,0,70,0,1
89333,-133.333333333333,4,2,0,70,0,1
89645,-57.1428571428571,4,2,0,70,0,1
90270,-133.333333333333,4,2,0,70,0,1
92458,-79.9999999999999,4,2,0,70,0,0
93161,-133.333333333333,4,2,0,70,0,0
93629,-79.9999999999999,4,2,0,70,0,0
93864,-66.6666666666667,4,2,0,70,0,0
94020,-100,4,2,0,70,0,0
94333,-79.9999999999999,4,2,0,70,0,0
94567,-100,4,2,0,70,0,0
95270,-66.6666666666667,4,2,0,70,0,0
95895,-100,4,2,0,70,0,0
96208,-66.6666666666667,4,2,0,70,0,0
96442,-133.333333333333,4,2,0,70,0,0
98317,-79.9999999999999,4,2,0,70,0,0
98708,-100,4,2,0,70,0,0
99958,-66.6666666666667,4,2,0,70,0,0
100426,-100,4,2,0,70,0,0
100895,-133.333333333333,4,2,0,70,0,0
101520,-66.6666666666667,4,2,0,70,0,0
102301,-100,4,2,0,70,0,0
103395,-79.9999999999999,4,2,0,70,0,0
103708,-66.6666666666667,4,2,0,70,0,0
104176,-133.333333333333,4,2,0,70,0,0
104645,-66.6666666666667,4,2,0,70,0,0
105270,-100,4,2,0,70,0,0
105583,-66.6666666666667,4,2,0,70,0,0
106051,-100,4,2,0,70,0,0
106286,-133.333333333333,4,2,0,70,0,0
106520,-100,4,2,0,70,0,0
106989,-50,4,2,0,70,0,0
107458,-50,4,2,0,70,0,0
107770,-100,4,2,0,70,0,0
108083,-66.6666666666667,4,2,0,70,0,0
108395,-50,4,2,0,70,0,0
108707,-100,4,2,0,70,0,0
109020,-66.6666666666667,4,2,0,70,0,0
109333,-50,4,2,0,70,0,0
109645,-100,4,2,0,70,0,0
109958,-66.6666666666667,4,2,0,70,0,0
110270,-50,4,2,0,70,0,0
110582,-100,4,2,0,70,0,0
110895,-66.6666666666667,4,2,0,70,0,0
111208,-50,4,2,0,70,0,0
111676,-47.6190476190476,4,2,0,70,0,0
112145,-45.4545454545455,4,2,0,70,0,0
112614,-43.4782608695652,4,2,0,70,0,0
113083,-100,4,2,0,70,0,0
114723,-66.6666666666667,4,2,0,70,0,0
114958,-50,4,2,0,70,0,0
115661,-133.333333333333,4,2,0,70,0,0
115895,-66.6666666666667,4,2,0,70,0,0
116129,-133.333333333333,4,2,0,70,0,0
116364,-43.4782608695652,4,2,0,70,0,0
116598,-133.333333333333,4,2,0,70,0,0
116833,-40,4,2,0,70,0,0
117067,-133.333333333333,4,2,0,70,0,0
117301,-43.4782608695652,4,2,0,70,0,0
118473,-133.333333333333,4,2,0,70,0,0
119176,-66.6666666666667,4,2,0,70,0,0
119411,-100,4,2,0,70,0,0
119879,-66.6666666666667,4,2,0,70,0,0
120270,-125,4,2,0,70,0,0
120583,-43.4782608695652,4,2,0,70,0,0
121286,-100,4,2,0,70,0,0
121520,-66.6666666666667,4,2,0,70,0,0
121754,-133.333333333333,4,2,0,70,0,0
121989,-45.4545454545455,4,2,0,70,0,0
122458,-100,4,2,0,70,0,0
122926,-133.333333333333,4,2,0,70,0,0
123395,-100,4,2,0,70,0,0
123864,-66.6666666666667,4,2,0,70,0,0
124333,-40,4,2,0,70,0,0
124645,-66.6666666666667,4,2,0,70,0,0
124801,-45.4545454545455,4,2,0,70,0,0
125036,-55.5555555555556,4,2,0,70,0,0
125270,-45.4545454545455,4,2,0,70,0,0
125505,-55.5555555555556,4,2,0,70,0,0
125739,-45.4545454545455,4,2,0,70,0,0
125974,-55.5555555555556,4,2,0,70,0,0
126208,-50,4,2,0,70,0,0
126442,-79.9999999999999,4,2,0,70,0,0
126676,-50,4,2,0,70,0,0
126911,-79.9999999999999,4,2,0,70,0,0
127145,-79.9999999999999,4,2,0,70,0,0
127614,-43.4782608695652,4,2,0,70,0,0
127848,-79.9999999999999,4,2,0,70,0,0
128083,-50,4,2,0,70,0,0
128317,-100,4,2,0,70,0,0
128551,-79.9999999999999,4,2,0,70,0,0
129958,-40,4,2,0,70,0,0
130426,-50,4,2,0,70,0,0
130661,-66.6666666666667,4,2,0,70,0,0
130895,-100,4,2,0,70,0,0
131364,-66.6666666666667,4,2,0,70,0,0
131598,-100,4,2,0,70,0,0
131833,-100,4,2,0,70,0,0
133239,-66.6666666666667,4,2,0,70,0,0
133473,-100,4,2,0,70,0,0
133708,-66.6666666666667,4,2,0,70,0,0
133942,-100,4,2,0,70,0,0
134176,-66.6666666666667,4,2,0,70,0,0
135114,-100,4,2,0,70,0,0
135583,-66.6666666666667,4,2,0,70,0,0
136286,-100,4,2,0,70,0,0
136989,-133.333333333333,4,2,0,70,0,0
137458,-66.6666666666667,4,2,0,70,0,0
138161,-133.333333333333,4,2,0,70,0,0
138395,-66.6666666666667,4,2,0,70,0,0
139098,-100,4,2,0,70,0,0
139333,-66.6666666666667,4,2,0,70,0,0
139801,-133.333333333333,4,2,0,70,0,0
140270,-66.6666666666667,4,2,0,70,0,0
141208,-100,4,2,0,70,0,0
141676,-90.9090909090909,4,2,0,70,0,0
142145,-83.3333333333333,4,2,0,70,0,0
142614,-76.9230769230769,4,2,0,70,0,0
143083,-66.6666666666667,4,2,0,70,0,0
143317,-200,4,2,0,70,0,0
143551,-66.6666666666667,4,2,0,70,0,0
143786,-200,4,2,0,70,0,0
144020,-55.5555555555556,4,2,0,70,0,0
144489,-100,4,2,0,70,0,0
159958,-133.333333333333,4,2,0,70,0,0
163708,-66.6666666666667,4,2,0,70,0,0
163942,-100,4,2,0,70,0,0
164176,-79.9999999999999,4,2,0,70,0,0
164528,-133.333333333333,4,2,0,70,0,0
169333,-86.9565217391304,4,2,0,70,0,0
170270,-133.333333333333,4,2,0,70,0,0
171208,-86.9565217391304,4,2,0,70,0,0
171676,-66.6666666666667,4,2,0,70,0,0
171911,-79.9999999999999,4,2,0,70,0,0
172379,-200,4,2,0,70,0,0
172848,-100,4,2,0,70,0,0
173551,-66.6666666666667,4,2,0,70,0,0
174254,-133.333333333333,4,2,0,70,0,0
174489,-66.6666666666667,4,2,0,70,0,0
175348,-105.263157894737,4,2,0,70,0,0
176833,-66.6666666666667,4,2,0,70,0,0
177223,-100,4,2,0,70,0,0
178708,-66.6666666666667,4,2,0,70,0,0
179098,-100,4,2,0,70,0,0
180583,-66.6666666666667,4,2,0,70,0,0
180973,-133.333333333333,4,2,0,70,0,0
181520,-66.6666666666667,4,2,0,70,0,0
181989,-200,4,2,0,70,0,0
182458,-66.6666666666667,4,2,0,70,0,1
182692,-133.333333333333,4,2,0,70,0,1
183004,-100,4,2,0,70,0,1
183395,-79.9999999999999,4,2,0,70,0,1
183864,-133.333333333333,4,2,0,70,0,1
184020,-100,4,2,0,70,0,1
184333,-66.6666666666667,4,2,0,70,0,1
184567,-133.333333333333,4,2,0,70,0,1
184879,-66.6666666666667,4,2,0,70,0,1
185895,-100,4,2,0,70,0,1
186208,-79.9999999999999,4,2,0,70,0,1
186442,-100,4,2,0,70,0,1
187145,-66.6666666666667,4,2,0,70,0,1
187614,-100,4,2,0,70,0,1
187848,-66.6666666666667,4,2,0,70,0,1
188317,-100,4,2,0,70,0,1
188629,-66.6666666666667,4,2,0,70,0,1
189645,-133.333333333333,4,2,0,70,0,1
189958,-79.9999999999999,4,2,0,70,0,1
190426,-100,4,2,0,70,0,1
190895,-133.333333333333,4,2,0,70,0,1
191364,-200,4,2,0,70,0,1
191833,-79.9999999999999,4,2,0,70,0,1
192301,-100,4,2,0,70,0,1
192770,-133.333333333333,4,2,0,70,0,1
193239,-200,4,2,0,70,0,1
193708,-57.1428571428571,4,2,0,70,0,1
194333,-133.333333333333,4,2,0,70,0,1
194645,-57.1428571428571,4,2,0,70,0,1
195270,-133.333333333333,4,2,0,70,0,1
197458,-66.6666666666667,4,2,0,70,0,0
198395,-100,4,2,0,70,0,0
199333,-57.1428571428571,4,2,0,70,0,0
199958,-133.333333333333,4,2,0,70,0,0
200661,-66.6666666666667,4,2,0,70,0,0
200895,-133.333333333333,4,2,0,70,0,0
201208,-57.1428571428571,4,2,0,70,0,0
201833,-133.333333333333,4,2,0,70,0,0
203083,-57.1428571428571,4,2,0,70,0,0
203473,-133.333333333333,4,2,0,70,0,0
203708,-79.9999999999999,4,2,0,70,0,0
203942,-66.6666666666667,4,2,0,70,0,0
204723,-79.9999999999999,4,2,0,70,0,0
204958,-66.6666666666667,4,2,0,70,0,0
205583,-133.333333333333,4,2,0,70,0,0
205895,-66.6666666666667,4,2,0,70,0,0
206520,-133.333333333333,4,2,0,70,0,0
206833,-66.6666666666667,4,2,0,70,0,0
207458,-133.333333333333,4,2,0,70,0,0
207770,-66.6666666666667,4,2,0,70,0,0
208395,-133.333333333333,4,2,0,70,0,0
208708,-133.333333333333,4,2,0,70,0,0
210583,-79.9999999999999,4,2,0,70,0,0
211520,-133.333333333333,4,2,0,70,0,0
212458,-79.9999999999999,4,2,0,70,0,0
215583,-57.1428571428571,4,2,0,70,0,0
215895,-133.333333333333,4,2,0,70,0,0
216208,-66.6666666666667,4,2,0,70,0,1
216676,-133.333333333333,4,2,0,70,0,1
216911,-66.6666666666667,4,2,0,70,0,1
217145,-133.333333333333,4,2,0,70,0,1
217379,-79.9999999999999,4,2,0,70,0,1
217614,-66.6666666666667,4,2,0,70,0,1
217848,-100,4,2,0,70,0,1
218083,-50,4,2,0,70,0,1
218317,-133.333333333333,4,2,0,70,0,1
218551,-50,4,2,0,70,0,1
218786,-133.333333333333,4,2,0,70,0,1
219176,-66.6666666666667,4,2,0,70,0,1
219645,-133.333333333333,4,2,0,70,0,1
220192,-50,4,2,0,70,0,1
220426,-133.333333333333,4,2,0,70,0,1
220817,-66.6666666666667,4,2,0,70,0,1
221442,-133.333333333333,4,2,0,70,0,1
222067,-66.6666666666667,4,2,0,70,0,1
222301,-133.333333333333,4,2,0,70,0,1
222536,-66.6666666666667,4,2,0,70,0,1
223083,-100,4,2,0,70,0,1
223395,-133.333333333333,4,2,0,70,0,1
223708,-66.6666666666667,4,2,0,70,0,1
224176,-100,4,2,0,70,0,1
224411,-66.6666666666667,4,2,0,70,0,1
224567,-133.333333333333,4,2,0,70,0,1
224801,-66.6666666666667,4,2,0,70,0,1
225348,-133.333333333333,4,2,0,70,0,1
225583,-100,4,2,0,70,0,1
225817,-111.111111111111,4,2,0,70,0,1
226051,-125,4,2,0,70,0,1
226286,-142.857142857143,4,2,0,70,0,1
226520,-166.666666666667,4,2,0,70,0,1
227458,-133.333333333333,4,2,0,70,0,1
227926,-66.6666666666667,4,2,0,70,0,1
228395,-100,4,2,0,70,0,1
228864,-133.333333333333,4,2,0,70,0,1
229333,-79.9999999999999,4,2,0,70,0,1
229567,-133.333333333333,4,2,0,70,0,1
229879,-66.6666666666667,4,2,0,70,0,1
230895,-100,4,2,0,70,0,1
231208,-79.9999999999999,4,2,0,70,0,1
231442,-100,4,2,0,70,0,1
232145,-66.6666666666667,4,2,0,70,0,1
232614,-100,4,2,0,70,0,1
232848,-66.6666666666667,4,2,0,70,0,1
233317,-100,4,2,0,70,0,1
233629,-66.6666666666667,4,2,0,70,0,1
234645,-133.333333333333,4,2,0,70,0,1
234958,-50,4,2,0,70,0,1
235192,-133.333333333333,4,2,0,70,0,1
235426,-79.9999999999999,4,2,0,70,0,1
236520,-133.333333333333,4,2,0,70,0,1
236833,-66.6666666666667,4,2,0,70,0,1
237067,-133.333333333333,4,2,0,70,0,1
237301,-100,4,2,0,70,0,1
237536,-133.333333333333,4,2,0,70,0,1
237692,-100,4,2,0,70,0,1
238708,-57.1428571428571,4,2,0,70,0,1
239333,-133.333333333333,4,2,0,70,0,1
239645,-57.1428571428571,4,2,0,70,0,1
240270,-133.333333333333,4,2,0,70,0,1
240583,-133.333333333333,4,2,0,70,0,0
242458,-57.1428571428571,4,2,0,70,0,1
242848,-133.333333333333,4,2,0,70,0,1
243083,-133.333333333333,4,2,0,70,0,1
243395,-57.1428571428571,4,2,0,70,0,1
244020,-133.333333333333,4,2,0,70,0,1
244254,-133.333333333333,4,2,0,70,0,0
245114,-100,4,2,0,70,0,0
245895,-133.333333333333,4,2,0,70,0,0
246208,-57.1428571428571,4,2,0,70,0,1
246833,-133.333333333333,4,2,0,70,0,1
247145,-57.1428571428571,4,2,0,70,0,1
247770,-133.333333333333,4,2,0,70,0,1
248942,-133.333333333333,4,2,0,70,0,1
250036,-222.222222222222,4,2,0,70,0,0

[HitObjects]
379,111,2437,5,0,0:0:0:0:
456,136,2671,1,0,0:0:0:0:
456,6,2905,1,0,0:0:0:0:
503,71,3140,1,0,0:0:0:0:
379,31,3374,5,0,0:0:0:0:
365,117,3608,1,0,0:0:0:0:
456,249,3843,1,0,0:0:0:0:
459,150,4077,1,0,0:0:0:0:
304,193,4312,5,0,0:0:0:0:
360,276,4546,1,0,0:0:0:0:
160,287,4780,1,0,0:0:0:0:
216,371,5015,1,0,0:0:0:0:
316,365,5249,5,0,0:0:0:0:
261,281,5483,1,0,0:0:0:0:
115,377,5718,1,0,0:0:0:0:
199,371,5952,1,0,0:0:0:0:
146,262,6187,5,0,0:0:0:0:
28,298,6421,1,0,0:0:0:0:
360,276,6655,1,0,0:0:0:0:
239,232,6889,1,0,0:0:0:0:
324,191,7124,5,0,0:0:0:0:
460,261,7358,1,0,0:0:0:0:
290,28,7593,1,0,0:0:0:0:
223,236,7827,1,0,0:0:0:0:
500,148,8062,6,0,B|513:151|526:165|526:165|500:94|430:103|391:142|416:190,1,180.000006866455
471,292,8530,2,0,B|452:300|447:330|447:330|446:294|413:259,1,120
325,228,8999,5,0,0:0:0:0:
276,301,9233,1,0,0:0:0:0:
289,347,9468,1,0,0:0:0:0:
309,358,9702,1,0,0:0:0:0:
140,318,9937,5,0,0:0:0:0:
235,222,10171,1,0,0:0:0:0:
142,77,10405,1,0,0:0:0:0:
44,223,10640,1,0,0:0:0:0:
133,298,10874,5,0,0:0:0:0:
63,216,11109,1,0,0:0:0:0:
148,96,11343,1,0,0:0:0:0:
215,228,11577,1,0,0:0:0:0:
129,282,11812,5,0,0:0:0:0:
199,232,12046,1,0,0:0:0:0:
152,112,12280,1,0,0:0:0:0:
79,212,12515,1,0,0:0:0:0:
127,269,12749,5,0,0:0:0:0:
92,210,12984,1,0,0:0:0:0:
154,125,13218,1,0,0:0:0:0:
186,234,13452,1,0,0:0:0:0:
126,259,13687,5,0,0:0:0:0:
176,235,13921,1,0,0:0:0:0:
164,139,14155,1,0,0:0:0:0:
102,209,14390,1,0,0:0:0:0:
131,240,14624,5,0,0:0:0:0:
121,214,14859,1,0,0:0:0:0:
167,154,15093,1,0,0:0:0:0:
157,230,15327,1,0,0:0:0:0:
165,177,15562,6,0,P|203:236|168:283,1,120
296,347,16030,2,0,P|273:296|153:312,1,180.000006866455
10,378,16499,6,0,P|5:350|14:319,1,60.0000022888184
0,307,16733,2,0,P|10:281|33:258,1,47.9999985351563
48,259,16968,1,0,0:0:0:0:
67,262,17085,1,0,0:0:0:0:
72,274,17202,1,0,0:0:0:0:
71,286,17319,1,0,0:0:0:0:
64,293,17437,6,0,B|113:272|147:317|147:317|176:268|229:262|272:293,1,215.999993408203
394,369,17905,2,0,P|341:380|286:328,1,107.999996704102
431,226,18374,2,0,B|421:250|429:273|429:273|416:231|374:212|326:230|326:230|346:223|369:235,1,215.999993408203
251,280,18843,2,0,P|251:244|235:213,1,71.9999978027344
246,134,19312,6,0,B|214:126|187:148|187:148|198:138|198:138|211:105|267:116|247:127|285:153|343:140,1,215.999993408203
442,217,19780,2,0,B|449:232|440:240|439:251|439:251|434:240|399:234|393:190,1,107.999996704102
365,72,20249,2,0,B|400:32|443:40|443:40|452:32|452:32|445:41|445:41|467:107|398:119,1,191.999994140625
243,128,20952,6,0,P|221:125|190:106,1,32
152,16,21187,2,0,B|139:43|139:43|146:90,1,47.9999985351563
60,49,21421,2,0,P|68:90|64:135,1,64
57,191,21655,2,0,B|42:195|22:179|22:179|15:189|0:191,1,64
134,163,21890,1,0,0:0:0:0:
60,333,22007,2,0,B|58:271|149:226|181:298|181:298|190:299|190:299|181:299|181:299|156:317|127:293,1,239.999992675781
246,349,22827,6,0,P|268:351|288:364,1,32
242,235,23062,6,0,B|217:316|276:353|276:353|265:323|271:309,1,180.000006866455
390,197,23530,2,0,B|452:254|419:317|419:317|413:285|395:270,1,180.000006866455
344,324,23999,5,0,0:0:0:0:
333,317,24233,1,0,0:0:0:0:
337,305,24468,1,0,0:0:0:0:
349,305,24702,1,0,0:0:0:0:
353,316,24937,6,0,B|400:313|415:358|415:358|412:327|437:294,1,120.000004577637
485,263,25405,1,0,0:0:0:0:
496,268,25640,1,0,0:0:0:0:
273,366,25874,6,0,P|262:301|289:247,1,120.000004577637
474,258,26343,1,0,0:0:0:0:
485,263,26578,1,0,0:0:0:0:
218,120,26812,6,0,B|210:137|223:170|234:156|230:192|216:215|216:215|233:185|266:176,1,143.999995605469
463,253,27280,1,0,0:0:0:0:
474,258,27515,1,0,0:0:0:0:
172,266,27749,6,0,B|184:277|185:297|185:297|188:260|200:226|234:200,1,120.000004577637
452,248,28218,1,0,0:0:0:0:
463,253,28453,1,0,0:0:0:0:
395,111,28687,6,0,B|373:138|377:172|377:172|383:190,1,80
463,253,29155,2,0,B|486:248|510:257|510:257|493:250|474:222|429:247,1,120.000004577637
366,327,29390,1,0,0:0:0:0:
236,270,29507,2,0,B|227:246|227:246|265:255|265:255|269:261|269:261|340:280,1,111.999996582031
101,315,29858,2,0,B|90:271|152:254|163:316|142:365|142:365|170:336|201:343,1,167.999994873047
286,360,30327,2,0,P|261:350|223:349,1,40
27,345,30583,6,0,B|13:278|57:232|57:232|42:184,1,160.000006103516
0,4,30817,2,0,B|26:32|26:32|76:24,1,80.0000030517579
148,27,31051,2,0,B|117:23|78:32|59:77|67:110|67:110|61:115|61:115|68:111|68:111|91:133|146:133|159:81,1,240.000009155274
358,119,31442,1,0,0:0:0:0:
376,95,31520,2,0,B|332:30|277:71|277:71|267:71|267:71|288:69|308:90,1,160.000006103516
199,181,31754,2,0,B|186:247|186:247|183:249|183:249|174:310|174:310|201:358,1,160.000006103516
383,304,31989,2,0,B|393:291|393:291|379:230,1,64
365,230,32340,1,0,0:0:0:0:
499,209,32458,6,0,P|458:266|369:203,1,160.000006103516
295,92,32692,2,0,L|306:186,1,80.0000030517579
293,300,32926,1,0,0:0:0:0:
208,287,33043,2,0,P|242:274|282:288,1,60.0000022888184
94,381,33278,6,0,B|91:331|121:308|121:308|95:290|82:249|82:249|68:254|68:254|78:246|78:246|91:229|94:197|136:215|109:217|152:222|152:222|139:219|121:230,1,300.000011444092
119,30,34098,6,0,P|156:78|152:152,1,120.000004577637
14,196,34450,1,0,0:0:0:0:
28,187,34567,2,0,L|114:195,1,60.0000022888184
179,243,34801,1,0,0:0:0:0:
113,272,34918,2,0,L|199:264,1,60.0000022888184
303,329,35153,6,0,B|257:380|165:371|149:285|180:241|180:241|169:281|200:319,1,300.000011444092
466,343,35973,6,0,B|492:305|492:305|471:195,1,120.000004577637
408,129,36325,1,0,0:0:0:0:
397,138,36442,2,0,L|393:237,1,60.0000022888184
275,82,36676,2,0,P|323:44|385:85,1,120.000004577637
285,178,37028,6,0,B|233:178|233:178|213:156|213:156|146:161|146:161|169:175|169:175|98:179|98:179|82:173|82:173|19:178,1,300.000011444092
65,0,37848,6,0,P|106:44|87:121,1,120.000004577637
0,215,38317,2,0,P|26:210|57:216,1,40
167,272,38551,1,0,0:0:0:0:
187,262,38668,2,0,P|148:241|91:256,1,80
41,348,38903,2,0,B|27:371|-20:366|-34:310|21:279|78:294|120:332|71:348|152:391|216:350,1,287.999991210938
336,249,39489,2,0,P|327:287|337:329,1,80
485,331,39958,6,0,B|501:302|501:302|479:224,1,95.9999970703126
461,333,40426,2,0,B|477:304|477:304|452:218,1,120.000004577637
437,335,40895,2,0,B|453:306|453:306|422:198,1,143.999995605469
413,337,41364,2,0,B|429:308|429:308|389:168,1,176.000005371094
198,0,41833,6,0,B|144:80|186:159|186:159|230:194,1,200
135,80,42301,2,0,B|129:152|186:187|186:187|228:194,1,160
135,157,42770,2,0,B|158:205|209:207|209:207|238:195,1,120.000004577637
175,220,43239,2,0,B|209:235|237:213|237:213|248:194,1,80
50,309,43708,6,0,B|13:285|13:285|87:273|87:273|147:315|147:315|220:306,1,240.000009155274
354,268,44059,2,0,P|352:301|366:339,1,60.0000022888184
510,343,44293,2,0,B|485:325|485:325|427:336,1,80
275,288,44645,6,0,P|297:207|438:248,1,240.000009155274
215,336,44997,2,0,B|199:321|199:321|194:276,1,60.0000022888184
148,160,45231,2,0,L|143:232,1,60.0000022888184
25,328,45465,6,0,B|60:335|86:320|86:320|87:316|87:316|91:320|91:320|90:314|90:314|97:318|97:318|94:311|94:311|101:315|101:315|100:311|100:311|123:294|154:300|154:300|213:341|269:293,1,280
316,89,46403,2,0,B|301:82|290:60|290:60|299:117|299:117|305:123|305:123|312:202,1,160
423,243,46989,2,0,P|398:233|359:239,1,47.9999985351563
474,337,47458,5,0,0:0:0:0:
428,35,47692,2,0,P|419:78|423:130,1,80.0000030517579
483,163,47926,1,0,0:0:0:0:
316,89,48083,1,0,0:0:0:0:
316,89,48161,2,0,P|335:118|344:163,1,80.0000030517579
298,258,48395,1,0,0:0:0:0:
127,219,48629,1,0,0:0:0:0:
195,314,48786,2,0,L|138:305,1,40.000001525879
0,206,49020,6,0,B|54:201|54:201|66:207|66:207|136:199,1,120.000004577637
175,114,49333,2,0,B|116:145|86:258|171:328|250:262|251:201|178:189,1,280.000002670288
5,362,49801,5,0,0:0:0:0:
117,286,49958,2,0,P|176:267|239:300,1,120.000004577637
306,357,50270,2,0,B|346:380|380:351|380:351|353:363|320:346,1,120.000004577637
485,224,50661,2,0,B|503:260|503:260|486:326,1,80.0000030517579
349,130,50895,6,0,B|398:120|431:155|431:155|448:140|472:140,1,120.000004577637
491,147,51208,2,0,B|449:145|432:167|432:167|403:134|353:118|300:145|290:190|290:190|271:175|271:175|237:220|146:183,1,368.000007019043
24,11,51676,5,0,0:0:0:0:
104,99,51833,1,0,0:0:0:0:
93,112,51911,2,0,L|88:169,1,40.000001525879
104,278,52145,2,0,P|53:244|-16:273,1,120.000004577637
75,373,52536,1,0,0:0:0:0:
88,362,52614,2,0,L|134:367,1,40.000001525879
255,354,52770,6,0,B|199:356|199:356|194:351|194:351|128:353,1,120.000004577637
285,275,53083,2,0,B|339:299|340:356|340:356|349:298|371:233|460:213|496:299|463:358|382:353|367:298,1,368.000007019043
426,53,53551,5,0,0:0:0:0:
512,161,53708,2,0,P|480:137|429:137,1,80.0000030517579
375,184,53942,1,0,0:0:0:0:
370,195,54020,2,0,L|377:252,1,40.000001525879
290,165,54176,1,0,0:0:0:0:
285,176,54254,2,0,L|292:233,1,40.000001525879
200,146,54411,1,0,0:0:0:0:
195,157,54489,2,0,B|199:202|199:202|202:205|202:205|207:264,1,80.0000030517579
272,314,54723,2,0,P|219:273|139:291,1,133.333333333333
28,368,54958,6,0,B|64:344|64:344|75:276|75:276|70:260|70:260|81:184|81:184|121:159,1,240.000009155274
0,14,55583,2,0,B|33:18|33:18|46:28|46:28|92:34,1,80.0000030517579
278,119,55895,6,0,B|223:110|223:110|220:99|220:99|148:85|148:85|192:219|192:219|230:168,1,320.000012207032
185,351,56520,2,0,B|205:351|205:351|244:290,1,80.0000030517579
500,294,56833,6,0,B|480:305|480:305|467:340|467:340|396:329|396:329|388:320|388:320|314:327|314:327|302:341|302:341|322:303|322:303|318:300|318:300|344:249,1,320.000012207032
507,25,57458,2,0,B|489:57|489:57|425:65,1,80.0000030517579
276,53,57770,6,0,B|249:17|249:17|325:45|325:45|338:44|338:44|326:47|326:47|296:93|296:93|291:92|291:92|263:142|263:142|285:232,1,320.000012207032
56,16,58395,2,0,B|74:55|74:55|69:95,1,80.0000030517579
0,287,58708,6,0,L|86:272,1,60.0000022888184
62,263,58942,2,0,L|148:248,1,60.0000022888184
129,332,59176,2,0,L|215:317,1,60.0000022888184
244,202,59410,2,0,L|184:212,1,60.0000022888184
67,356,59645,6,0,L|153:341,1,60.0000022888184
152,242,59879,2,0,L|238:227,1,60.0000022888184
273,366,60114,2,0,L|359:351,1,60.0000022888184
459,161,60348,2,0,L|399:171,1,60.0000022888184
248,98,60583,6,0,B|236:64|236:64|258:-2,1,100
377,125,60817,2,0,B|400:99|400:99|407:29,1,100
168,181,61051,2,0,B|141:158|141:158|127:89,1,100
415,233,61286,2,0,B|448:222|448:222|489:165,1,100
255,332,61520,6,0,B|222:367|260:404|310:403|354:344|291:313|277:298|276:261|276:261|268:291|203:293|204:371|204:371|180:339|127:339,1,420.000016021729
11,324,62458,6,0,P|56:230|162:284,1,213.333333333333
267,349,62692,2,0,L|379:339,1,80.0000030517579
499,274,62926,2,0,B|526:249|526:249|450:262|450:262|442:271|442:271|347:261,1,213.333333333333
181,175,63161,2,0,L|243:167,1,40.000001525879
286,135,63317,6,0,B|217:142|217:142|191:132|191:132|57:146,1,160.000006103516
246,0,63551,1,0,0:0:0:0:
327,44,63629,2,0,P|336:90|319:134,1,80.0000030517579
258,220,63864,1,0,0:0:0:0:
409,186,63942,2,0,L|466:194,1,53.3333333333333
210,67,64254,1,0,0:0:0:0:
308,91,64333,6,0,P|336:152|285:235,1,160.000006103516
122,294,64567,2,0,B|148:281|148:281|216:292,1,80.0000030517579
334,332,64801,2,0,B|375:310|375:310|322:306|322:306|267:335|267:335|170:320,1,213.333333333333
16,234,65036,2,0,L|67:244,1,40.000001525879
115,315,65192,6,0,B|144:288|144:288|136:157,1,160
53,21,65504,1,0,0:0:0:0:
116,79,65583,2,0,L|175:89,2,53.3333333333333
270,41,65895,2,0,B|285:67|293:107|271:141|253:156|253:156|273:141|300:147,1,160
458,198,66208,6,0,B|467:233|497:244|522:221|516:169|480:136|400:120|335:197,1,240.000009155274
275,336,66598,1,0,0:0:0:0:
191,296,66676,2,0,P|229:289|280:311,1,80.0000030517579
353,368,66911,2,0,B|362:341|362:341|351:263,1,80.0000030517579
233,183,67067,1,0,0:0:0:0:
151,251,67145,2,0,B|153:293|153:293|160:298|160:298|163:343,1,80.0000030517579
6,310,67379,6,0,P|47:300|85:318,1,66.6666666666667
58,199,67536,5,0,0:0:0:0:
73,192,67614,2,0,P|112:213|132:250,1,80.0000030517579
193,170,67770,5,0,0:0:0:0:
209,177,67848,2,0,P|216:260|183:299,1,106.666666666667
63,306,68083,6,0,B|40:278|40:278|112:308|112:308|125:328|125:328|227:319,1,213.333333333333
434,281,68317,2,0,L|341:291,1,80.0000030517579
96,220,68551,2,0,B|157:249|157:249|295:236,1,160.000006103516
464,295,68786,2,0,L|371:305,1,80.0000030517579
265,218,69020,6,0,L|311:222,1,40.000001525879
219,141,69176,2,0,P|278:94|344:131,1,160.000006103516
384,327,69411,2,0,B|373:307|373:307|381:234,1,80.0000030517579
512,68,69645,2,0,B|476:49|443:59|464:73|431:84|382:61,1,120.000004577637
296,18,69958,6,0,L|303:120,1,80.0000030517579
244,271,70192,2,0,B|206:301|206:301|214:212|214:212|224:205|224:205|217:129,1,213.333333333333
118,0,70426,2,0,P|136:37|133:90,1,80.0000030517579
0,144,70661,2,0,L|53:136,1,40.000001525879
218,141,70817,6,0,B|161:145|161:145|123:175|123:175|54:167,1,160.000006103516
22,57,71051,1,0,0:0:0:0:
99,94,71129,2,0,P|122:170|109:253,1,160.000006103516
0,334,71364,5,0,0:0:0:0:
58,269,71442,2,0,P|94:264|142:290,1,80.0000030517579
200,367,71676,1,0,0:0:0:0:
208,376,71754,6,0,B|208:357|197:338|197:338|236:298|204:228,1,120.000004577637
144,169,72067,2,0,P|195:223|310:180,1,160.000006103516
357,97,72301,2,0,B|343:135|343:135|354:211,1,80.0000030517579
469,285,72536,2,0,P|432:262|368:261,1,80.0000030517579
292,319,72692,1,0,0:0:0:0:
395,370,72770,6,0,B|457:317|398:268|397:235|397:235|382:261|338:253|341:306,1,240.000009155274
336,181,73083,1,0,0:0:0:0:
430,140,73161,2,0,P|456:146|476:162,1,53.3333333333333
345,74,73395,2,0,B|311:70|272:80|300:103|259:113|222:97,1,120.000004577637
104,5,73708,6,0,P|199:39|174:165,1,240.000009155274
13,264,74098,1,0,0:0:0:0:
97,221,74176,2,0,B|139:220|139:220|158:232|158:232|223:232,1,106.666666666667
353,177,74411,2,0,P|307:175|264:210,1,80.0000030517579
302,308,74567,2,0,B|336:317|336:317|403:283,1,80.0000030517579
433,310,74801,2,0,B|393:303|393:303|331:336|331:336|247:314,1,160.000006103516
97,221,75036,1,0,0:0:0:0:
168,359,75114,2,0,P|212:302|169:220,1,160.000006103516
4,132,75348,2,0,B|34:149|34:149|105:131,1,80.0000030517579
197,40,75583,6,0,P|184:93|219:173,1,106.666666666667
184,40,75817,6,0,P|177:89|215:157,1,95.9999970703126
172,42,76051,6,0,P|170:86|209:144,1,85.3333333333333
161,45,76286,6,0,P|162:84|201:134,1,74.6666643880209
149,49,76520,6,0,B|138:92|181:145|188:104|259:174|213:276|213:276|221:228|193:199,1,319.999990234375
75,363,77458,2,0,B|110:347|117:296|117:296|119:321|134:341,1,120.000004577637
504,234,77926,6,0,B|477:165|379:150|319:218|345:302|345:302|328:275|288:278,1,320.000012207032
189,352,78317,1,0,0:0:0:0:
291,283,78395,2,0,P|235:278|191:317,1,106.666666666667
80,368,78629,2,0,P|112:322|100:264,1,106.666666666667
14,239,78864,2,0,B|51:266|51:266|128:253,1,120.000004577637
235,137,79254,1,0,0:0:0:0:
159,101,79333,6,0,B|156:165|156:165|164:172|164:172|161:242,1,133.333333333333
80,368,79567,2,0,L|76:270,1,80.0000030517579
189,230,79801,1,0,0:0:0:0:
265,301,79879,2,0,B|334:290|334:290|340:279|340:279|431:284,1,160.000006103516
470,59,80192,1,0,0:0:0:0:
444,51,80270,6,0,P|405:134|425:224,1,160.000006103516
503,318,80583,1,0,0:0:0:0:
385,291,80661,2,0,L|282:307,1,80.0000030517579
71,376,80895,2,0,B|120:387|120:387|259:354,1,160
122,286,81208,6,0,P|114:220|148:164,1,133.333333333333
324,82,81442,2,0,P|287:127|211:135,1,106.666666666667
80,62,81676,1,0,0:0:0:0:
96,83,81754,2,0,B|148:78|148:78|155:70|155:70|209:65,1,106.666666666667
397,18,82067,1,0,0:0:0:0:
306,77,82145,6,0,P|281:149|311:238,1,160.000006103516
441,248,82379,1,0,0:0:0:0:
409,219,82458,2,0,L|296:230,1,80.0000030517579
256,314,82614,2,0,B|307:308|307:308|313:303|313:303|377:297,1,106.666666666667
206,217,82848,2,0,B|163:220|163:220|124:207|124:207|89:226|89:226|29:230,1,160.000006103516
123,375,83083,6,0,P|160:316|125:236,1,160.000006103516
12,136,83317,2,0,B|40:156|40:156|126:148,1,106.666666666667
220,100,83551,1,0,0:0:0:0:
140,52,83629,2,0,B|120:34|120:34|166:26|166:26|170:20|170:20|223:12|223:12|214:98|214:98|222:99|222:99|214:100|214:100|204:201,1,320.000012207032
81,306,84020,5,0,0:0:0:0:
125,235,84098,2,0,B|116:209|82:224|82:224|75:222|75:222|85:230|85:230|96:270|131:313|191:309|234:280,1,240.000009155274
373,185,84411,1,0,0:0:0:0:
399,204,84489,2,0,B|413:230|413:230|397:297,1,80.0000030517579
245,262,84645,2,0,B|256:313|256:313|249:328|249:328|257:379,1,120.000004577637
176,166,84958,6,0,P|192:97|270:192,1,266.666666666667
51,269,85426,2,0,B|19:248|19:248|103:272|103:272|132:304|132:304|206:306,1,200
331,246,85817,1,0,0:0:0:0:
427,288,85895,2,0,B|391:305|360:289|378:280|336:260|280:287,1,133.333333333333
245,379,86129,1,0,0:0:0:0:
328,350,86208,2,0,B|341:308|341:308|306:202,1,133.333333333333
165,54,86520,2,0,B|207:60|207:60|213:57|213:57|260:62,1,80.0000030517579
416,110,86833,6,0,B|437:87|437:87|371:93|371:93|357:103|357:103|286:108,1,160.000006103516
108,127,87067,2,0,L|204:137,1,80.0000030517579
263,182,87301,2,0,B|241:204|241:204|252:312,1,106.666666666667
355,359,87536,2,0,L|361:286,1,40.000001525879
397,237,87692,6,0,P|461:218|506:301,1,160
352,309,88004,1,0,0:0:0:0:
428,350,88083,2,0,L|325:345,1,53.3333333333333
208,370,88239,1,0,0:0:0:0:
262,260,88395,2,0,B|198:268|198:268|166:294|166:294|80:305,1,160
16,283,88708,6,0,B|59:278|59:278|86:288|86:288|167:278|167:278|194:253|194:253|340:236,1,280.000002670288
499,29,89098,2,0,B|440:9|440:9|431:165,1,186.666668446859
411,347,89333,2,0,L|396:236,1,80.0000030517579
339,186,89567,1,0,0:0:0:0:
406,137,89645,6,0,B|372:91|302:84|247:133|257:201|257:201|231:176|187:178,1,280.000002670288
0,83,90036,2,0,P|67:47|157:141,1,186.666668446859
184,341,90270,2,0,B|199:320|199:320|193:242,1,80.0000030517579
95,209,90583,6,0,B|69:256|69:256|183:249|183:249|214:200|214:200|275:197|275:197|291:214|291:214|346:211,1,360.000013732911
495,38,91442,2,0,B|446:42|446:42|441:31|441:31|408:174|408:174|463:169,1,240.000009155274
512,229,91989,2,0,B|491:210|491:210|434:217|434:217|425:226|425:226|328:233,1,160.000006103516
170,140,92458,6,0,B|207:177|199:240|199:240|170:274,1,133.333333333333
58,344,92692,2,0,B|40:338|25:340|25:340|19:342|19:342|25:339|25:339|65:294|149:351,1,133.333333333333
217,384,92926,2,0,B|204:342|204:342|240:304|240:304|307:318,1,133.333333333333
448,343,93161,2,0,B|461:353|461:353|424:372|381:354,1,80.0000030517579
310,299,93395,2,0,B|313:265|313:265|318:261|318:261|322:220,1,80.0000030517579
355,86,93629,2,0,L|362:169,1,66.6666666666667
424,228,93786,1,0,0:0:0:0:
505,196,93864,2,0,P|465:186|426:208,1,80.0000030517579
401,318,94020,6,0,B|327:313|327:313|315:299|315:299|208:293,1,160
48,365,94333,2,0,L|147:353,1,66.6666666666667
170,254,94489,1,0,0:0:0:0:
148,232,94567,2,0,B|199:234|199:234|208:241|208:241|274:245,1,106.666666666667
328,311,94801,1,0,0:0:0:0:
487,209,94958,2,0,P|448:167|342:236,1,160
237,356,95270,6,0,B|245:330|245:330|224:246,1,80.0000030517579
75,165,95504,2,0,P|146:135|217:186,1,160.000006103516
36,347,95739,2,0,P|34:300|67:253,1,80.0000030517579
138,221,95895,6,0,B|201:221|201:221|231:243|231:243|301:239,1,160
371,174,96208,2,0,P|322:229|381:351,1,160.000006103516
446,347,96442,6,0,L|492:345,2,40.000001525879
354,384,96676,5,0,0:0:0:0:
354,384,96754,1,0,0:0:0:0:
354,384,96833,1,0,0:0:0:0:
354,384,96911,2,0,P|356:340|330:296,1,80.0000030517579
213,276,97145,6,0,L|276:264,1,40.000001525879
331,215,97301,6,0,L|394:227,1,40.000001525879
214,183,97458,6,0,L|174:190,1,40.000001525879
37,153,97614,6,0,L|100:165,1,40.000001525879
160,12,97770,2,0,B|136:32|136:32|144:145,1,120.000004577637
213,276,98083,6,0,L|223:192,1,80.0000030517579
214,183,98317,2,0,B|297:162|261:224|364:193,1,133.333333333333
460,91,98551,2,0,L|447:178,1,66.6666666666667
424,336,98708,2,0,L|416:200,1,106.666666666667
335,29,99020,6,0,L|325:105,1,53.3333333333333
238,8,99254,1,0,0:0:0:0:
198,90,99333,2,0,L|208:166,1,53.3333333333333
351,2,99645,1,0,0:0:0:0:
295,111,99723,2,0,B|279:185|322:152|310:232,1,106.666666666667
224,265,99958,6,0,B|225:241|206:224|206:224|292:242|292:242|302:259|302:259|411:267,1,240.000009155274
512,88,100426,2,0,L|450:102,3,53.3333333333333
357,181,100817,1,0,0:0:0:0:
290,108,100895,2,0,B|334:151|323:206|323:206|298:220|290:247,1,160.000006103516
358,315,101286,1,0,0:0:0:0:
381,307,101364,2,0,L|442:312,1,40.000001525879
452,298,101520,2,0,B|364:286|364:286|315:323|315:323|169:307,1,240.000009155274
127,227,101833,6,0,B|173:218|217:280|186:340|132:349|132:349|108:325|71:324,1,240.000009155274
223,286,102301,1,0,0:0:0:0:
0,351,102458,2,0,P|42:317|108:342,1,106.666666666667
151,380,102692,1,0,0:0:0:0:
168,376,102770,2,0,B|187:350|187:350|179:295|179:295|185:287|185:287|169:190,1,160
101,34,103161,2,0,L|103:172,1,106.666666666667
27,242,103395,2,0,B|34:213|18:173|18:173|36:207|59:237|91:244|148:229,1,200
230,147,103708,6,0,B|121:215|178:320|178:320|228:341,1,240.000009155274
486,287,104098,1,0,0:0:0:0:
402,273,104176,2,0,P|367:300|353:351,1,80.0000030517579
490,305,104411,1,0,0:0:0:0:
280,284,104567,1,0,0:0:0:0:
349,201,104645,2,0,P|318:190|346:208,2,80.0000030517579
277,165,104879,2,0,P|308:154|280:172,2,80.0000030517579
344,118,105114,2,0,L|432:128,1,80.0000030517579
510,98,105270,2,0,B|477:120|477:120|318:102,1,160
268,0,105583,6,0,B|307:72|236:114|236:114|264:133|283:180|241:163|270:234,1,240.000009155274
472,315,106051,2,0,P|421:279|362:289,1,106.666666666667
291,363,106286,2,0,L|193:356,1,80.0000030517579
130,335,106520,2,0,L|218:325,1,53.3333333333333
35,303,106676,1,0,0:0:0:0:
156,204,106754,2,0,P|103:190|58:219,1,106.666666666667
35,303,106989,2,0,B|69:206|-3:138|-3:138|22:164|46:176|73:168|95:150|95:150|78:157|58:152,1,320
255,64,107458,6,0,B|276:27|241:-10|187:-1|168:52|179:107|226:131|226:103|250:146|232:206|232:206|235:179|208:149,1,320
156,204,107770,2,0,B|126:269|156:318|156:318|204:346,1,160
301,366,108083,2,0,P|239:340|141:376,1,160.000006103516
17,288,108395,6,0,B|57:291|81:323|81:323|125:282|167:269|187:265|187:265|190:256|190:256|198:263|198:263|216:261|267:262|317:283,1,320
460,308,108708,2,0,B|464:332|451:346|451:346|451:358|451:358|445:350|445:350|386:328|391:261,1,160
424,151,109020,2,0,B|431:110|472:109|472:109|478:104|478:104|474:111|474:111|496:148|454:181,1,160.000006103516
332,196,109333,6,0,B|312:162|326:123|326:123|355:64|278:5|210:63|241:128|241:128|218:112|192:120,1,320
66,84,109645,2,0,B|89:52|132:57|132:57|127:68|127:68|177:68|192:130,1,160
118,195,109958,2,0,P|151:140|200:197,1,160.000006103516
193,329,110270,6,0,B|230:360|303:347|274:228|194:252|163:314|163:314|155:310|155:310|110:363|26:318,1,320
14,216,110583,2,0,B|51:222|69:265|69:265|82:270|82:270|67:275|67:275|49:303|55:337,1,160
170,350,110895,2,0,B|196:322|183:289|183:289|174:283|174:283|184:281|184:281|188:224|228:206,1,160.000006103516
425,153,111208,6,0,B|413:206|451:193|452:210|436:215|437:176|376:202,1,106.666666666667
348,200,111364,2,0,B|308:163|300:202|285:194|288:178|322:198|330:133,1,106.666666666667
346,109,111520,2,0,B|397:92|367:66|381:57|394:68|359:87|412:126,1,106.666666666667
434,177,111676,6,0,B|410:232|454:225|452:243|434:246|442:204|371:220,1,111.999996582031
341,213,111833,2,0,B|304:165|288:206|273:195|280:178|313:206|334:137,1,111.999996582031
356,114,111989,2,0,B|415:106|387:72|404:64|415:79|375:92|425:146,1,111.999996582031
434,206,112145,6,0,B|398:262|447:263|441:282|421:281|438:238|358:242,1,117.333336914063
326,227,112301,2,0,B|296:169|271:210|257:195|268:178|297:215|333:144,1,117.333336914063
361,123,112458,2,0,B|427:126|404:83|424:79|433:97|386:104|430:171,1,117.333336914063
428,238,112614,6,0,B|378:291|431:301|421:321|399:316|426:272|338:261,1,122.666669006348
308,240,112770,2,0,B|286:170|251:211|238:192|254:175|278:221|331:150,1,122.666669006348
366,134,112926,2,0,B|436:149|419:99|441:98|448:119|396:118|431:199,1,122.666669006348
406,268,113083,6,0,B|366:294|372:341|372:341|366:310|359:284|359:284|342:239|284:239,1,213.333333333333
172,312,113551,2,0,P|249:339|180:348,1,213.333333333333
48,375,114020,2,0,B|88:367|84:320|84:320|73:201,1,160
26,104,114411,1,0,0:0:0:0:
94,153,114489,2,0,P|145:148|184:85,1,106.666666666667
209,26,114723,2,0,P|184:87|215:178,1,160.000006103516
470,257,114958,6,0,B|459:237|459:237|455:252|455:252|442:230|442:230|441:247|441:247|423:227|423:227|428:246|428:246|406:225|406:225|412:244|412:244|387:225|387:225|395:245|395:245|370:228|370:228|380:246|380:246|353:233|353:233|366:250|366:250|335:240|335:240|351:256|351:256|319:249|319:249|337:263|337:263|303:260|303:260|323:272|323:272|294:273|294:273|311:279|311:279|301:280,1,533.333333333333
196,361,115426,2,0,B|180:320|196:288|196:288|186:274|186:274|205:270|205:270|241:222|194:137,1,213.333333333333
99,55,115661,2,0,P|101:99|120:132,1,80.0000030517579
280,313,115895,2,0,P|291:238|188:177,1,160.000006103516
43,197,116129,2,0,P|82:217|120:217,1,80.0000030517579
358,208,116364,2,0,B|378:187|394:186|414:189|414:189|397:187|356:184|329:156|329:156|330:167|330:167|285:157|222:195,1,245.333338012695
146,326,116598,2,0,P|183:302|202:269,1,80.0000030517579
262,30,116833,2,0,B|219:44|219:44|223:37|223:37|188:25|188:25|213:102|213:102|224:105|224:105|239:214,1,266.666666666667
358,314,117067,2,0,B|317:310|317:310|307:316|307:316|253:310,1,80.0000030517579
146,326,117301,6,0,B|110:276|110:276|177:295|177:295|183:306|183:306|248:324|248:324|296:309,1,245.333338012695
338,175,117536,2,0,B|303:136|303:136|309:224,1,122.666669006348
443,262,117692,1,0,0:0:0:0:
455,248,117770,6,0,B|483:253|483:253|431:221|431:221|379:251|379:251|360:278|360:278|287:293,1,245.333338012695
117,234,118004,2,0,B|104:197|104:197|224:230,1,122.666669006348
422,233,118161,1,0,0:0:0:0:
434,219,118239,6,0,B|462:224|462:224|410:192|410:192|358:222|358:222|339:249|339:249|266:264,1,245.333338012695
86,157,118473,2,0,L|199:187,1,80.0000030517579
263,152,118708,6,0,B|223:161|223:161|217:159|217:159|187:166|187:166|46:119,1,200.000007629395
1,53,119176,2,0,B|66:84|66:165|66:165|45:203,1,160.000006103516
0,301,119411,2,0,P|43:267|108:315,1,106.666666666667
147,378,119645,2,0,B|153:355|141:337|141:337|169:314|168:267,1,106.666666666667
148,194,119879,2,0,B|189:230|175:283|175:283|188:243|243:230,1,160.000006103516
307,235,120114,2,0,P|261:226|205:242,1,80.0000030517579
254,354,120270,2,0,P|273:302|272:355,1,128
374,380,120583,6,0,B|355:319|386:287|386:287|377:283|377:283|410:227|368:179|368:179|376:167|376:167|354:155|354:155|376:155|376:155|349:137|349:137|373:142|373:142|347:119|347:119|367:125|367:125|342:105|342:105|365:114|365:114|340:90|340:90|362:102|362:102|338:75|338:75|356:83|356:83|340:65|340:65|350:72|350:72|341:57|342:34,1,613.333345031739
503,22,121051,2,0,B|524:76|524:76|448:59|448:59|440:71|440:71|325:61,1,245.333338012695
137,46,121286,2,0,B|186:43|186:43|199:52|199:52|272:48,1,106.666666666667
349,139,121520,2,0,B|276:137|276:137|259:123|259:123|193:126,1,160.000006103516
6,171,121754,2,0,L|118:164,1,80.0000030517579
194,125,121989,2,0,B|176:139|176:139|190:131|190:131|170:151|170:151|185:146|185:146|165:166|165:166|182:159|182:159|165:177|165:177|182:170|182:170|166:190|166:190|181:183|181:183|168:204|168:204|184:192|184:192|170:223|170:223|186:204|186:204|176:238|176:238|190:212|190:212|184:249|184:249|194:222|194:222|196:259|196:259|200:231|200:231|205:265|205:265|210:246|210:246|214:272|214:272|218:252|218:252|228:263,1,586.666684570313
296,316,122458,6,0,L|337:311,10,26.6666666666667
209,315,122926,2,0,P|231:249|297:286,1,160.000006103516
206,300,123395,2,0,B|191:235|274:219|306:268|304:305|304:305|301:336|325:359,1,213.333333333333
202,281,123864,2,0,B|209:232|280:224|306:273|304:310|304:310|302:351|328:379|379:393|417:360,1,320.000012207032
212,263,124333,2,0,B|219:238|280:224|306:273|304:310|304:310|302:351|328:379|377:404|428:365|442:326|442:326|442:293|468:273,1,400
511,281,124645,2,0,B|506:281|506:281|501:289|501:289|501:272|501:272|495:279|495:279|490:273|490:273|488:277|488:277|481:272|481:272|478:277|478:277|471:274|471:274|436:272,1,80.0000030517579
359,155,124801,6,0,B|409:114|461:156|461:156|451:158|451:158|502:227|435:279,1,234.666673828125
434,264,125036,2,0,B|454:251|474:212|448:175|448:175|458:169|458:169|414:132|357:165,1,191.999994140625
336,163,125270,6,0,B|373:110|434:137|434:137|425:142|425:142|492:195|441:263,1,234.666673828125
436,248,125505,2,0,B|451:230|461:187|426:158|426:158|434:150|434:150|382:125|337:172,1,191.999994140625
315,176,125739,6,0,B|337:115|403:125|403:125|396:132|396:132|474:166|442:245,1,234.666673828125
434,232,125974,2,0,B|444:210|442:166|401:147|401:147|407:137|407:137|350:127|318:184,1,191.999994140625
295,271,126208,6,0,B|250:298|174:272|224:244|143:221|80:267,1,213.333333333333
28,289,126442,2,0,B|67:303|102:287|80:269|120:251|164:265,1,133.333333333333
267,249,126676,6,0,B|222:276|146:250|196:222|115:199|52:245,1,213.333333333333
0,267,126911,2,0,B|39:281|74:265|52:247|92:229|136:243,1,133.333333333333
117,318,127145,2,0,B|84:261|113:205|113:205|109:196|109:196|121:202|121:202|117:195|117:195|139:162|130:128|130:128|103:104|93:64,1,266.666666666667
78,19,127614,6,0,B|57:25|32:20|32:20|86:33|108:81|108:81|139:59|174:68|174:68|189:84|214:93,1,245.333338012695
356,94,127848,2,0,B|364:88|384:92|384:92|371:89|341:55|308:91|323:93|306:105|274:104,1,133.333333333333
196,85,128083,2,0,B|231:120|278:106|278:106|290:120|290:120|336:84|396:114,1,213.333333333333
504,121,128317,2,0,P|460:147|400:130,1,106.666666666667
391,12,128551,2,0,B|356:34|347:76|365:134|384:197|384:197|381:156|420:125,1,266.666666666667
469,192,129020,2,0,B|493:229|535:186|470:98|377:142|342:235|401:329|498:296,1,266.666666666667
512,361,129489,2,0,P|459:323|373:339,1,133.333333333333
300,360,129723,2,0,P|307:325|295:280,2,66.6666666666667
97,356,129958,6,0,B|104:359|104:359|109:363|109:363|109:357|109:357|117:363|117:363|115:358|115:358|124:364|124:364|123:358|123:358|133:366|133:366|129:359|129:359|141:366|141:366|135:361|135:361|150:366|150:366|142:360|142:360|158:365|158:365|148:360|148:360|166:362|166:362|157:358|157:358|173:358|173:358|163:356|163:356|182:354|182:354|172:353|172:353|189:348|189:348|179:348|179:348|196:343|196:343|186:342|186:342|203:336|203:336|192:337|192:337|207:328|207:328|198:330|198:330|211:320|211:320|202:323|202:323|215:312|215:312|206:318|206:318|218:303|218:303|210:308|210:308|218:297|218:297|213:301|213:301|219:289|219:289|213:294|213:294|219:281|219:281|214:285|214:285|219:273|219:273|213:278|213:278|219:267|219:267|213:271|213:271|218:260|218:260|212:266|212:266|215:249|215:249|210:259|210:259|209:238|209:238|208:249|208:249|204:231|204:231|203:243|203:243|199:237|199:237|197:225|197:225|194:227|194:227|186:222,1,666.666666666667
120,109,130426,2,0,B|165:90|165:90|159:151|159:151|170:158|170:158|157:170|157:170|148:270,1,213.333333333333
14,268,130661,2,0,P|72:228|131:296,1,160.000006103516
210,356,130895,6,0,B|275:378|332:353|279:317|351:288|413:310,1,213.333333333333
488,352,131286,1,0,0:0:0:0:
423,293,131364,2,0,P|400:231|443:136,1,160.000006103516
512,112,131598,2,0,B|468:128|468:128|381:112,1,106.666666666667
228,10,131833,6,0,P|322:7|282:142,1,266.666666666667
215,134,132301,2,0,P|287:173|211:252,1,213.333333333333
151,217,132770,1,0,0:0:0:0:
151,217,132848,2,0,P|183:274|105:292,1,160
51,132,133239,6,0,P|97:196|77:288,1,160.000006103516
0,318,133473,2,0,B|42:293|42:293|134:303,1,106.666666666667
218,357,133708,6,0,B|300:351|300:351|305:346|305:346|418:336,1,160.000006103516
512,267,133942,2,0,B|462:288|462:288|381:266,1,106.666666666667
287,155,134176,2,0,B|306:50|396:81|402:64|402:64|403:82|504:100|448:227,1,320.000012207032
341,312,134567,1,0,0:0:0:0:
341,312,134645,6,0,B|296:291|355:229|392:244|384:317|445:275|469:207|538:132|458:17|246:121|421:225,1,400.00001525879
478,308,135114,2,0,P|440:265|380:268,1,106.666666666667
237,350,135348,2,0,P|293:338|320:285,1,106.666666666667
262,214,135583,6,0,B|252:189|226:178|226:178|277:169|339:226|332:296|274:333|274:333|248:321|217:335,1,320.000012207032
121,376,135973,1,0,0:0:0:0:
0,317,136051,2,0,B|30:341|61:323|61:323|99:286|149:302,1,160.000006103516
253,299,136286,2,0,P|206:323|141:288,1,106.666666666667
76,106,136520,2,0,B|187:118|196:242|94:273|35:181|108:117,1,266.666666666667
87,87,136989,2,0,B|103:2|43:-30|-12:17|18:70|77:58,1,200.000007629395
186,127,137458,6,0,B|235:150|278:117|278:117|305:42|362:66|362:66|372:66|372:66|354:72|346:87,1,240.000009155274
458,92,137770,2,0,P|463:50|435:8,1,80.0000030517579
359,128,137926,2,0,B|367:203|367:203|376:210|376:210|383:297,1,160.000006103516
414,358,138161,2,0,L|415:276,1,80.0000030517579
477,207,138395,6,0,B|515:234|515:234|439:227|439:227|414:258|414:258|346:261|346:261|338:256|338:256|252:259,1,320.000012207032
9,160,138864,2,0,B|87:167|95:238|95:238|83:262|90:294,1,160.000006103516
172,377,139098,2,0,B|165:335|165:335|177:318|177:318|166:245,1,106.666666666667
149,99,139333,6,0,B|90:-3|231:-49|285:67|210:148|153:95|144:162|180:229,1,320.000012207032
367,200,139801,2,0,P|320:152|257:247,1,200.000007629395
432,295,140270,1,0,0:0:0:0:
432,295,140348,2,0,P|445:166|286:68,1,320.000012207032
109,193,140739,2,0,P|182:209|229:138,1,160.000006103516
223,1,140973,2,0,B|238:37|216:73|216:73|230:80|230:80|213:109|237:175,1,160.000006103516
326,309,141208,6,0,P|331:270|293:201,1,80
166,325,141442,2,0,P|152:288|175:213,1,80
361,293,141676,6,0,P|360:253|295:185,1,88.000002685547
128,317,141911,2,0,P|120:278|169:198,1,88.000002685547
393,270,142145,6,0,B|385:231|363:201|363:201|314:177,1,95.9999970703126
93,302,142379,2,0,B|92:262|107:229|107:229|150:195,1,95.9999970703126
420,242,142614,6,0,B|405:205|377:183|377:183|328:176,1,103.999995239258
60,280,142848,2,0,B|66:241|89:213|89:213|135:196,1,103.999995239258
436,216,143083,6,0,P|359:170|294:256,1,160.000006103516
248,330,143317,2,0,L|257:401,1,53.3333333333333
37,257,143551,6,0,P|99:192|184:258,1,160.000006103516
243,301,143786,2,0,L|252:371,1,53.3333333333333
234,80,144020,6,0,B|255:61|264:32|240:-1|205:-4|205:-4|201:-7|201:-7|200:-2|200:-2|148:54|193:107|221:125|221:78|256:126|259:174|259:174|235:201|244:227|244:227|248:228|248:228|258:248|257:277,1,431.999986816407
141,361,144489,2,0,P|154:307|199:285,1,80
275,302,144723,2,0,P|299:351|279:397,1,80
220,351,144958,5,0,0:0:0:0:
455,235,159958,6,0,P|403:204|341:220,1,120.000004577637
392,343,160426,2,0,P|398:308|379:263,1,60.0000022888184
274,271,160661,2,0,P|259:303|265:351,1,60.0000022888184
169,379,160895,6,0,P|172:314|142:258,1,120.000004577637
0,181,161364,2,0,B|47:204|47:204|116:181,1,120.000004577637
225,0,161833,6,0,B|158:43|180:126|180:126|214:160,1,180.000006866455
347,183,162301,2,0,P|313:177|275:191,1,60.0000022888184
222,240,162536,2,0,L|232:318,1,60.0000022888184
305,356,162770,2,0,B|326:318|326:318|319:253|319:253|324:244|324:244|312:159|312:159|326:117,1,240.000009155274
498,69,163473,2,0,L|420:79,1,60.0000022888184
237,15,163708,6,0,P|295:2|355:48,1,120.000004577637
407,111,163942,2,0,L|527:99,1,80
464,183,164176,2,0,B|420:187|420:187|414:195|414:195|344:202,1,100
463,261,164411,1,0,0:0:0:0:
300,303,164528,6,0,B|338:264|338:264|339:255|339:255|366:225|366:225|382:284|382:284|377:299|377:299|405:372|405:372|332:354,1,300.000011444092
196,263,165348,2,0,L|201:201,1,60.0000022888184
258,126,165583,2,0,B|287:164|287:164|274:300,1,180.000006866455
3,320,166051,2,0,B|8:280|39:246|85:249|110:273|110:273|115:274|115:274|109:277|109:277|95:291|94:317,1,180.000006866455
238,343,166520,2,0,B|256:297|249:242|197:200|148:207|148:207|173:219|185:246,1,240.000009155274
12,377,167223,2,0,P|0:344|13:300,1,60.0000022888184
114,276,167458,6,0,P|126:220|79:161,1,120.000004577637
0,50,167926,2,0,P|25:69|69:75,1,60.0000022888184
144,97,168161,2,0,P|172:84|200:49,1,60.0000022888184
288,24,168395,2,0,B|263:8|263:8|278:87|278:87|290:95|290:95|289:169,1,180.000006866455
217,276,168864,2,0,B|211:222|211:222|216:217|216:217|206:153,1,120.000004577637
434,41,169333,6,0,B|434:21|444:5|444:5|342:32|382:146,1,184.000003509522
503,244,169801,2,0,B|504:231|511:222|511:222|491:240|437:240,1,92.0000017547608
288,174,170036,2,0,P|327:174|368:216,1,92.0000017547608
391,347,170270,2,0,B|383:372|357:378|353:387|353:387|351:375|314:337|334:294|334:294|326:292|326:292|338:291|338:291|368:262|371:188,1,240.000009155274
299,84,170973,2,0,P|293:118|307:157,1,60.0000022888184
459,114,171208,6,0,P|411:98|341:144,1,92.0000017547608
282,223,171442,2,0,P|234:239|164:193,1,92.0000017547608
116,110,171676,2,0,B|137:105|148:89|148:89|139:217,1,120.000004577637
81,287,171911,1,0,0:0:0:0:
25,226,172028,2,0,B|6:240|-3:249|-3:249|0:244|0:244|14:199|70:171|137:208,1,200
194,323,172379,2,0,B|253:331|253:331|263:321|263:321|329:313,1,120
392,298,172848,2,0,L|286:290,1,80
436,233,173083,6,0,P|469:270|462:340,1,106.666666666667
323,347,173317,2,0,B|303:316|303:316|315:222,1,106.666666666667
217,44,173551,2,0,B|213:27|224:1|224:1|219:7|219:7|179:16|143:62|158:116|185:129|189:108|208:140|205:179,1,240.000009155274
154,252,173942,1,0,0:0:0:0:
24,203,174020,2,0,P|79:166|146:195,1,120.000004577637
234,280,174254,2,0,L|346:269,1,60.0000022888184
345,193,174489,2,0,P|309:243|357:335,1,120.000004577637
512,333,174723,2,0,B|471:309|471:309|359:327,1,120.000004577637
199,373,174958,6,0,B|162:333|198:249|284:276|292:329|292:329|269:308|243:327,1,240.000009155274
14,235,175348,2,0,B|51:187|118:196|144:252|138:283|138:283|163:235|150:180|150:180|181:233|174:275|174:275|199:233|183:196|183:196|216:235|206:268|206:268|230:233|224:219|224:219|232:238|242:260|294:290|386:265|455:200|347:93|271:157|304:237,1,911.999975646973
426,270,176833,6,0,B|478:194|415:112|415:112|443:149|491:146,1,240.000009155274
421,31,177223,2,0,B|351:32|334:95|334:95|283:59|241:73|288:91|236:107|164:99|118:28|148:-73|256:-108|346:-52|358:28|309:93|245:106|280:116|227:136|193:155|184:220|203:277|286:303|352:261|361:194|334:134|246:122|190:158|190:158|187:147|187:147|157:169|124:164|135:152|98:133|64:152,1,960
0,197,178708,6,0,B|48:132|139:150|114:198|182:204|240:146,1,240.000009155274
382,14,179098,2,0,B|313:58|271:184|322:284|432:318|432:318|437:328|437:328|438:317|438:317|491:290|526:221|513:147|464:112|464:112|482:173|427:230|427:230|322:164|242:286,1,960
278,375,180583,6,0,B|306:304|228:218|121:280|136:359|136:359|113:333|70:335,1,320.000012207032
222,171,180973,2,0,P|258:264|166:234,1,240.000009155274
281,270,181520,2,0,P|255:155|160:282,1,320.000012207032
389,351,181989,2,0,P|422:333|467:336,1,80
485,355,182301,1,0,0:0:0:0:
486,114,182458,6,0,P|430:171|426:270,1,160.000006103516
369,369,182692,2,0,P|365:330|342:298,1,80.0000030517579
206,345,182926,1,0,0:0:0:0:
230,366,183004,2,0,B|278:358|278:358|290:349|290:349|367:335,1,106.666666666667
225,261,183317,1,0,0:0:0:0:
351,269,183395,2,0,P|297:228|226:252,1,133.333333333333
128,361,183629,1,0,0:0:0:0:
128,361,183708,2,0,L|45:354,1,66.6666666666667
0,284,183864,2,0,L|39:280,1,40.000001525879
159,227,184020,6,0,P|113:173|35:206,1,160
0,284,184333,2,0,B|26:251|26:251|6:107,1,160.000006103516
0,3,184567,2,0,P|29:37|86:59,1,80.0000030517579
208,13,184801,1,0,0:0:0:0:
142,75,184879,2,0,B|123:122|141:170|162:139|181:188|150:244,1,160.000006103516
0,316,185192,1,0,0:0:0:0:
13,295,185270,6,0,P|76:275|148:335,1,160.000006103516
233,376,185583,1,0,0:0:0:0:
299,302,185661,2,0,L|284:210,1,80.0000030517579
201,151,185895,2,0,B|194:112|194:112|246:143|246:143|260:227,1,160
172,287,186208,6,0,P|233:246|291:279,1,133.333333333333
453,350,186442,2,0,P|386:317|386:250,1,106.666666666667
465,139,186676,1,0,0:0:0:0:
486,155,186754,2,0,B|481:207|481:207|473:214|473:214|468:268,1,106.666666666667
366,68,187067,1,0,0:0:0:0:
273,117,187145,6,0,B|244:161|244:161|359:147,1,160.000006103516
467,54,187379,1,0,0:0:0:0:
452,40,187458,2,0,L|339:51,1,80.0000030517579
187,123,187614,2,0,B|238:117|238:117|244:112|244:112|308:106,1,106.666666666667
159,40,187848,2,0,B|116:43|116:43|76:31|76:31|42:51|42:51|-17:56,1,160.000006103516
86,116,188083,6,0,P|118:185|81:252,1,160.000006103516
0,320,188317,2,0,B|22:294|22:294|108:282,1,106.666666666667
213,330,188551,1,0,0:0:0:0:
174,253,188629,2,0,B|155:233|155:233|201:228|201:228|206:223|206:223|259:218|259:218|288:248|288:248|362:258,1,240.000009155274
489,173,188942,5,0,0:0:0:0:
396,184,189020,2,0,B|358:219|340:286|374:366|469:358|510:303|470:220|380:252,1,320.000012207032
188,265,189489,2,0,B|202:291|202:291|186:358,1,80.0000030517579
61,375,189645,2,0,B|53:324|53:324|60:309|60:309|48:253,1,120.000004577637
135,116,189958,6,0,P|55:65|0:142,1,200
225,155,190426,2,0,P|130:150|121:244,1,160
306,166,190895,2,0,P|236:184|229:267,1,120.000004577637
379,159,191364,2,0,P|338:185|326:233,1,80
456,340,191833,6,0,B|496:303|496:303|470:158,1,200
164,329,192301,2,0,B|124:292|124:292|147:159,1,160
129,324,192770,2,0,B|93:290|93:290|113:171,1,120.000004577637
90,317,193239,2,0,B|68:297|68:297|80:225,1,80
322,120,193708,6,0,B|302:168|238:190|176:157|166:98|166:98|163:144|125:168,1,280.000002670288
2,46,194098,2,0,B|17:8|57:0|57:0|114:38|80:114,1,186.666668446859
0,240,194333,2,0,P|35:217|92:237,1,80.0000030517579
155,277,194567,1,0,0:0:0:0:
151,253,194645,6,0,B|106:217|36:228|-3:290|27:351|27:351|24:309|59:288,1,280.000002670288
231,314,195036,2,0,B|252:293|252:293|286:295|286:295|317:259|317:259|321:270|321:270|403:276,1,186.666668446859
512,347,195270,2,0,B|491:332|491:332|413:338,1,80.0000030517579
286,170,195583,6,0,B|351:167|386:96|386:96|385:182|451:207|451:207|442:222|442:222|470:202|528:216,1,360.000013732911
260,0,196442,2,0,P|229:21|318:64,1,200.000007629395
341,0,196989,2,0,B|333:12|333:12|336:73|336:73|347:82|347:82|352:179,1,160.000006103516
485,295,197458,6,0,B|462:242|399:232|399:232|376:246|342:244,1,160.000006103516
212,178,197692,2,0,B|194:172|179:174|179:174|173:176|173:176|179:173|179:173|249:138|297:223,1,160.000006103516
261,337,197926,1,0,0:0:0:0:
212,253,198083,1,0,0:0:0:0:
195,264,198161,2,0,P|153:251|109:268,1,80.0000030517579
30,371,198395,2,0,B|67:356|67:356|107:304|84:220,1,160
0,104,198786,1,0,0:0:0:0:
106,161,198864,2,0,L|181:143,1,53.3333333333333
207,11,199020,6,0,B|185:-2|185:-2|174:150,1,160
231,254,199333,2,0,B|257:257|277:280|277:280|260:237|204:224|204:224|210:218|210:218|151:218|126:260|126:260|140:250|166:250,1,280.000002670288
349,196,199801,5,0,0:0:0:0:
191,360,199958,2,0,B|224:373|224:373|288:362,1,80.0000030517579
344,326,200192,1,0,0:0:0:0:
450,351,200270,2,0,B|415:320|376:342|376:342|405:336|434:359,1,120.000004577637
512,288,200661,2,0,P|511:205|464:129,1,160.000006103516
294,42,200895,6,0,P|346:8|394:40,1,120.000004577637
390,59,201208,2,0,B|383:18|343:1|303:27|295:58|295:58|287:86|252:110|197:99|184:43,1,280.000002670288
363,147,201676,5,0,0:0:0:0:
199,23,201833,1,0,0:0:0:0:
188,36,201911,2,0,L|183:93,1,40.000001525879
12,111,202145,2,0,P|68:98|116:131,1,120.000004577637
47,265,202536,1,0,0:0:0:0:
36,252,202614,2,0,L|41:206,1,40.000001525879
263,250,202770,6,0,B|207:252|207:252|202:247|202:247|136:249,1,120.000004577637
117,230,203083,2,0,B|202:230|202:230|210:236|210:236|272:235|272:235|317:267|317:267|416:261,1,280.000002670288
497,133,203395,5,0,0:0:0:0:
497,133,203473,2,0,P|463:166|455:221,1,80.0000030517579
392,54,203708,2,0,P|363:115|381:195,1,133.333333333333
271,142,203942,5,0,0:0:0:0:
266,156,204020,2,0,P|279:198|318:229,1,80.0000030517579
202,108,204176,5,0,0:0:0:0:
190,117,204254,2,0,P|180:159|198:206,1,80.0000030517579
159,44,204411,5,0,0:0:0:0:
144,45,204489,2,0,B|114:77|107:122|107:122|105:80|65:51,1,160.000006103516
0,50,204723,6,0,P|60:73|83:147,1,133.333333333333
49,365,204958,6,0,B|29:326|29:326|54:261|54:261|66:250|66:250|95:179|95:179|72:137,1,240.000009155274
135,330,205583,2,0,B|168:334|168:334|181:344|181:344|227:350,1,80.0000030517579
259,320,205895,6,0,B|221:315|221:315|317:211|317:211|340:281|340:281|332:289|332:289|351:342,1,320.000012207032
317,23,206520,2,0,B|336:27|336:27|356:84,1,80.0000030517579
316,213,206833,6,0,B|302:180|302:180|307:177|307:177|290:138|290:138|301:153|301:153|374:166|374:166|383:158|383:158|454:153|454:153|464:189|464:189|483:202,1,320.000012207032
134,79,207458,2,0,B|116:111|116:111|52:119,1,80.0000030517579
271,27,207770,6,0,B|303:-5|303:-5|224:12|224:12|211:9|211:9|223:14|223:14|246:63|246:63|251:63|251:63|272:116|272:116|238:203,1,320.000012207032
0,324,208395,2,0,B|40:306|40:306|79:310,1,80.0000030517579
512,287,208708,6,0,L|426:272,1,60.0000022888184
450,263,208942,2,0,L|364:248,1,60.0000022888184
383,332,209176,2,0,L|297:317,1,60.0000022888184
268,202,209410,2,0,L|328:212,1,60.0000022888184
445,356,209645,6,0,L|359:341,1,60.0000022888184
360,242,209879,2,0,L|274:227,1,60.0000022888184
239,366,210114,2,0,L|153:351,1,60.0000022888184
53,161,210348,2,0,L|113:171,1,60.0000022888184
264,98,210583,6,0,B|276:64|276:64|254:-2,1,100
135,125,210817,2,0,B|112:99|112:99|105:29,1,100
344,181,211051,2,0,B|371:158|371:158|385:89,1,100
97,233,211286,2,0,B|64:222|64:222|23:165,1,100
257,332,211520,6,0,B|290:367|252:404|202:403|158:344|221:313|235:298|236:261|236:261|244:291|309:293|308:371|308:371|332:339|385:339,1,420.000016021729
512,207,212458,6,0,P|476:205|442:224,1,66.6666666666667
436,191,213317,6,0,P|403:207|383:240,1,66.6666666666667
362,215,214254,6,0,P|342:245|341:284,1,66.6666666666667
462,338,214567,2,0,L|497:340,14,33.3333333333333
309,272,215192,6,0,P|307:308|326:341,1,66.6666666666667
512,207,215504,1,0,0:0:0:0:
408,275,215583,2,0,B|363:294|309:271|355:248|286:214|225:255,1,186.666668446859
88,368,215817,1,0,0:0:0:0:
113,373,215895,2,0,P|135:328|123:285,1,80.0000030517579
72,239,216129,1,0,0:0:0:0:
61,249,216208,6,0,B|42:243|13:260|13:260|43:238|28:236|75:184|119:237|102:238|141:270|190:252,1,240.000009155274
321,167,216598,1,0,0:0:0:0:
235,146,216676,2,0,P|276:131|316:152,1,80.0000030517579
396,251,216911,2,0,B|386:222|386:222|401:153,1,80.0000030517579
512,93,217067,1,0,0:0:0:0:
472,162,217145,2,0,B|430:164|430:164|425:171|425:171|380:174,1,80.0000030517579
234,90,217379,6,0,P|274:101|298:136,1,66.6666666666667
334,19,217536,5,0,0:0:0:0:
351,21,217614,2,0,P|374:58|373:100,1,80.0000030517579
465,62,217770,5,0,0:0:0:0:
476,76,217848,2,0,P|440:151|392:168,1,106.666666666667
313,203,218083,6,0,B|351:177|408:168|443:220|443:220|453:222|453:222|444:220|444:220|411:218|391:239,1,213.333333333333
500,343,218317,2,0,P|487:319|430:296,1,80.0000030517579
235,315,218551,6,0,B|231:269|252:215|314:210|314:210|321:203|321:203|315:210|315:210|296:237|305:265,1,213.333333333333
449,223,218786,2,0,P|421:222|373:260,1,80.0000030517579
349,343,219020,6,0,L|353:389,1,40.000001525879
219,294,219176,2,0,B|195:262|195:262|256:267|256:267|262:275|262:275|366:283,1,160.000006103516
502,249,219411,2,0,B|513:269|513:269|441:262,1,80.0000030517579
252,156,219645,2,0,B|288:137|321:147|300:161|333:172|382:149,1,120.000004577637
454,24,219958,6,0,P|428:56|427:96,1,80.0000030517579
512,137,220192,2,0,B|525:95|525:95|443:112|443:112|437:124|437:124|356:145,1,213.333333333333
261,0,220426,2,0,P|279:42|264:90,1,80.0000030517579
120,167,220661,2,0,L|74:162,1,40.000001525879
158,93,220817,6,0,P|203:166|166:239,1,160.000006103516
5,264,221051,1,0,0:0:0:0:
98,211,221129,2,0,B|171:215|171:215|182:223|182:223|267:227,1,160.000006103516
463,301,221364,5,0,0:0:0:0:
387,196,221442,2,0,P|369:228|378:282,1,80.0000030517579
474,298,221676,1,0,0:0:0:0:
484,295,221754,6,0,B|510:255|510:255|484:160,1,120.000004577637
367,71,222067,2,0,B|403:48|403:48|392:187,1,160.000006103516
271,252,222301,2,0,P|309:228|353:235,1,80.0000030517579
391,369,222536,2,0,B|399:351|399:351|400:289,1,80.0000030517579
316,149,222692,1,0,0:0:0:0:
400,123,222770,6,0,B|476:95|489:171|517:188|517:188|487:188|472:230|428:201,1,240.000009155274
289,76,223083,1,0,0:0:0:0:
235,181,223161,2,0,L|243:251,1,53.3333333333333
81,366,223395,2,0,B|55:342|55:342|67:228,1,120.000004577637
164,126,223708,6,0,P|127:218|3:180,1,240.000009155274
40,3,224098,1,0,0:0:0:0:
150,50,224176,2,0,B|192:49|192:49|211:61|211:61|276:61,1,106.666666666667
401,10,224411,2,0,P|355:8|312:43,1,80.0000030517579
350,139,224567,2,0,B|384:148|384:148|451:114,1,80.0000030517579
481,141,224801,2,0,B|441:134|441:134|379:167|379:167|295:145,1,160.000006103516
209,60,225036,1,0,0:0:0:0:
292,94,225114,2,0,P|323:163|278:225,1,160.000006103516
124,303,225348,2,0,B|154:286|154:286|225:304,1,80.0000030517579
292,368,225583,6,0,P|305:315|270:235,1,106.666666666667
305,368,225817,6,0,P|312:319|274:251,1,95.9999970703126
317,366,226051,6,0,P|319:322|280:264,1,85.3333333333333
328,363,226286,6,0,P|327:324|288:274,1,74.6666643880209
340,359,226520,6,0,B|351:316|308:263|301:304|230:234|276:132|276:132|268:180|296:209,1,319.999990234375
456,8,227458,2,0,P|423:34|410:84,1,80.0000030517579
490,291,227926,6,0,B|512:291|527:313|527:313|530:265|476:216|402:241|381:294|402:288|393:312|363:333|319:331|287:305,1,320.000012207032
176,201,228317,1,0,0:0:0:0:
260,253,228395,2,0,P|279:307|240:364,1,106.666666666667
88,342,228629,2,0,B|68:310|68:310|88:236,1,106.666666666667
237,143,228864,2,0,P|179:115|111:146,1,120.000004577637
35,288,229254,1,0,0:0:0:0:
44,270,229333,6,0,B|113:262|113:262|141:280|141:280|196:269,1,133.333333333333
263,142,229567,2,0,B|253:187|253:187|274:232,1,80.0000030517579
378,313,229801,1,0,0:0:0:0:
283,297,229879,2,0,B|353:283|353:283|359:270|359:270|449:280,1,160.000006103516
512,55,230192,1,0,0:0:0:0:
435,87,230270,6,0,B|390:136|418:195|418:195|393:175|350:173,1,160.000006103516
276,218,230583,1,0,0:0:0:0:
289,194,230661,2,0,P|323:175|368:181,1,80.0000030517579
512,296,230895,2,0,B|450:277|420:306|445:313|410:349|345:328,1,160
266,242,231208,6,0,P|287:307|252:362,1,133.333333333333
80,321,231442,2,0,B|131:315|131:315|140:321|140:321|194:315,1,106.666666666667
70,234,231676,1,0,0:0:0:0:
4,286,231754,2,0,P|-5:347|26:392,1,106.666666666667
215,344,232067,1,0,0:0:0:0:
209,228,232145,6,0,B|251:230|274:196|274:196|247:237|266:299,1,160.000006103516
396,340,232379,1,0,0:0:0:0:
394,197,232458,2,0,P|358:213|340:279,1,80.0000030517579
413,362,232614,2,0,B|362:356|362:356|356:351|356:351|292:345,1,106.666666666667
141,297,232848,2,0,B|183:302|183:302|223:291|223:291|257:312|257:312|317:319,1,160.000006103516
512,282,233083,6,0,B|533:261|533:261|475:268|475:268|466:260|466:260|390:272,1,160.000006103516
288,232,233317,2,0,B|304:209|304:209|316:301,1,106.666666666667
208,374,233551,1,0,0:0:0:0:
82,296,233629,2,0,B|124:264|173:284|173:284|165:288|165:288|209:308|213:354|213:354|226:326|266:324,1,240.000009155274
9,384,234020,5,0,0:0:0:0:
134,360,234176,2,0,P|162:293|107:220,1,160.000006103516
0,108,234411,1,0,0:0:0:0:
6,123,234489,2,0,B|32:137|32:137|99:121,1,80.0000030517579
210,9,234645,2,0,B|186:18|182:44|188:61|188:61|207:125,1,120.000004577637
139,200,234958,6,0,P|220:147|278:235,1,213.333333333333
183,344,235192,2,0,P|182:299|203:265,1,80.0000030517579
385,286,235426,2,0,B|413:259|413:259|357:276|357:276|324:317|324:317|260:324,1,200
103,288,235817,1,0,0:0:0:0:
117,279,235895,2,0,B|151:262|182:278|164:287|207:305|246:286,1,133.333333333333
217,201,236129,1,0,0:0:0:0:
306,227,236208,2,0,B|329:278|329:278|308:377,1,133.333333333333
426,261,236520,2,0,B|468:255|468:255|474:258|474:258|521:253,1,80.0000030517579
481,23,236833,6,0,B|417:57|440:132|440:132|461:151|467:185,1,160.000006103516
310,201,237067,2,0,P|351:185|401:199,1,80.0000030517579
446,270,237301,2,0,B|455:308|455:308|428:379,1,106.666666666667
315,338,237536,2,0,L|242:332,1,40.000001525879
93,321,237692,6,0,B|163:328|163:328|188:310|188:310|247:315,1,160
145,235,238004,1,0,0:0:0:0:
134,249,238083,2,0,L|37:241,1,53.3333333333333
10,167,238239,1,0,0:0:0:0:
113,356,238395,2,0,B|146:326|146:326|134:206,1,160
119,192,238708,6,0,B|74:195|55:135|119:74|188:109|193:160|172:158|221:205|284:177,1,280.000002670288
403,57,239098,2,0,B|386:3|379:39|354:7|350:1|350:1|354:7|358:42|334:22|324:71|380:120,1,186.666668446859
480,235,239333,2,0,P|452:201|412:197,1,80.0000030517579
352,245,239567,1,0,0:0:0:0:
296,178,239645,6,0,B|292:167|275:159|275:159|314:165|347:140|347:140|318:177|332:226|332:226|337:227|337:227|333:230|333:230|324:269|324:269|340:327,1,280.000002670288
502,342,240036,2,0,B|487:286|435:282|435:282|436:289|436:289|386:275|348:320,1,186.666668446859
228,384,240270,2,0,B|244:357|244:357|235:303,1,80.0000030517579
143,208,240583,6,0,P|186:207|219:233,1,80.0000030517579
181,226,240817,2,0,P|202:263|197:304,1,80.0000030517579
183,268,241051,2,0,P|161:305|123:321,1,80.0000030517579
74,318,241286,2,0,P|94:311|126:314,1,40.000001525879
284,368,241442,6,0,B|298:356|300:333|284:312|269:310|269:310|271:314|271:314|236:300|216:260|233:217|279:200,1,200.000007629395
512,200,241989,2,0,B|490:246|452:236|424:228|424:228|348:207,1,160.000006103516
280,49,242458,6,0,B|289:4|320:19|335:-7|335:-7|342:24|355:12|375:59|364:113|320:136|320:136|339:107|332:70,1,280.000002670288
92,202,242848,2,0,P|130:189|170:195,1,80.0000030517579
276,313,243161,1,0,0:0:0:0:
308,308,243239,1,0,0:0:0:0:
341,304,243317,1,0,0:0:0:0:
403,246,243395,6,0,P|364:339|489:315,1,280.000002670288
345,98,243786,2,0,P|401:67|410:165,1,186.666668446859
307,214,244020,2,0,B|268:212|268:212|262:209|262:209|219:207,1,80.0000030517579
126,154,244254,6,0,P|149:190|144:235,1,80.0000030517579
49,303,244489,1,0,0:0:0:0:
66,290,244567,2,0,B|103:291|103:291|111:298|111:298|163:302,1,80.0000030517579
233,287,244801,2,0,L|143:280,1,80.0000030517579
297,240,245036,1,0,0:0:0:0:
311,252,245114,2,0,P|318:269|319:288,2,26.6666666666667
239,175,245270,6,0,P|259:157|291:152,1,53.3333333333333
287,70,245426,5,0,0:0:0:0:
306,66,245504,2,0,P|331:74|351:99,1,53.3333333333333
420,55,245661,5,0,0:0:0:0:
433,69,245739,2,0,P|438:95|426:125,1,53.3333333333333
371,179,245895,6,0,B|409:162|409:162|498:194,1,120.000004577637
508,180,246208,6,0,B|410:148|410:148|342:182|342:182|313:172|313:172|283:188|283:188|241:182,1,280.000002670288
113,47,246598,2,0,P|173:109|134:207,1,186.666668446859
44,210,246833,2,0,B|88:217|88:217|98:212|98:212|134:218,1,80.0000030517579
209,285,247067,1,0,0:0:0:0:
131,338,247145,6,0,B|154:304|205:292|249:317|265:351|265:351|268:335|268:335|318:382|381:341,1,280.000002670288
486,118,247536,2,0,P|409:158|416:263,1,186.666668446859
501,294,247771,2,0,B|456:287|456:287|449:279|449:279|412:273,1,80.0000030517579
342,229,248004,6,0,B|411:239|403:325|312:351|245:291|263:194|263:194|256:188|256:188|268:189|268:189|322:141|314:57,1,440.000016784669
161,37,248942,6,0,B|145:32|121:46|121:46|131:43|131:43|183:-18|267:37|232:110|232:110|201:95|153:117|171:132|126:144|74:119|74:119|128:142|152:188,1,480.000018310548
73,310,250036,6,0,B|44:267|65:214|65:214|96:212|120:188|120:188|128:261|183:285|183:285|194:263|216:259|216:259|213:200|263:182|263:182|267:175|267:175|268:183|268:183|312:215|288:278|288:278|306:283|313:303|313:303|331:259|366:243|366:243|379:289|408:299|408:299|429:291|429:291|428:341|394:381|343:390|306:377|306:377|242:411|198:364|198:364|174:370|157:362|157:362|208:412|332:431|481:377|526:306|525:196|481:137|481:137|433:155|395:187|395:187|370:145|318:117|318:117|392:111|450:91|450:91|415:19|299:-48|151:-5|90:40|90:40|126:21|168:29|168:29|183:73|229:110|229:110|200:122|184:141|184:141|122:170|66:137|52:100|52:100|47:106|47:106|11:132|10:177,1,2855.9999128418
