osu file format v14

[General]
AudioFilename: audio.mp3
AudioLeadIn: 0
PreviewTime: 81769
Countdown: 0
SampleSet: Normal
StackLeniency: 0.7
Mode: 1
LetterboxInBreaks: 0
WidescreenStoryboard: 0

[Editor]
DistanceSpacing: 1.3
BeatDivisor: 4
GridSize: 32
TimelineZoom: 2.1

[Metadata]
Title:Nacreous Snowmelt
TitleUnicode:Nacreous Snowmelt
Artist:Camellia
ArtistUnicode:かめりあ
Creator:rubies87
Version:Delicate Crystal
Source:
Tags:artcore dnb future bass drumstep 200step glitch hop psytrance hardstyle hardcore full flavor かめるかめりあ kamelcamellia cametek THX for 70k Twitter Followers electronic instrumental nifty featured artist fa
BeatmapID:2223880
BeatmapSetID:1062036

[Difficulty]
HPDrainRate:5
CircleSize:2
OverallDifficulty:7
ApproachRate:10
SliderMultiplier:1.4
SliderTickRate:1

[Events]
//Background and Video events
0,0,"bg.jpg",0,0
//Break Periods
//Storyboard Layer 0 (Background)
//Storyboard Layer 1 (Fail)
//Storyboard Layer 2 (Pass)
//Storyboard Layer 3 (Foreground)
//Storyboard Layer 4 (Overlay)
//Storyboard Sound Samples

[TimingPoints]
575,298.507462686567,4,1,0,50,1,8
575,-166.666666666667,4,1,0,50,0,0
2963,-153.846153846154,4,1,0,50,0,0
3112,-149.999925000038,4,1,0,50,0,0
3261,-146.341534800749,4,1,0,50,0,0
3410,-142.857142857143,4,1,0,50,0,0
4157,-166.666666666667,4,1,0,50,0,0
5351,-142.857142857143,4,1,0,50,0,0
5500,-139.534818821014,4,1,0,50,0,0
5649,-136.363698347136,4,1,0,50,0,0
5798,-133.333333333333,4,1,0,50,0,0
6545,-166.666666666667,4,1,0,50,0,0
7720,-153.846153846154,4,1,0,50,0,0
7869,-149.999925000038,4,1,0,50,0,0
8018,-146.341534800749,4,1,0,50,0,0
8167,-142.857142857143,4,1,0,50,0,0
8914,-166.666666666667,4,1,0,50,0,0
10108,-142.857142857143,4,1,0,50,0,0
10257,-139.534818821014,4,1,0,50,0,0
10406,-136.363698347136,4,1,0,50,0,0
10555,-133.333333333333,4,1,0,50,0,0
11321,-153.846153846153,4,1,0,50,0,0
12515,-111.111111111111,4,1,0,50,0,0
12813,-142.857142857143,4,1,0,50,0,0
22067,-142.857142857143,4,1,0,50,0,0
22366,-142.180162170693,4,1,0,50,0,0
22515,-141.843971631206,4,1,0,50,0,0
22813,-141.176537024253,4,1,0,50,0,0
22963,-140.845070422535,4,1,0,50,0,0
23112,-140.515156667374,4,1,0,50,0,0
23410,-139.86013986014,4,1,0,50,0,0
23709,-139.211201490117,4,1,0,50,0,0
23858,-138.888888888889,4,1,0,50,0,0
24007,-138.568065326529,4,1,0,50,0,0
24157,-138.248911635443,4,1,0,50,0,0
24306,-137.931034482759,4,1,0,50,0,0
24455,-137.614615773112,4,1,0,50,0,0
24754,-136.986301369863,4,1,0,50,0,0
24903,-136.674197414944,4,1,0,50,0,0
25201,-136.054421768707,4,1,0,50,0,0
25351,-135.746544911066,4,1,0,50,0,0
25500,-135.440241733743,4,1,0,50,0,0
25798,-134.831400075775,4,1,0,50,0,0
26097,-134.228187919463,4,1,0,50,0,0
26246,-133.928511639057,4,1,0,50,0,0
26395,-133.630349055835,4,1,0,50,0,0
26545,-133.333333333333,4,1,0,50,0,0
26694,-133.03763501657,4,1,0,50,0,0
26843,-132.743421567886,4,1,0,50,0,0
27142,-132.158532088752,4,1,0,50,0,0
27291,-131.868189832171,4,1,0,50,0,0
27589,-131.290970988634,4,1,0,50,0,0
27739,-131.004424019399,4,1,0,50,0,0
27888,-130.718954248366,4,1,0,50,0,0
28186,-130.15190028282,4,1,0,50,0,0
28485,-129.589576851155,4,1,0,50,0,0
28560,-129.449838187702,4,1,0,50,0,0
28634,-129.310400564828,4,1,0,50,0,0
28783,-129.032258064516,4,1,0,50,0,0
28858,-128.893718106861,4,1,0,50,0,0
28933,-128.755309547077,4,1,0,50,0,0
29082,-128.479712411012,4,1,0,50,0,0
29231,-128.205128205128,4,1,0,50,0,0
29380,-127.931715167712,4,1,0,50,0,0
29530,-127.659628791331,4,1,0,50,0,0
29679,-127.388535031847,4,1,0,50,0,0
29977,-126.849947928096,4,1,0,50,0,0
30127,-126.582278481013,4,1,0,50,0,0
30276,-126.315736288111,4,1,0,50,0,0
30574,-125.786163522013,4,1,0,50,0,0
30873,-125.261012635078,4,1,0,50,0,0
31022,-125,4,1,0,50,0,0
31097,-127.622319612232,4,1,0,50,0,0
31172,-130.35719174109,4,1,0,50,0,0
31246,-133.211666677768,4,1,0,50,0,0
31321,-136.193951081857,4,1,0,50,0,0
31470,-142.578097152715,4,1,0,50,0,0
31619,-83.3333333333333,4,1,0,70,0,0
31918,-100,4,1,0,70,0,0
31968,-101.694949727102,4,1,0,70,0,0
32017,-103.448240190262,4,1,0,70,0,0
32067,-105.263157894737,4,1,0,70,0,0
32216,-111.111111111111,4,1,0,70,0,0
32366,-83.3333333333333,4,1,0,70,0,0
32515,-86.9565217391304,4,1,0,70,0,0
32664,-90.9090909090909,4,1,0,70,0,0
32813,-111.111111111111,4,1,0,70,0,0
32963,-107.16930499634,4,1,0,70,0,0
33112,-103.497490703338,4,1,0,70,0,0
33261,-100.069047642874,4,1,0,70,0,0
33336,-98.4385674432157,4,1,0,70,0,0
33410,-96.8603680306544,4,1,0,70,0,0
33485,-95.3319745349229,4,1,0,70,0,0
33560,-93.8511539468633,4,1,0,70,0,0
33709,-91.0232009036783,4,1,0,70,0,0
33858,-83.4292073975009,4,1,0,70,0,0
34007,-100.138090426698,4,1,0,70,0,0
34157,-90.9090909090909,4,1,0,70,0,0
34231,-92.3077207100679,4,1,0,70,0,0
34306,-93.7499707031342,4,1,0,70,0,0
34380,-95.2380952380952,4,1,0,70,0,0
34530,-98.3606234883202,4,1,0,70,0,0
34604,-100,4,1,0,70,0,0
34754,-90.9090909090909,4,1,0,70,0,0
34903,-86.9565217391304,4,1,0,70,0,0
35052,-83.3333333333333,4,1,0,70,0,0
35201,-100,4,1,0,70,0,0
35351,-90.9090909090909,4,1,0,70,0,0
35400,-91.8367253227831,4,1,0,70,0,0
35450,-92.7834860240235,4,1,0,70,0,0
35500,-93.7499707031342,4,1,0,70,0,0
35574,-95.2380952380952,4,1,0,70,0,0
35649,-96.774224765879,4,1,0,70,0,0
35798,-100,4,1,0,70,0,0
35873,-101.694949727102,4,1,0,70,0,0
35948,-103.448240190262,4,1,0,70,0,0
36022,-105.263157894737,4,1,0,70,0,0
36097,-107.142895408177,4,1,0,70,0,0
36172,-109.090869421502,4,1,0,70,0,0
36246,-111.111111111111,4,1,0,70,0,0
36395,-83.3333333333333,4,1,0,70,0,0
36694,-100,4,1,0,70,0,0
36744,-101.694949727102,4,1,0,70,0,0
36793,-103.448240190262,4,1,0,70,0,0
36843,-105.263157894737,4,1,0,70,0,0
36918,-108.108108108108,4,1,0,70,0,0
36992,-111.111111111111,4,1,0,70,0,0
37142,-83.3333333333333,4,1,0,70,0,0
37291,-86.9565217391304,4,1,0,70,0,0
37440,-90.9090909090909,4,1,0,70,0,0
37589,-111.111111111111,4,1,0,70,0,0
37739,-107.16930499634,4,1,0,70,0,0
37888,-103.497490703338,4,1,0,70,0,0
38112,-98.4385674432157,4,1,0,70,0,0
38186,-96.8603680306544,4,1,0,70,0,0
38336,-93.8511539468633,4,1,0,70,0,0
38410,-92.4155483615185,4,1,0,70,0,0
38485,-91.0232009036783,4,1,0,70,0,0
38634,-83.4292073975009,4,1,0,70,0,0
38783,-100.138090426698,4,1,0,70,0,0
38933,-91.023200903678,4,1,0,70,0,0
38970,-90.4977375565611,4,1,0,70,0,0
39063,-91.023200903678,4,1,0,70,0,0
39100,-90.0900900900901,4,1,0,70,0,0
39213,-91.023200903678,4,1,0,70,0,0
39250,-89.6860986547085,4,1,0,70,0,0
39362,-91.023200903678,4,1,0,70,0,0
39399,-89.2857142857143,4,1,0,70,0,0
39530,-83.3333333333333,4,1,0,70,0,0
39977,-100,4,1,0,70,0,0
40127,-90.9090909090909,4,1,0,70,0,0
40276,-93.3185765557606,4,1,0,70,0,0
40425,-87.4741404572273,4,1,0,70,0,0
40574,-98.5422642844403,4,1,0,70,0,0
40649,-99.9408350256648,4,1,0,70,0,0
40724,-101.379676010831,4,1,0,70,0,0
40798,-102.860657752762,4,1,0,70,0,0
40873,-104.385441153751,4,1,0,70,0,0
41022,-107.57476984378,4,1,0,70,0,0
41172,-83.2512614647393,4,1,0,70,0,0
41470,-100,4,1,0,70,0,0
41545,-102.510481696753,4,1,0,70,0,0
41619,-105.150259721142,4,1,0,70,0,0
41694,-107.929470249781,4,1,0,70,0,0
41769,-110.859705933544,4,1,0,70,0,0
41899,-83.3333333333333,4,1,0,70,0,0
42048,-86.9565217391304,4,1,0,70,0,0
42197,-90.9090909090909,4,1,0,70,0,0
42346,-111.111111111111,4,1,0,70,0,0
42496,-107.16930499634,4,1,0,70,0,0
42645,-103.497490703338,4,1,0,70,0,0
42794,-100.069047642874,4,1,0,70,0,0
42869,-98.4385674432157,4,1,0,70,0,0
42943,-96.8603680306544,4,1,0,70,0,0
43018,-95.3319745349229,4,1,0,70,0,0
43093,-93.8511539468633,4,1,0,70,0,0
43242,-91.0232009036783,4,1,0,70,0,0
43391,-83.4292073975009,4,1,0,70,0,0
43540,-100.138090426698,4,1,0,70,0,0
43690,-90.9090909090909,4,1,0,70,0,0
43764,-92.3077207100679,4,1,0,70,0,0
43839,-93.7499707031342,4,1,0,70,0,0
43913,-95.2380952380952,4,1,0,70,0,0
44063,-98.3606234883202,4,1,0,70,0,0
44137,-100,4,1,0,70,0,0
44287,-90.9090909090909,4,1,0,70,0,0
44436,-86.9565217391304,4,1,0,70,0,0
44585,-83.3333333333333,4,1,0,70,0,0
44734,-100,4,1,0,70,0,0
44884,-90.9090909090909,4,1,0,70,0,0
44933,-91.8367253227831,4,1,0,70,0,0
44983,-92.7834860240235,4,1,0,70,0,0
45033,-93.7499707031342,4,1,0,70,0,0
45107,-95.2380952380952,4,1,0,70,0,0
45182,-96.774224765879,4,1,0,70,0,0
45331,-100,4,1,0,70,0,0
45406,-101.694949727102,4,1,0,70,0,0
45481,-103.448240190262,4,1,0,70,0,0
45555,-105.263157894737,4,1,0,70,0,0
45630,-107.142895408177,4,1,0,70,0,0
45705,-109.090869421502,4,1,0,70,0,0
45779,-111.111111111111,4,1,0,70,0,0
45928,-83.3333333333333,4,1,0,70,0,0
46227,-100,4,1,0,70,0,0
46277,-101.694949727102,4,1,0,70,0,0
46326,-103.448240190262,4,1,0,70,0,0
46376,-105.263157894737,4,1,0,70,0,0
46451,-108.108108108108,4,1,0,70,0,0
46525,-111.111111111111,4,1,0,70,0,0
46675,-83.3333333333333,4,1,0,70,0,0
46824,-86.9565217391304,4,1,0,70,0,0
46973,-90.9090909090909,4,1,0,70,0,0
47122,-111.111111111111,4,1,0,70,0,0
47272,-107.16930499634,4,1,0,70,0,0
47421,-103.497490703338,4,1,0,70,0,0
47589,-100,4,1,0,70,0,0
47645,-98.4385674432157,4,1,0,70,0,0
47719,-96.8603680306544,4,1,0,70,0,0
47869,-93.8511539468633,4,1,0,70,0,0
47943,-92.4155483615185,4,1,0,70,0,0
48018,-91.0232009036783,4,1,0,70,0,0
48167,-83.4292073975009,4,1,0,70,0,0
48316,-77.004761204385,4,1,0,70,0,0
49526,-83.4292073975009,4,1,0,70,0,0
50724,-91.0232009036783,4,1,0,70,0,0
51918,-100.138090426698,4,1,0,70,0,0
53112,-83.4292073975007,4,1,0,70,0,0
53410,-100,4,1,0,70,0,0
53709,-98.4860720996837,4,1,0,70,0,0
53858,-97.7461688389124,4,1,0,70,0,0
53933,-97.3802758198932,4,1,0,70,0,0
54007,-97.0172060014844,4,1,0,70,0,0
54082,-96.6568334448109,4,1,0,70,0,0
54157,-96.2991282039924,4,1,0,70,0,0
54231,-95.9440607748059,4,1,0,70,0,0
54306,-95.5916020865735,4,1,0,70,0,0
54455,-94.8943967705539,4,1,0,70,0,0
54604,-94.2072880642192,4,1,0,70,0,0
54754,-93.5300582224613,4,1,0,70,0,0
54903,-92.8624957167174,4,1,0,70,0,0
55052,-92.2043099982666,4,1,0,70,0,0
55127,-91.8787457816171,4,1,0,70,0,0
55201,-91.5554725452605,4,1,0,70,0,0
55276,-91.2344661917,4,1,0,70,0,0
55351,-90.9157029602153,4,1,0,70,0,0
55425,-90.5991594209989,4,1,0,70,0,0
55500,-90.284812469416,4,1,0,70,0,0
55798,-89.0489395161793,4,1,0,70,0,0
56097,-87.8463672452521,4,1,0,70,0,0
56246,-87.257217698905,4,1,0,70,0,0
56321,-86.9655964100602,4,1,0,70,0,0
56395,-86.6759178763013,4,1,0,70,0,0
56470,-86.3881627483876,4,1,0,70,0,0
56545,-86.1023119331777,4,1,0,70,0,0
56619,-85.8183465894073,4,1,0,70,0,0
56694,-85.5362481235486,4,1,0,70,0,0
56843,-84.977578665869,4,1,0,70,0,0
56893,-84.7929737150261,4,1,0,70,0,0
56943,-84.6090975086005,4,1,0,70,0,0
56992,-84.4260883367047,4,1,0,70,0,0
57142,-83.8817803740121,4,1,0,70,0,0
57191,-83.7019007027612,4,1,0,70,0,0
57241,-83.522790863943,4,1,0,70,0,0
57291,-83.3444459261235,4,1,0,70,0,0
57440,-82.8139518320931,4,1,0,70,0,0
57515,-82.5512292290788,4,1,0,70,0,0
57589,-82.2901682998522,4,1,0,70,0,0
57664,-82.0307533294232,4,1,0,70,0,0
57739,-81.7729688003415,4,1,0,70,0,0
57888,-81.2622299656098,4,1,0,70,0,0
58037,-80.757766272488,4,1,0,70,0,0
58186,-80.2595916231459,4,1,0,70,0,0
58336,-79.767525523614,4,1,0,70,0,0
58385,-79.6048415664641,4,1,0,70,0,0
58435,-79.4428198387787,4,1,0,70,0,0
58485,-79.2814563052146,4,1,0,70,0,0
58634,-78.8012750046296,4,1,0,70,0,0
58684,-78.6425045435707,4,1,0,70,0,0
58734,-78.4843725841529,4,1,0,70,0,0
58783,-78.3268752824663,4,1,0,70,0,0
58933,-77.8580927258741,4,1,0,70,0,0
59082,-77.3949479673765,4,1,0,70,0,0
59231,-76.9372807287499,4,1,0,70,0,0
59380,-76.4849944089469,4,1,0,70,0,0
59530,-76.0379946651743,4,1,0,70,0,0
59579,-75.8901535561367,4,1,0,70,0,0
59629,-75.7428862281254,4,1,0,70,0,0
59679,-75.5961893472874,4,1,0,70,0,0
59828,-75.1594884344579,4,1,0,70,0,0
59878,-75.0150405156234,4,1,0,70,0,0
59928,-74.871090699588,4,1,0,70,0,0
59977,-74.7277481316195,4,1,0,70,0,0
60127,-74.3009948160196,4,1,0,70,0,0
60276,-73.879088006986,4,1,0,70,0,0
60351,-73.6699263153397,4,1,0,70,0,0
60425,-73.4619456102447,4,1,0,70,0,0
60500,-73.2551359175792,4,1,0,70,0,0
60574,-73.0494873752223,4,1,0,70,0,0
60649,-72.8449902314868,4,1,0,70,0,0
60724,-72.6416348435771,4,1,0,70,0,0
60798,-72.4394116760741,4,1,0,70,0,0
60873,-72.2383112994444,4,1,0,70,0,0
60948,-72.0382724934103,4,1,0,70,0,0
61022,-71.8393901123137,4,1,0,70,0,0
61097,-71.6416028519089,4,1,0,70,0,0
61172,-71.4449016918153,4,1,0,70,0,0
61470,-90.9090909090909,4,1,0,70,0,0
62366,-90.9090909090909,4,1,0,70,0,0
62415,-89.5522120739665,4,1,0,70,0,0
62465,-88.2353200692118,4,1,0,70,0,0
62515,-86.9565217391304,4,1,0,70,0,0
62565,-85.7142612244968,4,1,0,70,0,0
62614,-84.5070660583285,4,1,0,70,0,0
62664,-83.3333333333333,4,1,0,70,0,1
62963,-86.9565217391304,4,1,0,70,0,1
63112,-83.3333333333333,4,1,0,70,0,1
63186,-84.2105263157895,4,1,0,70,0,1
63261,-85.1063829787234,4,1,0,70,0,1
63311,-85.7142612244968,4,1,0,70,0,1
63361,-86.3309600952403,4,1,0,70,0,1
63410,-86.9565217391304,4,1,0,70,0,1
63541,-83.3333333333333,4,1,0,70,0,1
63615,-84.2105263157895,4,1,0,70,0,1
63690,-85.1063829787234,4,1,0,70,0,1
63740,-85.7142612244968,4,1,0,70,0,1
63790,-86.3309600952403,4,1,0,70,0,1
63839,-86.9565217391304,4,1,0,70,0,1
63989,-83.3333333333333,4,1,0,70,0,1
64063,-84.2105263157895,4,1,0,70,0,1
64138,-85.1063829787234,4,1,0,70,0,1
64188,-85.7142612244968,4,1,0,70,0,1
64238,-86.3309600952403,4,1,0,70,0,1
64287,-86.9565217391304,4,1,0,70,0,1
64455,-86.9565217391304,4,1,0,70,0,1
64492,-85.4700854700855,4,1,0,70,0,1
64604,-85.8085525384315,4,1,0,70,0,1
64642,-84.0336134453781,4,1,0,70,0,1
64754,-84.6905702978313,4,1,0,70,0,1
64791,-83.3333333333333,4,1,0,70,0,1
64903,-83.6012754210578,4,1,0,70,0,1
64940,-81.9672131147541,4,1,0,70,0,1
65052,-80,4,1,0,70,0,1
65102,-81.058757061231,4,1,0,70,0,1
65152,-82.1458466649197,4,1,0,70,0,1
65201,-83.2625601571997,4,1,0,70,0,1
65351,-86.8024662316706,4,1,0,70,0,1
65481,-83.3333333333333,4,1,0,70,0,1
65555,-84.2105263157895,4,1,0,70,0,1
65630,-85.1063829787234,4,1,0,70,0,1
65680,-85.7142612244968,4,1,0,70,0,1
65730,-86.3309600952403,4,1,0,70,0,1
65779,-86.9565217391304,4,1,0,70,0,1
65929,-83.3333333333333,4,1,0,70,0,1
66003,-84.2105263157895,4,1,0,70,0,1
66078,-85.1063829787234,4,1,0,70,0,1
66128,-85.7142612244968,4,1,0,70,0,1
66178,-86.3309600952403,4,1,0,70,0,1
66227,-86.9565217391304,4,1,0,70,0,1
66395,-83.3333333333333,4,1,0,70,0,1
66470,-84.2044281424672,4,1,0,70,0,1
66545,-85.0939266762653,4,1,0,70,0,1
66594,-85.6973666056216,4,1,0,70,0,1
66644,-86.3095006909076,4,1,0,70,0,1
66694,-86.9304426063485,4,1,0,70,0,1
66744,-87.5603838296986,4,1,0,70,0,1
66793,-88.1995214293967,4,1,0,70,0,1
66843,-88.8480582701105,4,1,0,70,0,1
66992,-90.8521018633766,4,1,0,70,0,1
67142,-92.9487239069695,4,1,0,70,0,1
67291,-95.1444006568769,4,1,0,70,0,1
67440,-74.0173822420457,4,1,0,70,0,1
67739,-71.4285714285714,4,1,0,70,0,1
68018,-85.1063829787234,4,1,0,70,0,1
68068,-85.7142612244968,4,1,0,70,0,1
68118,-86.3309600952403,4,1,0,70,0,1
68167,-86.9565217391304,4,1,0,70,0,1
68317,-83.3333333333333,4,1,0,70,0,1
68391,-84.2105263157895,4,1,0,70,0,1
68466,-85.1063829787234,4,1,0,70,0,1
68516,-85.7142612244968,4,1,0,70,0,1
68566,-86.3309600952403,4,1,0,70,0,1
68615,-86.9565217391304,4,1,0,70,0,1
68765,-83.3333333333333,4,1,0,70,0,1
68839,-84.2105263157895,4,1,0,70,0,1
68914,-85.1063829787234,4,1,0,70,0,1
68964,-85.7142612244968,4,1,0,70,0,1
69014,-86.3309600952403,4,1,0,70,0,1
69063,-86.9565217391304,4,1,0,70,0,1
69213,-86.9565217391304,4,1,0,70,0,1
69250,-85.4700854700855,4,1,0,70,0,1
69362,-85.8085525384315,4,1,0,70,0,1
69400,-84.0336134453781,4,1,0,70,0,1
69512,-84.6905702978313,4,1,0,70,0,1
69549,-83.3333333333333,4,1,0,70,0,1
69828,-100,4,1,0,70,0,0
69903,-99.502487562189,4,1,0,70,0,0
69977,-99.009900990099,4,1,0,70,0,0
70052,-98.5221674876847,4,1,0,70,0,0
70127,-98.0392156862745,4,1,0,70,0,0
70276,-96.3855421686747,4,1,0,70,0,0
70574,-94.1176470588235,4,1,0,70,0,0
70724,-93.0232558139535,4,1,0,70,0,0
70798,-92.485549132948,4,1,0,70,0,0
70873,-91.9540229885058,4,1,0,70,0,0
71022,-90.9090909090909,4,1,0,70,0,0
71172,-89.8876404494382,4,1,0,70,0,0
71246,-89.3854748603352,4,1,0,70,0,0
71321,-88.8888888888889,4,1,0,70,0,0
71470,-87.9120879120879,4,1,0,70,0,0
71619,-86.9565217391304,4,1,0,70,0,0
71694,-86.4864864864865,4,1,0,70,0,0
71769,-86.0215053763441,4,1,0,70,0,0
71843,-85.5614973262032,4,1,0,70,0,0
71918,-85.1063829787234,4,1,0,70,0,0
72067,-84.2105263157895,4,1,0,70,0,0
72216,-83.3333333333333,4,1,0,70,0,1
72496,-86.9565217391304,4,1,0,70,0,1
72645,-83.3333333333333,4,1,0,70,0,1
72719,-84.2105263157895,4,1,0,70,0,1
72794,-85.1063829787234,4,1,0,70,0,1
72844,-85.7142612244968,4,1,0,70,0,1
72894,-86.3309600952403,4,1,0,70,0,1
72943,-86.9565217391304,4,1,0,70,0,1
73074,-83.3333333333333,4,1,0,70,0,1
73148,-84.2105263157895,4,1,0,70,0,1
73223,-85.1063829787234,4,1,0,70,0,1
73273,-85.7142612244968,4,1,0,70,0,1
73323,-86.3309600952403,4,1,0,70,0,1
73372,-86.9565217391304,4,1,0,70,0,1
73522,-83.3333333333333,4,1,0,70,0,1
73596,-84.2105263157895,4,1,0,70,0,1
73671,-85.1063829787234,4,1,0,70,0,1
73721,-85.7142612244968,4,1,0,70,0,1
73771,-86.3309600952403,4,1,0,70,0,1
73820,-86.9565217391304,4,1,0,70,0,1
73988,-86.9565217391304,4,1,0,70,0,1
74025,-85.4700854700855,4,1,0,70,0,1
74137,-85.8085525384315,4,1,0,70,0,1
74175,-84.0336134453781,4,1,0,70,0,1
74287,-84.6905702978313,4,1,0,70,0,1
74324,-83.3333333333333,4,1,0,70,0,1
74436,-83.6012754210578,4,1,0,70,0,1
74473,-81.9672131147541,4,1,0,70,0,1
74585,-80,4,1,0,70,0,1
74635,-81.058757061231,4,1,0,70,0,1
74685,-82.1458466649197,4,1,0,70,0,1
74734,-83.2625601571997,4,1,0,70,0,1
74884,-86.8024662316706,4,1,0,70,0,1
75014,-83.3333333333333,4,1,0,70,0,1
75088,-84.2105263157895,4,1,0,70,0,1
75163,-85.1063829787234,4,1,0,70,0,1
75213,-85.7142612244968,4,1,0,70,0,1
75263,-86.3309600952403,4,1,0,70,0,1
75312,-86.9565217391304,4,1,0,70,0,1
75462,-83.3333333333333,4,1,0,70,0,1
75536,-84.2105263157895,4,1,0,70,0,1
75611,-85.1063829787234,4,1,0,70,0,1
75661,-85.7142612244968,4,1,0,70,0,1
75711,-86.3309600952403,4,1,0,70,0,1
75760,-86.9565217391304,4,1,0,70,0,1
75928,-83.3333333333333,4,1,0,70,0,1
76003,-84.2044281424672,4,1,0,70,0,1
76078,-85.0939266762653,4,1,0,70,0,1
76127,-85.6973666056216,4,1,0,70,0,1
76177,-86.3095006909076,4,1,0,70,0,1
76227,-86.9304426063485,4,1,0,70,0,1
76277,-87.5603838296986,4,1,0,70,0,1
76326,-88.1995214293967,4,1,0,70,0,1
76376,-88.8480582701105,4,1,0,70,0,1
76525,-90.8521018633766,4,1,0,70,0,1
76675,-92.9487239069695,4,1,0,70,0,1
76824,-95.1444006568769,4,1,0,70,0,1
76973,-74.0173822420457,4,1,0,70,0,1
77142,-72.7272727272727,4,1,0,70,0,1
77291,-71.4285714285714,4,1,0,70,0,1
77589,-90.9090909090909,4,1,0,70,0,1
77639,-92.2509225092251,4,1,0,70,0,1
77689,-93.6329588014981,4,1,0,70,0,1
77739,-95.0570342205323,4,1,0,70,0,1
77888,-86.9565217391304,4,1,0,70,0,1
77938,-88.2353200692118,4,1,0,70,0,1
77987,-89.5522120739665,4,1,0,70,0,1
78037,-90.9090909090909,4,1,0,70,0,1
78186,-83.3333333333333,4,1,0,70,0,1
78236,-84.4594594594595,4,1,0,70,0,1
78286,-85.6164383561644,4,1,0,70,0,1
78336,-86.8055555555556,4,1,0,70,0,1
78485,-80,4,1,0,70,0,1
78535,-81.0811029948927,4,1,0,70,0,1
78584,-82.1917583036279,4,1,0,70,0,1
78634,-83.3333333333333,4,1,0,70,0,1
78783,-86.9565217391304,4,1,0,70,0,1
78821,-85.4700854700855,4,1,0,70,0,1
78933,-83.7776340525922,4,1,0,70,0,1
78970,-82.6446280991736,4,1,0,70,0,1
79082,-80.82290650487,4,1,0,70,0,1
79119,-79.3650793650794,4,1,0,70,0,1
79380,-100,4,1,0,70,0,0
79455,-99.3804621986536,4,1,0,70,0,0
79530,-98.7685536728074,4,1,0,70,0,0
79604,-98.1642307212813,4,1,0,70,0,0
79679,-97.5671627956895,4,1,0,70,0,0
79828,-96.3945544788284,4,1,0,70,0,0
79977,-95.2498880813815,4,1,0,70,0,0
80052,-94.6876443986577,4,1,0,70,0,0
80127,-94.1319994201469,4,1,0,70,0,0
80276,-93.0401328613097,4,1,0,70,0,0
80425,-91.9732210769512,4,1,0,70,0,0
80500,-91.4489723878973,4,1,0,70,0,0
80574,-90.9305835924855,4,1,0,70,0,0
80724,-89.9112396242429,4,1,0,70,0,0
80873,-88.9145753217596,4,1,0,70,0,0
81022,-87.9396874447629,4,1,0,70,0,0
81172,-86.9860213463696,4,1,0,70,0,0
81246,-86.5168655977796,4,1,0,70,0,0
81321,-86.0527434475138,4,1,0,70,0,0
81395,-85.5935743191887,4,1,0,70,0,0
81470,-85.1393518341145,4,1,0,70,0,0
81545,-84.689853054636,4,1,0,70,0,0
81619,-84.2450756647147,4,1,0,70,0,0
81694,-83.8049456650635,4,1,0,70,0,0
81769,-83.3693905947656,4,1,0,70,0,0
82067,-100,4,1,0,70,0,0
88933,-100,4,1,0,70,0,0
89082,-98.7654320987654,4,1,0,70,0,0
89157,-98.159509202454,4,1,0,70,0,0
89231,-97.5609756097561,4,1,0,70,0,0
89380,-96.3855421686747,4,1,0,70,0,0
89455,-95.8083832335329,4,1,0,70,0,0
89530,-95.2380952380952,4,1,0,70,0,0
89604,-94.6745562130178,4,1,0,70,0,0
89679,-94.1176470588235,4,1,0,70,0,0
89828,-93.0232558139535,4,1,0,70,0,0
89903,-92.485549132948,4,1,0,70,0,0
89977,-91.9540229885058,4,1,0,70,0,0
90127,-90.9090909090909,4,1,0,70,0,0
90201,-90.3954802259887,4,1,0,70,0,0
90276,-89.8876404494382,4,1,0,70,0,0
90351,-89.3854748603352,4,1,0,70,0,0
90425,-88.8888888888889,4,1,0,70,0,0
90574,-87.9120879120879,4,1,0,70,0,0
90649,-87.431693989071,4,1,0,70,0,0
90724,-86.9565217391304,4,1,0,70,0,0
90873,-86.0215053763441,4,1,0,70,0,0
91022,-85.1063829787234,4,1,0,70,0,0
91097,-84.6560846560847,4,1,0,70,0,0
91172,-84.2105263157895,4,1,0,70,0,0
91246,-83.7696335078534,4,1,0,70,0,0
91321,-83.3333333333333,4,1,0,70,0,0
91545,-100,4,1,0,70,0,0
96097,-100,4,1,0,70,0,0
96246,-98.7654320987654,4,1,0,70,0,0
96321,-98.159509202454,4,1,0,70,0,0
96395,-97.5609756097561,4,1,0,70,0,0
96545,-96.3855421686747,4,1,0,70,0,0
96694,-95.2380952380952,4,1,0,70,0,0
96843,-94.1176470588235,4,1,0,70,0,0
96918,-93.5672514619883,4,1,0,70,0,0
96992,-93.0232558139535,4,1,0,70,0,0
97067,-92.485549132948,4,1,0,70,0,0
97142,-91.9540229885058,4,1,0,70,0,0
97291,-90.9090909090909,4,1,0,70,0,0
97440,-89.8876404494382,4,1,0,70,0,0
97515,-89.3854748603352,4,1,0,70,0,0
97589,-88.8888888888889,4,1,0,70,0,0
97739,-87.9120879120879,4,1,0,70,0,0
97888,-86.9565217391304,4,1,0,70,0,0
97963,-86.4864864864865,4,1,0,70,0,0
98037,-86.0215053763441,4,1,0,70,0,0
98112,-85.5614973262032,4,1,0,70,0,0
98186,-85.1063829787234,4,1,0,70,0,0
98261,-84.6560846560847,4,1,0,70,0,0
98336,-84.2105263157895,4,1,0,70,0,0
98410,-83.7696335078534,4,1,0,70,0,0
98485,-83.3333333333333,4,1,0,70,0,0
98783,-76.9230769230769,4,1,0,70,0,0
98858,-78.1199344105031,4,1,0,70,0,0
98933,-79.3546247081734,4,1,0,70,0,0
99007,-80.6289704728647,4,1,0,70,0,0
99082,-81.9449133514486,4,1,0,70,0,0
99157,-83.3045238521678,4,1,0,70,0,0
99231,-84.7100122151838,4,1,0,70,0,0
99306,-86.1637404024364,4,1,0,70,0,0
99380,-87.6682353436244,4,1,0,70,0,0
99455,-89.2262035945668,4,1,0,70,0,0
99530,-90.8405475868209,4,1,0,70,0,0
99604,-92.5143836738017,4,1,0,70,0,0
99679,-94.2510622094711,4,1,0,70,0,0
99754,-96.0541899317919,4,1,0,70,0,0
99828,-97.9276549656176,4,1,0,70,0,0
99903,-99.8756548097619,4,1,0,70,0,0
99977,-101.902727732216,4,1,0,70,0,0
100052,-104.013788067746,4,1,0,70,0,0
100127,-106.214165995747,4,1,0,70,0,0
100201,-108.509652476136,4,1,0,70,0,0
100276,-110.906550140851,4,1,0,70,0,0
100873,-83.3333333333333,4,1,0,70,0,1
101022,-90.9090909090909,4,1,0,70,0,1
101097,-92.5784486629358,4,1,0,70,0,1
101172,-94.3101729554262,4,1,0,70,0,1
101321,-97.9757235752125,4,1,0,70,0,1
101470,-101.937630480167,4,1,0,70,0,1
101545,-104.041275254719,4,1,0,70,0,1
101619,-106.233573633677,4,1,0,70,0,1
101769,-110.907411165936,4,1,0,70,0,1
101918,-90.7726843207432,4,1,0,70,0,1
102067,-99.8349727899782,4,1,0,70,0,1
102216,-90.9090909090909,4,1,0,70,0,1
102291,-92.5784486629358,4,1,0,70,0,1
102366,-94.3101729554262,4,1,0,70,0,1
102515,-97.9757235752125,4,1,0,70,0,1
102664,-101.937630480167,4,1,0,70,0,1
102739,-104.041275254719,4,1,0,70,0,1
102813,-106.233573633677,4,1,0,70,0,1
102888,-108.52013265501,4,1,0,70,0,1
102963,-110.907411165936,4,1,0,70,0,1
103112,-90.7726843207432,4,1,0,70,0,1
103261,-110.907411165936,4,1,0,70,0,1
103410,-111.111111111111,4,1,0,70,0,1
103485,-108.715149999728,4,1,0,70,0,1
103560,-106.420452308206,4,1,0,70,0,1
103709,-102.109688269333,4,1,0,70,0,1
103858,-98.1346564501947,4,1,0,70,0,1
103933,-96.2609364456419,4,1,0,70,0,1
104007,-94.4574270930349,4,1,0,70,0,1
104157,-91.0459080782303,4,1,0,70,0,1
104306,-83.4482833436392,4,1,0,70,0,1
104455,-100.165573693315,4,1,0,70,0,1
104604,-102.040816326531,4,1,0,70,0,1
104754,-104.166666666667,4,1,0,70,0,1
105052,-111.315560690913,4,1,0,70,0,1
105630,-83.3333333333333,4,1,0,70,0,1
105779,-90.9090909090909,4,1,0,70,0,1
105854,-92.5784486629358,4,1,0,70,0,1
105929,-94.3101729554262,4,1,0,70,0,1
106078,-97.9757235752125,4,1,0,70,0,1
106227,-101.937630480167,4,1,0,70,0,1
106302,-104.041275254719,4,1,0,70,0,1
106376,-106.233573633677,4,1,0,70,0,1
106526,-110.907411165936,4,1,0,70,0,1
106675,-90.7726843207432,4,1,0,70,0,1
106843,-99.8349727899782,4,1,0,70,0,1
106992,-90.9090909090909,4,1,0,70,0,1
107067,-92.5784486629358,4,1,0,70,0,1
107142,-94.3101729554262,4,1,0,70,0,1
107291,-97.9757235752125,4,1,0,70,0,1
107341,-99.2616915383378,4,1,0,70,0,1
107390,-100.581866095362,4,1,0,70,0,1
107440,-101.937630480167,4,1,0,70,0,1
107589,-106.233573633677,4,1,0,70,0,1
107739,-110.907411165936,4,1,0,70,0,1
107888,-90.7726843207432,4,1,0,70,0,1
108037,-111.111111111111,4,1,0,70,0,1
108186,-111.111111111111,4,1,0,70,0,1
108261,-108.715149999728,4,1,0,70,0,1
108336,-106.420452308206,4,1,0,70,0,1
108485,-102.109688269333,4,1,0,70,0,1
108634,-98.1346564501947,4,1,0,70,0,1
108709,-96.2609364456419,4,1,0,70,0,1
108783,-94.4574270930349,4,1,0,70,0,1
108933,-91.0459080782303,4,1,0,70,0,1
109082,-83.4482833436392,4,1,0,70,0,1
109231,-100,4,1,0,70,0,1
109380,-90.9090909090909,4,1,0,70,0,1
109530,-93.7297602299004,4,1,0,70,0,1
109679,-96.7311637823046,4,1,0,70,0,1
109828,-99.9310475771717,4,1,0,70,0,1
109977,-103.349986461152,4,1,0,70,0,1
110052,-105.148711823131,4,1,0,70,0,1
110127,-107.011042469472,4,1,0,70,0,1
110201,-108.940650223165,4,1,0,70,0,1
110276,-110.941124654557,4,1,0,70,0,1
110425,-83.2376793667943,4,1,0,70,0,1
110873,-125,4,1,0,70,0,1
111022,-111.111111111111,4,1,0,70,0,1
111172,-100,4,1,0,70,0,1
111321,-90.9090909090909,4,1,0,70,0,1
111470,-83.3333333333333,4,1,0,70,0,1
111619,-100,4,1,0,70,0,1
111769,-90.9090909090909,4,1,0,70,0,1
111843,-92.5925925925926,4,1,0,70,0,1
111918,-94.3396226415094,4,1,0,70,0,1
112067,-98.0392156862745,4,1,0,70,0,1
112216,-102.040816326531,4,1,0,70,0,1
112291,-104.166666666667,4,1,0,70,0,1
112366,-106.382978723404,4,1,0,70,0,1
112440,-108.695652173913,4,1,0,70,0,1
112515,-111.111111111111,4,1,0,70,0,1
112664,-90.9090909090908,4,1,0,70,0,1
112813,-111.111111111111,4,1,0,70,0,1
112963,-111.111111111111,4,1,0,70,0,1
113037,-108.695652173913,4,1,0,70,0,1
113112,-106.382978723404,4,1,0,70,0,1
113261,-102.040816326531,4,1,0,70,0,1
113410,-98.0392156862745,4,1,0,70,0,1
113485,-96.1538461538461,4,1,0,70,0,1
113560,-94.3396226415094,4,1,0,70,0,1
113709,-90.9090909090909,4,1,0,70,0,1
113858,-83.3333333333333,4,1,0,70,0,1
114007,-111.111111111111,4,1,0,70,0,1
114157,-102.040816326531,4,1,0,70,0,1
114306,-104.166666666667,4,1,0,70,0,1
114604,-111.111111111111,4,1,0,70,0,1
114642,-111.888111888112,4,1,0,70,0,1
114754,-114.285714285714,4,1,0,70,0,1
114828,-115.942028985507,4,1,0,70,0,1
114903,-117.647058823529,4,1,0,70,0,1
114953,-118.811834133927,4,1,0,70,0,1
115002,-120.000048000019,4,1,0,70,0,1
115052,-121.212121212121,4,1,0,70,0,1
115102,-122.448929612682,4,1,0,70,0,1
115152,-123.711391221192,4,1,0,70,0,1
115201,-125,4,1,0,70,0,1
115425,-100,4,1,0,70,0,1
115500,-102.251370679624,4,1,0,70,0,1
115649,-107.07268629309,4,1,0,70,0,1
115798,-112.371166457656,4,1,0,70,0,1
115873,-115.221975135098,4,1,0,70,0,1
115948,-118.221196587663,4,1,0,70,0,1
116097,-124.713937406075,4,1,0,70,0,1
116246,-90.7576905798056,4,1,0,70,0,1
116395,-111.111111111111,4,1,0,70,0,1
116545,-111.111111111111,4,1,0,70,0,1
116694,-106.382978723404,4,1,0,70,0,1
116843,-102.040816326531,4,1,0,70,0,1
116893,-100.671174721871,4,1,0,70,0,1
116943,-99.3377154510876,4,1,0,70,0,1
116992,-98.0392156862745,4,1,0,70,0,1
117142,-94.3396226415094,4,1,0,70,0,1
117291,-90.9090909090909,4,1,0,70,0,1
117440,-80,4,1,0,70,0,0
117589,-100,4,1,0,70,0,0
118783,-111.111111111111,4,1,0,70,0,0
119977,-125,4,1,0,70,0,0
120276,-120.48642780634,4,1,0,70,0,0
120574,-116.287453281516,4,1,0,70,0,0
120873,-112.371419003805,4,1,0,70,0,0
121172,-108.710422611768,4,1,0,70,0,0
121470,-105.280446052194,4,1,0,70,0,0
121769,-102.060291096362,4,1,0,70,0,0
122067,-99.031374129638,4,1,0,70,0,0
122366,-96.1769656167348,4,1,0,70,0,0
122515,-94.8105448287959,4,1,0,70,0,0
122664,-93.4824940007609,4,1,0,70,0,0
122813,-92.1911343473744,4,1,0,70,0,0
122863,-91.7685450464257,4,1,0,70,0,0
122913,-91.349812230461,4,1,0,70,0,0
122963,-90.9348833487316,4,1,0,70,0,0
123112,-89.7124894139262,4,1,0,70,0,0
123261,-88.5224453086202,4,1,0,70,0,0
123410,-87.3636362842149,4,1,0,70,0,0
123460,-86.9840540832055,4,1,0,70,0,0
123510,-86.6077560709872,4,1,0,70,0,0
123560,-86.2347741726851,4,1,0,70,0,0
123709,-85.1346404338461,4,1,0,70,0,0
123858,-84.0622935219915,4,1,0,70,0,0
124007,-83.0165559917614,4,1,0,70,0,0
124057,-82.6738030693476,4,1,0,70,0,0
124107,-82.333800989323,4,1,0,70,0,0
124157,-81.9965840223096,4,1,0,70,0,0
124306,-81.001371353217,4,1,0,70,0,0
124455,-80.0299632182289,4,1,0,70,0,0
124604,-79.0816407226164,4,1,0,70,0,0
124654,-78.7704872190946,4,1,0,70,0,0
124704,-78.4617726397522,4,1,0,70,0,0
124754,-78.1554684208922,4,1,0,70,0,0
124828,-77.7005003135215,4,1,0,70,0,0
124903,-77.2507985801303,4,1,0,70,0,0
124977,-76.8062723074217,4,1,0,70,0,0
125052,-76.3668326627053,4,1,0,70,0,0
125127,-75.9323928347157,4,1,0,70,0,0
125201,-75.5028109696524,4,1,0,70,0,0
125276,-75.0781187825933,4,1,0,70,0,0
125351,-74.6581775341598,4,1,0,70,0,0
125425,-74.2429079462184,4,1,0,70,0,0
125500,-73.8322324947468,4,1,0,70,0,0
125574,-73.4260214477409,4,1,0,70,0,0
125649,-73.0243090622437,4,1,0,70,0,0
125699,-72.7589162413908,4,1,0,70,0,0
125749,-72.4954980295724,4,1,0,70,0,0
125798,-72.2339281315756,4,1,0,70,0,0
125848,-71.9742389803841,4,1,0,70,0,0
125898,-71.7164103641688,4,1,0,70,0,0
125948,-71.4604223596803,4,1,0,70,0,0
127142,-80,4,1,0,70,0,1
127440,-83.3333333333333,4,1,0,70,0,1
127739,-90.9090909090909,4,1,0,70,0,1
127788,-89.2857142857143,4,1,0,70,0,1
127838,-87.719298245614,4,1,0,70,0,1
127888,-86.2068965517241,4,1,0,70,0,1
128037,-95.2380952380952,4,1,0,70,0,1
128186,-92.5925925925926,4,1,0,70,0,1
128336,-90.9090909090909,4,1,0,70,0,1
128385,-89.2857142857143,4,1,0,70,0,1
128435,-87.719298245614,4,1,0,70,0,1
128485,-86.2068965517241,4,1,0,70,0,1
128634,-81.6326530612245,4,1,0,70,0,1
128783,-80,4,1,0,70,0,1
128858,-80.9635307871922,4,1,0,70,0,1
128933,-81.9505543135494,4,1,0,70,0,1
129007,-82.9619403802312,4,1,0,70,0,1
129082,-83.9986022632583,4,1,0,70,0,1
129157,-85.0614994641125,4,1,0,70,0,1
129231,-86.151640671845,4,1,0,70,0,1
129306,-87.2700869559146,4,1,0,70,0,1
129380,-88.4179552110006,4,1,0,70,0,1
129455,-89.5964218772959,4,1,0,70,0,1
129530,-83.3333333333333,4,1,0,70,0,1
129579,-84.5070660583285,4,1,0,70,0,1
129629,-85.7142612244968,4,1,0,70,0,1
129679,-86.9565217391304,4,1,0,70,0,1
129828,-90.9090909090909,4,1,0,70,0,1
129977,-95.2380952380952,4,1,0,70,0,1
130127,-90.9090909090909,4,1,0,70,0,1
130176,-89.2857142857143,4,1,0,70,0,1
130226,-87.719298245614,4,1,0,70,0,1
130276,-86.2068965517241,4,1,0,70,0,1
130574,-92.5925925925926,4,1,0,70,0,1
130705,-90.9090909090909,4,1,0,70,0,1
130754,-89.2857142857143,4,1,0,70,0,1
130804,-87.719298245614,4,1,0,70,0,1
130854,-86.2068965517241,4,1,0,70,0,1
131022,-83.3333333333333,4,1,0,70,0,1
131172,-85.6807722922091,4,1,0,70,0,1
131246,-86.9047567318597,4,1,0,70,0,1
131321,-88.1642181993869,4,1,0,70,0,1
131470,-92.5925925925926,4,1,0,70,0,1
131520,-90.0900900900901,4,1,0,70,0,1
131570,-87.719298245614,4,1,0,70,0,1
131619,-85.2174194631473,4,1,0,70,0,1
131669,-83.4753109246644,4,1,0,70,0,1
131719,-81.8030036426878,4,1,0,70,0,1
131769,-80.1963849073612,4,1,0,70,0,1
131918,-76.9230769230769,4,1,0,70,0,1
132216,-74.0740740740741,4,1,0,70,0,1
132515,-83.3333333333333,4,1,0,70,0,1
132565,-85.7142612244968,4,1,0,70,0,1
132614,-88.2353200692118,4,1,0,70,0,1
132664,-90.9090909090909,4,1,0,70,0,1
132813,-80,4,1,0,70,0,1
132851,-79.3650793650794,4,1,0,70,0,1
132963,-82.3012076056192,4,1,0,70,0,1
133000,-81.3008130081301,4,1,0,70,0,1
133112,-84.7387968955094,4,1,0,70,0,1
133149,-84.0336134453781,4,1,0,70,0,1
133261,-87.3251096366752,4,1,0,70,0,1
133298,-86.2068965517241,4,1,0,70,0,1
133410,-90.0743473663162,4,1,0,70,0,1
133448,-89.2857142857143,4,1,0,70,0,1
133709,-86.9565217391304,4,1,0,70,0,1
133746,-86.2068965517241,4,1,0,70,0,1
133858,-90.3861658549989,4,1,0,70,0,1
133895,-89.2857142857143,4,1,0,70,0,1
134007,-94.0975433954346,4,1,0,70,0,1
134045,-93.4579439252336,4,1,0,70,0,1
134306,-100,4,1,0,70,0,0
134380,-99.502487562189,4,1,0,70,0,0
134455,-99.009900990099,4,1,0,70,0,0
134530,-98.5221674876847,4,1,0,70,0,0
134604,-98.0392156862745,4,1,0,70,0,0
134754,-96.3855421686747,4,1,0,70,0,0
134828,-95.8083832335329,4,1,0,70,0,0
134903,-95.2380952380952,4,1,0,70,0,0
135052,-94.1176470588235,4,1,0,70,0,0
135127,-93.5672514619883,4,1,0,70,0,0
135276,-92.485549132948,4,1,0,70,0,0
135351,-91.9540229885058,4,1,0,70,0,0
135425,-91.4285714285714,4,1,0,70,0,0
135500,-90.9090909090909,4,1,0,70,0,0
135649,-89.8876404494382,4,1,0,70,0,0
135724,-89.3854748603352,4,1,0,70,0,0
135873,-88.3977900552486,4,1,0,70,0,0
135948,-87.9120879120879,4,1,0,70,0,0
136022,-87.431693989071,4,1,0,70,0,0
136097,-86.9565217391304,4,1,0,70,0,0
136246,-86.0215053763441,4,1,0,70,0,0
136395,-85.1063829787234,4,1,0,70,0,0
136545,-84.2105263157895,4,1,0,70,0,0
136694,-80,4,1,0,70,0,1
136974,-83.3333333333333,4,1,0,70,0,1
137272,-90.9090909090909,4,1,0,70,0,1
137321,-89.2857142857143,4,1,0,70,0,1
137371,-87.719298245614,4,1,0,70,0,1
137421,-86.2068965517241,4,1,0,70,0,1
137571,-95.2380952380952,4,1,0,70,0,1
137720,-92.5925925925926,4,1,0,70,0,1
137870,-90.9090909090909,4,1,0,70,0,1
137919,-89.2857142857143,4,1,0,70,0,1
137969,-87.719298245614,4,1,0,70,0,1
138019,-86.2068965517241,4,1,0,70,0,1
138168,-81.6326530612245,4,1,0,70,0,1
138317,-80,4,1,0,70,0,1
138392,-80.9635307871922,4,1,0,70,0,1
138467,-81.9505543135494,4,1,0,70,0,1
138541,-82.9619403802312,4,1,0,70,0,1
138616,-83.9986022632583,4,1,0,70,0,1
138691,-85.0614994641125,4,1,0,70,0,1
138765,-86.151640671845,4,1,0,70,0,1
138840,-87.2700869559146,4,1,0,70,0,1
138914,-88.4179552110006,4,1,0,70,0,1
138989,-89.5964218772959,4,1,0,70,0,1
139064,-83.3333333333333,4,1,0,70,0,1
139113,-84.5070660583285,4,1,0,70,0,1
139163,-85.7142612244968,4,1,0,70,0,1
139213,-86.9565217391304,4,1,0,70,0,1
139362,-90.9090909090909,4,1,0,70,0,1
139511,-95.2380952380952,4,1,0,70,0,1
139661,-90.9090909090909,4,1,0,70,0,1
139710,-89.2857142857143,4,1,0,70,0,1
139760,-87.719298245614,4,1,0,70,0,1
139810,-86.2068965517241,4,1,0,70,0,1
140108,-92.5925925925926,4,1,0,70,0,1
140239,-90.9090909090909,4,1,0,70,0,1
140288,-89.2857142857143,4,1,0,70,0,1
140338,-87.719298245614,4,1,0,70,0,1
140388,-86.2068965517241,4,1,0,70,0,1
140556,-83.3333333333333,4,1,0,70,0,1
140706,-85.6807722922091,4,1,0,70,0,1
140780,-86.9047567318597,4,1,0,70,0,1
140855,-88.1642181993869,4,1,0,70,0,1
141004,-92.5925925925926,4,1,0,70,0,1
141072,-90.0900900900901,4,1,0,70,0,1
141122,-87.719298245614,4,1,0,70,0,1
141153,-85.2174194631473,4,1,0,70,0,1
141203,-83.4753109246644,4,1,0,70,0,1
141253,-81.8030036426878,4,1,0,70,0,1
141303,-80.1963849073612,4,1,0,70,0,1
141452,-76.9230769230769,4,1,0,70,0,1
141750,-74.0740740740741,4,1,0,70,0,1
142049,-83.3333333333333,4,1,0,70,0,1
142099,-85.7142612244968,4,1,0,70,0,1
142148,-88.2353200692118,4,1,0,70,0,1
142198,-90.9090909090909,4,1,0,70,0,1
142347,-80,4,1,0,70,0,1
142385,-79.3650793650794,4,1,0,70,0,1
142497,-82.3012076056192,4,1,0,70,0,1
142534,-81.3008130081301,4,1,0,70,0,1
142646,-84.7387968955094,4,1,0,70,0,1
142683,-84.0336134453781,4,1,0,70,0,1
142795,-87.3251096366752,4,1,0,70,0,1
142832,-86.2068965517241,4,1,0,70,0,1
142944,-90.0743473663162,4,1,0,70,0,1
142982,-89.2857142857143,4,1,0,70,0,1
143243,-86.9565217391304,4,1,0,70,0,1
143280,-86.2068965517241,4,1,0,70,0,1
143392,-90.3861658549989,4,1,0,70,0,1
143429,-89.2857142857143,4,1,0,70,0,1
143541,-94.0975433954346,4,1,0,70,0,1
143579,-93.4579439252336,4,1,0,70,0,1
143858,-100,4,1,0,70,0,0
144157,-96.774224765879,4,1,0,70,0,0
144455,-93.7499707031342,4,1,0,70,0,0
144903,-89.5522120739665,4,1,0,70,0,0
145052,-88.2353200692118,4,1,0,70,0,0
145351,-85.7142612244968,4,1,0,70,0,0
145500,-84.5070660583285,4,1,0,70,0,0
145649,-76.9230769230769,4,1,0,70,0,0
145749,-78.9473476454348,4,1,0,70,0,0
145848,-81.0811029948927,4,1,0,70,0,0
145948,-83.3333333333333,4,1,0,70,0,0
146047,-85.7142612244968,4,1,0,70,0,0
146147,-88.2353200692118,4,1,0,70,0,0
146246,-76.9230769230769,4,1,0,70,0,1
146395,-90.9090909090909,4,1,0,70,0,1
148037,-83.3333333333333,4,1,0,70,0,1
148112,-85.1063829787234,4,1,0,70,0,1
148186,-86.9565217391304,4,1,0,70,0,1
148261,-88.8888888888889,4,1,0,70,0,1
148336,-90.9090909090909,4,1,0,70,0,1
148435,-93.7499707031342,4,1,0,70,0,1
148535,-96.774224765879,4,1,0,70,0,1
148634,-100,4,1,0,70,0,1
149269,-98.0392156862745,4,1,0,70,0,1
149530,-100,4,1,0,70,0,1
149567,-98.0392156862745,4,1,0,70,0,1
149828,-100,4,1,0,70,0,1
150425,-100,4,1,0,70,0,1
150525,-96.774224765879,4,1,0,70,0,1
150624,-93.7499707031342,4,1,0,70,0,1
150724,-90.9090909090909,4,1,0,70,0,1
150823,-88.2353200692118,4,1,0,70,0,1
150923,-85.7142612244968,4,1,0,70,0,1
151022,-83.3333333333333,4,1,0,70,0,1
151321,-80,4,1,0,70,0,1
151470,-100,4,1,0,70,0,1
152813,-83.3333333333333,4,1,0,70,0,1
152863,-84.507280302198,4,1,0,70,0,1
152913,-85.7140408170262,4,1,0,70,0,1
152963,-86.9565217391304,4,1,0,70,0,1
153012,-88.2353200692118,4,1,0,70,0,1
153062,-89.5522120739665,4,1,0,70,0,1
153112,-90.9090909090909,4,1,0,70,0,1
153211,-93.7499707031342,4,1,0,70,0,1
153311,-96.774224765879,4,1,0,70,0,1
153410,-100,4,1,0,70,0,0
153609,-98.3606234883202,4,1,0,70,0,0
153709,-97.5609756097561,4,1,0,70,0,0
153908,-95.9999692800098,4,1,0,70,0,0
153958,-95.6175603561945,4,1,0,70,0,0
154007,-95.2380952380952,4,1,0,70,0,0
154107,-94.4882187364469,4,1,0,70,0,0
154206,-93.7499707031342,4,1,0,70,0,0
154306,-93.0232558139535,4,1,0,70,0,0
154505,-91.6030254647251,4,1,0,70,0,0
154555,-91.2547806098192,4,1,0,70,0,0
154604,-90.9090909090909,4,1,0,70,0,0
154803,-89.5522120739665,4,1,0,70,0,0
155002,-88.2353200692118,4,1,0,70,0,0
155102,-87.591215301835,4,1,0,70,0,0
155201,-86.9565217391304,4,1,0,70,0,0
155301,-86.3309600952403,4,1,0,70,0,0
155400,-85.7142612244968,4,1,0,70,0,0
155500,-85.1063829787234,4,1,0,70,0,0
155599,-84.5070660583285,4,1,0,70,0,0
155699,-83.91606044306,4,1,0,70,0,0
155798,-76.9230769230769,4,1,0,70,0,1
155929,-90.9090909090909,4,1,0,70,0,1
157571,-83.3333333333333,4,1,0,70,0,1
157646,-85.1063829787234,4,1,0,70,0,1
157720,-86.9565217391304,4,1,0,70,0,1
157795,-88.8888888888889,4,1,0,70,0,1
157870,-90.9090909090909,4,1,0,70,0,1
157969,-93.7499707031342,4,1,0,70,0,1
158069,-96.774224765879,4,1,0,70,0,1
158168,-100,4,1,0,70,0,1
158803,-98.0392156862745,4,1,0,70,0,1
159064,-100,4,1,0,70,0,1
159101,-98.0392156862745,4,1,0,70,0,1
159380,-90.9090909090909,4,1,0,70,0,1
159430,-93.0232558139535,4,1,0,70,0,1
159480,-94.3396226415094,4,1,0,70,0,1
159579,-96.1538461538461,4,1,0,70,0,1
159679,-90.9090909090909,4,1,0,70,0,1
159729,-92.3077207100679,4,1,0,70,0,1
159778,-93.7499707031342,4,1,0,70,0,1
159878,-96.774224765879,4,1,0,70,0,1
159928,-98.3606234883202,4,1,0,70,0,1
159977,-100,4,1,0,70,0,1
160059,-96.774224765879,4,1,0,70,0,1
160158,-93.7499707031342,4,1,0,70,0,1
160258,-90.9090909090909,4,1,0,70,0,1
160357,-88.2353200692118,4,1,0,70,0,1
160457,-85.7142612244968,4,1,0,70,0,1
160556,-83.3333333333333,4,1,0,70,0,1
160855,-80,4,1,0,70,0,1
161004,-100,4,1,0,70,0,1
161968,-90.9090909090909,4,1,0,70,0,1
162017,-91.9540229885058,4,1,0,70,0,1
162067,-93.0232558139535,4,1,0,70,0,1
162117,-94.1176470588235,4,1,0,70,0,1
162167,-95.2380952380952,4,1,0,70,0,1
162266,-97.5609756097561,4,1,0,70,0,1
162366,-100,4,1,0,70,0,1
162515,-83.3333333333333,4,1,0,70,0,1
162565,-84.883734748515,4,1,0,70,0,1
162614,-86.4929196895942,4,1,0,70,0,1
162664,-88.1642181993869,4,1,0,70,0,1
162764,-91.7085392572159,4,1,0,70,0,1
162863,-95.5497694861811,4,1,0,70,0,1
162963,-100,4,1,0,70,0,1
163162,-95.7447215934986,4,1,0,70,0,1
163261,-93.7499707031342,4,1,0,70,0,1
163361,-91.8367253227831,4,1,0,70,0,1
163460,-90.0000090000009,4,1,0,70,0,1
163560,-88.2353200692118,4,1,0,70,0,1
163759,-84.9056443574256,4,1,0,70,0,1
163858,-83.3333333333333,4,1,0,70,0,1
163958,-81.8181966942176,4,1,0,70,0,1
164057,-80.3571715561327,4,1,0,70,0,1
164157,-78.9473476454348,4,1,0,70,0,1
164356,-76.2711929043384,4,1,0,70,0,1
164455,-75.0000187500047,4,1,0,70,0,1
164555,-73.7704676162401,4,1,0,70,0,1
164654,-72.5806334547365,4,1,0,70,0,1
164754,-71.4285714285714,4,1,0,70,0,1
165351,306.122448979592,4,1,0,50,1,0
165351,-153.846153846154,4,1,0,50,0,0
165504,-149.999925000038,4,1,0,50,0,0
165657,-146.341534800749,4,1,0,50,0,0
165810,-142.857142857143,4,1,0,50,0,0
166575,312.5,4,1,0,50,1,0
166575,-166.666666666667,4,1,0,50,0,0
167825,324.324324324324,4,1,0,50,1,0
167825,-142.857142857143,4,1,0,50,0,0
167987,-139.534818821014,4,1,0,50,0,0
168149,-136.363698347136,4,1,0,50,0,0
168311,-133.333333333333,4,1,0,50,0,0
169122,338.983050847458,4,1,0,50,1,0
169122,-166.666666666667,4,1,0,50,0,0
169458,-142.857142857143,4,1,0,50,0,0
169571,-144.927536231884,4,1,0,50,0,0
169684,-147.058823529412,4,1,0,50,0,0
169799,344.827586206897,4,1,0,50,1,8
169799,-144.927536231884,4,1,0,50,0,8
169911,-147.058823529412,4,1,0,50,0,8
170026,-149.253731343284,4,1,0,50,0,8
170141,-151.515151515152,4,1,0,50,0,8
170256,-153.846153846154,4,1,0,50,0,8
170371,-156.25,4,1,0,50,0,8
170488,352.941176470588,4,1,0,50,1,0
170488,-153.846153846154,4,1,0,50,0,0
170664,-149.999925000038,4,1,0,50,0,0
170840,-146.341534800749,4,1,0,50,0,0
171017,-142.857142857143,4,1,0,50,0,0
171193,357.142857142857,4,1,0,50,1,8
171907,363.636363636364,4,1,0,50,1,0
171907,-166.666666666667,4,1,0,50,0,0
172635,384.615384615385,4,1,0,50,1,8
173404,387.096774193548,4,1,0,50,1,0
173404,-142.857142857143,4,1,0,50,0,0
173597,-139.534818821014,4,1,0,50,0,0
173791,-136.363698347136,4,1,0,50,0,0
173984,-133.333333333333,4,1,0,50,0,0
174178,397.350993377483,4,1,0,50,1,8
174774,-156.25,4,1,0,50,0,8
174807,-153.846153846154,4,1,0,50,0,8
174972,413.793103448276,4,1,0,50,1,0
174972,-166.666666666667,4,1,0,50,0,0
175592,-125,4,1,0,50,0,0
175627,-123.456790123457,4,1,0,50,0,0
175799,425.531914893617,4,1,0,50,1,8
176650,431.654676258993,4,1,0,70,1,0
176650,-125,4,1,0,70,0,0
176757,-123.752420906734,4,1,0,70,0,0
176865,-122.529649111844,4,1,0,70,0,0
176973,-121.330657587898,4,1,0,70,0,0
177081,-120.155048074035,4,1,0,70,0,0
177189,-119.001859999072,4,1,0,70,0,0
177405,-116.760775852003,4,1,0,70,0,0
177513,-115.671659055472,4,1,0,70,0,0
177621,-114.602541196748,4,1,0,70,0,0
177837,-112.522645182343,4,1,0,70,0,0
177944,-111.510815433989,4,1,0,70,0,0
178052,-110.516898586378,4,1,0,70,0,0
178160,-109.540663137266,4,1,0,70,0,0
178268,-108.581405651445,4,1,0,70,0,0
178376,-107.638918788589,4,1,0,70,0,0
178484,-106.712538830025,4,1,0,70,0,0
178592,-105.802080280502,4,1,0,70,0,0
178700,-104.90691609335,4,1,0,70,0,0
178808,-104.026880545933,4,1,0,70,0,0
178916,-103.161380505594,4,1,0,70,0,0
179132,-101.472981803865,4,1,0,70,0,0
179239,-100.649389863399,4,1,0,70,0,0
179347,-99.8389597579105,4,1,0,70,0,0
179563,-98.2567291120933,4,1,0,70,0,0
179671,-97.4843196471847,4,1,0,70,0,0
179779,-96.7238659368529,4,1,0,70,0,0
179887,-95.9752767687044,4,1,0,70,0,0
179995,-95.2380952380952,4,1,0,70,0,0
180103,-94.5121518999305,4,1,0,70,0,0
180211,-93.7972796912944,4,1,0,70,0,0
180319,-93.0930539548722,4,1,0,70,0,0
180426,-92.3994093829752,4,1,0,70,0,0
180534,-91.715941055999,4,1,0,70,0,0
180642,-91.0425924560287,4,1,0,70,0,0
180858,-89.7250465672992,4,1,0,70,0,0
180966,-89.0804316125072,4,1,0,70,0,0
181074,-88.4450910763325,4,1,0,70,0,0
181290,-87.2011398933007,4,1,0,70,0,0
181398,-86.5921570019717,4,1,0,70,0,0
181506,-85.9916949221044,4,1,0,70,0,0
181614,-85.3994302150016,4,1,0,70,0,0
181721,-84.8153400416613,4,1,0,70,0,0
181775,-84.5262094643997,4,1,0,70,0,0
181829,-84.239114411038,4,1,0,70,0,0
181937,-83.6707355745377,4,1,0,70,0,0
182045,-83.1099062021599,4,1,0,70,0,0
182153,-82.5566131975002,4,1,0,70,0,0
182261,-82.0105711626229,4,1,0,70,0,0
182369,-81.4717712533373,4,1,0,70,0,0
182477,-80.9399393274215,4,1,0,70,0,0
182531,-80.6766512090203,4,1,0,70,0,0
182585,-80.4150704275187,4,1,0,70,0,0
182639,-80.1551161808331,4,1,0,70,0,0
182693,-79.8969010388994,4,1,0,70,0,0
182801,-79.3854297569933,4,1,0,70,0,0
183016,-78.3818229417325,4,1,0,70,0,0
183124,-77.8894452791597,4,1,0,70,0,0
183232,-77.4032749325624,4,1,0,70,0,0
183340,-76.9230769230769,4,1,0,70,0,0
183394,-76.6852347181664,4,1,0,70,0,0
183448,-76.4488003272009,4,1,0,70,0,0
183556,-75.9803940191273,4,1,0,70,0,0
183772,-75.0605363225441,4,1,0,70,0,0
183880,-74.6088815904823,4,1,0,70,0,0
183988,-74.162684748518,4,1,0,70,0,0
184096,-73.721738771442,4,1,0,70,0,0
184203,-73.28605893958,4,1,0,70,0,0
184257,-73.0701444158334,4,1,0,70,0,0
184311,-72.8554453252668,4,1,0,70,0,0
184365,-72.6420569905994,4,1,0,70,0,0
184419,-72.4299150034947,4,1,0,70,0,0
184527,-72.0092747945935,4,1,0,70,0,0
184635,-71.5935434078813,4,1,0,70,0,0
184743,-71.1825340839769,4,1,0,70,0,0
184851,-70.7762670190381,4,1,0,70,0,0
184959,-70.3745615664814,4,1,0,70,0,0
185067,-69.9774392735782,4,1,0,70,0,0
185121,-69.7805054202008,4,1,0,70,0,0
185175,-69.584725317776,4,1,0,70,0,0
185283,-69.1964424724996,4,1,0,70,0,0
185498,-68.4326861882309,4,1,0,70,0,0
185606,-68.0570726611336,4,1,0,70,0,0
185714,-67.6856057760188,4,1,0,70,0,0
185822,-67.318126617318,4,1,0,70,0,0
185930,-66.9546609817696,4,1,0,70,0,0
185984,-66.7743514374181,4,1,0,70,0,0
186038,-66.5950547844218,4,1,0,70,0,0
186092,-66.4167184163598,4,1,0,70,0,0
186146,-66.2393346391314,4,1,0,70,0,0
186254,-65.8873510781147,4,1,0,70,0,0
186362,-65.5391314492144,4,1,0,70,0,0
186470,-65.1945307004305,4,1,0,70,0,0
186578,-64.8535768368965,4,1,0,70,0,0
186685,-64.5161290322581,4,1,0,70,0,0
186793,-64.1821746846248,4,1,0,70,0,0
186847,-64.0165111385529,4,1,0,70,0,0
186901,-63.8517005942678,4,1,0,70,0,0
187009,-63.524571939672,4,1,0,70,0,0
187117,-63.2008180713891,4,1,0,70,0,0
187225,-62.8803079625963,4,1,0,70,0,0
187333,-62.5630713963514,4,1,0,70,0,0
187441,-62.2489809841813,4,1,0,70,0,0
187549,-61.9380668881572,4,1,0,70,0,0
187657,-61.6302052100943,4,1,0,70,0,0
187765,-61.3254264416841,4,1,0,70,0,0
187873,-61.0236100347224,4,1,0,70,0,0
187980,-60.7247867649113,4,1,0,70,0,0
188088,-60.4288393009834,4,1,0,70,0,0
188196,-60.1357986605352,4,1,0,70,0,0
188304,-59.8455506030038,4,1,0,70,0,0
188412,-59.5581263489916,4,1,0,70,0,0
188520,-59.2734146287973,4,1,0,70,0,0
188628,-58.9914468301241,4,1,0,70,0,0
188736,-58.71211454029,4,1,0,70,0,0
188808,-58.5273808645899,4,1,0,70,0,0
188880,-58.3438060465187,4,1,0,70,0,0
188952,-58.1613453882415,4,1,0,70,0,0
189024,-57.9800560203301,4,1,0,70,0,0
189096,-57.7998598931396,4,1,0,70,0,0
189167,-57.6208135597908,4,1,0,70,0,0
189239,-57.4428730627391,4,1,0,70,0,0
189311,-57.2659953946687,4,1,0,70,0,0
189383,-57.0902362565247,4,1,0,70,0,0
189455,-56.9155526870117,4,1,0,70,0,0
189527,-56.7419026467828,4,1,0,70,0,0
189599,-56.5693410011189,4,1,0,70,0,0
189653,-56.4406069848638,4,1,0,70,0,0
189707,-56.3124575544851,4,1,0,70,0,0
189761,-56.1848571696653,4,1,0,70,0,0
189815,-56.0578651707439,4,1,0,70,0,0
189869,-55.9314459453337,4,1,0,70,0,0
189923,-55.8055956270735,4,1,0,70,0,0
189977,-55.6802793813698,4,1,0,70,0,0
190031,-55.5555555555556,4,1,0,70,0,0
190462,-50,4,1,0,70,0,0
190894,-100,4,1,0,70,0,0
197369,-50,4,1,0,70,0,0
197801,-100,4,1,0,70,0,0
202549,-100,4,1,0,70,0,0
202603,-99.2949068663421,4,1,0,70,0,0
202657,-98.5997844608712,4,1,0,70,0,0
202711,-97.9142310501693,4,1,0,70,0,0
202765,-97.2382395211211,4,1,0,70,0,0
202873,-95.9136930224707,4,1,0,70,0,0
202980,-94.6248361807524,4,1,0,70,0,0
203088,-93.3701585238552,4,1,0,70,0,0
203304,-90.9580428739831,4,1,0,70,0,0
203412,-89.7981248355572,4,1,0,70,0,0
203520,-88.6673387650945,4,1,0,70,0,0
203736,-86.4892541426191,4,1,0,70,0,0
203916,-84.4156118232506,4,1,0,70,0,0
204096,-83.4155671799783,4,1,0,70,0,0
204275,-50,4,1,0,70,0,0
204707,-66.6666666666667,4,1,0,70,0,0
206865,-66.6666666666667,4,1,0,70,0,0
206919,-65.5884795147502,4,1,0,70,0,0
206973,-64.5446536049803,4,1,0,70,0,0
207027,-63.5334913623042,4,1,0,70,0,0
207081,-62.5535614870233,4,1,0,70,0,0
207189,-60.6816368264718,4,1,0,70,0,0
207243,-59.7870504835876,4,1,0,70,0,0
207297,-58.9184921579487,4,1,0,70,0,0
207513,-62.6609603418782,4,1,0,70,0,0
207729,-71.4285714285714,4,1,0,70,0,0
207837,-70.1754385964912,4,1,0,70,0,0
207944,-68.9655172413793,4,1,0,70,0,0
208052,-67.7966101694915,4,1,0,70,0,0
208160,-66.6666666666667,4,1,0,70,0,0
211182,-50,4,1,0,70,0,0
211398,-83.3333333333333,4,1,0,70,0,0
211506,-82.8876739397838,4,1,0,70,0,0
211721,-82.0105711626229,4,1,0,70,0,0
211829,-81.5789774238338,4,1,0,70,0,0
212045,-80.7291456434517,4,1,0,70,0,0
212153,-80.3108995543548,4,1,0,70,0,0
212369,-79.4871489151991,4,1,0,70,0,0
212477,-79.0816407226164,4,1,0,70,0,0
212585,-78.6801870700128,4,1,0,70,0,0
212693,-78.2828500280644,4,1,0,70,0,0
212801,-77.8894452791597,4,1,0,70,0,0
212908,-77.4999748125082,4,1,0,70,0,0
213124,-76.7326618713869,4,1,0,70,0,0
213232,-76.3547042515063,4,1,0,70,0,0
213448,-75.6097358120221,4,1,0,70,0,0
213556,-75.2427330568414,4,1,0,70,0,0
213664,-74.8792198184329,4,1,0,70,0,0
213772,-74.5192576391554,4,1,0,70,0,0
213880,-74.162684748518,4,1,0,70,0,0
214096,-73.4597330473301,4,1,0,70,0,0
214203,-73.1132040984338,4,1,0,70,0,0
214311,-72.769929136643,4,1,0,70,0,0
214419,-72.4299150034947,4,1,0,70,0,0
214635,-62.5,4,1,0,70,0,0
214707,-62.8255146980292,4,1,0,70,0,0
214779,-63.1544378623486,4,1,0,70,0,0
214851,-63.4868233098221,4,1,0,70,0,0
214959,-63.9920547464827,4,1,0,70,0,0
215067,-64.5053503962886,4,1,0,70,0,0
215139,-64.8521468330427,4,1,0,70,0,0
215211,-65.2026923495725,4,1,0,70,0,0
215283,-65.5570480710166,4,1,0,70,0,0
215391,-66.0959064822238,4,1,0,70,0,0
215498,-66.6436523920406,4,1,0,70,0,0
215570,-67.0138879581404,4,1,0,70,0,0
215642,-67.3882601564216,4,1,0,70,0,0
215714,-67.7668387040812,4,1,0,70,0,0
215822,-68.3427965325599,4,1,0,70,0,0
215876,-68.6344153548914,4,1,0,70,0,0
215930,-68.9285810293381,4,1,0,70,0,0
216038,-69.5244941745426,4,1,0,70,0,0
216146,-70.1308009568646,4,1,0,70,0,0
216200,-70.4379621170552,4,1,0,70,0,0
216254,-70.7477756899323,4,1,0,70,0,0
216362,-71.4285714285714,4,1,0,70,0,0
216416,-70.2247191011236,4,1,0,70,0,0
216470,-69.060773480663,4,1,0,70,0,0
216524,-67.9347826086957,4,1,0,70,0,0
216578,-66.8449197860963,4,1,0,70,0,0
216793,-77.1604938271605,4,1,0,70,0,0
216901,-71.6332378223496,4,1,0,70,0,0
217117,-76.9230769230769,4,1,0,70,0,0
217171,-75.5007587826258,4,1,0,70,0,0
217225,-74.130083470474,4,1,0,70,0,0
217333,-71.5328561138059,4,1,0,70,0,0
217441,-69.1114138191036,4,1,0,70,0,0
217549,-66.8485839464463,4,1,0,70,0,0
217657,-55.5555555555556,4,1,0,70,0,0
217729,-56.6037629049504,4,1,0,70,0,0
217801,-57.6923187869844,4,1,0,70,0,0
217873,-58.8235294117647,4,1,0,70,0,0
217944,-59.9999880000024,4,1,0,70,0,0
218016,-61.2245022907148,4,1,0,70,0,0
218088,-62.5,4,1,0,70,0,1
233628,-62.5,4,1,0,70,0,0
233952,-83.3333333333333,4,1,0,70,0,0
234006,-82.2850898594324,4,1,0,70,0,0
234060,-81.2629563626051,4,1,0,70,0,0
234167,-79.2929605295501,4,1,0,70,0,0
234275,-77.4161583005605,4,1,0,70,0,0
234383,-75.6262038746329,4,1,0,70,0,0
234491,-73.9171507008085,4,1,0,70,0,0
234599,-72.2836352018412,4,1,0,70,0,0
234707,-70.7207076596891,4,1,0,70,0,0
234815,-69.2239852802118,4,1,0,70,0,0
234923,-67.7893027124534,4,1,0,70,0,0
234995,-66.8654353173868,4,1,0,70,0,0
235067,-65.9663677070882,4,1,0,70,0,0
235139,-65.0911992793102,4,1,0,70,0,0
235211,-64.2389483313291,4,1,0,70,0,0
235283,-63.4087263089146,4,1,0,70,0,0
235355,-62.5,4,1,0,70,0,1
237081,-62.5,4,1,0,70,0,0
237189,-63.4868233098221,4,1,0,70,0,0
237297,-64.5053503962886,4,1,0,70,0,0
237405,-65.5570480710166,4,1,0,70,0,0
237513,-66.6436523920406,4,1,0,70,0,0
237621,-67.7668387040812,4,1,0,70,0,0
237729,-68.9285810293381,4,1,0,70,0,0
237837,-70.1308009568646,4,1,0,70,0,0
237944,-71.3757533710768,4,1,0,70,0,0
238052,-72.6656522541612,4,1,0,70,0,0
238160,-74.0030859286832,4,1,0,70,0,0
238268,-75.390617637635,4,1,0,70,0,0
238376,-76.831234047915,4,1,0,70,0,0
238448,-77.8225862935748,4,1,0,70,0,0
238520,-78.8398557545999,4,1,0,70,0,0
238592,-79.8841360490744,4,1,0,70,0,0
238664,-80.9563863659731,4,1,0,70,0,0
238736,-82.0578130115792,4,1,0,70,0,0
238808,-62.4191282170038,4,1,0,70,0,0
239024,-83.3333333333333,4,1,0,70,0,0
239132,-81.9672131147541,4,1,0,70,0,0
239239,-80.6451612903226,4,1,0,70,0,0
239455,-78.125,4,1,0,70,0,0
239527,-77.3196075565999,4,1,0,70,0,0
239599,-76.5305927217876,4,1,0,70,0,0
239671,-75.7575757575758,4,1,0,70,0,0
239779,-74.6268656716418,4,1,0,70,0,0
239887,-73.5294117647059,4,1,0,70,0,0
239995,-72.463768115942,4,1,0,70,0,0
240103,-71.4285714285714,4,1,0,70,0,0
240319,-62.5,4,1,0,70,0,0
240534,-58.8235294117647,4,1,0,70,0,0
240750,-76.9230769230769,4,1,0,70,0,0
240858,-75.0256775381374,4,1,0,70,0,0
241074,-71.4985378549009,4,1,0,70,0,0
241182,-69.8564519768328,4,1,0,70,0,0
241254,-68.8029998107917,4,1,0,70,0,0
241326,-67.7808941926686,4,1,0,70,0,0
241398,-66.7886672989327,4,1,0,70,0,0
241506,-62.5,4,1,0,70,0,0
241614,-60.6060606060606,4,1,0,70,0,0
241721,-58.8235294117647,4,1,0,70,0,0
241937,-55.5555555555556,4,1,0,70,0,0
242045,-54.054054054054,4,1,0,70,0,0
242261,-52.6315789473684,4,1,0,70,0,0
242477,-50,4,1,0,70,0,0
243988,-25,4,1,0,70,0,0
245283,-50,4,1,0,70,0,0
245714,-57.1428571428571,4,1,0,70,0,1
248952,-62.5,4,1,0,70,0,1
249167,-57.1428571428571,4,1,0,70,0,1
252405,-54.054054054054,4,1,0,70,0,1
252477,-55.005500550055,4,1,0,70,0,1
252549,-55.9910414333707,4,1,0,70,0,1
252621,-57.0125427594071,4,1,0,70,0,1
255858,-62.5,4,1,0,70,0,1
256074,-57.0125427594071,4,1,0,70,0,1
257801,-57.1428571428571,4,1,0,70,0,1
258016,-56.0000089600014,4,1,0,70,0,1
258232,-54.9019478662083,4,1,0,70,0,1
258340,-54.3689235931769,4,1,0,70,0,1
258556,-53.3333333333333,4,1,0,70,0,1
258664,-52.8301926664296,4,1,0,70,0,1
258772,-52.336456424143,4,1,0,70,0,1
258880,-51.8518633744882,4,1,0,70,0,1
258988,-51.3761354768142,4,1,0,70,0,1
259203,-50.4504468143822,4,1,0,70,0,1
259311,-50,4,1,0,70,0,1
259527,428.571428571429,4,1,0,70,1,0
259527,-50,4,1,0,70,0,0
259741,-55.5555555555556,4,1,0,50,0,0
259955,-61.7283950617284,4,1,0,50,0,0
260169,-68.5871056241427,4,1,0,50,0,0
260384,410.958904109589,4,1,0,50,1,8
261205,394.736842105263,4,1,0,50,1,0
261994,384.615384615385,4,1,0,50,1,8
262570,-120.481927710843,4,1,0,50,0,8
262635,-121.951219512195,4,1,0,50,0,8
262699,-123.456790123457,4,1,0,50,0,8
262763,382.165605095541,4,1,0,50,1,0
262763,-125,4,1,0,50,0,0
262954,-121.951219512195,4,1,0,50,0,0
263145,-119.047619047619,4,1,0,50,0,0
263336,-116.279069767442,4,1,0,50,0,0
263527,365.853658536585,4,1,0,50,1,8
264258,361.44578313253,4,1,0,50,1,0
264258,-125,4,1,0,50,0,0
264800,-111.111111111111,4,1,0,50,0,0
264890,-113.636363636364,4,1,0,50,0,0
264980,348.837209302326,4,1,0,50,1,8
264980,-120.481927710843,4,1,0,50,0,0
265067,-123.350545037292,4,1,0,50,0,0
265154,-126.35909491625,4,1,0,50,0,0
265241,-129.518072289157,4,1,0,50,0,0
265328,-132.839048501699,4,1,0,50,0,0
265416,-136.334812935954,4,1,0,50,0,0
265503,-140.019537609899,4,1,0,50,0,0
265590,-143.908969210174,4,1,0,50,0,0
265677,346.820809248555,4,1,0,50,1,0
265677,-148.881239242685,4,1,0,50,0,0
265850,-144.927536231884,4,1,0,50,0,0
266023,-140.845070422535,4,1,0,50,0,0
266197,-136.986301369863,4,1,0,50,0,0
266370,337.078651685393,4,1,0,50,1,8
267044,329.67032967033,4,1,0,50,1,0
267044,-142.857142857143,4,1,0,50,0,0
267703,324.324324324324,4,1,0,50,1,8
267703,-125,4,1,0,50,0,8
267811,-127.659628791331,4,1,0,50,0,8
267919,-130.434725897945,4,1,0,50,0,8
268027,-133.333333333333,4,1,0,50,0,8
268135,-136.363698347136,4,1,0,50,0,8
268243,-139.534818821014,4,1,0,50,0,8
268351,322.58064516129,4,1,0,50,1,0
268351,-143.629343629343,4,1,0,50,0,8
268512,-138.888888888889,4,1,0,50,0,8
268673,-135.135135135135,4,1,0,50,0,8
268834,-131.578947368421,4,1,0,50,0,8
268996,309.278350515464,4,1,0,50,1,8
269459,-153.846153846154,4,1,0,50,0,8
269485,-151.515151515152,4,1,0,50,0,8
269614,301.507537688442,4,1,0,50,1,0
269614,-166.666666666667,4,1,0,50,0,0
270066,-142.857142857143,4,1,0,50,0,0
270091,-140.845070422535,4,1,0,50,0,0
270820,298.507462686567,4,1,0,50,1,0
270820,-166.666666666667,4,1,0,50,0,0
273189,-142.857142857143,4,1,0,50,0,0
273488,-142.180162170693,4,1,0,50,0,0
273637,-141.843971631206,4,1,0,50,0,0
273935,-141.176537024253,4,1,0,50,0,0
274085,-140.845070422535,4,1,0,50,0,0
274234,-140.515156667374,4,1,0,50,0,0
274532,-139.86013986014,4,1,0,50,0,0
274831,-139.211201490117,4,1,0,50,0,0
274980,-138.888888888889,4,1,0,50,0,0
275129,-138.568065326529,4,1,0,50,0,0
275279,-138.248911635443,4,1,0,50,0,0
275428,-137.931034482759,4,1,0,50,0,0
275577,-137.614615773112,4,1,0,50,0,0
275876,-136.986301369863,4,1,0,50,0,0
276025,-136.674197414944,4,1,0,50,0,0
276323,-136.054421768707,4,1,0,50,0,0
276473,-135.746544911066,4,1,0,50,0,0
276622,-135.440241733743,4,1,0,50,0,0
276920,-134.831400075775,4,1,0,50,0,0
277219,-134.228187919463,4,1,0,50,0,0
277368,-133.928511639057,4,1,0,50,0,0
277517,-133.630349055835,4,1,0,50,0,0
277667,-133.333333333333,4,1,0,50,0,0
277816,-133.03763501657,4,1,0,50,0,0
277965,-132.743421567886,4,1,0,50,0,0
278264,-132.158532088752,4,1,0,50,0,0
278413,-131.868189832171,4,1,0,50,0,0
278711,-131.290970988634,4,1,0,50,0,0
278861,-131.004424019399,4,1,0,50,0,0
279010,-130.718954248366,4,1,0,50,0,0
279308,-130.15190028282,4,1,0,50,0,0
279607,-129.589576851155,4,1,0,50,0,0
279682,-129.449838187702,4,1,0,50,0,0
279756,-129.310400564828,4,1,0,50,0,0
279905,-129.032258064516,4,1,0,50,0,0
279980,-128.893718106861,4,1,0,50,0,0
280055,-128.755309547077,4,1,0,50,0,0
280204,-128.479712411012,4,1,0,50,0,0
280353,-128.205128205128,4,1,0,50,0,0
280502,-127.931715167712,4,1,0,50,0,0
280652,-127.659628791331,4,1,0,50,0,0
280801,-127.388535031847,4,1,0,50,0,0
281099,-126.849947928096,4,1,0,50,0,0
281249,-126.582278481013,4,1,0,50,0,0
281398,-126.315736288111,4,1,0,50,0,0
281696,-125.786163522013,4,1,0,50,0,0
281995,-125.261012635078,4,1,0,50,0,0
282144,-125,4,1,0,50,0,0
282219,-127.622319612232,4,1,0,50,0,0
282294,-130.35719174109,4,1,0,50,0,0
282368,-133.211666677768,4,1,0,50,0,0
282443,-136.193951081857,4,1,0,50,0,0
282592,-142.578097152715,4,1,0,50,0,0
282741,-83.3333333333333,4,1,0,70,0,0
283040,-100,4,1,0,70,0,0
283090,-101.694949727102,4,1,0,70,0,0
283139,-103.448240190262,4,1,0,70,0,0
283189,-105.263157894737,4,1,0,70,0,0
283338,-111.111111111111,4,1,0,70,0,0
283488,-83.3333333333333,4,1,0,70,0,0
283637,-86.9565217391304,4,1,0,70,0,0
283786,-90.9090909090909,4,1,0,70,0,0
283935,-111.111111111111,4,1,0,70,0,0
284085,-107.16930499634,4,1,0,70,0,0
284234,-103.497490703338,4,1,0,70,0,0
284383,-100.069047642874,4,1,0,70,0,0
284458,-98.4385674432157,4,1,0,70,0,0
284532,-96.8603680306544,4,1,0,70,0,0
284607,-95.3319745349229,4,1,0,70,0,0
284682,-93.8511539468633,4,1,0,70,0,0
284831,-91.0232009036783,4,1,0,70,0,0
284980,-83.4292073975009,4,1,0,70,0,0
285129,-100.138090426698,4,1,0,70,0,0
285279,-90.9090909090909,4,1,0,70,0,0
285353,-92.3077207100679,4,1,0,70,0,0
285428,-93.7499707031342,4,1,0,70,0,0
285502,-95.2380952380952,4,1,0,70,0,0
285652,-98.3606234883202,4,1,0,70,0,0
285726,-100,4,1,0,70,0,0
285876,-90.9090909090909,4,1,0,70,0,0
286025,-86.9565217391304,4,1,0,70,0,0
286174,-83.3333333333333,4,1,0,70,0,0
286323,-100,4,1,0,70,0,0
286473,-90.9090909090909,4,1,0,70,0,0
286522,-91.8367253227831,4,1,0,70,0,0
286572,-92.7834860240235,4,1,0,70,0,0
286622,-93.7499707031342,4,1,0,70,0,0
286696,-95.2380952380952,4,1,0,70,0,0
286771,-96.774224765879,4,1,0,70,0,0
286920,-100,4,1,0,70,0,0
286995,-101.694949727102,4,1,0,70,0,0
287070,-103.448240190262,4,1,0,70,0,0
287144,-105.263157894737,4,1,0,70,0,0
287219,-107.142895408177,4,1,0,70,0,0
287294,-109.090869421502,4,1,0,70,0,0
287368,-111.111111111111,4,1,0,70,0,0
287517,-83.3333333333333,4,1,0,70,0,0
287816,-100,4,1,0,70,0,0
287866,-101.694949727102,4,1,0,70,0,0
287915,-103.448240190262,4,1,0,70,0,0
287965,-105.263157894737,4,1,0,70,0,0
288040,-108.108108108108,4,1,0,70,0,0
288114,-111.111111111111,4,1,0,70,0,0
288264,-83.3333333333333,4,1,0,70,0,0
288413,-86.9565217391304,4,1,0,70,0,0
288562,-90.9090909090909,4,1,0,70,0,0
288711,-111.111111111111,4,1,0,70,0,0
288861,-107.16930499634,4,1,0,70,0,0
289010,-103.497490703338,4,1,0,70,0,0
289234,-98.4385674432157,4,1,0,70,0,0
289308,-96.8603680306544,4,1,0,70,0,0
289458,-93.8511539468633,4,1,0,70,0,0
289532,-92.4155483615185,4,1,0,70,0,0
289607,-91.0232009036783,4,1,0,70,0,0
289756,-83.4292073975009,4,1,0,70,0,0
289905,-100.138090426698,4,1,0,70,0,0
290055,-91.023200903678,4,1,0,70,0,0
290092,-90.4977375565611,4,1,0,70,0,0
290205,-91.023200903678,4,1,0,70,0,0
290242,-90.0900900900901,4,1,0,70,0,0
290355,-91.023200903678,4,1,0,70,0,0
290392,-89.6860986547085,4,1,0,70,0,0
290504,-91.023200903678,4,1,0,70,0,0
290541,-89.2857142857143,4,1,0,70,0,0
290652,-83.3333333333333,4,1,0,70,0,0
291099,-100,4,1,0,70,0,0
291249,-90.9090909090909,4,1,0,70,0,0
291398,-93.3185765557606,4,1,0,70,0,0
291547,-87.4741404572273,4,1,0,70,0,0
291696,-98.5422642844403,4,1,0,70,0,0
291771,-99.9408350256648,4,1,0,70,0,0
291846,-101.379676010831,4,1,0,70,0,0
291920,-102.860657752762,4,1,0,70,0,0
291995,-104.385441153751,4,1,0,70,0,0
292144,-107.57476984378,4,1,0,70,0,0
292294,-83.2512614647393,4,1,0,70,0,0
292592,-100,4,1,0,70,0,0
292667,-102.510481696753,4,1,0,70,0,0
292741,-105.150259721142,4,1,0,70,0,0
292816,-107.929470249781,4,1,0,70,0,0
292891,-110.859705933544,4,1,0,70,0,0
293021,-83.3333333333333,4,1,0,70,0,0
293170,-86.9565217391304,4,1,0,70,0,0
293319,-90.9090909090909,4,1,0,70,0,0
293468,-111.111111111111,4,1,0,70,0,0
293618,-107.16930499634,4,1,0,70,0,0
293767,-103.497490703338,4,1,0,70,0,0
293916,-100.069047642874,4,1,0,70,0,0
293991,-98.4385674432157,4,1,0,70,0,0
294065,-96.8603680306544,4,1,0,70,0,0
294140,-95.3319745349229,4,1,0,70,0,0
294215,-93.8511539468633,4,1,0,70,0,0
294364,-91.0232009036783,4,1,0,70,0,0
294513,-83.4292073975009,4,1,0,70,0,0
294662,-100.138090426698,4,1,0,70,0,0
294812,-90.9090909090909,4,1,0,70,0,0
294886,-92.3077207100679,4,1,0,70,0,0
294961,-93.7499707031342,4,1,0,70,0,0
295035,-95.2380952380952,4,1,0,70,0,0
295185,-98.3606234883202,4,1,0,70,0,0
295259,-100,4,1,0,70,0,0
295409,-90.9090909090909,4,1,0,70,0,0
295558,-86.9565217391304,4,1,0,70,0,0
295707,-83.3333333333333,4,1,0,70,0,0
295856,-100,4,1,0,70,0,0
296006,-90.9090909090909,4,1,0,70,0,0
296055,-91.8367253227831,4,1,0,70,0,0
296105,-92.7834860240235,4,1,0,70,0,0
296155,-93.7499707031342,4,1,0,70,0,0
296229,-95.2380952380952,4,1,0,70,0,0
296304,-96.774224765879,4,1,0,70,0,0
296453,-100,4,1,0,70,0,0
296528,-101.694949727102,4,1,0,70,0,0
296603,-103.448240190262,4,1,0,70,0,0
296677,-105.263157894737,4,1,0,70,0,0
296752,-107.142895408177,4,1,0,70,0,0
296827,-109.090869421502,4,1,0,70,0,0
296901,-111.111111111111,4,1,0,70,0,0
297050,-83.3333333333333,4,1,0,70,0,0
297349,-100,4,1,0,70,0,0
297399,-101.694949727102,4,1,0,70,0,0
297448,-103.448240190262,4,1,0,70,0,0
297498,-105.263157894737,4,1,0,70,0,0
297573,-108.108108108108,4,1,0,70,0,0
297647,-111.111111111111,4,1,0,70,0,0
297797,-83.3333333333333,4,1,0,70,0,0
297946,-86.9565217391304,4,1,0,70,0,0
298095,-90.9090909090909,4,1,0,70,0,0
298244,-111.111111111111,4,1,0,70,0,0
298394,-107.16930499634,4,1,0,70,0,0
298543,-103.497490703338,4,1,0,70,0,0
298767,-98.4385674432157,4,1,0,70,0,0
298841,-96.8603680306544,4,1,0,70,0,0
298991,-93.8511539468633,4,1,0,70,0,0
299065,-92.4155483615185,4,1,0,70,0,0
299140,-91.0232009036783,4,1,0,70,0,0
299289,-83.4292073975009,4,1,0,70,0,0
299476,-91.0232009036783,4,1,0,70,0,0
299625,-90.9090909090909,4,1,0,70,0,0
299775,-90.4440440788093,4,1,0,70,0,0
300073,-89.5280795868816,4,1,0,70,0,0
300222,-89.0770195541873,4,1,0,70,0,0
300297,-88.8531896518021,4,1,0,70,0,0
300372,-88.630481795299,4,1,0,70,0,0
300421,-88.4826551875169,4,1,0,70,0,0
300471,-88.3353208780531,4,1,0,70,0,0
300521,-88.1883986397821,4,1,0,70,0,0
300596,-87.9690067595385,4,1,0,70,0,0
300670,-87.7507037606442,4,1,0,70,0,0
300820,-87.3174083843922,4,1,0,70,0,0
300894,-87.1023234544782,4,1,0,70,0,0
300969,-86.8882955383729,4,1,0,70,0,0
301118,-86.463379732465,4,1,0,70,0,0
301267,-86.0425996911071,4,1,0,70,0,0
301417,-85.625895325768,4,1,0,70,0,0
301491,-85.4190530614616,4,1,0,70,0,0
301566,-85.2132077063416,4,1,0,70,0,0
301616,-85.0765518813829,4,1,0,70,0,0
301665,-84.9402615140772,4,1,0,70,0,0
301715,-84.8044790333646,4,1,0,70,0,0
301790,-84.6015815419653,4,1,0,70,0,0
301864,-84.3996526110299,4,1,0,70,0,0
302163,-83.6014850967813,4,1,0,70,0,0
302461,-82.8182726924138,4,1,0,70,0,0
302536,-82.6247571864948,4,1,0,70,0,0
302611,-82.4321439199287,4,1,0,70,0,0
302660,-82.3042557884583,4,1,0,70,0,0
302710,-82.1767638626037,4,1,0,70,0,0
302760,-82.049598982585,4,1,0,70,0,0
302834,-81.8596548960669,4,1,0,70,0,0
302909,-81.6706549169818,4,1,0,70,0,0
302959,-81.5450503785321,4,1,0,70,0,0
303009,-81.4198978831641,4,1,0,70,0,0
303058,-81.2951289584631,4,1,0,70,0,0
303208,-80.9230405699572,4,1,0,70,0,0
303257,-80.7997233417473,4,1,0,70,0,0
303307,-80.6768464711544,4,1,0,70,0,0
303357,-80.5543427651728,4,1,0,70,0,0
303506,-80.1889894102421,4,1,0,70,0,0
303556,-80.0678975771454,4,1,0,70,0,0
303606,-79.9472348250155,4,1,0,70,0,0
303655,-79.8269352044767,4,1,0,70,0,0
303730,-79.6471313492702,4,1,0,70,0,0
303805,-79.4681356616437,4,1,0,70,0,0
303879,-79.2899427050874,4,1,0,70,0,0
303954,-79.1125470917437,4,1,0,70,0,0
304028,-78.9359434818645,4,1,0,70,0,0
304103,-78.7601265832754,4,1,0,70,0,0
304252,-78.4108319859739,4,1,0,70,0,0
304402,-78.0646218940038,4,1,0,70,0,0
304551,-77.7214556295982,4,1,0,70,0,0
304700,-77.3812932271249,4,1,0,70,0,0
304750,-77.2685863789391,4,1,0,70,0,0
304800,-77.1562073711954,4,1,0,70,0,0
304849,-77.0440954175713,4,1,0,70,0,0
304924,-76.8765961503276,4,1,0,70,0,0
304999,-76.7098236134316,4,1,0,70,0,0
305073,-76.5438316770524,4,1,0,70,0,0
305148,-76.3784982306921,4,1,0,70,0,0
305222,-76.2138774800948,4,1,0,70,0,0
305297,-76.0499648268913,4,1,0,70,0,0
305347,-75.9410424123128,4,1,0,70,0,0
305397,-75.8324890649551,4,1,0,70,0,0
305446,-75.7242456161341,4,1,0,70,0,0
305596,-75.4013045933721,4,1,0,70,0,0
305745,-75.081106365151,4,1,0,70,0,0
305894,-74.7636161366798,4,1,0,70,0,0
305944,-74.6584004885646,4,1,0,70,0,0
305994,-74.5534249843438,4,1,0,70,0,0
306043,-74.4487996992269,4,1,0,70,0,0
306118,-74.2923836191238,4,1,0,70,0,0
306193,-74.1366234178318,4,1,0,70,0,0
306267,-73.9815149786674,4,1,0,70,0,0
306342,-73.8270542193269,4,1,0,70,0,0
306417,-73.673237091528,4,1,0,70,0,0
306491,-73.5200595806563,4,1,0,70,0,0
306541,-73.4183125828709,4,1,0,70,0,0
306591,-73.3168468183788,4,1,0,70,0,0
306640,-73.2156075174857,4,1,0,70,0,0
306715,-73.0643251011758,4,1,0,70,0,0
306790,-72.9136665730941,4,1,0,70,0,0
306864,-72.7636280818125,4,1,0,70,0,0
306939,-72.614205807539,4,1,0,70,0,0
307014,-72.4653959617933,4,1,0,70,0,0
307088,-72.3171947870873,4,1,0,70,0,0
307163,-72.169598556608,4,1,0,70,0,0
307237,-72.0226554464973,4,1,0,70,0,0
307312,-71.8762578345121,4,1,0,70,0,0
307387,-71.7304541685436,4,1,0,70,0,0
307461,-71.5852408413843,4,1,0,70,0,0
307536,-71.4406142749778,4,1,0,70,0,0
307834,-90.9090909090909,4,1,0,70,0,0
308711,-90.9090909090909,4,1,0,70,0,0
308760,-89.5522120739665,4,1,0,70,0,0
308810,-88.2353200692118,4,1,0,70,0,0
308860,-86.9565217391304,4,1,0,70,0,0
308910,-85.7142612244968,4,1,0,70,0,0
308959,-84.5070660583285,4,1,0,70,0,0
309028,-83.3333333333333,4,1,0,70,0,1
319402,-76.9230769230769,4,1,0,70,0,1
319625,-71.4285714285714,4,1,0,70,0,1
319775,-83.3333333333333,4,1,0,70,0,1
321790,-76.9230769230769,4,1,0,70,0,1
322014,-71.4285714285714,4,1,0,70,0,1
322163,-83.3333333333333,4,1,0,70,0,1
325073,-83.3333333333333,4,1,0,70,0,1
325148,-81.9672131147541,4,1,0,70,0,1
325222,-81.3008130081301,4,1,0,70,0,1
325297,-80.6451612903226,4,1,0,70,0,1
325372,-80,4,1,0,70,0,1
325446,-79.3650793650794,4,1,0,70,0,1
325521,-78.7401574803149,4,1,0,70,0,1
325596,-78.125,4,1,0,70,0,1
325670,-77.5193798449612,4,1,0,70,0,1
325745,-76.9230769230769,4,1,0,70,0,0
325894,-66.6666666666667,4,1,0,70,0,0
327088,-66.6666666666667,4,1,0,70,0,0
327163,-68.5579050349611,4,1,0,70,0,0
327237,-70.5596295901685,4,1,0,70,0,0
327337,-73.4177196603109,4,1,0,70,0,0
327436,-76.5171241497991,4,1,0,70,0,0
327536,-79.8898159658199,4,1,0,70,0,0
327760,-88.6850315630027,4,1,0,70,0,0
327984,-99.6563847852604,4,1,0,70,0,0
328133,-66.6666666666667,4,1,0,70,0,1
328184,-83.3333333333333,4,1,0,70,0,1
337984,-76.9230769230769,4,1,0,70,0,1
338058,-83.3333333333333,4,1,0,70,0,1
340073,-90.9090909090909,4,1,0,70,0,1
340372,-76.9230769230769,4,1,0,70,0,1
340446,-83.3333333333333,4,1,0,70,0,1
342461,-83.3333333333333,4,1,0,70,0,1
342611,-82.8742102087767,4,1,0,70,0,1
342685,-82.6465405811043,4,1,0,70,0,1
342760,-82.4201184212262,4,1,0,70,0,1
342909,-81.9709085245646,4,1,0,70,0,1
342984,-81.7481682279204,4,1,0,70,0,1
343058,-81.5266351593397,4,1,0,70,0,1
343208,-81.0871516597324,4,1,0,70,0,1
343357,-80.6523809792651,4,1,0,70,0,1
343431,-80.4367393198109,4,1,0,70,0,1
343506,-80.2222477150698,4,1,0,70,0,1
343655,-79.7966143892447,4,1,0,70,0,1
343805,-79.3755367770675,4,1,0,70,0,1
343879,-79.166660069445,4,1,0,70,0,1
343954,-78.9588797945806,4,1,0,70,0,1
344103,-78.5465741911666,4,1,0,70,0,1
344178,-78.3420319102764,4,1,0,70,0,1
344252,-78.1385521551394,4,1,0,70,0,1
344402,-77.7346868497008,4,1,0,70,0,1
344476,-77.5343457768205,4,1,0,70,0,1
344551,-77.3350347040968,4,1,0,70,0,1
344625,-77.13674570869,4,1,0,70,0,1
344700,-76.9394709488099,4,1,0,70,0,0
344849,-100,4,1,0,70,0,0
344999,-95.2380952380952,4,1,0,70,0,0
345073,-93.3572576865698,4,1,0,70,0,0
345148,-91.5492699861211,4,1,0,70,0,0
345222,-89.8099800442224,4,1,0,70,0,0
345297,-88.1356230968214,4,1,0,70,0,0
345372,-86.5224798380991,4,1,0,70,0,0
345446,-84.9673258148579,4,1,0,70,0,0
345521,-83.4670893440071,4,1,0,70,0,0
345596,-82.0189119207107,4,1,0,70,0,0
345670,-80.6201300402698,4,1,0,70,0,0
345745,-79.2683216835323,4,1,0,70,0,0
345819,-77.9610381915534,4,1,0,70,0,0
345894,-76.6961742414365,4,1,0,70,0,0
345969,-75.4716981132076,4,1,0,70,0,0
346043,-74.2857057959193,4,1,0,70,0,0
346118,-73.1364111085432,4,1,0,70,0,0
346193,-72.0221367239435,4,1,0,70,0,0
346267,-70.9413563277916,4,1,0,70,0,0
346342,-69.8924843912609,4,1,0,70,0,0
346417,-68.8741758343934,4,1,0,70,0,0
346491,-67.885113948558,4,1,0,70,0,0
346566,-66.9240565883053,4,1,0,70,0,0
346640,-65.989830967048,4,1,0,70,0,0
346715,-65.0813712384595,4,1,0,70,0,0
346790,-64.1975435451938,4,1,0,70,0,0
346864,-63.3373995943873,4,1,0,70,0,0
346939,-62.5,4,1,0,70,0,0
347237,-80,4,1,0,70,0,1
352014,-80,4,1,0,70,0,0
352312,-90.9090909090909,4,1,0,70,0,0
352349,-91.5982427793105,4,1,0,70,0,0
352461,-93.7297602299004,4,1,0,70,0,0
352611,-96.7311637823046,4,1,0,70,0,0
352760,-99.9310475771717,4,1,0,70,0,0
352909,-103.349986461152,4,1,0,70,0,0
353058,-107.011042469472,4,1,0,70,0,0
353208,-111.111111111111,4,1,0,70,0,0
353357,-108.108108108108,4,1,0,70,0,0
353506,-105.263157894737,4,1,0,70,0,0
353581,-103.896103896104,4,1,0,70,0,0
353655,-102.564102564103,4,1,0,70,0,0
353730,-101.26582278481,4,1,0,70,0,0
353805,-100,4,1,0,70,0,0
353879,-98.7654320987654,4,1,0,70,0,0
353954,-97.5609756097561,4,1,0,70,0,0
354028,-96.3855421686747,4,1,0,70,0,0
354103,-95.2380952380952,4,1,0,70,0,0
354178,-94.1176470588235,4,1,0,70,0,0
354252,-93.0232558139535,4,1,0,70,0,0
354327,-91.9540229885058,4,1,0,70,0,0
354402,-90.9090909090909,4,1,0,70,0,0
354551,-93.0232558139535,4,1,0,70,0,0
354700,-95.2380952380952,4,1,0,70,0,0
354849,-97.5609756097561,4,1,0,70,0,0
355148,-102.564102564103,4,1,0,70,0,0
355297,-105.263157894737,4,1,0,70,0,0
355446,-108.108108108108,4,1,0,70,0,0
355596,-111.111111111111,4,1,0,70,0,0
355745,-106.870261639775,4,1,0,70,0,0
355894,-102.941131055383,4,1,0,70,0,0
355969,-101.083003297328,4,1,0,70,0,0
356043,-99.2907660580474,4,1,0,70,0,0
356118,-97.5609756097561,4,1,0,70,0,0
356193,-95.8904240945786,4,1,0,70,0,0
356242,-94.8081178502828,4,1,0,70,0,0
356292,-93.7499707031342,4,1,0,70,0,0
356342,-92.7152686285836,4,1,0,70,0,0
356491,-89.7435667324188,4,1,0,70,0,0
356640,-86.9565217391304,4,1,0,70,0,0
356790,-80,4,1,0,70,0,1
361566,-80,4,1,0,70,0,0
361864,-90.9090909090909,4,1,0,70,0,0
361902,-91.5982427793105,4,1,0,70,0,0
362014,-93.7297602299004,4,1,0,70,0,0
362051,-94.462513024019,4,1,0,70,0,0
362163,-96.7311637823046,4,1,0,70,0,0
362312,-99.9310475771717,4,1,0,70,0,0
362461,-103.349986461152,4,1,0,70,0,0
362611,-107.011042469472,4,1,0,70,0,0
362760,-110.941124654557,4,1,0,70,0,0
362909,-108.108108108108,4,1,0,70,0,0
363058,-105.263157894737,4,1,0,70,0,0
363133,-103.896103896104,4,1,0,70,0,0
363208,-102.564102564103,4,1,0,70,0,0
363257,-101.694949727102,4,1,0,70,0,0
363307,-100.840302238554,4,1,0,70,0,0
363357,-100,4,1,0,70,0,0
363431,-98.7654320987654,4,1,0,70,0,0
363506,-97.5609756097561,4,1,0,70,0,0
363556,-96.774224765879,4,1,0,70,0,0
363606,-95.9999692800098,4,1,0,70,0,0
363655,-95.2380952380952,4,1,0,70,0,0
363730,-94.1176470588235,4,1,0,70,0,0
363805,-93.0232558139535,4,1,0,70,0,0
363879,-91.9540229885058,4,1,0,70,0,0
363954,-90.9090909090909,4,1,0,70,0,0
364103,-93.7499707031342,4,1,0,70,0,0
364252,-96.774224765879,4,1,0,70,0,0
364402,-100,4,1,0,70,0,0
364551,-103.448240190262,4,1,0,70,0,0
364601,-104.651114115761,4,1,0,70,0,0
364650,-105.88240276819,4,1,0,70,0,0
364700,-107.142895408177,4,1,0,70,0,0
364775,-109.090869421502,4,1,0,70,0,0
364849,-111.111111111111,4,1,0,70,0,0
364999,-80,4,1,0,70,0,1
372312,-80,4,1,0,70,0,1
372461,-79.7341980772895,4,1,0,70,0,1
372611,-79.4702197272105,4,1,0,70,0,1
372760,-79.2079207920792,4,1,0,70,0,1
372810,-79.1208721651981,4,1,0,70,0,1
372859,-79.034014659229,4,1,0,70,0,1
372909,-78.9473476454348,4,1,0,70,0,1
372984,-78.8177339901478,4,1,0,70,0,1
373058,-78.6885452297823,4,1,0,70,0,1
373133,-78.5597175621034,4,1,0,70,0,1
373208,-78.4313725490196,4,1,0,70,0,1
373282,-78.3034462129713,4,1,0,70,0,1
373357,-78.1758753939087,4,1,0,70,0,1
373431,-78.0487804878049,4,1,0,70,0,1
373506,-77.9220981615839,4,1,0,70,0,1
373581,-77.7957658876458,4,1,0,70,0,1
373655,-77.6699029126214,4,1,0,70,0,1
373730,-77.5444465381445,4,1,0,70,0,1
373805,-77.4193348595265,4,1,0,70,0,1
373879,-77.2946859903382,4,1,0,70,0,1
373954,-77.1704378573474,4,1,0,70,0,1
374028,-77.0465291694307,4,1,0,70,0,1
374103,-76.9230769230769,4,1,0,70,0,1
374178,-76.800019660805,4,1,0,70,0,1
374252,-76.6772966958986,4,1,0,70,0,1
374327,-76.555023923445,4,1,0,70,0,1
374402,-76.4331404925199,4,1,0,70,0,1
374476,-76.3115863118381,4,1,0,70,0,1
374551,-76.1904761904762,4,1,0,70,0,1
374625,-76.0697498750554,4,1,0,70,0,1
374700,-75.9493478609246,4,1,0,70,0,1
374775,-75.8293838862559,4,1,0,70,0,1
374849,-75.7097982863844,4,1,0,70,0,1
374924,-75.5905321346691,4,1,0,70,0,1
374999,-75.4716981132076,4,1,0,70,0,1
375073,-75.3532371373908,4,1,0,70,0,1
375148,-75.235090850134,4,1,0,70,0,1
375222,-75.1173708920188,4,1,0,70,0,1
375297,-75.0000187500047,4,1,0,70,0,1
375372,-74.8829766282742,4,1,0,70,0,1
375446,-74.7663551401869,4,1,0,70,0,1
375521,-74.6500963359493,4,1,0,70,0,1
375596,-74.5341429728837,4,1,0,70,0,1
375645,-74.4570591248615,4,1,0,70,0,1
375695,-74.3801898777487,4,1,0,70,0,1
375745,-74.3034239760802,4,1,0,70,0,1
375795,-74.2268163673099,4,1,0,70,0,1
375844,-74.1503665623371,4,1,0,70,0,1
375894,-74.0740740740741,4,1,0,70,0,0
377088,-71.4285714285714,4,1,0,70,0,1
377237,-80,4,1,0,70,0,1
378879,-80,4,1,0,70,0,1
378917,-78.7401574803149,4,1,0,70,0,1
379028,-77.6699029126214,4,1,0,70,0,1
379066,-76.3358778625954,4,1,0,70,0,1
379178,-75.4716981132076,4,1,0,70,0,1
379215,-74.6268656716418,4,1,0,70,0,1
379327,-73.394495412844,4,1,0,70,0,1
379364,-72.463768115942,4,1,0,70,0,1
379476,-71.4285714285714,4,1,0,70,0,1
379551,-80,4,1,0,70,0,1
381118,-80,4,1,0,70,0,1
381155,-78.7401574803149,4,1,0,70,0,1
381267,-78.125,4,1,0,70,0,1
381305,-76.9230769230769,4,1,0,70,0,1
381417,-76.3358778625954,4,1,0,70,0,1
381454,-75.187969924812,4,1,0,70,0,1
381566,-74.6268656716418,4,1,0,70,0,1
381603,-73.5294117647059,4,1,0,70,0,1
381715,-72.992700729927,4,1,0,70,0,1
381752,-71.9424460431655,4,1,0,70,0,1
381864,-71.4285714285714,4,1,0,70,0,1
382163,-66.6666666666667,4,1,0,70,0,1
382237,-80,4,1,0,70,0,1
384252,-80,4,1,0,70,0,1
384402,-79.4044665012407,4,1,0,70,0,1
384476,-79.1100436529221,4,1,0,70,0,1
384551,-78.8177339901478,4,1,0,70,0,1
384700,-78.239608801956,4,1,0,70,0,1
384849,-77.6699029126214,4,1,0,70,0,1
384999,-77.1084337349398,4,1,0,70,0,1
385073,-76.8307618077356,4,1,0,70,0,1
385148,-76.555023923445,4,1,0,70,0,1
385297,-76.0095011876485,4,1,0,70,0,1
385446,-75.4716981132076,4,1,0,70,0,1
385596,-74.9414519906323,4,1,0,70,0,1
385745,-74.4186046511628,4,1,0,70,0,1
385819,-74.1598798016668,4,1,0,70,0,1
385894,-73.9030023094688,4,1,0,70,0,1
386043,-73.394495412844,4,1,0,70,0,1
386118,-73.1428303934792,4,1,0,70,0,1
386193,-72.8929384965831,4,1,0,70,0,1
386267,-72.6447482932116,4,1,0,70,0,1
386342,-72.3981900452489,4,1,0,70,0,1
386417,-72.1532997868592,4,1,0,70,0,1
386491,-71.9101123595506,4,1,0,70,0,1
386566,-71.6685587166168,4,1,0,70,0,1
386640,-71.4285714285714,4,1,0,70,0,1
386715,-80,4,1,0,70,0,1
388431,-80,4,1,0,70,0,1
388469,-78.7401574803149,4,1,0,70,0,1
388581,-77.6699029126214,4,1,0,70,0,1
388618,-76.3358778625954,4,1,0,70,0,1
388730,-75.4716981132076,4,1,0,70,0,1
388767,-74.6268656716418,4,1,0,70,0,1
388879,-73.394495412844,4,1,0,70,0,1
388917,-72.463768115942,4,1,0,70,0,1
389028,-78.125,4,1,0,70,0,1
389078,-76.9230769230769,4,1,0,70,0,1
389128,-75.7575757575758,4,1,0,70,0,1
389178,-74.6268656716418,4,1,0,70,0,1
389227,-73.5294117647059,4,1,0,70,0,1
389277,-72.463768115942,4,1,0,70,0,1
389327,-71.6374457525442,4,1,0,70,0,1
389402,-80,4,1,0,70,0,1
390446,-76.9230769230769,4,1,0,70,0,1
390670,-74.0740740740741,4,1,0,70,0,1
390894,-71.4285714285714,4,1,0,70,0,1
391118,-68.9655172413793,4,1,0,70,0,1
391417,-83.3333333333333,4,1,0,70,0,1
391491,-80,4,1,0,70,0,1
391566,-76.9230769230769,4,1,0,70,0,1
391640,-74.0740740740741,4,1,0,70,0,1
391715,-71.4285714285714,4,1,0,70,0,1
391864,-83.3333333333333,4,1,0,70,0,1
391939,-85.0694592134478,4,1,0,70,0,1
392014,-86.8794634324339,4,1,0,70,0,1
392163,-90.7407256172865,4,1,0,70,0,1
392312,-71.3245903650464,4,1,0,70,0,1
392461,-83.3333333333333,4,1,0,70,0,1
392611,-86.9565217391304,4,1,0,70,0,1
392710,-83.3333333333333,4,1,0,70,0,1
392810,-80,4,1,0,70,0,1
392909,-71.3391936102911,4,1,0,70,0,1
393058,-71.4285714285714,4,1,0,70,0,1
393133,-69.060773480663,4,1,0,70,0,1
393208,-66.8449197860963,4,1,0,70,0,1
393805,-90.9090909090909,4,1,0,70,0,1
393879,-88.8888888888889,4,1,0,70,0,1
393954,-86.9565217391304,4,1,0,70,0,1
394028,-85.1063829787234,4,1,0,70,0,1
394103,-83.3333333333333,4,1,0,70,0,1
394252,-86.9565217391304,4,1,0,70,0,1
394327,-85.1433388108881,4,1,0,70,0,1
394402,-83.4042269262206,4,1,0,70,0,1
394476,-81.7348048867605,4,1,0,70,0,1
394551,-80.130837631685,4,1,0,70,0,1
394700,-83.3333333333333,4,1,0,70,0,1
394775,-81.6666530555578,4,1,0,70,0,1
394849,-80.0653333119826,4,1,0,70,0,1
394924,-78.5256649356993,4,1,0,70,0,1
394999,-77.0440360596906,4,1,0,70,0,1
395148,-80,4,1,0,70,0,1
395222,-78.4313725490196,4,1,0,70,0,1
395297,-76.9230769230769,4,1,0,70,0,1
395372,-75.4716981132076,4,1,0,70,0,1
395446,-74.0740740740741,4,1,0,70,0,1
395745,-83.3333333333333,4,1,0,70,0,1
395819,-80.0438640374926,4,1,0,70,0,1
395894,-77.0042275320915,4,1,0,70,0,1
395969,-74.1870031789131,4,1,0,70,0,1
396043,-71.5686414840473,4,1,0,70,0,1
396118,-69.1288042445086,4,1,0,70,0,1
396193,-66.6666666666667,4,1,0,70,0,0
396491,-76.9230769230769,4,1,0,70,0,0
396640,-77.2275912559832,4,1,0,70,0,0
396939,-77.8439711012042,4,1,0,70,0,0
397088,-78.1558960026385,4,1,0,70,0,0
397237,-78.4702691844114,4,1,0,70,0,0
397536,-79.1067268405169,4,1,0,70,0,0
397834,-79.7535296918403,4,1,0,70,0,0
397984,-80.0809778848371,4,1,0,70,0,0
398133,-80.4110613455987,4,1,0,70,0,0
398282,-80.7439423875822,4,1,0,70,0,0
398431,-81.0795252307321,4,1,0,70,0,0
398581,-81.4179091718089,4,1,0,70,0,0
398879,-82.1032892219728,4,1,0,70,0,0
399028,-82.4502907197251,4,1,0,70,0,0
399327,-83.1532372802572,4,1,0,70,0,0
399476,-83.5092595066941,4,1,0,70,0,0
399625,-83.8682731354825,4,1,0,70,0,0
399924,-84.5957128584638,4,1,0,70,0,0
400222,-85.3358092096112,4,1,0,70,0,0
400372,-85.7108083043488,4,1,0,70,0,0
400521,-86.0890436195966,4,1,0,70,0,0
400670,-86.4707067510275,4,1,0,70,0,0
400819,-86.8556936078552,4,1,0,70,0,0
400969,-87.2441238901457,4,1,0,70,0,0
401267,-88.0315786879069,4,1,0,70,0,0
401417,-88.4306999555193,4,1,0,70,0,0
401715,-89.2397398840062,4,1,0,70,0,0
401864,-89.6499170738267,4,1,0,70,0,0
402014,-90.0638011967678,4,1,0,70,0,0
402312,-90.9032235192092,4,1,0,70,0,0
402611,-91.7584404001402,4,1,0,70,0,0
402760,-92.1920692694332,4,1,0,70,0,0
402909,-92.6298160557113,4,1,0,70,0,0
403058,-93.0718263205263,4,1,0,70,0,0
403208,-93.5179877173475,4,1,0,70,0,0
403357,-93.9684472747741,4,1,0,70,0,0
403506,-94.4233565614791,4,1,0,70,0,0
403655,-94.8826017568463,4,1,0,70,0,0
403805,-95.3464269403236,4,1,0,70,0,0
404103,-96.2876304095594,4,1,0,70,0,0
404252,-96.7653285957028,4,1,0,70,0,0
404402,-97.24769571585,4,1,0,70,0,0
404700,-98.2270990885507,4,1,0,70,0,0
404999,-99.2264307459049,4,1,0,70,0,0
405148,-99.7337109916523,4,1,0,70,0,0
405297,-100.246204678691,4,1,0,70,0,0
405446,-100.764094125756,4,1,0,70,0,0
405596,-101.287259784603,4,1,0,70,0,0
405745,-101.815989997597,4,1,0,70,0,0
406043,-102.889973577855,4,1,0,70,0,0
406193,-103.435613916227,4,1,0,70,0,0
406491,-104.54422377482,4,1,0,70,0,0
406640,-105.107598648737,4,1,0,70,0,0
406790,-105.676966648349,4,1,0,70,0,0
407088,-106.834525072461,4,1,0,70,0,0
407387,-108.01772354808,4,1,0,70,0,0
407536,-108.619146514194,4,1,0,70,0,0
407685,-109.227304204596,4,1,0,70,0,0
407834,-109.842431032684,4,1,0,70,0,0
407984,-110.464403398327,4,1,0,70,0,0
408133,-111.093583012458,4,1,0,70,0,0
408431,-112.37343941386,4,1,0,70,0,0
408581,-113.024617892023,4,1,0,70,0,0
408879,-114.349619387292,4,1,0,70,0,0
409028,-115.023970995555,4,1,0,70,0,0
409178,-115.706189586906,4,1,0,70,0,0
409476,-117.095333165497,4,1,0,70,0,0
409775,-118.5182375864,4,1,0,70,0,0
409924,-119.242665979829,4,1,0,70,0,0
410073,-119.97614874163,4,1,0,70,0,0
410222,-120.718565187422,4,1,0,70,0,0
410372,-121.470227040001,4,1,0,70,0,0
410521,-122.231457487899,4,1,0,70,0,0
410819,-123.782598147222,4,1,0,70,0,0
410969,-124.573181138125,4,1,0,70,0,0
411267,-126.184875985504,4,1,0,70,0,0
411417,-127.006383340827,4,1,0,70,0,0
411566,-127.838657387285,4,1,0,70,0,0
411864,-129.536531244859,4,1,0,70,0,0
412163,-131.280112375776,4,1,0,70,0,0
412237,-131.723323063305,4,1,0,70,0,0
412312,-132.169536507869,4,1,0,70,0,0
412461,-133.071271642379,4,1,0,70,0,0
412536,-133.526679965924,4,1,0,70,0,0
412611,-133.985216071259,4,1,0,70,0,0
412760,-134.911801409828,4,1,0,70,0,0
412909,-135.851476297993,4,1,0,70,0,0
413058,-136.804145712832,4,1,0,70,0,0
413208,-137.770460635535,4,1,0,70,0,0
413357,-138.750331266416,4,1,0,70,0,0
413655,-140.752689080125,4,1,0,70,0,0
413805,-141.775597584144,4,1,0,70,0,0
413954,-142.813482735278,4,1,0,70,0,0
415278,-153.846153846154,4,1,0,50,0,0
415427,-149.999925000038,4,1,0,50,0,0
415576,-146.341534800749,4,1,0,50,0,0
415725,-142.857142857143,4,1,0,50,0,0
416472,-166.666666666667,4,1,0,50,0,0
417666,-142.857142857143,4,1,0,50,0,0
417815,-139.534818821014,4,1,0,50,0,0
417964,-136.363698347136,4,1,0,50,0,0
418113,-133.333333333333,4,1,0,50,0,0
418860,-166.666666666667,4,1,0,50,0,0
419999,-200,4,1,0,50,0,0
420670,-100,4,1,0,50,0,0

[HitObjects]
256,192,2963,5,0,0:0:0:0:
256,192,3112,1,0,0:0:0:0:
256,192,3261,1,0,0:0:0:0:
256,192,3410,1,8,0:0:0:0:
256,192,5351,1,0,0:0:0:0:
256,192,5500,1,0,0:0:0:0:
256,192,5649,1,8,0:0:0:0:
256,192,5798,1,8,0:0:0:0:
256,192,7739,1,0,0:0:0:0:
256,192,7888,1,0,0:0:0:0:
256,192,8037,1,0,0:0:0:0:
256,192,8186,1,8,0:0:0:0:
256,192,10127,1,0,0:0:0:0:
256,192,10276,1,0,0:0:0:0:
256,192,10425,1,8,0:0:0:0:
256,192,10574,1,8,0:0:0:0:
256,192,12515,1,4,0:0:0:0:
256,192,12813,1,0,0:0:0:0:
256,192,12963,1,8,0:0:0:0:
256,192,13261,1,8,0:0:0:0:
256,192,13410,1,0,0:0:0:0:
256,192,13560,1,8,0:0:0:0:
256,192,13858,1,8,0:0:0:0:
256,192,14157,1,0,0:0:0:0:
256,192,14306,1,8,0:0:0:0:
256,192,14455,1,0,0:0:0:0:
256,192,14604,1,0,0:0:0:0:
256,192,14754,1,8,0:0:0:0:
256,192,14903,1,0,0:0:0:0:
256,192,15201,1,0,0:0:0:0:
256,192,15351,1,8,0:0:0:0:
256,192,15649,1,8,0:0:0:0:
256,192,15798,1,0,0:0:0:0:
256,192,15948,1,8,0:0:0:0:
256,192,16246,1,8,0:0:0:0:
256,192,16545,1,0,0:0:0:0:
256,192,16694,1,8,0:0:0:0:
256,192,16843,1,0,0:0:0:0:
256,192,16992,1,8,0:0:0:0:
256,192,17142,1,8,0:0:0:0:
256,192,17291,1,0,0:0:0:0:
256,192,17589,1,8,0:0:0:0:
256,192,17739,1,8,0:0:0:0:
256,192,18037,1,8,0:0:0:0:
256,192,18186,1,0,0:0:0:0:
256,192,18336,1,8,0:0:0:0:
256,192,18634,1,8,0:0:0:0:
256,192,18933,1,0,0:0:0:0:
256,192,19082,1,8,0:0:0:0:
256,192,19231,1,8,0:0:0:0:
256,192,19380,1,0,0:0:0:0:
256,192,19530,1,8,0:0:0:0:
256,192,19679,1,0,0:0:0:0:
256,192,19828,1,0,0:0:0:0:
256,192,19977,1,0,0:0:0:0:
256,192,20127,1,8,0:0:0:0:
256,192,20425,1,8,0:0:0:0:
256,192,20574,1,0,0:0:0:0:
256,192,20724,1,8,0:0:0:0:
256,192,21022,1,8,0:0:0:0:
256,192,21321,1,0,0:0:0:0:
256,192,21470,1,8,0:0:0:0:
256,192,21619,1,0,0:0:0:0:
256,192,21769,1,8,0:0:0:0:
256,192,21918,1,8,0:0:0:0:
256,192,22067,1,0,0:0:0:0:
256,192,22366,1,0,0:0:0:0:
256,192,22515,1,8,0:0:0:0:
256,192,22813,1,8,0:0:0:0:
256,192,22963,1,0,0:0:0:0:
256,192,23112,1,8,0:0:0:0:
256,192,23410,1,8,0:0:0:0:
256,192,23709,1,0,0:0:0:0:
256,192,23858,1,8,0:0:0:0:
256,192,24007,1,0,0:0:0:0:
256,192,24157,1,0,0:0:0:0:
256,192,24306,1,8,0:0:0:0:
256,192,24455,1,0,0:0:0:0:
256,192,24754,1,0,0:0:0:0:
256,192,24903,1,8,0:0:0:0:
256,192,25201,1,8,0:0:0:0:
256,192,25351,1,0,0:0:0:0:
256,192,25500,1,8,0:0:0:0:
256,192,25798,1,8,0:0:0:0:
256,192,26097,1,0,0:0:0:0:
256,192,26246,1,8,0:0:0:0:
256,192,26395,1,0,0:0:0:0:
256,192,26545,1,8,0:0:0:0:
256,192,26694,1,8,0:0:0:0:
256,192,26843,1,0,0:0:0:0:
256,192,27142,1,8,0:0:0:0:
256,192,27291,1,8,0:0:0:0:
256,192,27589,1,8,0:0:0:0:
256,192,27739,1,0,0:0:0:0:
256,192,27888,1,8,0:0:0:0:
256,192,28186,1,8,0:0:0:0:
256,192,28485,1,0,0:0:0:0:
256,192,28560,1,8,0:0:0:0:
256,192,28634,1,0,0:0:0:0:
256,192,28783,1,8,0:0:0:0:
256,192,28858,1,8,0:0:0:0:
256,192,28933,1,0,0:0:0:0:
256,192,29082,1,8,0:0:0:0:
256,192,29231,1,0,0:0:0:0:
256,192,29380,1,0,0:0:0:0:
256,192,29530,1,0,0:0:0:0:
256,192,29679,1,8,0:0:0:0:
256,192,29977,1,8,0:0:0:0:
256,192,30127,1,0,0:0:0:0:
256,192,30276,1,8,0:0:0:0:
256,192,30574,1,8,0:0:0:0:
256,192,30873,1,0,0:0:0:0:
256,192,31022,1,8,0:0:0:0:
256,192,31097,1,8,0:0:0:0:
256,192,31172,1,0,0:0:0:0:
256,192,31246,1,0,0:0:0:0:
256,192,31321,1,8,0:0:0:0:
256,192,31470,1,8,0:0:0:0:
256,192,31619,1,4,0:0:0:0:
256,192,31918,1,8,0:0:0:0:
256,192,31968,1,8,0:0:0:0:
256,192,32017,1,8,0:0:0:0:
256,192,32067,1,0,0:0:0:0:
256,192,32216,1,8,0:0:0:0:
256,192,32366,1,4,0:0:0:0:
256,192,32515,1,0,0:0:0:0:
256,192,32664,1,12,0:0:0:0:
256,192,32963,1,0,0:0:0:0:
256,192,33112,1,8,0:0:0:0:
256,192,33261,1,0,0:0:0:0:
256,192,33336,1,0,0:0:0:0:
256,192,33410,1,8,0:0:0:0:
256,192,33485,1,8,0:0:0:0:
256,192,33560,1,0,0:0:0:0:
256,192,33709,1,8,0:0:0:0:
256,192,33858,1,12,0:0:0:0:
256,192,34157,1,8,0:0:0:0:
256,192,34231,1,8,0:0:0:0:
256,192,34306,1,0,0:0:0:0:
256,192,34380,1,8,0:0:0:0:
256,192,34530,1,8,0:0:0:0:
256,192,34604,1,0,0:0:0:0:
256,192,34754,1,12,0:0:0:0:
256,192,34903,1,8,0:0:0:0:
256,192,35052,1,4,0:0:0:0:
256,192,35351,1,8,0:0:0:0:
256,192,35400,1,8,0:0:0:0:
256,192,35450,1,8,0:0:0:0:
256,192,35500,1,0,0:0:0:0:
256,192,35574,1,0,0:0:0:0:
256,192,35649,1,8,0:0:0:0:
256,192,35798,1,8,0:0:0:0:
256,192,35873,1,0,0:0:0:0:
256,192,35948,1,0,0:0:0:0:
256,192,36022,1,8,0:0:0:0:
256,192,36097,1,8,0:0:0:0:
256,192,36172,1,0,0:0:0:0:
256,192,36246,1,8,0:0:0:0:
256,192,36395,1,4,0:0:0:0:
256,192,36694,1,0,0:0:0:0:
256,192,36744,1,0,0:0:0:0:
256,192,36793,1,0,0:0:0:0:
256,192,36843,1,0,0:0:0:0:
256,192,36918,1,0,0:0:0:0:
256,192,36992,1,8,0:0:0:0:
256,192,37142,1,4,0:0:0:0:
256,192,37291,1,0,0:0:0:0:
256,192,37440,1,12,0:0:0:0:
256,192,37739,1,8,0:0:0:0:
256,192,37888,1,8,0:0:0:0:
256,192,38112,1,0,0:0:0:0:
256,192,38186,1,8,0:0:0:0:
256,192,38336,1,0,0:0:0:0:
256,192,38410,1,0,0:0:0:0:
256,192,38485,1,8,0:0:0:0:
256,192,38634,1,12,0:0:0:0:
256,192,38933,1,0,0:0:0:0:
256,192,38970,1,0,0:0:0:0:
256,192,39082,1,0,0:0:0:0:
256,192,39119,1,0,0:0:0:0:
256,192,39231,1,0,0:0:0:0:
256,192,39269,1,0,0:0:0:0:
256,192,39380,1,0,0:0:0:0:
256,192,39418,1,0,0:0:0:0:
256,192,39530,1,12,0:0:0:0:
256,192,39828,1,12,0:0:0:0:
256,192,40127,1,8,0:0:0:0:
256,192,40276,1,8,0:0:0:0:
256,192,40425,1,4,0:0:0:0:
256,192,40574,1,8,0:0:0:0:
256,192,40649,1,8,0:0:0:0:
256,192,40724,1,0,0:0:0:0:
256,192,40798,1,0,0:0:0:0:
256,192,40873,1,8,0:0:0:0:
256,192,41022,1,8,0:0:0:0:
256,192,41172,1,4,0:0:0:0:
256,192,41470,1,0,0:0:0:0:
256,192,41545,1,8,0:0:0:0:
256,192,41619,1,0,0:0:0:0:
256,192,41694,1,0,0:0:0:0:
256,192,41769,1,8,0:0:0:0:
256,192,41918,1,4,0:0:0:0:
256,192,42067,1,0,0:0:0:0:
256,192,42216,1,12,0:0:0:0:
256,192,42515,1,0,0:0:0:0:
256,192,42664,1,8,0:0:0:0:
256,192,42813,1,0,0:0:0:0:
256,192,42888,1,0,0:0:0:0:
256,192,42963,1,8,0:0:0:0:
256,192,43037,1,8,0:0:0:0:
256,192,43112,1,0,0:0:0:0:
256,192,43261,1,8,0:0:0:0:
256,192,43410,1,12,0:0:0:0:
256,192,43709,1,8,0:0:0:0:
256,192,43783,1,8,0:0:0:0:
256,192,43858,1,0,0:0:0:0:
256,192,43933,1,8,0:0:0:0:
256,192,44082,1,0,0:0:0:0:
256,192,44157,1,8,0:0:0:0:
256,192,44306,1,12,0:0:0:0:
256,192,44455,1,8,0:0:0:0:
256,192,44604,1,4,0:0:0:0:
256,192,44903,1,8,0:0:0:0:
256,192,44953,1,8,0:0:0:0:
256,192,45002,1,8,0:0:0:0:
256,192,45052,1,0,0:0:0:0:
256,192,45127,1,0,0:0:0:0:
256,192,45201,1,8,0:0:0:0:
256,192,45351,1,8,0:0:0:0:
256,192,45425,1,0,0:0:0:0:
256,192,45500,1,0,0:0:0:0:
256,192,45574,1,8,0:0:0:0:
256,192,45649,1,8,0:0:0:0:
256,192,45724,1,0,0:0:0:0:
256,192,45798,1,8,0:0:0:0:
256,192,45948,1,4,0:0:0:0:
256,192,46246,1,0,0:0:0:0:
256,192,46296,1,0,0:0:0:0:
256,192,46346,1,0,0:0:0:0:
256,192,46395,1,0,0:0:0:0:
256,192,46470,1,0,0:0:0:0:
256,192,46545,1,8,0:0:0:0:
256,192,46694,1,4,0:0:0:0:
256,192,46843,1,0,0:0:0:0:
256,192,46992,1,12,0:0:0:0:
256,192,47291,1,8,0:0:0:0:
256,192,47440,1,8,0:0:0:0:
256,192,47589,1,0,0:0:0:0:
256,192,47664,1,0,0:0:0:0:
256,192,47739,1,8,0:0:0:0:
256,192,47888,1,0,0:0:0:0:
256,192,47963,1,0,0:0:0:0:
256,192,48037,1,0,0:0:0:0:
256,192,48186,1,12,0:0:0:0:
256,192,48336,12,0,52515,0:0:0:0:
256,192,53112,5,4,0:0:0:0:
256,192,53410,1,0,0:0:0:0:
256,192,53709,1,0,0:0:0:0:
256,192,53858,1,8,0:0:0:0:
256,192,53933,1,8,0:0:0:0:
256,192,54007,1,0,0:0:0:0:
256,192,54082,1,8,0:0:0:0:
256,192,54157,1,8,0:0:0:0:
256,192,54231,1,8,0:0:0:0:
256,192,54306,1,0,0:0:0:0:
256,192,54455,1,8,0:0:0:0:
256,192,54604,1,0,0:0:0:0:
256,192,54754,1,8,0:0:0:0:
256,192,54903,1,0,0:0:0:0:
256,192,55052,1,8,0:0:0:0:
256,192,55127,1,8,0:0:0:0:
256,192,55201,1,0,0:0:0:0:
256,192,55276,1,8,0:0:0:0:
256,192,55351,1,8,0:0:0:0:
256,192,55425,1,8,0:0:0:0:
256,192,55500,1,0,0:0:0:0:
256,192,55798,1,0,0:0:0:0:
256,192,56097,1,0,0:0:0:0:
256,192,56246,1,8,0:0:0:0:
256,192,56321,1,8,0:0:0:0:
256,192,56395,1,0,0:0:0:0:
256,192,56470,1,8,0:0:0:0:
256,192,56545,1,8,0:0:0:0:
256,192,56619,1,8,0:0:0:0:
256,192,56694,1,0,0:0:0:0:
256,192,56843,1,8,0:0:0:0:
256,192,56893,1,8,0:0:0:0:
256,192,56943,1,8,0:0:0:0:
256,192,56992,1,0,0:0:0:0:
256,192,57142,1,8,0:0:0:0:
256,192,57191,1,8,0:0:0:0:
256,192,57241,1,8,0:0:0:0:
256,192,57291,1,0,0:0:0:0:
256,192,57440,1,8,0:0:0:0:
256,192,57515,1,8,0:0:0:0:
256,192,57589,1,0,0:0:0:0:
256,192,57664,1,8,0:0:0:0:
256,192,57739,1,8,0:0:0:0:
256,192,57888,1,4,0:0:0:0:
256,192,58037,1,0,0:0:0:0:
256,192,58186,1,0,0:0:0:0:
256,192,58336,1,8,0:0:0:0:
256,192,58385,1,8,0:0:0:0:
256,192,58435,1,8,0:0:0:0:
256,192,58485,1,0,0:0:0:0:
256,192,58634,1,8,0:0:0:0:
256,192,58684,1,8,0:0:0:0:
256,192,58734,1,8,0:0:0:0:
256,192,58783,1,0,0:0:0:0:
256,192,58933,1,8,0:0:0:0:
256,192,59082,1,0,0:0:0:0:
256,192,59231,1,0,0:0:0:0:
256,192,59380,1,0,0:0:0:0:
256,192,59530,1,8,0:0:0:0:
256,192,59579,1,8,0:0:0:0:
256,192,59629,1,8,0:0:0:0:
256,192,59679,1,0,0:0:0:0:
256,192,59828,1,8,0:0:0:0:
256,192,59878,1,8,0:0:0:0:
256,192,59928,1,8,0:0:0:0:
256,192,59977,1,0,0:0:0:0:
256,192,60127,1,8,0:0:0:0:
256,192,60276,1,0,0:0:0:0:
256,192,60351,1,8,0:0:0:0:
256,192,60425,1,8,0:0:0:0:
256,192,60500,1,8,0:0:0:0:
256,192,60574,1,0,0:0:0:0:
256,192,60649,1,8,0:0:0:0:
256,192,60724,1,8,0:0:0:0:
256,192,60798,1,8,0:0:0:0:
256,192,60873,1,0,0:0:0:0:
256,192,60948,1,8,0:0:0:0:
256,192,61022,1,8,0:0:0:0:
256,192,61097,1,0,0:0:0:0:
256,192,61172,1,8,0:0:0:0:
256,192,61470,1,8,0:0:0:0:
256,192,61619,1,0,0:0:0:0:
256,192,61694,1,0,0:0:0:0:
256,192,61769,1,8,0:0:0:0:
256,192,61918,1,0,0:0:0:0:
256,192,61992,1,0,0:0:0:0:
256,192,62067,1,8,0:0:0:0:
256,192,62142,1,0,0:0:0:0:
256,192,62216,1,8,0:0:0:0:
256,192,62291,1,8,0:0:0:0:
256,192,62366,1,0,0:0:0:0:
256,192,62415,1,0,0:0:0:0:
256,192,62465,1,0,0:0:0:0:
256,192,62515,1,8,0:0:0:0:
256,192,62565,1,8,0:0:0:0:
256,192,62614,1,8,0:0:0:0:
256,192,62664,1,4,0:0:0:0:
256,192,62963,1,8,0:0:0:0:
256,192,63112,1,0,0:0:0:0:
256,192,63186,1,0,0:0:0:0:
256,192,63261,1,8,0:0:0:0:
256,192,63311,1,8,0:0:0:0:
256,192,63361,1,8,0:0:0:0:
256,192,63410,1,0,0:0:0:0:
256,192,63560,1,8,0:0:0:0:
256,192,63634,1,8,0:0:0:0:
256,192,63709,1,0,0:0:0:0:
256,192,63759,1,8,0:0:0:0:
256,192,63808,1,8,0:0:0:0:
256,192,63858,1,0,0:0:0:0:
256,192,64007,1,8,0:0:0:0:
256,192,64082,1,8,0:0:0:0:
256,192,64157,1,0,0:0:0:0:
256,192,64206,1,8,0:0:0:0:
256,192,64256,1,8,0:0:0:0:
256,192,64306,1,0,0:0:0:0:
256,192,64455,1,8,0:0:0:0:
256,192,64492,1,8,0:0:0:0:
256,192,64604,1,0,0:0:0:0:
256,192,64642,1,0,0:0:0:0:
256,192,64754,1,8,0:0:0:0:
256,192,64791,1,8,0:0:0:0:
256,192,64903,1,8,0:0:0:0:
256,192,64940,1,8,0:0:0:0:
256,192,65052,1,0,0:0:0:0:
256,192,65102,1,0,0:0:0:0:
256,192,65152,1,0,0:0:0:0:
256,192,65201,1,0,0:0:0:0:
256,192,65351,1,8,0:0:0:0:
256,192,65500,1,0,0:0:0:0:
256,192,65574,1,0,0:0:0:0:
256,192,65649,1,8,0:0:0:0:
256,192,65699,1,8,0:0:0:0:
256,192,65749,1,8,0:0:0:0:
256,192,65798,1,0,0:0:0:0:
256,192,65948,1,8,0:0:0:0:
256,192,66022,1,8,0:0:0:0:
256,192,66097,1,0,0:0:0:0:
256,192,66147,1,8,0:0:0:0:
256,192,66196,1,8,0:0:0:0:
256,192,66246,1,0,0:0:0:0:
256,192,66395,1,8,0:0:0:0:
256,192,66470,1,8,0:0:0:0:
256,192,66545,1,0,0:0:0:0:
256,192,66594,1,8,0:0:0:0:
256,192,66644,1,8,0:0:0:0:
256,192,66694,1,0,0:0:0:0:
256,192,66744,1,8,0:0:0:0:
256,192,66793,1,8,0:0:0:0:
256,192,66843,1,0,0:0:0:0:
256,192,66992,1,0,0:0:0:0:
256,192,67142,1,8,0:0:0:0:
256,192,67291,1,8,0:0:0:0:
256,192,67440,1,4,0:0:0:0:
256,192,67739,1,4,0:0:0:0:
256,192,68037,1,8,0:0:0:0:
256,192,68087,1,8,0:0:0:0:
256,192,68137,1,8,0:0:0:0:
256,192,68186,1,0,0:0:0:0:
256,192,68336,1,8,0:0:0:0:
256,192,68410,1,8,0:0:0:0:
256,192,68485,1,0,0:0:0:0:
256,192,68535,1,8,0:0:0:0:
256,192,68584,1,8,0:0:0:0:
256,192,68634,1,0,0:0:0:0:
256,192,68783,1,8,0:0:0:0:
256,192,68858,1,8,0:0:0:0:
256,192,68933,1,0,0:0:0:0:
256,192,68982,1,8,0:0:0:0:
256,192,69032,1,8,0:0:0:0:
256,192,69082,1,0,0:0:0:0:
256,192,69231,1,8,0:0:0:0:
256,192,69269,1,8,0:0:0:0:
256,192,69380,1,0,0:0:0:0:
256,192,69418,1,0,0:0:0:0:
256,192,69530,1,8,0:0:0:0:
256,192,69567,1,0,0:0:0:0:
256,192,69828,1,0,0:0:0:0:
256,192,69903,1,8,0:0:0:0:
256,192,69977,1,0,0:0:0:0:
256,192,70052,1,0,0:0:0:0:
256,192,70127,1,8,0:0:0:0:
256,192,70276,1,8,0:0:0:0:
256,192,70574,1,0,0:0:0:0:
256,192,70724,1,0,0:0:0:0:
256,192,70798,1,0,0:0:0:0:
256,192,70873,1,8,0:0:0:0:
256,192,71022,1,0,0:0:0:0:
256,192,71172,1,0,0:0:0:0:
256,192,71246,1,0,0:0:0:0:
256,192,71321,1,8,0:0:0:0:
256,192,71470,1,0,0:0:0:0:
256,192,71619,1,0,0:0:0:0:
256,192,71694,1,8,0:0:0:0:
256,192,71769,1,0,0:0:0:0:
256,192,71843,1,0,0:0:0:0:
256,192,71918,1,8,0:0:0:0:
256,192,72067,1,8,0:0:0:0:
256,192,72216,1,4,0:0:0:0:
256,192,72515,1,8,0:0:0:0:
256,192,72664,1,0,0:0:0:0:
256,192,72739,1,0,0:0:0:0:
256,192,72813,1,8,0:0:0:0:
256,192,72863,1,8,0:0:0:0:
256,192,72913,1,8,0:0:0:0:
256,192,72963,1,0,0:0:0:0:
256,192,73112,1,8,0:0:0:0:
256,192,73186,1,8,0:0:0:0:
256,192,73261,1,0,0:0:0:0:
256,192,73311,1,8,0:0:0:0:
256,192,73361,1,8,0:0:0:0:
256,192,73410,1,0,0:0:0:0:
256,192,73560,1,8,0:0:0:0:
256,192,73634,1,8,0:0:0:0:
256,192,73709,1,0,0:0:0:0:
256,192,73759,1,8,0:0:0:0:
256,192,73808,1,8,0:0:0:0:
256,192,73858,1,0,0:0:0:0:
256,192,74007,1,8,0:0:0:0:
256,192,74045,1,8,0:0:0:0:
256,192,74157,1,0,0:0:0:0:
256,192,74194,1,0,0:0:0:0:
256,192,74306,1,8,0:0:0:0:
256,192,74343,1,8,0:0:0:0:
256,192,74455,1,8,0:0:0:0:
256,192,74492,1,8,0:0:0:0:
256,192,74604,1,0,0:0:0:0:
256,192,74654,1,0,0:0:0:0:
256,192,74704,1,0,0:0:0:0:
256,192,74754,1,0,0:0:0:0:
256,192,74903,1,8,0:0:0:0:
256,192,75052,1,0,0:0:0:0:
256,192,75127,1,0,0:0:0:0:
256,192,75201,1,8,0:0:0:0:
256,192,75251,1,8,0:0:0:0:
256,192,75301,1,8,0:0:0:0:
256,192,75351,1,0,0:0:0:0:
256,192,75500,1,8,0:0:0:0:
256,192,75574,1,8,0:0:0:0:
256,192,75649,1,0,0:0:0:0:
256,192,75699,1,8,0:0:0:0:
256,192,75749,1,8,0:0:0:0:
256,192,75798,1,0,0:0:0:0:
256,192,75948,1,8,0:0:0:0:
256,192,76022,1,8,0:0:0:0:
256,192,76097,1,0,0:0:0:0:
256,192,76147,1,8,0:0:0:0:
256,192,76196,1,8,0:0:0:0:
256,192,76246,1,0,0:0:0:0:
256,192,76296,1,8,0:0:0:0:
256,192,76346,1,8,0:0:0:0:
256,192,76395,1,0,0:0:0:0:
256,192,76545,1,0,0:0:0:0:
256,192,76694,1,8,0:0:0:0:
256,192,76843,1,8,0:0:0:0:
256,192,76992,1,4,0:0:0:0:
256,192,77142,1,0,0:0:0:0:
256,192,77291,1,12,0:0:0:0:
256,192,77589,1,0,0:0:0:0:
256,192,77639,1,0,0:0:0:0:
256,192,77689,1,8,0:0:0:0:
256,192,77739,1,0,0:0:0:0:
256,192,77888,1,8,0:0:0:0:
256,192,77938,1,8,0:0:0:0:
256,192,77987,1,0,0:0:0:0:
256,192,78037,1,8,0:0:0:0:
256,192,78186,1,0,0:0:0:0:
256,192,78236,1,8,0:0:0:0:
256,192,78286,1,8,0:0:0:0:
256,192,78336,1,0,0:0:0:0:
256,192,78485,1,8,0:0:0:0:
256,192,78535,1,8,0:0:0:0:
256,192,78584,1,8,0:0:0:0:
256,192,78634,1,0,0:0:0:0:
256,192,78783,1,8,0:0:0:0:
256,192,78821,1,8,0:0:0:0:
256,192,78933,1,0,0:0:0:0:
256,192,78970,1,0,0:0:0:0:
256,192,79082,1,8,0:0:0:0:
256,192,79119,1,0,0:0:0:0:
256,192,79380,1,0,0:0:0:0:
256,192,79455,1,0,0:0:0:0:
256,192,79530,1,8,0:0:0:0:
256,192,79604,1,0,0:0:0:0:
256,192,79679,1,8,0:0:0:0:
256,192,79828,1,8,0:0:0:0:
256,192,79977,1,0,0:0:0:0:
256,192,80052,1,0,0:0:0:0:
256,192,80127,1,8,0:0:0:0:
256,192,80276,1,0,0:0:0:0:
256,192,80425,1,0,0:0:0:0:
256,192,80500,1,0,0:0:0:0:
256,192,80574,1,8,0:0:0:0:
256,192,80724,1,8,0:0:0:0:
256,192,80873,1,8,0:0:0:0:
256,192,81022,1,8,0:0:0:0:
256,192,81172,1,0,0:0:0:0:
256,192,81246,1,0,0:0:0:0:
256,192,81321,1,0,0:0:0:0:
256,192,81395,1,0,0:0:0:0:
256,192,81470,1,8,0:0:0:0:
256,192,81545,1,8,0:0:0:0:
256,192,81619,1,8,0:0:0:0:
256,192,81694,1,8,0:0:0:0:
256,192,81769,1,4,0:0:0:0:
256,192,82067,1,8,0:0:0:0:
256,192,82216,1,0,0:0:0:0:
256,192,82291,1,8,0:0:0:0:
256,192,82366,1,0,0:0:0:0:
256,192,82440,1,8,0:0:0:0:
256,192,82515,1,0,0:0:0:0:
256,192,82664,1,8,0:0:0:0:
256,192,82813,1,0,0:0:0:0:
256,192,82888,1,0,0:0:0:0:
256,192,82963,1,8,0:0:0:0:
256,192,83037,1,8,0:0:0:0:
256,192,83112,1,0,0:0:0:0:
256,192,83261,1,8,0:0:0:0:
256,192,83410,1,0,0:0:0:0:
256,192,83485,1,8,0:0:0:0:
256,192,83634,1,8,0:0:0:0:
256,192,83709,1,0,0:0:0:0:
256,192,83783,1,0,0:0:0:0:
256,192,83858,1,8,0:0:0:0:
256,192,83933,1,0,0:0:0:0:
256,192,84007,1,8,0:0:0:0:
256,192,84157,1,0,0:0:0:0:
256,192,84306,1,0,0:0:0:0:
256,192,84380,1,0,0:0:0:0:
256,192,84455,1,8,0:0:0:0:
256,192,84604,1,0,0:0:0:0:
256,192,84679,1,8,0:0:0:0:
256,192,84754,1,0,0:0:0:0:
256,192,84828,1,8,0:0:0:0:
256,192,84903,1,0,0:0:0:0:
256,192,85052,1,8,0:0:0:0:
256,192,85201,1,0,0:0:0:0:
256,192,85276,1,8,0:0:0:0:
256,192,85425,1,8,0:0:0:0:
256,192,85500,1,0,0:0:0:0:
256,192,85649,1,8,0:0:0:0:
256,192,85798,1,8,0:0:0:0:
256,192,85873,1,8,0:0:0:0:
256,192,85948,1,0,0:0:0:0:
256,192,86022,1,8,0:0:0:0:
256,192,86097,1,0,0:0:0:0:
256,192,86172,1,0,0:0:0:0:
256,192,86246,1,8,0:0:0:0:
256,192,86321,1,8,0:0:0:0:
256,192,86395,1,8,0:0:0:0:
256,192,86470,1,8,0:0:0:0:
256,192,86545,1,0,0:0:0:0:
256,192,86694,1,0,0:0:0:0:
256,192,86769,1,0,0:0:0:0:
256,192,86843,1,8,0:0:0:0:
256,192,86992,1,0,0:0:0:0:
256,192,87067,1,8,0:0:0:0:
256,192,87142,1,0,0:0:0:0:
256,192,87216,1,8,0:0:0:0:
256,192,87291,1,0,0:0:0:0:
256,192,87440,1,8,0:0:0:0:
256,192,87589,1,0,0:0:0:0:
256,192,87664,1,0,0:0:0:0:
256,192,87739,1,8,0:0:0:0:
256,192,87813,1,8,0:0:0:0:
256,192,87888,1,0,0:0:0:0:
256,192,88037,1,8,0:0:0:0:
256,192,88186,1,0,0:0:0:0:
256,192,88261,1,8,0:0:0:0:
256,192,88410,1,8,0:0:0:0:
256,192,88485,1,0,0:0:0:0:
256,192,88560,1,0,0:0:0:0:
256,192,88634,1,8,0:0:0:0:
256,192,88709,1,0,0:0:0:0:
256,192,88783,1,8,0:0:0:0:
256,192,88933,1,0,0:0:0:0:
256,192,89082,1,8,0:0:0:0:
256,192,89157,1,0,0:0:0:0:
256,192,89231,1,8,0:0:0:0:
256,192,89380,1,8,0:0:0:0:
256,192,89455,1,0,0:0:0:0:
256,192,89530,1,8,0:0:0:0:
256,192,89604,1,0,0:0:0:0:
256,192,89679,1,0,0:0:0:0:
256,192,89828,1,8,0:0:0:0:
256,192,89903,1,0,0:0:0:0:
256,192,89977,1,8,0:0:0:0:
256,192,90127,1,0,0:0:0:0:
256,192,90201,1,0,0:0:0:0:
256,192,90276,1,8,0:0:0:0:
256,192,90351,1,0,0:0:0:0:
256,192,90425,1,8,0:0:0:0:
256,192,90574,1,0,0:0:0:0:
256,192,90649,1,8,0:0:0:0:
256,192,90724,1,0,0:0:0:0:
256,192,90873,1,0,0:0:0:0:
256,192,91022,1,8,0:0:0:0:
256,192,91097,1,8,0:0:0:0:
256,192,91172,1,0,0:0:0:0:
256,192,91246,1,8,0:0:0:0:
256,192,91321,1,4,0:0:0:0:
256,192,91619,1,8,0:0:0:0:
256,192,91769,1,0,0:0:0:0:
256,192,91843,1,8,0:0:0:0:
256,192,91918,1,0,0:0:0:0:
256,192,91992,1,8,0:0:0:0:
256,192,92067,1,0,0:0:0:0:
256,192,92216,1,8,0:0:0:0:
256,192,92366,1,0,0:0:0:0:
256,192,92440,1,0,0:0:0:0:
256,192,92515,1,8,0:0:0:0:
256,192,92589,1,8,0:0:0:0:
256,192,92664,1,0,0:0:0:0:
256,192,92813,1,8,0:0:0:0:
256,192,92963,1,0,0:0:0:0:
256,192,93037,1,8,0:0:0:0:
256,192,93186,1,8,0:0:0:0:
256,192,93261,1,0,0:0:0:0:
256,192,93336,1,0,0:0:0:0:
256,192,93410,1,8,0:0:0:0:
256,192,93485,1,0,0:0:0:0:
256,192,93560,1,8,0:0:0:0:
256,192,93709,1,0,0:0:0:0:
256,192,93858,1,0,0:0:0:0:
256,192,93933,1,0,0:0:0:0:
256,192,94007,1,8,0:0:0:0:
256,192,94157,1,0,0:0:0:0:
256,192,94231,1,8,0:0:0:0:
256,192,94306,1,0,0:0:0:0:
256,192,94380,1,8,0:0:0:0:
256,192,94455,1,0,0:0:0:0:
256,192,94604,1,8,0:0:0:0:
256,192,94754,1,0,0:0:0:0:
256,192,94828,1,8,0:0:0:0:
256,192,94977,1,8,0:0:0:0:
256,192,95052,1,0,0:0:0:0:
256,192,95201,1,8,0:0:0:0:
256,192,95351,1,8,0:0:0:0:
256,192,95425,1,8,0:0:0:0:
256,192,95500,1,0,0:0:0:0:
256,192,95574,1,8,0:0:0:0:
256,192,95649,1,0,0:0:0:0:
256,192,95724,1,0,0:0:0:0:
256,192,95798,1,8,0:0:0:0:
256,192,95873,1,8,0:0:0:0:
256,192,95948,1,8,0:0:0:0:
256,192,96022,1,8,0:0:0:0:
256,192,96097,1,0,0:0:0:0:
256,192,96246,1,8,0:0:0:0:
256,192,96321,1,8,0:0:0:0:
256,192,96395,1,0,0:0:0:0:
256,192,96545,1,8,0:0:0:0:
256,192,96694,1,0,0:0:0:0:
256,192,96843,1,8,0:0:0:0:
256,192,96918,1,8,0:0:0:0:
256,192,96992,1,0,0:0:0:0:
256,192,97067,1,0,0:0:0:0:
256,192,97142,1,8,0:0:0:0:
256,192,97291,1,0,0:0:0:0:
256,192,97440,1,8,0:0:0:0:
256,192,97515,1,8,0:0:0:0:
256,192,97589,1,0,0:0:0:0:
256,192,97739,1,8,0:0:0:0:
256,192,97888,1,0,0:0:0:0:
256,192,97963,1,8,0:0:0:0:
256,192,98037,1,0,0:0:0:0:
256,192,98112,1,0,0:0:0:0:
256,192,98186,1,8,0:0:0:0:
256,192,98261,1,0,0:0:0:0:
256,192,98336,1,8,0:0:0:0:
256,192,98410,1,8,0:0:0:0:
256,192,98485,1,0,0:0:0:0:
256,192,98783,1,8,0:0:0:0:
256,192,98858,1,0,0:0:0:0:
256,192,98933,1,0,0:0:0:0:
256,192,99007,1,0,0:0:0:0:
256,192,99082,1,8,0:0:0:0:
256,192,99157,1,0,0:0:0:0:
256,192,99231,1,0,0:0:0:0:
256,192,99306,1,0,0:0:0:0:
256,192,99380,1,8,0:0:0:0:
256,192,99455,1,0,0:0:0:0:
256,192,99530,1,0,0:0:0:0:
256,192,99604,1,0,0:0:0:0:
256,192,99679,1,8,0:0:0:0:
256,192,99754,1,0,0:0:0:0:
256,192,99828,1,8,0:0:0:0:
256,192,99903,1,0,0:0:0:0:
256,192,99977,1,8,0:0:0:0:
256,192,100052,1,0,0:0:0:0:
256,192,100127,1,8,0:0:0:0:
256,192,100201,1,0,0:0:0:0:
256,192,100276,1,8,0:0:0:0:
256,192,100873,1,12,0:0:0:0:
256,192,101022,1,0,0:0:0:0:
256,192,101097,1,8,0:0:0:0:
256,192,101172,1,0,0:0:0:0:
256,192,101321,1,0,0:0:0:0:
256,192,101470,1,8,0:0:0:0:
256,192,101545,1,0,0:0:0:0:
256,192,101619,1,8,0:0:0:0:
256,192,101769,1,8,0:0:0:0:
256,192,101918,1,4,0:0:0:0:
256,192,102216,1,0,0:0:0:0:
256,192,102291,1,8,0:0:0:0:
256,192,102366,1,0,0:0:0:0:
256,192,102515,1,8,0:0:0:0:
256,192,102664,1,8,0:0:0:0:
256,192,102739,1,8,0:0:0:0:
256,192,102813,1,0,0:0:0:0:
256,192,102888,1,0,0:0:0:0:
256,192,102963,1,8,0:0:0:0:
256,192,103112,1,4,0:0:0:0:
256,192,103410,1,0,0:0:0:0:
256,192,103485,1,0,0:0:0:0:
256,192,103560,1,0,0:0:0:0:
256,192,103709,1,8,0:0:0:0:
256,192,103858,1,0,0:0:0:0:
256,192,103933,1,8,0:0:0:0:
256,192,104007,1,0,0:0:0:0:
256,192,104157,1,0,0:0:0:0:
256,192,104306,1,12,0:0:0:0:
256,192,104604,1,0,0:0:0:0:
256,192,104754,1,0,0:0:0:0:
256,192,105052,1,8,0:0:0:0:
256,192,105089,1,8,0:0:0:0:
256,192,105201,1,0,0:0:0:0:
256,192,105239,1,0,0:0:0:0:
256,192,105351,1,8,0:0:0:0:
256,192,105649,1,12,0:0:0:0:
256,192,105798,1,0,0:0:0:0:
256,192,105873,1,8,0:0:0:0:
256,192,105948,1,0,0:0:0:0:
256,192,106097,1,0,0:0:0:0:
256,192,106246,1,8,0:0:0:0:
256,192,106321,1,0,0:0:0:0:
256,192,106395,1,8,0:0:0:0:
256,192,106545,1,8,0:0:0:0:
256,192,106694,1,4,0:0:0:0:
256,192,106992,1,8,0:0:0:0:
256,192,107067,1,8,0:0:0:0:
256,192,107142,1,0,0:0:0:0:
256,192,107291,1,8,0:0:0:0:
256,192,107341,1,0,0:0:0:0:
256,192,107390,1,8,0:0:0:0:
256,192,107440,1,8,0:0:0:0:
256,192,107589,1,0,0:0:0:0:
256,192,107739,1,8,0:0:0:0:
256,192,107888,1,4,0:0:0:0:
256,192,108186,1,0,0:0:0:0:
256,192,108261,1,0,0:0:0:0:
256,192,108336,1,8,0:0:0:0:
256,192,108485,1,0,0:0:0:0:
256,192,108634,1,8,0:0:0:0:
256,192,108709,1,8,0:0:0:0:
256,192,108783,1,0,0:0:0:0:
256,192,108933,1,0,0:0:0:0:
256,192,109082,1,12,0:0:0:0:
256,192,109380,1,0,0:0:0:0:
256,192,109530,1,0,0:0:0:0:
256,192,109679,1,0,0:0:0:0:
256,192,109828,1,8,0:0:0:0:
256,192,109977,1,0,0:0:0:0:
256,192,110052,1,0,0:0:0:0:
256,192,110127,1,8,0:0:0:0:
256,192,110201,1,8,0:0:0:0:
256,192,110276,1,0,0:0:0:0:
256,192,110425,1,12,0:0:0:0:
256,192,110873,1,8,0:0:0:0:
256,192,111022,1,0,0:0:0:0:
256,192,111172,1,8,0:0:0:0:
256,192,111321,1,8,0:0:0:0:
256,192,111470,1,4,0:0:0:0:
256,192,111769,1,0,0:0:0:0:
256,192,111843,1,8,0:0:0:0:
256,192,111918,1,0,0:0:0:0:
256,192,112067,1,8,0:0:0:0:
256,192,112216,1,8,0:0:0:0:
256,192,112291,1,0,0:0:0:0:
256,192,112366,1,8,0:0:0:0:
256,192,112440,1,8,0:0:0:0:
256,192,112515,1,0,0:0:0:0:
256,192,112664,1,4,0:0:0:0:
256,192,112963,1,0,0:0:0:0:
256,192,113037,1,0,0:0:0:0:
256,192,113112,1,0,0:0:0:0:
256,192,113261,1,8,0:0:0:0:
256,192,113410,1,0,0:0:0:0:
256,192,113485,1,8,0:0:0:0:
256,192,113560,1,0,0:0:0:0:
256,192,113709,1,0,0:0:0:0:
256,192,113858,1,12,0:0:0:0:
256,192,114157,1,0,0:0:0:0:
256,192,114306,1,0,0:0:0:0:
256,192,114604,1,8,0:0:0:0:
256,192,114642,1,8,0:0:0:0:
256,192,114754,1,0,0:0:0:0:
256,192,114828,1,0,0:0:0:0:
256,192,114903,1,8,0:0:0:0:
256,192,114953,1,0,0:0:0:0:
256,192,115002,1,0,0:0:0:0:
256,192,115052,1,8,0:0:0:0:
256,192,115102,1,0,0:0:0:0:
256,192,115152,1,0,0:0:0:0:
256,192,115201,5,8,0:0:0:0:
256,192,115425,1,0,0:0:0:0:
256,192,115500,1,0,0:0:0:0:
256,192,115649,1,0,0:0:0:0:
256,192,115798,1,8,0:0:0:0:
256,192,115873,1,0,0:0:0:0:
256,192,115948,1,8,0:0:0:0:
256,192,116097,1,8,0:0:0:0:
256,192,116246,1,4,0:0:0:0:
256,192,116545,1,8,0:0:0:0:
256,192,116694,1,0,0:0:0:0:
256,192,116843,1,8,0:0:0:0:
256,192,116893,1,8,0:0:0:0:
256,192,116943,1,8,0:0:0:0:
256,192,116992,1,0,0:0:0:0:
256,192,117142,1,8,0:0:0:0:
256,192,117291,1,8,0:0:0:0:
256,192,117440,1,12,0:0:0:0:
256,192,119977,5,0,0:0:0:0:
256,192,120276,1,0,0:0:0:0:
256,192,120574,1,0,0:0:0:0:
256,192,120873,1,0,0:0:0:0:
256,192,121172,1,0,0:0:0:0:
256,192,121470,1,0,0:0:0:0:
256,192,121769,1,0,0:0:0:0:
256,192,122067,1,0,0:0:0:0:
256,192,122366,1,0,0:0:0:0:
256,192,122515,1,0,0:0:0:0:
256,192,122664,1,0,0:0:0:0:
256,192,122813,1,8,0:0:0:0:
256,192,122863,1,8,0:0:0:0:
256,192,122913,1,8,0:0:0:0:
256,192,122963,1,0,0:0:0:0:
256,192,123112,1,0,0:0:0:0:
256,192,123261,1,0,0:0:0:0:
256,192,123410,1,8,0:0:0:0:
256,192,123460,1,8,0:0:0:0:
256,192,123510,1,8,0:0:0:0:
256,192,123560,1,0,0:0:0:0:
256,192,123709,1,0,0:0:0:0:
256,192,123858,1,0,0:0:0:0:
256,192,124007,1,8,0:0:0:0:
256,192,124057,1,8,0:0:0:0:
256,192,124107,1,8,0:0:0:0:
256,192,124157,1,0,0:0:0:0:
256,192,124306,1,0,0:0:0:0:
256,192,124455,1,0,0:0:0:0:
256,192,124604,1,8,0:0:0:0:
256,192,124654,1,8,0:0:0:0:
256,192,124704,1,8,0:0:0:0:
256,192,124754,1,0,0:0:0:0:
256,192,124828,1,0,0:0:0:0:
256,192,124903,1,8,0:0:0:0:
256,192,124977,1,8,0:0:0:0:
256,192,125052,1,0,0:0:0:0:
256,192,125127,1,0,0:0:0:0:
256,192,125201,1,8,0:0:0:0:
256,192,125276,1,8,0:0:0:0:
256,192,125351,1,0,0:0:0:0:
256,192,125425,1,0,0:0:0:0:
256,192,125500,1,8,0:0:0:0:
256,192,125574,1,8,0:0:0:0:
256,192,125649,1,0,0:0:0:0:
256,192,125699,1,0,0:0:0:0:
256,192,125749,1,0,0:0:0:0:
256,192,125798,1,8,0:0:0:0:
256,192,125848,1,8,0:0:0:0:
256,192,125898,1,8,0:0:0:0:
256,192,125948,1,0,0:0:0:0:
256,192,127142,5,4,0:0:0:0:
256,192,127440,1,8,0:0:0:0:
256,192,127477,1,8,0:0:0:0:
256,192,127739,1,8,0:0:0:0:
256,192,127788,1,8,0:0:0:0:
256,192,127838,1,8,0:0:0:0:
256,192,127888,1,8,0:0:0:0:
256,192,128037,1,0,0:0:0:0:
256,192,128186,1,8,0:0:0:0:
256,192,128336,1,8,0:0:0:0:
256,192,128385,1,8,0:0:0:0:
256,192,128435,1,8,0:0:0:0:
256,192,128485,1,0,0:0:0:0:
256,192,128634,1,0,0:0:0:0:
256,192,128783,1,0,0:0:0:0:
256,192,128858,1,0,0:0:0:0:
256,192,128933,1,8,0:0:0:0:
256,192,129007,1,8,0:0:0:0:
256,192,129082,1,0,0:0:0:0:
256,192,129157,1,8,0:0:0:0:
256,192,129231,1,8,0:0:0:0:
256,192,129306,1,0,0:0:0:0:
256,192,129380,1,8,0:0:0:0:
256,192,129455,1,8,0:0:0:0:
256,192,129530,1,0,0:0:0:0:
256,192,129579,1,0,0:0:0:0:
256,192,129629,1,0,0:0:0:0:
256,192,129679,1,0,0:0:0:0:
256,192,129828,1,8,0:0:0:0:
256,192,129977,1,0,0:0:0:0:
256,192,130127,1,8,0:0:0:0:
256,192,130176,1,8,0:0:0:0:
256,192,130226,1,8,0:0:0:0:
256,192,130276,1,8,0:0:0:0:
256,192,130574,1,8,0:0:0:0:
256,192,130724,1,8,0:0:0:0:
256,192,130774,1,8,0:0:0:0:
256,192,130823,1,8,0:0:0:0:
256,192,130873,1,0,0:0:0:0:
256,192,131022,1,0,0:0:0:0:
256,192,131172,1,0,0:0:0:0:
256,192,131246,1,0,0:0:0:0:
256,192,131321,1,8,0:0:0:0:
256,192,131470,1,0,0:0:0:0:
256,192,131520,1,0,0:0:0:0:
256,192,131570,1,0,0:0:0:0:
256,192,131619,1,8,0:0:0:0:
256,192,131669,1,8,0:0:0:0:
256,192,131719,1,8,0:0:0:0:
256,192,131769,1,0,0:0:0:0:
256,192,131918,1,4,0:0:0:0:
256,192,132216,1,4,0:0:0:0:
256,192,132515,1,8,0:0:0:0:
256,192,132565,1,8,0:0:0:0:
256,192,132614,1,8,0:0:0:0:
256,192,132664,1,0,0:0:0:0:
256,192,132813,1,8,0:0:0:0:
256,192,132851,1,8,0:0:0:0:
256,192,132963,1,0,0:0:0:0:
256,192,133000,1,0,0:0:0:0:
256,192,133112,1,8,0:0:0:0:
256,192,133149,1,8,0:0:0:0:
256,192,133261,1,0,0:0:0:0:
256,192,133298,1,0,0:0:0:0:
256,192,133410,1,0,0:0:0:0:
256,192,133448,1,0,0:0:0:0:
256,192,133709,1,8,0:0:0:0:
256,192,133746,1,8,0:0:0:0:
256,192,133858,1,0,0:0:0:0:
256,192,133895,1,0,0:0:0:0:
256,192,134007,1,0,0:0:0:0:
256,192,134045,1,0,0:0:0:0:
256,192,134306,1,0,0:0:0:0:
256,192,134380,1,8,0:0:0:0:
256,192,134455,1,0,0:0:0:0:
256,192,134530,1,0,0:0:0:0:
256,192,134604,1,8,0:0:0:0:
256,192,134754,1,0,0:0:0:0:
256,192,134828,1,0,0:0:0:0:
256,192,134903,1,8,0:0:0:0:
256,192,135052,1,0,0:0:0:0:
256,192,135127,1,8,0:0:0:0:
256,192,135276,1,8,0:0:0:0:
256,192,135351,1,0,0:0:0:0:
256,192,135425,1,8,0:0:0:0:
256,192,135500,1,0,0:0:0:0:
256,192,135649,1,8,0:0:0:0:
256,192,135724,1,0,0:0:0:0:
256,192,135873,1,8,0:0:0:0:
256,192,135948,1,0,0:0:0:0:
256,192,136022,1,0,0:0:0:0:
256,192,136097,1,8,0:0:0:0:
256,192,136246,1,0,0:0:0:0:
256,192,136395,1,8,0:0:0:0:
256,192,136545,1,8,0:0:0:0:
256,192,136694,1,4,0:0:0:0:
256,192,136992,1,8,0:0:0:0:
256,192,137030,1,8,0:0:0:0:
256,192,137291,1,8,0:0:0:0:
256,192,137341,1,8,0:0:0:0:
256,192,137390,1,8,0:0:0:0:
256,192,137440,1,8,0:0:0:0:
256,192,137589,1,0,0:0:0:0:
256,192,137739,1,8,0:0:0:0:
256,192,137888,1,8,0:0:0:0:
256,192,137938,1,8,0:0:0:0:
256,192,137987,1,8,0:0:0:0:
256,192,138037,1,0,0:0:0:0:
256,192,138186,1,0,0:0:0:0:
256,192,138336,1,0,0:0:0:0:
256,192,138410,1,0,0:0:0:0:
256,192,138485,1,8,0:0:0:0:
256,192,138560,1,8,0:0:0:0:
256,192,138634,1,0,0:0:0:0:
256,192,138709,1,8,0:0:0:0:
256,192,138783,1,8,0:0:0:0:
256,192,138858,1,0,0:0:0:0:
256,192,138933,1,8,0:0:0:0:
256,192,139007,1,8,0:0:0:0:
256,192,139082,1,0,0:0:0:0:
256,192,139132,1,0,0:0:0:0:
256,192,139181,1,0,0:0:0:0:
256,192,139231,1,0,0:0:0:0:
256,192,139380,1,8,0:0:0:0:
256,192,139530,1,0,0:0:0:0:
256,192,139679,1,8,0:0:0:0:
256,192,139729,1,8,0:0:0:0:
256,192,139778,1,8,0:0:0:0:
256,192,139828,1,8,0:0:0:0:
256,192,140127,1,8,0:0:0:0:
256,192,140276,1,8,0:0:0:0:
256,192,140326,1,8,0:0:0:0:
256,192,140375,1,8,0:0:0:0:
256,192,140425,1,0,0:0:0:0:
256,192,140574,1,0,0:0:0:0:
256,192,140724,1,0,0:0:0:0:
256,192,140798,1,0,0:0:0:0:
256,192,140873,1,8,0:0:0:0:
256,192,141022,1,8,0:0:0:0:
256,192,141072,1,8,0:0:0:0:
256,192,141122,1,8,0:0:0:0:
256,192,141172,1,0,0:0:0:0:
256,192,141221,1,0,0:0:0:0:
256,192,141271,1,0,0:0:0:0:
256,192,141321,1,8,0:0:0:0:
256,192,141470,1,4,0:0:0:0:
256,192,141769,1,4,0:0:0:0:
256,192,142067,1,8,0:0:0:0:
256,192,142117,1,8,0:0:0:0:
256,192,142167,1,8,0:0:0:0:
256,192,142216,1,0,0:0:0:0:
256,192,142366,1,8,0:0:0:0:
256,192,142403,1,8,0:0:0:0:
256,192,142515,1,0,0:0:0:0:
256,192,142552,1,0,0:0:0:0:
256,192,142664,1,8,0:0:0:0:
256,192,142701,1,8,0:0:0:0:
256,192,142813,1,0,0:0:0:0:
256,192,142851,1,0,0:0:0:0:
256,192,142963,1,0,0:0:0:0:
256,192,143000,1,0,0:0:0:0:
256,192,143261,1,8,0:0:0:0:
256,192,143298,1,8,0:0:0:0:
256,192,143410,1,0,0:0:0:0:
256,192,143448,1,0,0:0:0:0:
256,192,143560,1,0,0:0:0:0:
256,192,143597,1,0,0:0:0:0:
256,192,143858,1,0,0:0:0:0:
256,192,144157,1,8,0:0:0:0:
256,192,144455,1,8,0:0:0:0:
256,192,144903,1,0,0:0:0:0:
256,192,145052,1,8,0:0:0:0:
256,192,145351,1,8,0:0:0:0:
256,192,145500,1,0,0:0:0:0:
256,192,145649,1,8,0:0:0:0:
256,192,145749,1,8,0:0:0:0:
256,192,145848,1,8,0:0:0:0:
256,192,145948,1,8,0:0:0:0:
256,192,146047,1,8,0:0:0:0:
256,192,146147,1,8,0:0:0:0:
256,192,146246,1,4,0:0:0:0:
256,192,146545,1,8,0:0:0:0:
256,192,146644,1,8,0:0:0:0:
256,192,146744,1,0,0:0:0:0:
256,192,146843,1,8,0:0:0:0:
256,192,146880,1,0,0:0:0:0:
256,192,147042,1,8,0:0:0:0:
256,192,147142,1,0,0:0:0:0:
256,192,147179,1,8,0:0:0:0:
256,192,147341,1,0,0:0:0:0:
256,192,147639,1,0,0:0:0:0:
256,192,147739,1,0,0:0:0:0:
256,192,147938,1,0,0:0:0:0:
256,192,148037,1,8,0:0:0:0:
256,192,148112,1,8,0:0:0:0:
256,192,148186,1,8,0:0:0:0:
256,192,148261,1,8,0:0:0:0:
256,192,148336,1,8,0:0:0:0:
256,192,148435,1,8,0:0:0:0:
256,192,148535,1,8,0:0:0:0:
256,192,148634,1,4,0:0:0:0:
256,192,148933,1,8,0:0:0:0:
256,192,149132,1,0,0:0:0:0:
256,192,149231,1,8,0:0:0:0:
256,192,149269,1,8,0:0:0:0:
256,192,149530,1,0,0:0:0:0:
256,192,149567,1,0,0:0:0:0:
256,192,149828,1,8,0:0:0:0:
256,192,149866,1,8,0:0:0:0:
256,192,150027,1,0,0:0:0:0:
256,192,150127,1,8,0:0:0:0:
256,192,150164,1,8,0:0:0:0:
256,192,150326,1,0,0:0:0:0:
256,192,150375,1,0,0:0:0:0:
256,192,150425,1,8,0:0:0:0:
256,192,150525,1,8,0:0:0:0:
256,192,150624,1,0,0:0:0:0:
256,192,150724,1,8,0:0:0:0:
256,192,150823,1,8,0:0:0:0:
256,192,150923,1,8,0:0:0:0:
256,192,151022,1,4,0:0:0:0:
256,192,151321,1,4,0:0:0:0:
256,192,151619,1,8,0:0:0:0:
256,192,151657,1,0,0:0:0:0:
256,192,151818,1,8,0:0:0:0:
256,192,151918,1,0,0:0:0:0:
256,192,151955,1,8,0:0:0:0:
256,192,152117,1,0,0:0:0:0:
256,192,152415,1,0,0:0:0:0:
256,192,152515,1,0,0:0:0:0:
256,192,152714,1,0,0:0:0:0:
256,192,152813,1,8,0:0:0:0:
256,192,152863,1,8,0:0:0:0:
256,192,152913,1,8,0:0:0:0:
256,192,152963,1,0,0:0:0:0:
256,192,153012,1,0,0:0:0:0:
256,192,153062,1,0,0:0:0:0:
256,192,153112,1,8,0:0:0:0:
256,192,153211,1,8,0:0:0:0:
256,192,153311,1,8,0:0:0:0:
256,192,153410,1,4,0:0:0:0:
256,192,153609,1,8,0:0:0:0:
256,192,153709,1,0,0:0:0:0:
256,192,153908,1,0,0:0:0:0:
256,192,153958,1,0,0:0:0:0:
256,192,154007,1,8,0:0:0:0:
256,192,154107,1,8,0:0:0:0:
256,192,154206,1,8,0:0:0:0:
256,192,154306,1,0,0:0:0:0:
256,192,154505,1,8,0:0:0:0:
256,192,154555,1,0,0:0:0:0:
256,192,154604,1,0,0:0:0:0:
256,192,154803,1,0,0:0:0:0:
256,192,155002,1,0,0:0:0:0:
256,192,155102,1,0,0:0:0:0:
256,192,155201,1,8,0:0:0:0:
256,192,155301,1,8,0:0:0:0:
256,192,155400,1,8,0:0:0:0:
256,192,155500,1,0,0:0:0:0:
256,192,155599,1,8,0:0:0:0:
256,192,155699,1,8,0:0:0:0:
256,192,155798,1,4,0:0:0:0:
256,192,156097,1,8,0:0:0:0:
256,192,156196,1,8,0:0:0:0:
256,192,156296,1,0,0:0:0:0:
256,192,156395,1,8,0:0:0:0:
256,192,156433,1,0,0:0:0:0:
256,192,156594,1,8,0:0:0:0:
256,192,156694,1,0,0:0:0:0:
256,192,156731,1,8,0:0:0:0:
256,192,156893,1,0,0:0:0:0:
256,192,157191,1,0,0:0:0:0:
256,192,157291,1,0,0:0:0:0:
256,192,157490,1,0,0:0:0:0:
256,192,157589,1,8,0:0:0:0:
256,192,157664,1,8,0:0:0:0:
256,192,157739,1,8,0:0:0:0:
256,192,157813,1,8,0:0:0:0:
256,192,157888,1,8,0:0:0:0:
256,192,157987,1,8,0:0:0:0:
256,192,158087,1,8,0:0:0:0:
256,192,158186,1,4,0:0:0:0:
256,192,158485,1,8,0:0:0:0:
256,192,158684,1,0,0:0:0:0:
256,192,158783,1,8,0:0:0:0:
256,192,158821,1,8,0:0:0:0:
256,192,159082,1,0,0:0:0:0:
256,192,159119,1,0,0:0:0:0:
256,192,159380,1,8,0:0:0:0:
256,192,159430,1,8,0:0:0:0:
256,192,159480,1,8,0:0:0:0:
256,192,159579,1,0,0:0:0:0:
256,192,159679,1,8,0:0:0:0:
256,192,159729,1,8,0:0:0:0:
256,192,159778,1,8,0:0:0:0:
256,192,159878,1,0,0:0:0:0:
256,192,159928,1,0,0:0:0:0:
256,192,159977,1,8,0:0:0:0:
256,192,160077,1,8,0:0:0:0:
256,192,160176,1,0,0:0:0:0:
256,192,160276,1,8,0:0:0:0:
256,192,160375,1,8,0:0:0:0:
256,192,160475,1,8,0:0:0:0:
256,192,160574,1,4,0:0:0:0:
256,192,160873,1,4,0:0:0:0:
256,192,161172,1,8,0:0:0:0:
256,192,161209,1,0,0:0:0:0:
256,192,161371,1,8,0:0:0:0:
256,192,161470,1,0,0:0:0:0:
256,192,161507,1,8,0:0:0:0:
256,192,161669,1,0,0:0:0:0:
256,192,161968,1,8,0:0:0:0:
256,192,162017,1,8,0:0:0:0:
256,192,162067,1,0,0:0:0:0:
256,192,162117,1,0,0:0:0:0:
256,192,162167,1,8,0:0:0:0:
256,192,162266,1,0,0:0:0:0:
256,192,162366,1,8,0:0:0:0:
256,192,162515,1,0,0:0:0:0:
256,192,162565,1,0,0:0:0:0:
256,192,162614,1,0,0:0:0:0:
256,192,162664,1,8,0:0:0:0:
256,192,162764,1,8,0:0:0:0:
256,192,162863,1,8,0:0:0:0:
256,192,162963,1,0,0:0:0:0:
256,192,163162,1,8,0:0:0:0:
256,192,163261,1,0,0:0:0:0:
256,192,163361,1,8,0:0:0:0:
256,192,163460,1,8,0:0:0:0:
256,192,163560,1,0,0:0:0:0:
256,192,163759,1,8,0:0:0:0:
256,192,163858,1,0,0:0:0:0:
256,192,163958,1,0,0:0:0:0:
256,192,164057,1,8,0:0:0:0:
256,192,164157,1,0,0:0:0:0:
256,192,164356,1,8,0:0:0:0:
256,192,164455,1,0,0:0:0:0:
256,192,164555,1,8,0:0:0:0:
256,192,164654,1,8,0:0:0:0:
256,192,164754,1,8,0:0:0:0:
256,192,165351,1,0,0:0:0:0:
256,192,165504,1,0,0:0:0:0:
256,192,165657,1,0,0:0:0:0:
256,192,165810,1,8,0:0:0:0:
256,192,167825,1,0,0:0:0:0:
256,192,167987,1,0,0:0:0:0:
256,192,168149,1,8,0:0:0:0:
256,192,168311,1,8,0:0:0:0:
256,192,169460,1,0,0:0:0:0:
256,192,169573,1,0,0:0:0:0:
256,192,169686,1,0,0:0:0:0:
256,192,169799,1,8,0:0:0:0:
256,192,169913,1,8,0:0:0:0:
256,192,170028,1,0,0:0:0:0:
256,192,170143,1,8,0:0:0:0:
256,192,170258,1,8,0:0:0:0:
256,192,170373,1,8,0:0:0:0:
256,192,170488,1,0,0:0:0:0:
256,192,170664,1,0,0:0:0:0:
256,192,170840,1,0,0:0:0:0:
256,192,171017,1,8,0:0:0:0:
256,192,173404,1,0,0:0:0:0:
256,192,173597,1,0,0:0:0:0:
256,192,173791,1,8,0:0:0:0:
256,192,173984,1,8,0:0:0:0:
256,192,174774,1,0,0:0:0:0:
256,192,174807,1,0,0:0:0:0:
256,192,175592,1,8,0:0:0:0:
256,192,175627,1,8,0:0:0:0:
256,192,176650,1,0,0:0:0:0:
256,192,176757,1,0,0:0:0:0:
256,192,176865,1,8,0:0:0:0:
256,192,176973,1,8,0:0:0:0:
256,192,177081,1,0,0:0:0:0:
256,192,177189,1,8,0:0:0:0:
256,192,177405,1,8,0:0:0:0:
256,192,177513,1,0,0:0:0:0:
256,192,177621,1,8,0:0:0:0:
256,192,177837,1,0,0:0:0:0:
256,192,177944,1,8,0:0:0:0:
256,192,178052,1,8,0:0:0:0:
256,192,178160,1,0,0:0:0:0:
256,192,178268,1,8,0:0:0:0:
256,192,178376,1,0,0:0:0:0:
256,192,178484,1,0,0:0:0:0:
256,192,178592,1,8,0:0:0:0:
256,192,178700,1,8,0:0:0:0:
256,192,178808,1,0,0:0:0:0:
256,192,178916,1,8,0:0:0:0:
256,192,179132,1,8,0:0:0:0:
256,192,179239,1,0,0:0:0:0:
256,192,179347,1,8,0:0:0:0:
256,192,179563,1,8,0:0:0:0:
256,192,179671,1,0,0:0:0:0:
256,192,179779,1,8,0:0:0:0:
256,192,179887,1,8,0:0:0:0:
256,192,179995,1,8,0:0:0:0:
256,192,180103,1,0,0:0:0:0:
256,192,180211,1,0,0:0:0:0:
256,192,180319,1,8,0:0:0:0:
256,192,180426,1,8,0:0:0:0:
256,192,180534,1,0,0:0:0:0:
256,192,180642,1,8,0:0:0:0:
256,192,180858,1,8,0:0:0:0:
256,192,180966,1,0,0:0:0:0:
256,192,181074,1,8,0:0:0:0:
256,192,181290,1,0,0:0:0:0:
256,192,181398,1,8,0:0:0:0:
256,192,181506,1,8,0:0:0:0:
256,192,181614,1,0,0:0:0:0:
256,192,181721,1,8,0:0:0:0:
256,192,181775,1,8,0:0:0:0:
256,192,181829,1,0,0:0:0:0:
256,192,181937,1,0,0:0:0:0:
256,192,182045,1,8,0:0:0:0:
256,192,182153,1,8,0:0:0:0:
256,192,182261,1,0,0:0:0:0:
256,192,182369,1,8,0:0:0:0:
256,192,182477,1,0,0:0:0:0:
256,192,182531,1,0,0:0:0:0:
256,192,182585,1,8,0:0:0:0:
256,192,182639,1,8,0:0:0:0:
256,192,182693,1,0,0:0:0:0:
256,192,182801,1,8,0:0:0:0:
256,192,183016,1,8,0:0:0:0:
256,192,183124,1,0,0:0:0:0:
256,192,183232,1,8,0:0:0:0:
256,192,183340,1,0,0:0:0:0:
256,192,183394,1,0,0:0:0:0:
256,192,183448,1,8,0:0:0:0:
256,192,183556,1,4,0:0:0:0:
256,192,183772,1,8,0:0:0:0:
256,192,183880,1,8,0:0:0:0:
256,192,183988,1,0,0:0:0:0:
256,192,184096,1,8,0:0:0:0:
256,192,184203,1,0,0:0:0:0:
256,192,184257,1,0,0:0:0:0:
256,192,184311,1,8,0:0:0:0:
256,192,184365,1,8,0:0:0:0:
256,192,184419,1,0,0:0:0:0:
256,192,184527,1,8,0:0:0:0:
256,192,184635,1,8,0:0:0:0:
256,192,184743,1,8,0:0:0:0:
256,192,184851,1,0,0:0:0:0:
256,192,184959,1,8,0:0:0:0:
256,192,185067,1,0,0:0:0:0:
256,192,185121,1,0,0:0:0:0:
256,192,185175,1,8,0:0:0:0:
256,192,185283,1,0,0:0:0:0:
256,192,185498,1,8,0:0:0:0:
256,192,185606,1,8,0:0:0:0:
256,192,185714,1,0,0:0:0:0:
256,192,185822,1,8,0:0:0:0:
256,192,185930,1,0,0:0:0:0:
256,192,185984,1,0,0:0:0:0:
256,192,186038,1,8,0:0:0:0:
256,192,186092,1,8,0:0:0:0:
256,192,186146,1,0,0:0:0:0:
256,192,186254,1,8,0:0:0:0:
256,192,186362,1,8,0:0:0:0:
256,192,186470,1,8,0:0:0:0:
256,192,186578,1,0,0:0:0:0:
256,192,186685,1,8,0:0:0:0:
256,192,186793,1,0,0:0:0:0:
256,192,186847,1,0,0:0:0:0:
256,192,186901,1,8,0:0:0:0:
256,192,187009,1,0,0:0:0:0:
256,192,187117,1,8,0:0:0:0:
256,192,187225,1,8,0:0:0:0:
256,192,187333,1,8,0:0:0:0:
256,192,187441,1,0,0:0:0:0:
256,192,187549,1,8,0:0:0:0:
256,192,187657,1,8,0:0:0:0:
256,192,187765,1,8,0:0:0:0:
256,192,187873,1,0,0:0:0:0:
256,192,187980,1,8,0:0:0:0:
256,192,188088,1,8,0:0:0:0:
256,192,188196,1,8,0:0:0:0:
256,192,188304,1,0,0:0:0:0:
256,192,188412,1,8,0:0:0:0:
256,192,188520,1,8,0:0:0:0:
256,192,188628,1,8,0:0:0:0:
256,192,188736,1,0,0:0:0:0:
256,192,188808,1,0,0:0:0:0:
256,192,188880,1,0,0:0:0:0:
256,192,188952,1,8,0:0:0:0:
256,192,189024,1,8,0:0:0:0:
256,192,189096,1,8,0:0:0:0:
256,192,189167,1,0,0:0:0:0:
256,192,189239,1,0,0:0:0:0:
256,192,189311,1,0,0:0:0:0:
256,192,189383,1,8,0:0:0:0:
256,192,189455,1,8,0:0:0:0:
256,192,189527,1,8,0:0:0:0:
256,192,189599,1,0,0:0:0:0:
256,192,189653,1,0,0:0:0:0:
256,192,189707,1,8,0:0:0:0:
256,192,189761,1,8,0:0:0:0:
256,192,189815,1,0,0:0:0:0:
256,192,189869,1,0,0:0:0:0:
256,192,189923,1,8,0:0:0:0:
256,192,189977,1,8,0:0:0:0:
256,192,190031,1,0,0:0:0:0:
256,192,190462,1,12,0:0:0:0:
256,192,190894,1,0,0:0:0:0:
256,192,191002,1,8,0:0:0:0:
256,192,191110,1,8,0:0:0:0:
256,192,191218,1,8,0:0:0:0:
256,192,191434,1,8,0:0:0:0:
256,192,191542,1,0,0:0:0:0:
256,192,191650,1,0,0:0:0:0:
256,192,191757,1,8,0:0:0:0:
256,192,191865,1,0,0:0:0:0:
256,192,191973,1,8,0:0:0:0:
256,192,192081,1,8,0:0:0:0:
256,192,192189,1,0,0:0:0:0:
256,192,192297,1,8,0:0:0:0:
256,192,192513,1,0,0:0:0:0:
256,192,192621,1,8,0:0:0:0:
256,192,192729,1,8,0:0:0:0:
256,192,192837,1,0,0:0:0:0:
256,192,192908,1,8,0:0:0:0:
256,192,192980,1,8,0:0:0:0:
256,192,193052,1,8,0:0:0:0:
256,192,193160,1,0,0:0:0:0:
256,192,193268,1,8,0:0:0:0:
256,192,193376,1,8,0:0:0:0:
256,192,193484,1,0,0:0:0:0:
256,192,193700,1,8,0:0:0:0:
256,192,193808,1,8,0:0:0:0:
256,192,193916,1,0,0:0:0:0:
256,192,194024,1,8,0:0:0:0:
256,192,194132,1,8,0:0:0:0:
256,192,194203,1,8,0:0:0:0:
256,192,194275,1,8,0:0:0:0:
256,192,194347,1,0,0:0:0:0:
256,192,194455,1,8,0:0:0:0:
256,192,194671,1,0,0:0:0:0:
256,192,194887,1,0,0:0:0:0:
256,192,194995,1,8,0:0:0:0:
256,192,195103,1,8,0:0:0:0:
256,192,195211,1,0,0:0:0:0:
256,192,195319,1,8,0:0:0:0:
256,192,195426,1,8,0:0:0:0:
256,192,195642,1,0,0:0:0:0:
256,192,195750,1,8,0:0:0:0:
256,192,195966,1,0,0:0:0:0:
256,192,196074,1,8,0:0:0:0:
256,192,196290,1,0,0:0:0:0:
256,192,196398,1,8,0:0:0:0:
256,192,196506,1,0,0:0:0:0:
256,192,196614,1,0,0:0:0:0:
256,192,196721,1,8,0:0:0:0:
256,192,196937,1,8,0:0:0:0:
256,192,197045,1,8,0:0:0:0:
256,192,197153,1,0,0:0:0:0:
256,192,197225,1,0,0:0:0:0:
256,192,197297,1,0,0:0:0:0:
256,192,197369,1,12,0:0:0:0:
256,192,197801,1,0,0:0:0:0:
256,192,197908,1,8,0:0:0:0:
256,192,198016,1,8,0:0:0:0:
256,192,198124,1,8,0:0:0:0:
256,192,198340,1,8,0:0:0:0:
256,192,198448,1,0,0:0:0:0:
256,192,198556,1,0,0:0:0:0:
256,192,198664,1,8,0:0:0:0:
256,192,198772,1,0,0:0:0:0:
256,192,198880,1,8,0:0:0:0:
256,192,198988,1,8,0:0:0:0:
256,192,199096,1,0,0:0:0:0:
256,192,199203,1,8,0:0:0:0:
256,192,199419,1,0,0:0:0:0:
256,192,199527,1,8,0:0:0:0:
256,192,199743,1,0,0:0:0:0:
256,192,199815,1,8,0:0:0:0:
256,192,199887,1,8,0:0:0:0:
256,192,199959,1,8,0:0:0:0:
256,192,200067,1,0,0:0:0:0:
256,192,200175,1,8,0:0:0:0:
256,192,200283,1,8,0:0:0:0:
256,192,200391,1,0,0:0:0:0:
256,192,200498,1,8,0:0:0:0:
256,192,200606,1,8,0:0:0:0:
256,192,200822,1,8,0:0:0:0:
256,192,200930,1,0,0:0:0:0:
256,192,201038,1,8,0:0:0:0:
256,192,201146,1,8,0:0:0:0:
256,192,201254,1,0,0:0:0:0:
256,192,201362,1,8,0:0:0:0:
256,192,201470,1,8,0:0:0:0:
256,192,201685,1,0,0:0:0:0:
256,192,201793,1,0,0:0:0:0:
256,192,201901,1,8,0:0:0:0:
256,192,202009,1,8,0:0:0:0:
256,192,202117,1,0,0:0:0:0:
256,192,202225,1,8,0:0:0:0:
256,192,202333,1,8,0:0:0:0:
256,192,202441,1,8,0:0:0:0:
256,192,202549,1,0,0:0:0:0:
256,192,202603,1,0,0:0:0:0:
256,192,202657,1,0,0:0:0:0:
256,192,202711,1,0,0:0:0:0:
256,192,202765,1,8,0:0:0:0:
256,192,202873,1,8,0:0:0:0:
256,192,202980,1,0,0:0:0:0:
256,192,203088,1,8,0:0:0:0:
256,192,203304,1,0,0:0:0:0:
256,192,203412,1,8,0:0:0:0:
256,192,203520,1,0,0:0:0:0:
256,192,203736,1,8,0:0:0:0:
256,192,203916,1,8,0:0:0:0:
256,192,204096,1,0,0:0:0:0:
256,192,204275,1,12,0:0:0:0:
256,192,204707,1,0,0:0:0:0:
256,192,204815,1,0,0:0:0:0:
256,192,204923,1,0,0:0:0:0:
256,192,205031,1,8,0:0:0:0:
256,192,205247,1,8,0:0:0:0:
256,192,205355,1,0,0:0:0:0:
256,192,205462,1,0,0:0:0:0:
256,192,205570,1,8,0:0:0:0:
256,192,205678,1,0,0:0:0:0:
256,192,205786,1,8,0:0:0:0:
256,192,205894,1,8,0:0:0:0:
256,192,206002,1,0,0:0:0:0:
256,192,206110,1,8,0:0:0:0:
256,192,206326,1,0,0:0:0:0:
256,192,206434,1,8,0:0:0:0:
256,192,206650,1,0,0:0:0:0:
256,192,206757,1,8,0:0:0:0:
256,192,206865,1,0,0:0:0:0:
256,192,206919,1,8,0:0:0:0:
256,192,206973,1,8,0:0:0:0:
256,192,207027,1,0,0:0:0:0:
256,192,207081,1,8,0:0:0:0:
256,192,207189,1,0,0:0:0:0:
256,192,207243,1,0,0:0:0:0:
256,192,207297,1,0,0:0:0:0:
256,192,207513,1,0,0:0:0:0:
256,192,207729,1,0,0:0:0:0:
256,192,207837,1,0,0:0:0:0:
256,192,207944,1,8,0:0:0:0:
256,192,208052,1,0,0:0:0:0:
256,192,208160,1,8,0:0:0:0:
256,192,208376,1,8,0:0:0:0:
256,192,208484,1,0,0:0:0:0:
256,192,208592,1,0,0:0:0:0:
256,192,208700,1,8,0:0:0:0:
256,192,208808,1,8,0:0:0:0:
256,192,208916,1,0,0:0:0:0:
256,192,209024,1,8,0:0:0:0:
256,192,209132,1,0,0:0:0:0:
256,192,209239,1,0,0:0:0:0:
256,192,209455,1,0,0:0:0:0:
256,192,209563,1,8,0:0:0:0:
256,192,209617,1,0,0:0:0:0:
256,192,209671,1,0,0:0:0:0:
256,192,209779,1,0,0:0:0:0:
256,192,209887,1,8,0:0:0:0:
256,192,210103,1,0,0:0:0:0:
256,192,210211,1,8,0:0:0:0:
256,192,210265,1,8,0:0:0:0:
256,192,210319,1,8,0:0:0:0:
256,192,210373,1,8,0:0:0:0:
256,192,210426,1,0,0:0:0:0:
256,192,210534,1,8,0:0:0:0:
256,192,210642,1,0,0:0:0:0:
256,192,210750,1,8,0:0:0:0:
256,192,210858,1,8,0:0:0:0:
256,192,210966,1,0,0:0:0:0:
256,192,211074,1,0,0:0:0:0:
256,192,211182,5,12,0:0:0:0:
256,192,211398,1,8,0:0:0:0:
256,192,211506,1,0,0:0:0:0:
256,192,211721,1,8,0:0:0:0:
256,192,211829,1,0,0:0:0:0:
256,192,212045,1,8,0:0:0:0:
256,192,212153,1,0,0:0:0:0:
256,192,212369,1,8,0:0:0:0:
256,192,212477,1,0,0:0:0:0:
256,192,212585,1,8,0:0:0:0:
256,192,212693,1,0,0:0:0:0:
256,192,212801,1,0,0:0:0:0:
256,192,212908,1,0,0:0:0:0:
256,192,213124,1,8,0:0:0:0:
256,192,213232,1,0,0:0:0:0:
256,192,213448,1,8,0:0:0:0:
256,192,213556,1,0,0:0:0:0:
256,192,213664,1,8,0:0:0:0:
256,192,213772,1,0,0:0:0:0:
256,192,213880,1,0,0:0:0:0:
256,192,214096,1,8,0:0:0:0:
256,192,214203,1,0,0:0:0:0:
256,192,214311,1,8,0:0:0:0:
256,192,214419,1,0,0:0:0:0:
256,192,214635,1,8,0:0:0:0:
256,192,214707,1,8,0:0:0:0:
256,192,214779,1,8,0:0:0:0:
256,192,214851,1,0,0:0:0:0:
256,192,214959,1,0,0:0:0:0:
256,192,215067,1,8,0:0:0:0:
256,192,215139,1,8,0:0:0:0:
256,192,215211,1,8,0:0:0:0:
256,192,215283,1,0,0:0:0:0:
256,192,215391,1,0,0:0:0:0:
256,192,215498,1,8,0:0:0:0:
256,192,215570,1,0,0:0:0:0:
256,192,215642,1,0,0:0:0:0:
256,192,215714,1,8,0:0:0:0:
256,192,215822,1,0,0:0:0:0:
256,192,215876,1,0,0:0:0:0:
256,192,215930,1,0,0:0:0:0:
256,192,216038,1,8,0:0:0:0:
256,192,216146,1,0,0:0:0:0:
256,192,216200,1,0,0:0:0:0:
256,192,216254,1,8,0:0:0:0:
256,192,216362,1,0,0:0:0:0:
256,192,216416,1,0,0:0:0:0:
256,192,216470,1,0,0:0:0:0:
256,192,216524,1,0,0:0:0:0:
256,192,216578,1,8,0:0:0:0:
256,192,216793,1,0,0:0:0:0:
256,192,216901,1,8,0:0:0:0:
256,192,217117,1,0,0:0:0:0:
256,192,217171,1,0,0:0:0:0:
256,192,217225,1,8,0:0:0:0:
256,192,217333,1,0,0:0:0:0:
256,192,217549,1,0,0:0:0:0:
256,192,217657,1,8,0:0:0:0:
256,192,217729,1,8,0:0:0:0:
256,192,217801,1,8,0:0:0:0:
256,192,217873,1,8,0:0:0:0:
256,192,217944,1,8,0:0:0:0:
256,192,218016,1,8,0:0:0:0:
256,192,218088,1,0,0:0:0:0:
256,192,218196,1,8,0:0:0:0:
256,192,218304,1,0,0:0:0:0:
256,192,218412,1,8,0:0:0:0:
256,192,218520,1,8,0:0:0:0:
256,192,218628,1,0,0:0:0:0:
256,192,218736,1,0,0:0:0:0:
256,192,218844,1,8,0:0:0:0:
256,192,218952,1,0,0:0:0:0:
256,192,219060,1,8,0:0:0:0:
256,192,219167,1,0,0:0:0:0:
256,192,219275,1,8,0:0:0:0:
256,192,219383,1,8,0:0:0:0:
256,192,219491,1,0,0:0:0:0:
256,192,219599,1,0,0:0:0:0:
256,192,219707,1,8,0:0:0:0:
256,192,219815,1,0,0:0:0:0:
256,192,219923,1,8,0:0:0:0:
256,192,220031,1,0,0:0:0:0:
256,192,220139,1,8,0:0:0:0:
256,192,220247,1,8,0:0:0:0:
256,192,220355,1,0,0:0:0:0:
256,192,220462,1,8,0:0:0:0:
256,192,220570,1,8,0:0:0:0:
256,192,220678,1,0,0:0:0:0:
256,192,220786,1,8,0:0:0:0:
256,192,220894,1,0,0:0:0:0:
256,192,221002,1,8,0:0:0:0:
256,192,221110,1,0,0:0:0:0:
256,192,221218,1,8,0:0:0:0:
256,192,221326,1,8,0:0:0:0:
256,192,221434,1,8,0:0:0:0:
256,192,221542,1,0,0:0:0:0:
256,192,221650,1,8,0:0:0:0:
256,192,221757,1,8,0:0:0:0:
256,192,221865,1,0,0:0:0:0:
256,192,221973,1,8,0:0:0:0:
256,192,222081,1,8,0:0:0:0:
256,192,222189,1,0,0:0:0:0:
256,192,222297,1,8,0:0:0:0:
256,192,222405,1,0,0:0:0:0:
256,192,222513,1,8,0:0:0:0:
256,192,222621,1,8,0:0:0:0:
256,192,222729,1,0,0:0:0:0:
256,192,222837,1,8,0:0:0:0:
256,192,222944,1,8,0:0:0:0:
256,192,223052,1,0,0:0:0:0:
256,192,223160,1,8,0:0:0:0:
256,192,223268,1,0,0:0:0:0:
256,192,223376,1,8,0:0:0:0:
256,192,223484,1,0,0:0:0:0:
256,192,223592,1,8,0:0:0:0:
256,192,223700,1,8,0:0:0:0:
256,192,223808,1,8,0:0:0:0:
256,192,223916,1,0,0:0:0:0:
256,192,224024,1,8,0:0:0:0:
256,192,224132,1,0,0:0:0:0:
256,192,224239,1,8,0:0:0:0:
256,192,224347,1,8,0:0:0:0:
256,192,224455,1,8,0:0:0:0:
256,192,224563,1,0,0:0:0:0:
256,192,224671,1,8,0:0:0:0:
256,192,224779,1,8,0:0:0:0:
256,192,224887,1,8,0:0:0:0:
256,192,224995,1,0,0:0:0:0:
256,192,225103,1,8,0:0:0:0:
256,192,225211,1,8,0:0:0:0:
256,192,225319,1,0,0:0:0:0:
256,192,225426,1,0,0:0:0:0:
256,192,225534,1,8,0:0:0:0:
256,192,225642,1,0,0:0:0:0:
256,192,225750,1,8,0:0:0:0:
256,192,225858,1,0,0:0:0:0:
256,192,225966,1,8,0:0:0:0:
256,192,226074,1,0,0:0:0:0:
256,192,226182,1,8,0:0:0:0:
256,192,226290,1,8,0:0:0:0:
256,192,226398,1,0,0:0:0:0:
256,192,226506,1,0,0:0:0:0:
256,192,226614,1,8,0:0:0:0:
256,192,226721,1,0,0:0:0:0:
256,192,226829,1,8,0:0:0:0:
256,192,226937,1,0,0:0:0:0:
256,192,227045,1,8,0:0:0:0:
256,192,227153,1,8,0:0:0:0:
256,192,227261,1,0,0:0:0:0:
256,192,227369,1,8,0:0:0:0:
256,192,227477,1,8,0:0:0:0:
256,192,227585,1,0,0:0:0:0:
256,192,227693,1,8,0:0:0:0:
256,192,227801,1,0,0:0:0:0:
256,192,227908,1,8,0:0:0:0:
256,192,228016,1,0,0:0:0:0:
256,192,228124,1,8,0:0:0:0:
256,192,228232,1,8,0:0:0:0:
256,192,228340,1,8,0:0:0:0:
256,192,228448,1,0,0:0:0:0:
256,192,228556,1,8,0:0:0:0:
256,192,228664,1,8,0:0:0:0:
256,192,228772,1,0,0:0:0:0:
256,192,228880,1,8,0:0:0:0:
256,192,228988,1,8,0:0:0:0:
256,192,229096,1,0,0:0:0:0:
256,192,229203,1,8,0:0:0:0:
256,192,229311,1,0,0:0:0:0:
256,192,229419,1,8,0:0:0:0:
256,192,229527,1,8,0:0:0:0:
256,192,229635,1,0,0:0:0:0:
256,192,229743,1,8,0:0:0:0:
256,192,229851,1,8,0:0:0:0:
256,192,229959,1,0,0:0:0:0:
256,192,230067,1,8,0:0:0:0:
256,192,230175,1,0,0:0:0:0:
256,192,230283,1,8,0:0:0:0:
256,192,230391,1,0,0:0:0:0:
256,192,230498,1,8,0:0:0:0:
256,192,230606,1,8,0:0:0:0:
256,192,230714,1,8,0:0:0:0:
256,192,230822,1,0,0:0:0:0:
256,192,230930,1,8,0:0:0:0:
256,192,231146,1,0,0:0:0:0:
256,192,231254,1,0,0:0:0:0:
256,192,231362,1,8,0:0:0:0:
256,192,231470,1,0,0:0:0:0:
256,192,231524,1,0,0:0:0:0:
256,192,231578,1,0,0:0:0:0:
256,192,231685,1,0,0:0:0:0:
256,192,231793,1,8,0:0:0:0:
256,192,231901,1,0,0:0:0:0:
256,192,232009,1,8,0:0:0:0:
256,192,232117,1,8,0:0:0:0:
256,192,232225,1,0,0:0:0:0:
256,192,232333,1,8,0:0:0:0:
256,192,232441,1,0,0:0:0:0:
256,192,232549,1,0,0:0:0:0:
256,192,232657,1,8,0:0:0:0:
256,192,232711,1,0,0:0:0:0:
256,192,232765,1,0,0:0:0:0:
256,192,232873,1,0,0:0:0:0:
256,192,232980,1,8,0:0:0:0:
256,192,233088,1,0,0:0:0:0:
256,192,233196,1,8,0:0:0:0:
256,192,233304,1,0,0:0:0:0:
256,192,233412,1,0,0:0:0:0:
256,192,233466,1,0,0:0:0:0:
256,192,233520,1,8,0:0:0:0:
256,192,233628,1,0,0:0:0:0:
256,192,233952,1,0,0:0:0:0:
256,192,234006,1,0,0:0:0:0:
256,192,234060,1,8,0:0:0:0:
256,192,234167,1,0,0:0:0:0:
256,192,234275,1,8,0:0:0:0:
256,192,234383,1,8,0:0:0:0:
256,192,234491,1,0,0:0:0:0:
256,192,234599,1,8,0:0:0:0:
256,192,234707,1,0,0:0:0:0:
256,192,234815,1,0,0:0:0:0:
256,192,234923,1,8,0:0:0:0:
256,192,234995,1,8,0:0:0:0:
256,192,235067,1,8,0:0:0:0:
256,192,235139,1,8,0:0:0:0:
256,192,235211,1,8,0:0:0:0:
256,192,235283,1,8,0:0:0:0:
256,192,235355,1,0,0:0:0:0:
256,192,235462,1,8,0:0:0:0:
256,192,235570,1,8,0:0:0:0:
256,192,235678,1,0,0:0:0:0:
256,192,235786,1,8,0:0:0:0:
256,192,235894,1,8,0:0:0:0:
256,192,236002,1,0,0:0:0:0:
256,192,236110,1,8,0:0:0:0:
256,192,236218,1,0,0:0:0:0:
256,192,236326,1,8,0:0:0:0:
256,192,236434,1,8,0:0:0:0:
256,192,236542,1,0,0:0:0:0:
256,192,236596,1,0,0:0:0:0:
256,192,236650,1,8,0:0:0:0:
256,192,236721,1,8,0:0:0:0:
256,192,236793,1,0,0:0:0:0:
256,192,236865,1,0,0:0:0:0:
256,192,236937,1,8,0:0:0:0:
256,192,237009,1,8,0:0:0:0:
256,192,237081,1,0,0:0:0:0:
256,192,237189,1,8,0:0:0:0:
256,192,237297,1,0,0:0:0:0:
256,192,237405,1,8,0:0:0:0:
256,192,237513,1,8,0:0:0:0:
256,192,237621,1,8,0:0:0:0:
256,192,237729,1,0,0:0:0:0:
256,192,237837,1,8,0:0:0:0:
256,192,237944,1,0,0:0:0:0:
256,192,238052,1,8,0:0:0:0:
256,192,238160,1,8,0:0:0:0:
256,192,238268,1,8,0:0:0:0:
256,192,238376,1,0,0:0:0:0:
256,192,238448,1,8,0:0:0:0:
256,192,238520,1,0,0:0:0:0:
256,192,238592,1,8,0:0:0:0:
256,192,238664,1,0,0:0:0:0:
256,192,238736,1,8,0:0:0:0:
256,192,238808,1,4,0:0:0:0:
256,192,239024,1,8,0:0:0:0:
256,192,239132,1,0,0:0:0:0:
256,192,239239,1,8,0:0:0:0:
256,192,239455,1,8,0:0:0:0:
256,192,239527,1,0,0:0:0:0:
256,192,239599,1,0,0:0:0:0:
256,192,239671,1,8,0:0:0:0:
256,192,239779,1,8,0:0:0:0:
256,192,239887,1,0,0:0:0:0:
256,192,239995,1,0,0:0:0:0:
256,192,240103,1,8,0:0:0:0:
256,192,240319,1,4,0:0:0:0:
256,192,240534,1,4,0:0:0:0:
256,192,240750,1,0,0:0:0:0:
256,192,240858,1,8,0:0:0:0:
256,192,241074,1,8,0:0:0:0:
256,192,241182,1,0,0:0:0:0:
256,192,241254,1,0,0:0:0:0:
256,192,241326,1,0,0:0:0:0:
256,192,241398,1,8,0:0:0:0:
256,192,241506,1,4,0:0:0:0:
256,192,241614,1,4,0:0:0:0:
256,192,241721,1,4,0:0:0:0:
256,192,241937,1,4,0:0:0:0:
256,192,242045,1,4,0:0:0:0:
256,192,242261,1,4,0:0:0:0:
256,192,242477,12,0,245067,0:0:0:0:
256,192,245283,5,12,0:0:0:0:
256,192,245714,5,0,0:0:0:0:
256,192,245822,1,8,0:0:0:0:
256,192,245876,1,0,0:0:0:0:
256,192,245930,1,0,0:0:0:0:
256,192,246038,1,8,0:0:0:0:
256,192,246092,1,8,0:0:0:0:
256,192,246146,1,8,0:0:0:0:
256,192,246254,1,0,0:0:0:0:
256,192,246362,1,8,0:0:0:0:
256,192,246470,1,0,0:0:0:0:
256,192,246578,1,8,0:0:0:0:
256,192,246632,1,8,0:0:0:0:
256,192,246685,1,0,0:0:0:0:
256,192,246793,1,8,0:0:0:0:
256,192,246847,1,8,0:0:0:0:
256,192,246901,1,8,0:0:0:0:
256,192,247009,1,0,0:0:0:0:
256,192,247117,1,8,0:0:0:0:
256,192,247225,1,0,0:0:0:0:
256,192,247279,1,8,0:0:0:0:
256,192,247333,1,8,0:0:0:0:
256,192,247441,1,0,0:0:0:0:
256,192,247549,1,8,0:0:0:0:
256,192,247603,1,0,0:0:0:0:
256,192,247657,1,0,0:0:0:0:
256,192,247765,1,8,0:0:0:0:
256,192,247819,1,8,0:0:0:0:
256,192,247873,1,8,0:0:0:0:
256,192,247980,1,0,0:0:0:0:
256,192,248088,1,8,0:0:0:0:
256,192,248196,1,0,0:0:0:0:
256,192,248304,1,8,0:0:0:0:
256,192,248358,1,8,0:0:0:0:
256,192,248412,1,0,0:0:0:0:
256,192,248520,1,8,0:0:0:0:
256,192,248574,1,8,0:0:0:0:
256,192,248628,1,8,0:0:0:0:
256,192,248736,1,0,0:0:0:0:
256,192,248952,1,8,0:0:0:0:
256,192,249167,5,0,0:0:0:0:
256,192,249275,1,0,0:0:0:0:
256,192,249383,1,8,0:0:0:0:
256,192,249491,1,0,0:0:0:0:
256,192,249545,1,0,0:0:0:0:
256,192,249599,1,8,0:0:0:0:
256,192,249707,1,0,0:0:0:0:
256,192,249815,1,0,0:0:0:0:
256,192,249923,1,0,0:0:0:0:
256,192,250031,1,8,0:0:0:0:
256,192,250085,1,8,0:0:0:0:
256,192,250139,1,0,0:0:0:0:
256,192,250247,1,0,0:0:0:0:
256,192,250301,1,0,0:0:0:0:
256,192,250355,1,0,0:0:0:0:
256,192,250462,1,8,0:0:0:0:
256,192,250570,1,0,0:0:0:0:
256,192,250678,1,0,0:0:0:0:
256,192,250732,1,0,0:0:0:0:
256,192,250786,1,8,0:0:0:0:
256,192,250894,1,0,0:0:0:0:
256,192,251002,1,0,0:0:0:0:
256,192,251110,1,8,0:0:0:0:
256,192,251164,1,0,0:0:0:0:
256,192,251218,1,8,0:0:0:0:
256,192,251272,1,8,0:0:0:0:
256,192,251326,1,8,0:0:0:0:
256,192,251434,1,0,0:0:0:0:
256,192,251542,1,0,0:0:0:0:
256,192,251650,1,0,0:0:0:0:
256,192,251757,1,8,0:0:0:0:
256,192,251865,1,8,0:0:0:0:
256,192,251973,1,0,0:0:0:0:
256,192,252081,1,8,0:0:0:0:
256,192,252297,1,0,0:0:0:0:
256,192,252405,1,8,0:0:0:0:
256,192,252477,1,8,0:0:0:0:
256,192,252549,1,8,0:0:0:0:
256,192,252621,5,0,0:0:0:0:
256,192,252729,1,8,0:0:0:0:
256,192,252783,1,0,0:0:0:0:
256,192,252837,1,0,0:0:0:0:
256,192,252944,1,8,0:0:0:0:
256,192,252998,1,8,0:0:0:0:
256,192,253052,1,0,0:0:0:0:
256,192,253160,1,0,0:0:0:0:
256,192,253268,1,8,0:0:0:0:
256,192,253376,1,8,0:0:0:0:
256,192,253484,1,0,0:0:0:0:
256,192,253538,1,0,0:0:0:0:
256,192,253592,1,8,0:0:0:0:
256,192,253700,1,0,0:0:0:0:
256,192,253754,1,8,0:0:0:0:
256,192,253808,1,8,0:0:0:0:
256,192,253916,1,0,0:0:0:0:
256,192,254024,1,8,0:0:0:0:
256,192,254132,1,0,0:0:0:0:
256,192,254185,1,8,0:0:0:0:
256,192,254239,1,8,0:0:0:0:
256,192,254347,1,0,0:0:0:0:
256,192,254455,1,8,0:0:0:0:
256,192,254509,1,0,0:0:0:0:
256,192,254563,1,0,0:0:0:0:
256,192,254671,1,8,0:0:0:0:
256,192,254725,1,8,0:0:0:0:
256,192,254779,1,0,0:0:0:0:
256,192,254887,1,0,0:0:0:0:
256,192,254995,1,8,0:0:0:0:
256,192,255103,1,8,0:0:0:0:
256,192,255211,1,0,0:0:0:0:
256,192,255265,1,8,0:0:0:0:
256,192,255319,1,0,0:0:0:0:
256,192,255426,1,8,0:0:0:0:
256,192,255480,1,8,0:0:0:0:
256,192,255534,1,8,0:0:0:0:
256,192,255642,1,0,0:0:0:0:
256,192,255858,1,8,0:0:0:0:
256,192,256074,5,0,0:0:0:0:
256,192,256182,1,8,0:0:0:0:
256,192,256290,1,0,0:0:0:0:
256,192,256398,1,8,0:0:0:0:
256,192,256452,1,0,0:0:0:0:
256,192,256506,1,0,0:0:0:0:
256,192,256614,1,8,0:0:0:0:
256,192,256721,1,8,0:0:0:0:
256,192,256829,1,0,0:0:0:0:
256,192,256937,1,8,0:0:0:0:
256,192,256991,1,0,0:0:0:0:
256,192,257045,1,0,0:0:0:0:
256,192,257153,1,8,0:0:0:0:
256,192,257207,1,8,0:0:0:0:
256,192,257261,1,0,0:0:0:0:
256,192,257369,1,8,0:0:0:0:
256,192,257477,1,0,0:0:0:0:
256,192,257585,1,8,0:0:0:0:
256,192,257639,1,8,0:0:0:0:
256,192,257693,1,0,0:0:0:0:
256,192,257747,1,0,0:0:0:0:
256,192,257801,1,8,0:0:0:0:
256,192,258016,1,0,0:0:0:0:
256,192,258232,1,8,0:0:0:0:
256,192,258340,1,0,0:0:0:0:
256,192,258556,1,8,0:0:0:0:
256,192,258664,1,0,0:0:0:0:
256,192,258772,1,8,0:0:0:0:
256,192,258880,1,8,0:0:0:0:
256,192,258988,1,0,0:0:0:0:
256,192,259203,1,0,0:0:0:0:
256,192,259311,1,8,0:0:0:0:
256,192,259527,1,4,0:0:0:0:
256,192,259741,1,0,0:0:0:0:
256,192,259955,1,0,0:0:0:0:
256,192,260169,1,8,0:0:0:0:
256,192,262570,1,8,0:0:0:0:
256,192,262635,1,8,0:0:0:0:
256,192,262699,1,8,0:0:0:0:
256,192,262763,1,0,0:0:0:0:
256,192,262954,1,0,0:0:0:0:
256,192,263145,1,8,0:0:0:0:
256,192,263336,1,8,0:0:0:0:
256,192,264800,1,0,0:0:0:0:
256,192,264890,1,0,0:0:0:0:
256,192,264980,1,8,0:0:0:0:
256,192,265067,1,8,0:0:0:0:
256,192,265154,1,0,0:0:0:0:
256,192,265241,1,8,0:0:0:0:
256,192,265328,1,0,0:0:0:0:
256,192,265416,1,0,0:0:0:0:
256,192,265503,1,8,0:0:0:0:
256,192,265590,1,8,0:0:0:0:
256,192,265677,1,0,0:0:0:0:
256,192,265850,1,0,0:0:0:0:
256,192,266023,1,0,0:0:0:0:
256,192,266197,1,8,0:0:0:0:
256,192,267703,1,8,0:0:0:0:
256,192,267811,1,8,0:0:0:0:
256,192,267919,1,0,0:0:0:0:
256,192,268027,1,8,0:0:0:0:
256,192,268135,1,8,0:0:0:0:
256,192,268243,1,8,0:0:0:0:
256,192,268351,1,0,0:0:0:0:
256,192,268512,1,0,0:0:0:0:
256,192,268673,1,8,0:0:0:0:
256,192,268834,1,8,0:0:0:0:
256,192,269459,1,0,0:0:0:0:
256,192,269498,1,0,0:0:0:0:
256,192,270066,1,8,0:0:0:0:
256,192,270103,1,8,0:0:0:0:
256,192,273208,1,0,0:0:0:0:
256,192,273506,1,0,0:0:0:0:
256,192,273655,1,8,0:0:0:0:
256,192,273954,1,8,0:0:0:0:
256,192,274103,1,0,0:0:0:0:
256,192,274252,1,8,0:0:0:0:
256,192,274551,1,8,0:0:0:0:
256,192,274849,1,0,0:0:0:0:
256,192,274999,1,8,0:0:0:0:
256,192,275148,1,0,0:0:0:0:
256,192,275297,1,0,0:0:0:0:
256,192,275446,1,8,0:0:0:0:
256,192,275596,1,0,0:0:0:0:
256,192,275894,1,0,0:0:0:0:
256,192,276043,1,8,0:0:0:0:
256,192,276342,1,8,0:0:0:0:
256,192,276491,1,0,0:0:0:0:
256,192,276640,1,8,0:0:0:0:
256,192,276939,1,8,0:0:0:0:
256,192,277237,1,0,0:0:0:0:
256,192,277387,1,8,0:0:0:0:
256,192,277536,1,0,0:0:0:0:
256,192,277685,1,8,0:0:0:0:
256,192,277834,1,8,0:0:0:0:
256,192,277984,1,0,0:0:0:0:
256,192,278282,1,8,0:0:0:0:
256,192,278431,1,8,0:0:0:0:
256,192,278730,1,8,0:0:0:0:
256,192,278879,1,0,0:0:0:0:
256,192,279028,1,8,0:0:0:0:
256,192,279327,1,8,0:0:0:0:
256,192,279625,1,0,0:0:0:0:
256,192,279700,1,8,0:0:0:0:
256,192,279775,1,0,0:0:0:0:
256,192,279924,1,8,0:0:0:0:
256,192,279999,1,8,0:0:0:0:
256,192,280073,1,0,0:0:0:0:
256,192,280222,1,8,0:0:0:0:
256,192,280372,1,0,0:0:0:0:
256,192,280521,1,0,0:0:0:0:
256,192,280670,1,0,0:0:0:0:
256,192,280820,1,8,0:0:0:0:
256,192,281118,1,8,0:0:0:0:
256,192,281267,1,0,0:0:0:0:
256,192,281417,1,8,0:0:0:0:
256,192,281715,1,8,0:0:0:0:
256,192,282014,1,0,0:0:0:0:
256,192,282163,1,8,0:0:0:0:
256,192,282237,1,8,0:0:0:0:
256,192,282312,1,0,0:0:0:0:
256,192,282387,1,0,0:0:0:0:
256,192,282461,1,8,0:0:0:0:
256,192,282611,1,8,0:0:0:0:
256,192,282760,1,4,0:0:0:0:
256,192,283058,1,8,0:0:0:0:
256,192,283108,1,8,0:0:0:0:
256,192,283158,1,8,0:0:0:0:
256,192,283208,1,0,0:0:0:0:
256,192,283357,1,8,0:0:0:0:
256,192,283506,1,4,0:0:0:0:
256,192,283655,1,0,0:0:0:0:
256,192,283805,1,12,0:0:0:0:
256,192,284103,1,0,0:0:0:0:
256,192,284252,1,8,0:0:0:0:
256,192,284402,1,0,0:0:0:0:
256,192,284476,1,0,0:0:0:0:
256,192,284551,1,8,0:0:0:0:
256,192,284625,1,8,0:0:0:0:
256,192,284700,1,0,0:0:0:0:
256,192,284849,1,8,0:0:0:0:
256,192,284999,1,12,0:0:0:0:
256,192,285297,1,8,0:0:0:0:
256,192,285372,1,8,0:0:0:0:
256,192,285446,1,0,0:0:0:0:
256,192,285521,1,8,0:0:0:0:
256,192,285670,1,0,0:0:0:0:
256,192,285745,1,8,0:0:0:0:
256,192,285894,1,12,0:0:0:0:
256,192,286043,1,8,0:0:0:0:
256,192,286193,1,4,0:0:0:0:
256,192,286491,1,8,0:0:0:0:
256,192,286541,1,8,0:0:0:0:
256,192,286591,1,8,0:0:0:0:
256,192,286640,1,0,0:0:0:0:
256,192,286715,1,0,0:0:0:0:
256,192,286790,1,8,0:0:0:0:
256,192,286939,1,8,0:0:0:0:
256,192,287014,1,0,0:0:0:0:
256,192,287088,1,0,0:0:0:0:
256,192,287163,1,8,0:0:0:0:
256,192,287237,1,8,0:0:0:0:
256,192,287312,1,0,0:0:0:0:
256,192,287387,1,8,0:0:0:0:
256,192,287536,1,4,0:0:0:0:
256,192,287834,1,0,0:0:0:0:
256,192,287884,1,0,0:0:0:0:
256,192,287934,1,0,0:0:0:0:
256,192,287984,1,0,0:0:0:0:
256,192,288058,1,0,0:0:0:0:
256,192,288133,1,8,0:0:0:0:
256,192,288282,1,4,0:0:0:0:
256,192,288431,1,0,0:0:0:0:
256,192,288581,1,12,0:0:0:0:
256,192,288879,1,8,0:0:0:0:
256,192,289028,1,8,0:0:0:0:
256,192,289252,1,0,0:0:0:0:
256,192,289327,1,8,0:0:0:0:
256,192,289476,1,0,0:0:0:0:
256,192,289551,1,0,0:0:0:0:
256,192,289625,1,8,0:0:0:0:
256,192,289775,1,12,0:0:0:0:
256,192,290073,1,0,0:0:0:0:
256,192,290111,1,0,0:0:0:0:
256,192,290222,1,0,0:0:0:0:
256,192,290260,1,0,0:0:0:0:
256,192,290372,1,0,0:0:0:0:
256,192,290409,1,0,0:0:0:0:
256,192,290521,1,0,0:0:0:0:
256,192,290558,1,0,0:0:0:0:
256,192,290670,1,12,0:0:0:0:
256,192,290969,1,12,0:0:0:0:
256,192,291267,1,8,0:0:0:0:
256,192,291417,1,8,0:0:0:0:
256,192,291566,1,4,0:0:0:0:
256,192,291715,1,8,0:0:0:0:
256,192,291790,1,8,0:0:0:0:
256,192,291864,1,0,0:0:0:0:
256,192,291939,1,0,0:0:0:0:
256,192,292014,1,8,0:0:0:0:
256,192,292163,1,8,0:0:0:0:
256,192,292312,1,4,0:0:0:0:
256,192,292611,1,0,0:0:0:0:
256,192,292685,1,8,0:0:0:0:
256,192,292760,1,0,0:0:0:0:
256,192,292834,1,0,0:0:0:0:
256,192,292909,1,8,0:0:0:0:
256,192,293058,1,4,0:0:0:0:
256,192,293208,1,0,0:0:0:0:
256,192,293357,1,12,0:0:0:0:
256,192,293655,1,0,0:0:0:0:
256,192,293805,1,8,0:0:0:0:
256,192,293954,1,0,0:0:0:0:
256,192,294028,1,0,0:0:0:0:
256,192,294103,1,8,0:0:0:0:
256,192,294178,1,8,0:0:0:0:
256,192,294252,1,0,0:0:0:0:
256,192,294402,1,8,0:0:0:0:
256,192,294551,1,12,0:0:0:0:
256,192,294849,1,8,0:0:0:0:
256,192,294924,1,8,0:0:0:0:
256,192,294999,1,0,0:0:0:0:
256,192,295073,1,8,0:0:0:0:
256,192,295222,1,0,0:0:0:0:
256,192,295297,1,8,0:0:0:0:
256,192,295446,1,12,0:0:0:0:
256,192,295596,1,8,0:0:0:0:
256,192,295745,1,4,0:0:0:0:
256,192,296043,1,8,0:0:0:0:
256,192,296093,1,8,0:0:0:0:
256,192,296143,1,8,0:0:0:0:
256,192,296193,1,0,0:0:0:0:
256,192,296267,1,0,0:0:0:0:
256,192,296342,1,8,0:0:0:0:
256,192,296491,1,8,0:0:0:0:
256,192,296566,1,0,0:0:0:0:
256,192,296640,1,0,0:0:0:0:
256,192,296715,1,8,0:0:0:0:
256,192,296790,1,8,0:0:0:0:
256,192,296864,1,0,0:0:0:0:
256,192,296939,1,8,0:0:0:0:
256,192,297088,1,4,0:0:0:0:
256,192,297387,1,0,0:0:0:0:
256,192,297436,1,0,0:0:0:0:
256,192,297486,1,0,0:0:0:0:
256,192,297536,1,0,0:0:0:0:
256,192,297611,1,0,0:0:0:0:
256,192,297685,1,8,0:0:0:0:
256,192,297834,1,4,0:0:0:0:
256,192,297984,1,0,0:0:0:0:
256,192,298133,1,12,0:0:0:0:
256,192,298431,1,8,0:0:0:0:
256,192,298581,1,8,0:0:0:0:
256,192,298805,1,0,0:0:0:0:
256,192,298879,1,8,0:0:0:0:
256,192,299028,1,0,0:0:0:0:
256,192,299103,1,0,0:0:0:0:
256,192,299178,1,8,0:0:0:0:
256,192,299327,1,12,0:0:0:0:
256,192,299625,1,0,0:0:0:0:
256,192,299775,1,0,0:0:0:0:
256,192,300073,1,8,0:0:0:0:
256,192,300222,1,0,0:0:0:0:
256,192,300297,1,0,0:0:0:0:
256,192,300372,1,8,0:0:0:0:
256,192,300421,1,8,0:0:0:0:
256,192,300471,1,8,0:0:0:0:
256,192,300521,1,0,0:0:0:0:
256,192,300596,1,8,0:0:0:0:
256,192,300670,1,0,0:0:0:0:
256,192,300820,1,8,0:0:0:0:
256,192,300894,1,8,0:0:0:0:
256,192,300969,1,0,0:0:0:0:
256,192,301118,1,0,0:0:0:0:
256,192,301267,1,8,0:0:0:0:
256,192,301417,1,0,0:0:0:0:
256,192,301491,1,0,0:0:0:0:
256,192,301566,1,8,0:0:0:0:
256,192,301616,1,8,0:0:0:0:
256,192,301665,1,8,0:0:0:0:
256,192,301715,1,0,0:0:0:0:
256,192,301790,1,8,0:0:0:0:
256,192,301864,1,0,0:0:0:0:
256,192,302163,1,0,0:0:0:0:
256,192,302461,1,8,0:0:0:0:
256,192,302536,1,0,0:0:0:0:
256,192,302611,1,8,0:0:0:0:
256,192,302660,1,8,0:0:0:0:
256,192,302710,1,8,0:0:0:0:
256,192,302760,1,0,0:0:0:0:
256,192,302834,1,0,0:0:0:0:
256,192,302909,1,8,0:0:0:0:
256,192,302959,1,8,0:0:0:0:
256,192,303009,1,8,0:0:0:0:
256,192,303058,1,0,0:0:0:0:
256,192,303208,1,8,0:0:0:0:
256,192,303257,1,8,0:0:0:0:
256,192,303307,1,8,0:0:0:0:
256,192,303357,1,0,0:0:0:0:
256,192,303506,1,0,0:0:0:0:
256,192,303556,1,0,0:0:0:0:
256,192,303606,1,0,0:0:0:0:
256,192,303655,1,8,0:0:0:0:
256,192,303730,1,0,0:0:0:0:
256,192,303805,1,8,0:0:0:0:
256,192,303879,1,8,0:0:0:0:
256,192,303954,1,0,0:0:0:0:
256,192,304028,1,8,0:0:0:0:
256,192,304103,1,8,0:0:0:0:
256,192,304252,1,4,0:0:0:0:
256,192,304402,1,0,0:0:0:0:
256,192,304551,1,0,0:0:0:0:
256,192,304700,1,8,0:0:0:0:
256,192,304750,1,8,0:0:0:0:
256,192,304800,1,8,0:0:0:0:
256,192,304849,1,0,0:0:0:0:
256,192,304924,1,8,0:0:0:0:
256,192,304999,1,8,0:0:0:0:
256,192,305073,1,8,0:0:0:0:
256,192,305148,1,0,0:0:0:0:
256,192,305222,1,0,0:0:0:0:
256,192,305297,1,8,0:0:0:0:
256,192,305347,1,8,0:0:0:0:
256,192,305397,1,8,0:0:0:0:
256,192,305446,1,0,0:0:0:0:
256,192,305596,1,0,0:0:0:0:
256,192,305745,1,0,0:0:0:0:
256,192,305894,1,8,0:0:0:0:
256,192,305944,1,8,0:0:0:0:
256,192,305994,1,8,0:0:0:0:
256,192,306043,1,0,0:0:0:0:
256,192,306118,1,8,0:0:0:0:
256,192,306193,1,8,0:0:0:0:
256,192,306267,1,8,0:0:0:0:
256,192,306342,1,0,0:0:0:0:
256,192,306417,1,0,0:0:0:0:
256,192,306491,1,8,0:0:0:0:
256,192,306541,1,8,0:0:0:0:
256,192,306591,1,8,0:0:0:0:
256,192,306640,1,0,0:0:0:0:
256,192,306715,1,8,0:0:0:0:
256,192,306790,1,8,0:0:0:0:
256,192,306864,1,8,0:0:0:0:
256,192,306939,1,0,0:0:0:0:
256,192,307014,1,8,0:0:0:0:
256,192,307088,1,8,0:0:0:0:
256,192,307163,1,8,0:0:0:0:
256,192,307237,1,0,0:0:0:0:
256,192,307312,1,8,0:0:0:0:
256,192,307387,1,8,0:0:0:0:
256,192,307461,1,8,0:0:0:0:
256,192,307536,1,0,0:0:0:0:
256,192,307834,1,8,0:0:0:0:
256,192,307984,1,0,0:0:0:0:
256,192,308058,1,0,0:0:0:0:
256,192,308133,1,8,0:0:0:0:
256,192,308282,1,0,0:0:0:0:
256,192,308357,1,0,0:0:0:0:
256,192,308431,1,8,0:0:0:0:
256,192,308506,1,0,0:0:0:0:
256,192,308581,1,8,0:0:0:0:
256,192,308655,1,8,0:0:0:0:
256,192,308730,1,0,0:0:0:0:
256,192,308780,1,0,0:0:0:0:
256,192,308829,1,0,0:0:0:0:
256,192,308879,1,8,0:0:0:0:
256,192,308929,1,8,0:0:0:0:
256,192,308979,1,8,0:0:0:0:
256,192,309028,1,0,0:0:0:0:
256,192,309178,1,8,0:0:0:0:
256,192,309252,1,0,0:0:0:0:
256,192,309327,1,8,0:0:0:0:
256,192,309402,1,8,0:0:0:0:
256,192,309476,1,0,0:0:0:0:
256,192,309625,1,0,0:0:0:0:
256,192,309675,1,8,0:0:0:0:
256,192,309725,1,8,0:0:0:0:
256,192,309775,1,0,0:0:0:0:
256,192,309849,1,0,0:0:0:0:
256,192,309924,1,8,0:0:0:0:
256,192,309999,1,0,0:0:0:0:
256,192,310073,1,8,0:0:0:0:
256,192,310222,1,0,0:0:0:0:
256,192,310372,1,8,0:0:0:0:
256,192,310446,1,0,0:0:0:0:
256,192,310521,1,8,0:0:0:0:
256,192,310596,1,8,0:0:0:0:
256,192,310670,1,0,0:0:0:0:
256,192,310820,1,0,0:0:0:0:
256,192,310894,1,0,0:0:0:0:
256,192,310969,1,8,0:0:0:0:
256,192,311043,1,0,0:0:0:0:
256,192,311118,1,8,0:0:0:0:
256,192,311193,1,8,0:0:0:0:
256,192,311267,1,0,0:0:0:0:
256,192,311417,1,8,0:0:0:0:
256,192,311566,1,0,0:0:0:0:
256,192,311640,1,8,0:0:0:0:
256,192,311715,1,0,0:0:0:0:
256,192,311790,1,0,0:0:0:0:
256,192,311864,1,8,0:0:0:0:
256,192,312014,1,8,0:0:0:0:
256,192,312088,1,0,0:0:0:0:
256,192,312237,1,8,0:0:0:0:
256,192,312312,1,8,0:0:0:0:
256,192,312387,1,0,0:0:0:0:
256,192,312461,1,8,0:0:0:0:
256,192,312536,1,8,0:0:0:0:
256,192,312611,1,8,0:0:0:0:
256,192,312760,1,0,0:0:0:0:
256,192,312909,1,8,0:0:0:0:
256,192,312984,1,8,0:0:0:0:
256,192,313058,1,0,0:0:0:0:
256,192,313133,1,8,0:0:0:0:
256,192,313208,1,0,0:0:0:0:
256,192,313282,1,0,0:0:0:0:
256,192,313357,1,8,0:0:0:0:
256,192,313431,1,0,0:0:0:0:
256,192,313506,1,8,0:0:0:0:
256,192,313581,1,8,0:0:0:0:
256,192,313655,1,8,0:0:0:0:
256,192,313730,1,8,0:0:0:0:
256,192,313805,1,0,0:0:0:0:
256,192,313954,1,8,0:0:0:0:
256,192,314028,1,0,0:0:0:0:
256,192,314103,1,8,0:0:0:0:
256,192,314178,1,8,0:0:0:0:
256,192,314252,1,0,0:0:0:0:
256,192,314402,1,0,0:0:0:0:
256,192,314451,1,8,0:0:0:0:
256,192,314501,1,8,0:0:0:0:
256,192,314551,1,0,0:0:0:0:
256,192,314625,1,0,0:0:0:0:
256,192,314700,1,8,0:0:0:0:
256,192,314775,1,0,0:0:0:0:
256,192,314849,1,8,0:0:0:0:
256,192,314999,1,0,0:0:0:0:
256,192,315148,1,8,0:0:0:0:
256,192,315222,1,0,0:0:0:0:
256,192,315297,1,8,0:0:0:0:
256,192,315372,1,8,0:0:0:0:
256,192,315446,1,0,0:0:0:0:
256,192,315596,1,0,0:0:0:0:
256,192,315670,1,0,0:0:0:0:
256,192,315745,1,8,0:0:0:0:
256,192,315820,1,0,0:0:0:0:
256,192,315894,1,8,0:0:0:0:
256,192,315969,1,8,0:0:0:0:
256,192,316043,1,0,0:0:0:0:
256,192,316193,1,8,0:0:0:0:
256,192,316342,1,0,0:0:0:0:
256,192,316417,1,8,0:0:0:0:
256,192,316491,1,0,0:0:0:0:
256,192,316566,1,0,0:0:0:0:
256,192,316640,1,8,0:0:0:0:
256,192,316790,1,8,0:0:0:0:
256,192,316864,1,0,0:0:0:0:
256,192,317014,1,8,0:0:0:0:
256,192,317088,1,8,0:0:0:0:
256,192,317163,1,0,0:0:0:0:
256,192,317237,1,8,0:0:0:0:
256,192,317387,1,0,0:0:0:0:
256,192,317536,1,8,0:0:0:0:
256,192,317586,1,8,0:0:0:0:
256,192,317635,1,8,0:0:0:0:
256,192,317685,1,0,0:0:0:0:
256,192,317834,1,8,0:0:0:0:
256,192,317884,1,8,0:0:0:0:
256,192,317934,1,8,0:0:0:0:
256,192,317984,1,0,0:0:0:0:
256,192,318133,1,0,0:0:0:0:
256,192,318208,1,0,0:0:0:0:
256,192,318282,1,8,0:0:0:0:
256,192,318357,1,8,0:0:0:0:
256,192,318431,1,0,0:0:0:0:
256,192,318506,1,0,0:0:0:0:
256,192,318581,1,8,0:0:0:0:
256,192,318730,1,0,0:0:0:0:
256,192,318805,1,0,0:0:0:0:
256,192,318879,1,8,0:0:0:0:
256,192,318954,1,0,0:0:0:0:
256,192,319028,1,8,0:0:0:0:
256,192,319078,1,8,0:0:0:0:
256,192,319128,1,8,0:0:0:0:
256,192,319178,1,4,0:0:0:0:
256,192,319402,1,4,0:0:0:0:
256,192,319625,1,12,0:0:0:0:
256,192,319849,1,8,0:0:0:0:
256,192,319924,1,0,0:0:0:0:
256,192,319999,1,0,0:0:0:0:
256,192,320073,1,8,0:0:0:0:
256,192,320148,1,8,0:0:0:0:
256,192,320222,1,0,0:0:0:0:
256,192,320372,1,0,0:0:0:0:
256,192,320446,1,0,0:0:0:0:
256,192,320521,1,8,0:0:0:0:
256,192,320596,1,0,0:0:0:0:
256,192,320670,1,8,0:0:0:0:
256,192,320745,1,8,0:0:0:0:
256,192,320820,1,0,0:0:0:0:
256,192,320969,1,8,0:0:0:0:
256,192,321118,1,0,0:0:0:0:
256,192,321193,1,8,0:0:0:0:
256,192,321267,1,0,0:0:0:0:
256,192,321342,1,0,0:0:0:0:
256,192,321417,1,8,0:0:0:0:
256,192,321466,1,8,0:0:0:0:
256,192,321516,1,8,0:0:0:0:
256,192,321566,1,4,0:0:0:0:
256,192,321790,1,12,0:0:0:0:
256,192,322014,1,12,0:0:0:0:
256,192,322312,1,0,0:0:0:0:
256,192,322387,1,0,0:0:0:0:
256,192,322461,1,8,0:0:0:0:
256,192,322611,1,0,0:0:0:0:
256,192,322685,1,0,0:0:0:0:
256,192,322760,1,0,0:0:0:0:
256,192,322859,1,8,0:0:0:0:
256,192,322909,1,0,0:0:0:0:
256,192,322959,1,0,0:0:0:0:
256,192,323058,1,8,0:0:0:0:
256,192,323158,1,0,0:0:0:0:
256,192,323257,1,0,0:0:0:0:
256,192,323357,1,0,0:0:0:0:
256,192,323506,1,8,0:0:0:0:
256,192,323581,1,0,0:0:0:0:
256,192,323655,1,8,0:0:0:0:
256,192,323730,1,8,0:0:0:0:
256,192,323805,1,0,0:0:0:0:
256,192,323954,1,8,0:0:0:0:
256,192,324028,1,8,0:0:0:0:
256,192,324103,1,0,0:0:0:0:
256,192,324178,1,0,0:0:0:0:
256,192,324252,1,8,0:0:0:0:
256,192,324327,1,0,0:0:0:0:
256,192,324402,1,8,0:0:0:0:
256,192,324551,1,0,0:0:0:0:
256,192,324700,1,8,0:0:0:0:
256,192,324775,1,0,0:0:0:0:
256,192,324849,1,8,0:0:0:0:
256,192,324924,1,8,0:0:0:0:
256,192,325073,1,0,0:0:0:0:
256,192,325148,1,0,0:0:0:0:
256,192,325222,1,8,0:0:0:0:
256,192,325297,1,0,0:0:0:0:
256,192,325372,1,0,0:0:0:0:
256,192,325446,1,8,0:0:0:0:
256,192,325521,1,0,0:0:0:0:
256,192,325596,1,8,0:0:0:0:
256,192,325670,1,8,0:0:0:0:
256,192,325745,1,4,0:0:0:0:
256,192,325894,12,0,326939,0:0:0:0:
256,192,327088,5,0,0:0:0:0:
256,192,327163,1,0,0:0:0:0:
256,192,327237,1,0,0:0:0:0:
256,192,327337,1,0,0:0:0:0:
256,192,327436,1,0,0:0:0:0:
256,192,327536,1,0,0:0:0:0:
256,192,327760,1,0,0:0:0:0:
256,192,327984,1,0,0:0:0:0:
256,192,328133,1,4,0:0:0:0:
256,192,328431,1,8,0:0:0:0:
256,192,328581,1,0,0:0:0:0:
256,192,328655,1,8,0:0:0:0:
256,192,328730,1,0,0:0:0:0:
256,192,328805,1,8,0:0:0:0:
256,192,328879,1,0,0:0:0:0:
256,192,329028,1,8,0:0:0:0:
256,192,329178,1,0,0:0:0:0:
256,192,329252,1,0,0:0:0:0:
256,192,329327,1,8,0:0:0:0:
256,192,329402,1,8,0:0:0:0:
256,192,329476,1,0,0:0:0:0:
256,192,329625,1,8,0:0:0:0:
256,192,329775,1,0,0:0:0:0:
256,192,329849,1,8,0:0:0:0:
256,192,329999,1,8,0:0:0:0:
256,192,330073,1,0,0:0:0:0:
256,192,330148,1,0,0:0:0:0:
256,192,330222,1,8,0:0:0:0:
256,192,330297,1,0,0:0:0:0:
256,192,330372,1,8,0:0:0:0:
256,192,330521,1,0,0:0:0:0:
256,192,330670,1,0,0:0:0:0:
256,192,330745,1,0,0:0:0:0:
256,192,330820,1,8,0:0:0:0:
256,192,330969,1,0,0:0:0:0:
256,192,331043,1,8,0:0:0:0:
256,192,331118,1,0,0:0:0:0:
256,192,331193,1,8,0:0:0:0:
256,192,331267,1,0,0:0:0:0:
256,192,331417,1,8,0:0:0:0:
256,192,331566,1,0,0:0:0:0:
256,192,331640,1,8,0:0:0:0:
256,192,331790,1,8,0:0:0:0:
256,192,331864,1,0,0:0:0:0:
256,192,332014,1,8,0:0:0:0:
256,192,332163,1,8,0:0:0:0:
256,192,332237,1,8,0:0:0:0:
256,192,332312,1,0,0:0:0:0:
256,192,332387,1,8,0:0:0:0:
256,192,332461,1,0,0:0:0:0:
256,192,332536,1,0,0:0:0:0:
256,192,332611,1,8,0:0:0:0:
256,192,332685,1,8,0:0:0:0:
256,192,332760,1,8,0:0:0:0:
256,192,332834,1,8,0:0:0:0:
256,192,332909,1,0,0:0:0:0:
256,192,333058,1,0,0:0:0:0:
256,192,333133,1,0,0:0:0:0:
256,192,333208,1,8,0:0:0:0:
256,192,333357,1,0,0:0:0:0:
256,192,333431,1,8,0:0:0:0:
256,192,333506,1,0,0:0:0:0:
256,192,333581,1,8,0:0:0:0:
256,192,333655,1,0,0:0:0:0:
256,192,333805,1,8,0:0:0:0:
256,192,333954,1,0,0:0:0:0:
256,192,334028,1,0,0:0:0:0:
256,192,334103,1,8,0:0:0:0:
256,192,334178,1,8,0:0:0:0:
256,192,334252,1,0,0:0:0:0:
256,192,334402,1,8,0:0:0:0:
256,192,334551,1,0,0:0:0:0:
256,192,334625,1,8,0:0:0:0:
256,192,334775,1,8,0:0:0:0:
256,192,334849,1,0,0:0:0:0:
256,192,334924,1,0,0:0:0:0:
256,192,334999,1,8,0:0:0:0:
256,192,335073,1,0,0:0:0:0:
256,192,335148,1,8,0:0:0:0:
256,192,335297,1,0,0:0:0:0:
256,192,335446,1,8,0:0:0:0:
256,192,335521,1,0,0:0:0:0:
256,192,335596,1,8,0:0:0:0:
256,192,335745,1,8,0:0:0:0:
256,192,335819,1,0,0:0:0:0:
256,192,335894,1,8,0:0:0:0:
256,192,335969,1,0,0:0:0:0:
256,192,336043,1,0,0:0:0:0:
256,192,336118,1,8,0:0:0:0:
256,192,336193,1,8,0:0:0:0:
256,192,336267,1,0,0:0:0:0:
256,192,336342,1,8,0:0:0:0:
256,192,336491,1,0,0:0:0:0:
256,192,336566,1,0,0:0:0:0:
256,192,336640,1,8,0:0:0:0:
256,192,336715,1,0,0:0:0:0:
256,192,336790,1,8,0:0:0:0:
256,192,336939,1,0,0:0:0:0:
256,192,337014,1,8,0:0:0:0:
256,192,337088,1,0,0:0:0:0:
256,192,337237,1,0,0:0:0:0:
256,192,337387,1,8,0:0:0:0:
256,192,337461,1,8,0:0:0:0:
256,192,337536,1,0,0:0:0:0:
256,192,337611,1,8,0:0:0:0:
256,192,337685,1,0,0:0:0:0:
256,192,337984,1,12,0:0:0:0:
256,192,338133,1,0,0:0:0:0:
256,192,338208,1,8,0:0:0:0:
256,192,338282,1,0,0:0:0:0:
256,192,338357,1,8,0:0:0:0:
256,192,338431,1,0,0:0:0:0:
256,192,338581,1,8,0:0:0:0:
256,192,338730,1,0,0:0:0:0:
256,192,338805,1,0,0:0:0:0:
256,192,338879,1,8,0:0:0:0:
256,192,338954,1,8,0:0:0:0:
256,192,339028,1,0,0:0:0:0:
256,192,339178,1,8,0:0:0:0:
256,192,339327,1,0,0:0:0:0:
256,192,339402,1,8,0:0:0:0:
256,192,339551,1,8,0:0:0:0:
256,192,339625,1,0,0:0:0:0:
256,192,339700,1,0,0:0:0:0:
256,192,339775,1,8,0:0:0:0:
256,192,339849,1,8,0:0:0:0:
256,192,339924,1,0,0:0:0:0:
256,192,340222,1,0,0:0:0:0:
256,192,340372,1,12,0:0:0:0:
256,192,340521,1,0,0:0:0:0:
256,192,340596,1,8,0:0:0:0:
256,192,340670,1,0,0:0:0:0:
256,192,340745,1,8,0:0:0:0:
256,192,340820,1,0,0:0:0:0:
256,192,340969,1,8,0:0:0:0:
256,192,341118,1,0,0:0:0:0:
256,192,341193,1,8,0:0:0:0:
256,192,341342,1,8,0:0:0:0:
256,192,341417,1,0,0:0:0:0:
256,192,341566,1,8,0:0:0:0:
256,192,341715,1,8,0:0:0:0:
256,192,341790,1,8,0:0:0:0:
256,192,341864,1,0,0:0:0:0:
256,192,341939,1,8,0:0:0:0:
256,192,342014,1,0,0:0:0:0:
256,192,342088,1,0,0:0:0:0:
256,192,342163,1,8,0:0:0:0:
256,192,342237,1,8,0:0:0:0:
256,192,342312,1,8,0:0:0:0:
256,192,342387,1,8,0:0:0:0:
256,192,342461,1,0,0:0:0:0:
256,192,342611,1,0,0:0:0:0:
256,192,342685,1,0,0:0:0:0:
256,192,342760,1,8,0:0:0:0:
256,192,342909,1,0,0:0:0:0:
256,192,342984,1,8,0:0:0:0:
256,192,343058,1,0,0:0:0:0:
256,192,343208,1,0,0:0:0:0:
256,192,343357,1,8,0:0:0:0:
256,192,343431,1,8,0:0:0:0:
256,192,343506,1,0,0:0:0:0:
256,192,343655,1,0,0:0:0:0:
256,192,343805,1,0,0:0:0:0:
256,192,343879,1,0,0:0:0:0:
256,192,343954,1,8,0:0:0:0:
256,192,344103,1,0,0:0:0:0:
256,192,344178,1,8,0:0:0:0:
256,192,344252,1,0,0:0:0:0:
256,192,344402,1,0,0:0:0:0:
256,192,344476,1,0,0:0:0:0:
256,192,344551,1,8,0:0:0:0:
256,192,344625,1,0,0:0:0:0:
256,192,344700,1,0,0:0:0:0:
256,192,344999,1,8,0:0:0:0:
256,192,345073,1,0,0:0:0:0:
256,192,345148,1,8,0:0:0:0:
256,192,345222,1,0,0:0:0:0:
256,192,345297,1,0,0:0:0:0:
256,192,345372,1,0,0:0:0:0:
256,192,345446,1,8,0:0:0:0:
256,192,345521,1,0,0:0:0:0:
256,192,345596,1,0,0:0:0:0:
256,192,345670,1,0,0:0:0:0:
256,192,345745,1,8,0:0:0:0:
256,192,345819,1,0,0:0:0:0:
256,192,345894,1,0,0:0:0:0:
256,192,345969,1,0,0:0:0:0:
256,192,346043,1,8,0:0:0:0:
256,192,346118,1,0,0:0:0:0:
256,192,346193,1,8,0:0:0:0:
256,192,346267,1,0,0:0:0:0:
256,192,346342,1,8,0:0:0:0:
256,192,346417,1,0,0:0:0:0:
256,192,346491,1,8,0:0:0:0:
256,192,346566,1,0,0:0:0:0:
256,192,346640,1,8,0:0:0:0:
256,192,346715,1,8,0:0:0:0:
256,192,346790,1,0,0:0:0:0:
256,192,346864,1,0,0:0:0:0:
256,192,346939,1,8,0:0:0:0:
256,192,347237,1,4,0:0:0:0:
256,192,347387,1,8,0:0:0:0:
256,192,347461,1,8,0:0:0:0:
256,192,347536,1,0,0:0:0:0:
256,192,347685,1,8,0:0:0:0:
256,192,347834,1,0,0:0:0:0:
256,192,347909,1,0,0:0:0:0:
256,192,347984,1,8,0:0:0:0:
256,192,348058,1,8,0:0:0:0:
256,192,348133,1,0,0:0:0:0:
256,192,348282,1,8,0:0:0:0:
256,192,348431,1,0,0:0:0:0:
256,192,348581,1,8,0:0:0:0:
256,192,348655,1,8,0:0:0:0:
256,192,348730,1,0,0:0:0:0:
256,192,348879,1,0,0:0:0:0:
256,192,349028,1,8,0:0:0:0:
256,192,349178,1,0,0:0:0:0:
256,192,349252,1,8,0:0:0:0:
256,192,349327,1,0,0:0:0:0:
256,192,349402,1,0,0:0:0:0:
256,192,349476,1,8,0:0:0:0:
256,192,349625,1,0,0:0:0:0:
256,192,349775,1,8,0:0:0:0:
256,192,349849,1,8,0:0:0:0:
256,192,349924,1,0,0:0:0:0:
256,192,350073,1,8,0:0:0:0:
256,192,350222,1,0,0:0:0:0:
256,192,350297,1,0,0:0:0:0:
256,192,350372,1,8,0:0:0:0:
256,192,350446,1,8,0:0:0:0:
256,192,350521,1,0,0:0:0:0:
256,192,350670,1,8,0:0:0:0:
256,192,350819,1,0,0:0:0:0:
256,192,350969,1,8,0:0:0:0:
256,192,351043,1,8,0:0:0:0:
256,192,351118,1,0,0:0:0:0:
256,192,351267,1,0,0:0:0:0:
256,192,351417,1,8,0:0:0:0:
256,192,351491,1,0,0:0:0:0:
256,192,351640,1,0,0:0:0:0:
256,192,351715,1,8,0:0:0:0:
256,192,351790,1,0,0:0:0:0:
256,192,351864,1,8,0:0:0:0:
256,192,351939,1,8,0:0:0:0:
256,192,352014,1,4,0:0:0:0:
256,192,352312,1,8,0:0:0:0:
256,192,352349,1,8,0:0:0:0:
256,192,352461,1,0,0:0:0:0:
256,192,352611,1,8,0:0:0:0:
256,192,352760,1,8,0:0:0:0:
256,192,352909,1,8,0:0:0:0:
256,192,353058,1,8,0:0:0:0:
256,192,353208,1,0,0:0:0:0:
256,192,353357,1,8,0:0:0:0:
256,192,353506,1,8,0:0:0:0:
256,192,353581,1,8,0:0:0:0:
256,192,353655,1,0,0:0:0:0:
256,192,353730,1,0,0:0:0:0:
256,192,353805,1,8,0:0:0:0:
256,192,353879,1,0,0:0:0:0:
256,192,353954,1,8,0:0:0:0:
256,192,354028,1,8,0:0:0:0:
256,192,354103,1,0,0:0:0:0:
256,192,354178,1,0,0:0:0:0:
256,192,354252,1,8,0:0:0:0:
256,192,354327,1,8,0:0:0:0:
256,192,354402,1,0,0:0:0:0:
256,192,354551,1,0,0:0:0:0:
256,192,354700,1,0,0:0:0:0:
256,192,354849,1,8,0:0:0:0:
256,192,355148,1,8,0:0:0:0:
256,192,355297,1,8,0:0:0:0:
256,192,355446,1,8,0:0:0:0:
256,192,355596,1,0,0:0:0:0:
256,192,355745,1,8,0:0:0:0:
256,192,355894,1,8,0:0:0:0:
256,192,355969,1,8,0:0:0:0:
256,192,356043,1,0,0:0:0:0:
256,192,356118,1,0,0:0:0:0:
256,192,356193,1,8,0:0:0:0:
256,192,356242,1,8,0:0:0:0:
256,192,356292,1,8,0:0:0:0:
256,192,356342,1,0,0:0:0:0:
256,192,356491,1,8,0:0:0:0:
256,192,356640,1,8,0:0:0:0:
256,192,356790,1,0,0:0:0:0:
256,192,356864,1,0,0:0:0:0:
256,192,356939,1,0,0:0:0:0:
256,192,357014,1,0,0:0:0:0:
256,192,357088,1,0,0:0:0:0:
256,192,357237,1,8,0:0:0:0:
256,192,357387,1,0,0:0:0:0:
256,192,357461,1,0,0:0:0:0:
256,192,357536,1,8,0:0:0:0:
256,192,357685,1,0,0:0:0:0:
256,192,357834,1,8,0:0:0:0:
256,192,357984,1,0,0:0:0:0:
256,192,358133,1,8,0:0:0:0:
256,192,358208,1,8,0:0:0:0:
256,192,358282,1,0,0:0:0:0:
256,192,358431,1,0,0:0:0:0:
256,192,358581,1,8,0:0:0:0:
256,192,358730,1,0,0:0:0:0:
256,192,358805,1,8,0:0:0:0:
256,192,358879,1,0,0:0:0:0:
256,192,358954,1,0,0:0:0:0:
256,192,359028,1,8,0:0:0:0:
256,192,359178,1,0,0:0:0:0:
256,192,359327,1,0,0:0:0:0:
256,192,359402,1,8,0:0:0:0:
256,192,359476,1,0,0:0:0:0:
256,192,359625,1,8,0:0:0:0:
256,192,359775,1,0,0:0:0:0:
256,192,359849,1,0,0:0:0:0:
256,192,359924,1,8,0:0:0:0:
256,192,359999,1,8,0:0:0:0:
256,192,360073,1,0,0:0:0:0:
256,192,360222,1,8,0:0:0:0:
256,192,360372,1,0,0:0:0:0:
256,192,360521,1,8,0:0:0:0:
256,192,360596,1,0,0:0:0:0:
256,192,360745,1,0,0:0:0:0:
256,192,360819,1,0,0:0:0:0:
256,192,360894,1,8,0:0:0:0:
256,192,360969,1,0,0:0:0:0:
256,192,361118,1,8,0:0:0:0:
256,192,361193,1,0,0:0:0:0:
256,192,361267,1,8,0:0:0:0:
256,192,361342,1,0,0:0:0:0:
256,192,361417,1,0,0:0:0:0:
256,192,361566,1,4,0:0:0:0:
256,192,361864,1,8,0:0:0:0:
256,192,361902,1,8,0:0:0:0:
256,192,362014,1,0,0:0:0:0:
256,192,362051,1,0,0:0:0:0:
256,192,362163,1,8,0:0:0:0:
256,192,362312,1,8,0:0:0:0:
256,192,362461,1,8,0:0:0:0:
256,192,362611,1,8,0:0:0:0:
256,192,362760,1,0,0:0:0:0:
256,192,362909,1,8,0:0:0:0:
256,192,363058,1,8,0:0:0:0:
256,192,363133,1,8,0:0:0:0:
256,192,363208,1,0,0:0:0:0:
256,192,363257,1,8,0:0:0:0:
256,192,363307,1,8,0:0:0:0:
256,192,363357,1,0,0:0:0:0:
256,192,363431,1,0,0:0:0:0:
256,192,363506,1,8,0:0:0:0:
256,192,363556,1,8,0:0:0:0:
256,192,363606,1,8,0:0:0:0:
256,192,363655,1,0,0:0:0:0:
256,192,363730,1,0,0:0:0:0:
256,192,363805,1,8,0:0:0:0:
256,192,363879,1,8,0:0:0:0:
256,192,363954,1,0,0:0:0:0:
256,192,364103,1,0,0:0:0:0:
256,192,364252,1,0,0:0:0:0:
256,192,364402,1,8,0:0:0:0:
256,192,364551,1,8,0:0:0:0:
256,192,364601,1,0,0:0:0:0:
256,192,364650,1,0,0:0:0:0:
256,192,364700,1,8,0:0:0:0:
256,192,364775,1,8,0:0:0:0:
256,192,364849,1,0,0:0:0:0:
256,192,364999,1,12,0:0:0:0:
256,192,365297,1,0,0:0:0:0:
256,192,365372,1,0,0:0:0:0:
256,192,365446,1,8,0:0:0:0:
256,192,365596,1,0,0:0:0:0:
256,192,365670,1,8,0:0:0:0:
256,192,365819,1,8,0:0:0:0:
256,192,365894,1,0,0:0:0:0:
256,192,366043,1,8,0:0:0:0:
256,192,366193,1,0,0:0:0:0:
256,192,366267,1,8,0:0:0:0:
256,192,366417,1,8,0:0:0:0:
256,192,366491,1,0,0:0:0:0:
256,192,366640,1,8,0:0:0:0:
256,192,366790,1,0,0:0:0:0:
256,192,366827,1,0,0:0:0:0:
256,192,366864,1,8,0:0:0:0:
256,192,366939,1,0,0:0:0:0:
256,192,367014,1,8,0:0:0:0:
256,192,367088,1,0,0:0:0:0:
256,192,367237,1,8,0:0:0:0:
256,192,367387,1,0,0:0:0:0:
256,192,367461,1,0,0:0:0:0:
256,192,367536,1,8,0:0:0:0:
256,192,367685,1,0,0:0:0:0:
256,192,367834,1,8,0:0:0:0:
256,192,367984,1,0,0:0:0:0:
256,192,368058,1,8,0:0:0:0:
256,192,368208,1,8,0:0:0:0:
256,192,368282,1,0,0:0:0:0:
256,192,368431,1,8,0:0:0:0:
256,192,368581,1,0,0:0:0:0:
256,192,368655,1,8,0:0:0:0:
256,192,368805,1,8,0:0:0:0:
256,192,368879,1,0,0:0:0:0:
256,192,369028,1,8,0:0:0:0:
256,192,369078,1,8,0:0:0:0:
256,192,369128,1,8,0:0:0:0:
256,192,369178,1,0,0:0:0:0:
256,192,369252,1,8,0:0:0:0:
256,192,369327,1,0,0:0:0:0:
256,192,369402,1,8,0:0:0:0:
256,192,369476,1,0,0:0:0:0:
256,192,369551,1,0,0:0:0:0:
256,192,369625,1,8,0:0:0:0:
256,192,369700,1,0,0:0:0:0:
256,192,369775,1,8,0:0:0:0:
256,192,369924,1,0,0:0:0:0:
256,192,370073,1,0,0:0:0:0:
256,192,370148,1,0,0:0:0:0:
256,192,370222,1,8,0:0:0:0:
256,192,370372,1,0,0:0:0:0:
256,192,370446,1,8,0:0:0:0:
256,192,370596,1,8,0:0:0:0:
256,192,370670,1,0,0:0:0:0:
256,192,370819,1,8,0:0:0:0:
256,192,370969,1,0,0:0:0:0:
256,192,371043,1,8,0:0:0:0:
256,192,371193,1,8,0:0:0:0:
256,192,371267,1,0,0:0:0:0:
256,192,371417,1,8,0:0:0:0:
256,192,371566,1,0,0:0:0:0:
256,192,371603,1,0,0:0:0:0:
256,192,371640,1,8,0:0:0:0:
256,192,371715,1,0,0:0:0:0:
256,192,371790,1,8,0:0:0:0:
256,192,371864,1,0,0:0:0:0:
256,192,372014,1,8,0:0:0:0:
256,192,372163,1,0,0:0:0:0:
256,192,372312,1,4,0:0:0:0:
256,192,372461,1,0,0:0:0:0:
256,192,372611,1,0,0:0:0:0:
256,192,372760,1,0,0:0:0:0:
256,192,372810,1,0,0:0:0:0:
256,192,372859,1,0,0:0:0:0:
256,192,372909,1,8,0:0:0:0:
256,192,372984,1,0,0:0:0:0:
256,192,373058,1,0,0:0:0:0:
256,192,373133,1,8,0:0:0:0:
256,192,373208,1,0,0:0:0:0:
256,192,373282,1,8,0:0:0:0:
256,192,373357,1,8,0:0:0:0:
256,192,373431,1,0,0:0:0:0:
256,192,373506,1,0,0:0:0:0:
256,192,373581,1,8,0:0:0:0:
256,192,373655,1,0,0:0:0:0:
256,192,373730,1,8,0:0:0:0:
256,192,373805,1,8,0:0:0:0:
256,192,373879,1,0,0:0:0:0:
256,192,373954,1,0,0:0:0:0:
256,192,374028,1,8,0:0:0:0:
256,192,374103,1,8,0:0:0:0:
256,192,374178,1,8,0:0:0:0:
256,192,374252,1,0,0:0:0:0:
256,192,374327,1,0,0:0:0:0:
256,192,374402,1,8,0:0:0:0:
256,192,374476,1,0,0:0:0:0:
256,192,374551,1,8,0:0:0:0:
256,192,374625,1,8,0:0:0:0:
256,192,374700,1,0,0:0:0:0:
256,192,374775,1,0,0:0:0:0:
256,192,374849,1,8,0:0:0:0:
256,192,374924,1,8,0:0:0:0:
256,192,374999,1,0,0:0:0:0:
256,192,375073,1,0,0:0:0:0:
256,192,375148,1,8,0:0:0:0:
256,192,375222,1,8,0:0:0:0:
256,192,375297,1,0,0:0:0:0:
256,192,375372,1,0,0:0:0:0:
256,192,375446,1,8,0:0:0:0:
256,192,375521,1,8,0:0:0:0:
256,192,375596,1,0,0:0:0:0:
256,192,375645,1,0,0:0:0:0:
256,192,375695,1,0,0:0:0:0:
256,192,375745,1,8,0:0:0:0:
256,192,375795,1,8,0:0:0:0:
256,192,375844,1,8,0:0:0:0:
256,192,375894,1,0,0:0:0:0:
256,192,377088,1,4,0:0:0:0:
256,192,377237,1,8,0:0:0:0:
256,192,377312,1,8,0:0:0:0:
256,192,377387,1,0,0:0:0:0:
256,192,377536,1,8,0:0:0:0:
256,192,377685,1,8,0:0:0:0:
256,192,377760,1,0,0:0:0:0:
256,192,377834,1,8,0:0:0:0:
256,192,377909,1,8,0:0:0:0:
256,192,377984,1,0,0:0:0:0:
256,192,378058,1,8,0:0:0:0:
256,192,378133,1,0,0:0:0:0:
256,192,378282,1,8,0:0:0:0:
256,192,378357,1,8,0:0:0:0:
256,192,378431,1,8,0:0:0:0:
256,192,378506,1,8,0:0:0:0:
256,192,378581,1,0,0:0:0:0:
256,192,378730,1,8,0:0:0:0:
256,192,378805,1,8,0:0:0:0:
256,192,378879,1,0,0:0:0:0:
256,192,378917,1,0,0:0:0:0:
256,192,379028,1,8,0:0:0:0:
256,192,379066,1,8,0:0:0:0:
256,192,379178,1,0,0:0:0:0:
256,192,379215,1,0,0:0:0:0:
256,192,379327,1,8,0:0:0:0:
256,192,379364,1,8,0:0:0:0:
256,192,379476,1,4,0:0:0:0:
256,192,379625,1,8,0:0:0:0:
256,192,379700,1,8,0:0:0:0:
256,192,379775,1,0,0:0:0:0:
256,192,379924,1,8,0:0:0:0:
256,192,380073,1,8,0:0:0:0:
256,192,380148,1,0,0:0:0:0:
256,192,380222,1,8,0:0:0:0:
256,192,380297,1,8,0:0:0:0:
256,192,380372,1,0,0:0:0:0:
256,192,380446,1,8,0:0:0:0:
256,192,380521,1,0,0:0:0:0:
256,192,380670,1,8,0:0:0:0:
256,192,380745,1,8,0:0:0:0:
256,192,380819,1,8,0:0:0:0:
256,192,380894,1,8,0:0:0:0:
256,192,380969,1,0,0:0:0:0:
256,192,381118,1,8,0:0:0:0:
256,192,381155,1,8,0:0:0:0:
256,192,381267,1,0,0:0:0:0:
256,192,381305,1,0,0:0:0:0:
256,192,381417,1,0,0:0:0:0:
256,192,381454,1,0,0:0:0:0:
256,192,381566,1,8,0:0:0:0:
256,192,381603,1,8,0:0:0:0:
256,192,381715,1,8,0:0:0:0:
256,192,381752,1,8,0:0:0:0:
256,192,381864,1,4,0:0:0:0:
256,192,382163,1,4,0:0:0:0:
256,192,382461,1,8,0:0:0:0:
256,192,382536,1,0,0:0:0:0:
256,192,382611,1,8,0:0:0:0:
256,192,382685,1,8,0:0:0:0:
256,192,382760,1,0,0:0:0:0:
256,192,382834,1,8,0:0:0:0:
256,192,382909,1,0,0:0:0:0:
256,192,383058,1,8,0:0:0:0:
256,192,383133,1,8,0:0:0:0:
256,192,383208,1,8,0:0:0:0:
256,192,383282,1,8,0:0:0:0:
256,192,383357,1,0,0:0:0:0:
256,192,383506,1,8,0:0:0:0:
256,192,383581,1,8,0:0:0:0:
256,192,383655,1,0,0:0:0:0:
256,192,383730,1,0,0:0:0:0:
256,192,383805,1,8,0:0:0:0:
256,192,383879,1,0,0:0:0:0:
256,192,383954,1,0,0:0:0:0:
256,192,384103,1,0,0:0:0:0:
256,192,384252,1,0,0:0:0:0:
256,192,384402,1,0,0:0:0:0:
256,192,384476,1,8,0:0:0:0:
256,192,384551,1,0,0:0:0:0:
256,192,384700,1,8,0:0:0:0:
256,192,384849,1,0,0:0:0:0:
256,192,384999,1,8,0:0:0:0:
256,192,385073,1,8,0:0:0:0:
256,192,385148,1,0,0:0:0:0:
256,192,385297,1,8,0:0:0:0:
256,192,385446,1,0,0:0:0:0:
256,192,385596,1,8,0:0:0:0:
256,192,385745,1,0,0:0:0:0:
256,192,385819,1,0,0:0:0:0:
256,192,385894,1,8,0:0:0:0:
256,192,386043,1,0,0:0:0:0:
256,192,386118,1,0,0:0:0:0:
256,192,386193,1,8,0:0:0:0:
256,192,386267,1,0,0:0:0:0:
256,192,386342,1,8,0:0:0:0:
256,192,386417,1,8,0:0:0:0:
256,192,386491,1,8,0:0:0:0:
256,192,386566,1,8,0:0:0:0:
256,192,386640,1,4,0:0:0:0:
256,192,386790,1,8,0:0:0:0:
256,192,386864,1,8,0:0:0:0:
256,192,386939,1,0,0:0:0:0:
256,192,387088,1,8,0:0:0:0:
256,192,387237,1,8,0:0:0:0:
256,192,387312,1,0,0:0:0:0:
256,192,387387,1,8,0:0:0:0:
256,192,387461,1,8,0:0:0:0:
256,192,387536,1,0,0:0:0:0:
256,192,387611,1,8,0:0:0:0:
256,192,387685,1,0,0:0:0:0:
256,192,387834,1,8,0:0:0:0:
256,192,387909,1,8,0:0:0:0:
256,192,387984,1,8,0:0:0:0:
256,192,388058,1,8,0:0:0:0:
256,192,388133,1,0,0:0:0:0:
256,192,388208,1,0,0:0:0:0:
256,192,388282,1,8,0:0:0:0:
256,192,388357,1,8,0:0:0:0:
256,192,388431,1,0,0:0:0:0:
256,192,388469,1,0,0:0:0:0:
256,192,388581,1,8,0:0:0:0:
256,192,388618,1,8,0:0:0:0:
256,192,388730,1,0,0:0:0:0:
256,192,388767,1,0,0:0:0:0:
256,192,388879,1,8,0:0:0:0:
256,192,388917,1,8,0:0:0:0:
256,192,389028,1,0,0:0:0:0:
256,192,389078,1,0,0:0:0:0:
256,192,389128,1,0,0:0:0:0:
256,192,389178,1,8,0:0:0:0:
256,192,389227,1,8,0:0:0:0:
256,192,389277,1,8,0:0:0:0:
256,192,389327,1,0,0:0:0:0:
256,192,389476,1,8,0:0:0:0:
256,192,389625,1,8,0:0:0:0:
256,192,389700,1,0,0:0:0:0:
256,192,389775,1,8,0:0:0:0:
256,192,389849,1,8,0:0:0:0:
256,192,389924,1,0,0:0:0:0:
256,192,389999,1,8,0:0:0:0:
256,192,390073,1,0,0:0:0:0:
256,192,390222,1,4,0:0:0:0:
256,192,390446,1,4,0:0:0:0:
256,192,390670,1,4,0:0:0:0:
256,192,390894,1,4,0:0:0:0:
256,192,391118,1,8,0:0:0:0:
256,192,391417,1,0,0:0:0:0:
256,192,391491,1,0,0:0:0:0:
256,192,391566,1,0,0:0:0:0:
256,192,391640,1,0,0:0:0:0:
256,192,391715,1,12,0:0:0:0:
256,192,391864,1,8,0:0:0:0:
256,192,391939,1,8,0:0:0:0:
256,192,392014,1,0,0:0:0:0:
256,192,392163,1,0,0:0:0:0:
256,192,392312,1,12,0:0:0:0:
256,192,392461,1,8,0:0:0:0:
256,192,392611,1,0,0:0:0:0:
256,192,392710,1,0,0:0:0:0:
256,192,392810,1,0,0:0:0:0:
256,192,392909,1,12,0:0:0:0:
256,192,393058,1,8,0:0:0:0:
256,192,393133,1,8,0:0:0:0:
256,192,393208,1,4,0:0:0:0:
256,192,393805,1,0,0:0:0:0:
256,192,393879,1,0,0:0:0:0:
256,192,393954,1,0,0:0:0:0:
256,192,394028,1,0,0:0:0:0:
256,192,394103,1,8,0:0:0:0:
256,192,394252,1,0,0:0:0:0:
256,192,394327,1,8,0:0:0:0:
256,192,394402,1,8,0:0:0:0:
256,192,394476,1,0,0:0:0:0:
256,192,394551,1,8,0:0:0:0:
256,192,394700,1,0,0:0:0:0:
256,192,394775,1,8,0:0:0:0:
256,192,394849,1,0,0:0:0:0:
256,192,394924,1,0,0:0:0:0:
256,192,394999,1,8,0:0:0:0:
256,192,395148,1,8,0:0:0:0:
256,192,395222,1,0,0:0:0:0:
256,192,395297,1,8,0:0:0:0:
256,192,395372,1,8,0:0:0:0:
256,192,395446,1,0,0:0:0:0:
256,192,395745,1,0,0:0:0:0:
256,192,395819,1,0,0:0:0:0:
256,192,395894,1,0,0:0:0:0:
256,192,395969,1,0,0:0:0:0:
256,192,396043,1,0,0:0:0:0:
256,192,396118,1,0,0:0:0:0:
256,192,396193,1,12,0:0:0:0:
256,192,396491,1,0,0:0:0:0:
256,192,396640,1,8,0:0:0:0:
256,192,396939,1,8,0:0:0:0:
256,192,397088,1,0,0:0:0:0:
256,192,397237,1,8,0:0:0:0:
256,192,397536,1,8,0:0:0:0:
256,192,397834,1,0,0:0:0:0:
256,192,397984,1,8,0:0:0:0:
256,192,398133,1,0,0:0:0:0:
256,192,398282,1,0,0:0:0:0:
256,192,398431,1,8,0:0:0:0:
256,192,398581,1,0,0:0:0:0:
256,192,398879,1,0,0:0:0:0:
256,192,399028,1,8,0:0:0:0:
256,192,399327,1,8,0:0:0:0:
256,192,399476,1,0,0:0:0:0:
256,192,399625,1,8,0:0:0:0:
256,192,399924,1,8,0:0:0:0:
256,192,400222,1,0,0:0:0:0:
256,192,400372,1,8,0:0:0:0:
256,192,400521,1,0,0:0:0:0:
256,192,400670,1,8,0:0:0:0:
256,192,400819,1,8,0:0:0:0:
256,192,400969,1,0,0:0:0:0:
256,192,401267,1,8,0:0:0:0:
256,192,401417,1,8,0:0:0:0:
256,192,401715,1,8,0:0:0:0:
256,192,401864,1,0,0:0:0:0:
256,192,402014,1,8,0:0:0:0:
256,192,402312,1,8,0:0:0:0:
256,192,402611,1,0,0:0:0:0:
256,192,402760,1,8,0:0:0:0:
256,192,402909,1,8,0:0:0:0:
256,192,403058,1,0,0:0:0:0:
256,192,403208,1,8,0:0:0:0:
256,192,403357,1,0,0:0:0:0:
256,192,403506,1,0,0:0:0:0:
256,192,403655,1,0,0:0:0:0:
256,192,403805,1,8,0:0:0:0:
256,192,404103,1,8,0:0:0:0:
256,192,404252,1,0,0:0:0:0:
256,192,404402,1,8,0:0:0:0:
256,192,404700,1,8,0:0:0:0:
256,192,404999,1,0,0:0:0:0:
256,192,405148,1,8,0:0:0:0:
256,192,405297,1,0,0:0:0:0:
256,192,405446,1,8,0:0:0:0:
256,192,405596,1,8,0:0:0:0:
256,192,405745,1,0,0:0:0:0:
256,192,406043,1,0,0:0:0:0:
256,192,406193,1,8,0:0:0:0:
256,192,406491,1,8,0:0:0:0:
256,192,406640,1,0,0:0:0:0:
256,192,406790,1,8,0:0:0:0:
256,192,407088,1,8,0:0:0:0:
256,192,407387,1,0,0:0:0:0:
256,192,407536,1,8,0:0:0:0:
256,192,407685,1,0,0:0:0:0:
256,192,407834,1,0,0:0:0:0:
256,192,407984,1,8,0:0:0:0:
256,192,408133,1,0,0:0:0:0:
256,192,408431,1,0,0:0:0:0:
256,192,408581,1,8,0:0:0:0:
256,192,408879,1,8,0:0:0:0:
256,192,409028,1,0,0:0:0:0:
256,192,409178,1,8,0:0:0:0:
256,192,409476,1,8,0:0:0:0:
256,192,409775,1,0,0:0:0:0:
256,192,409924,1,8,0:0:0:0:
256,192,410073,1,0,0:0:0:0:
256,192,410222,1,8,0:0:0:0:
256,192,410372,1,8,0:0:0:0:
256,192,410521,1,0,0:0:0:0:
256,192,410819,1,8,0:0:0:0:
256,192,410969,1,8,0:0:0:0:
256,192,411267,1,8,0:0:0:0:
256,192,411417,1,0,0:0:0:0:
256,192,411566,1,8,0:0:0:0:
256,192,411864,1,8,0:0:0:0:
256,192,412163,1,0,0:0:0:0:
256,192,412237,1,8,0:0:0:0:
256,192,412312,1,0,0:0:0:0:
256,192,412461,1,8,0:0:0:0:
256,192,412536,1,8,0:0:0:0:
256,192,412611,1,0,0:0:0:0:
256,192,412760,1,8,0:0:0:0:
256,192,412909,1,0,0:0:0:0:
256,192,413058,1,0,0:0:0:0:
256,192,413208,1,0,0:0:0:0:
256,192,413357,1,8,0:0:0:0:
256,192,413655,1,8,0:0:0:0:
256,192,413805,1,0,0:0:0:0:
256,192,413954,1,8,0:0:0:0:
256,192,415297,1,0,0:0:0:0:
256,192,415446,1,0,0:0:0:0:
256,192,415596,1,0,0:0:0:0:
256,192,415745,1,8,0:0:0:0:
256,192,417685,1,0,0:0:0:0:
256,192,417834,1,0,0:0:0:0:
256,192,417984,1,8,0:0:0:0:
256,192,418133,1,8,0:0:0:0:
256,192,420670,1,4,0:0:0:0:
