osu file format v14

[General]
AudioFilename: audio.mp3
AudioLeadIn: 0
PreviewTime: 259409
Countdown: 0
SampleSet: Soft
StackLeniency: 0.2
Mode: 0
LetterboxInBreaks: 0
WidescreenStoryboard: 0

[Editor]
Bookmarks: 470,12410,21962,31514,48081,53007,62559,69723,72111,79275,81664,88828,91216,95992,98380,100768,110320,117335,122261,127037,134201,136589,143753,146141,153305,155693,162858,165246,176532,183438,186891,190344,197251,204157,211064,214517,217970,224877,231783,238690,242143,245596,252503,259409,273098,282650,299217,308918,328023,347127,351903,356680,361456,364889,372202,374590,376978,384142,386530,393695,396083,405635,415187,420560,436680
DistanceSpacing: 0.2
BeatDivisor: 4
GridSize: 32
TimelineZoom: 3.199999

[Metadata]
Title:Nacreous Snowmelt
TitleUnicode:Nacreous Snowmelt
Artist:Camellia
ArtistUnicode:かめりあ
Creator:iLyne
Version:Hypothermia
Source:
Tags:kamelcamellia かめるかめりあ Full Flavor Artcore DnB drum and bass Future Bass DrumStep 200Step Glitch Hop Psytrance Hardstyle Hardcore electronic instrumental
BeatmapID:2979785
BeatmapSetID:1449188

[Difficulty]
HPDrainRate:3.5
CircleSize:4
OverallDifficulty:9
ApproachRate:9.7
SliderMultiplier:2.2
SliderTickRate:0.5

[Events]
//Background and Video events
0,0,"b.jpg",0,0
//Break Periods
2,165446,176037
2,259609,272603
//Storyboard Layer 0 (Background)
//Storyboard Layer 1 (Fail)
//Storyboard Layer 2 (Pass)
//Storyboard Layer 3 (Foreground)
//Storyboard Layer 4 (Overlay)
//Storyboard Sound Samples

[TimingPoints]
470,298.507462686567,4,2,1,30,1,0
470,-500,4,2,1,30,0,0
12410,-250.000000000001,4,2,1,40,0,0
30171,-333.333333333333,4,2,1,50,0,0
30843,-333.333333333333,4,2,1,5,0,0
30917,-400,4,2,1,50,0,0
31440,-400,4,2,1,5,0,0
31514,-66.6666666666667,4,2,2,80,0,0
31738,-66.6666666666667,4,2,2,5,0,0
31813,-111.111111111111,4,2,2,60,0,0
31887,-111.111111111111,4,2,2,5,0,0
31962,-142.857142857143,4,2,2,60,0,0
32037,-142.857142857143,4,2,2,5,0,0
32111,-200,4,2,2,60,0,0
32186,-200,4,2,2,5,0,0
32261,-62.5,4,2,2,80,0,0
32484,-62.5,4,2,2,5,0,0
32559,-76.9230769230769,4,2,2,80,0,0
32858,-76.9230769230769,4,2,2,5,0,0
33007,-76.9230769230769,4,2,2,70,0,0
33753,-58.8235294117647,4,2,2,80,0,0
33977,-58.8235294117647,4,2,2,5,0,0
34052,-100,4,2,2,60,0,0
34649,-62.5,4,2,2,80,0,0
34872,-62.5,4,2,2,5,0,0
34947,-71.4285714285714,4,2,2,80,0,0
35171,-71.4285714285714,4,2,2,5,0,0
35246,-100,4,2,2,50,0,0
35544,-200,4,2,2,50,0,0
36290,-55.5555555555556,4,2,2,80,0,0
36514,-55.5555555555556,4,2,2,5,0,0
36589,-66.6666666666667,4,2,2,70,0,0
37037,-58.8235294117647,4,2,2,80,0,0
37261,-58.8235294117647,4,2,2,5,0,0
37335,-66.6666666666667,4,2,2,80,0,0
37559,-66.6666666666667,4,2,2,5,0,0
37634,-166.666666666667,4,2,2,60,0,0
37708,-250.000000000001,4,2,2,5,0,0
37783,-250.000000000001,4,2,2,60,0,0
38007,-250.000000000001,4,2,2,5,0,0
38081,-90.909090909091,4,2,2,70,0,0
38305,-90.909090909091,4,2,2,5,0,0
38380,-90.909090909091,4,2,2,70,0,0
38529,-62.5,4,2,2,80,0,0
38753,-62.5,4,2,2,5,0,0
38828,-111.111111111111,4,2,2,70,0,0
38902,-111.111111111111,4,2,2,5,0,0
38977,-125,4,2,2,70,0,0
39052,-125,4,2,2,5,0,0
39126,-166.666666666667,4,2,2,70,0,0
39201,-166.666666666667,4,2,2,5,0,0
39275,-200,4,2,2,70,0,0
39350,-200,4,2,2,5,0,0
39425,-76.9230769230769,4,2,2,80,0,0
39649,-76.9230769230769,4,2,2,5,0,0
39723,-99.9999999999999,4,2,2,70,0,0
39947,-99.9999999999999,4,2,2,5,0,0
40022,-142.857142857143,4,2,2,70,0,0
40096,-142.857142857143,4,2,2,5,0,0
40171,-142.857142857143,4,2,2,70,0,0
40246,-142.857142857143,4,2,2,5,0,0
40320,-142.857142857143,4,2,2,70,0,0
41067,-66.6666666666667,4,2,2,80,0,0
41290,-66.6666666666667,4,2,2,5,0,0
41365,-58.8235294117647,4,2,2,70,0,0
41589,-71.4285714285714,4,2,2,70,0,0
41813,-58.8235294117647,4,2,2,80,0,0
42037,-58.8235294117647,4,2,2,5,0,0
42111,-76.9230769230769,4,2,2,80,0,0
42410,-83.3333333333333,4,2,2,5,0,0
42559,-83.3333333333333,4,2,2,60,0,0
43305,-62.5,4,2,2,80,0,0
43529,-62.5,4,2,2,5,0,0
43604,-111.111111111111,4,2,2,60,0,0
44201,-66.6666666666667,4,2,2,80,0,0
44425,-66.6666666666667,4,2,2,5,0,0
44499,-76.9230769230769,4,2,2,80,0,0
44723,-76.9230769230769,4,2,2,5,0,0
44798,-166.666666666667,4,2,2,70,0,0
45246,-100,4,2,2,70,0,0
45843,-62.5,4,2,2,80,0,0
46067,-62.5,4,2,2,5,0,0
46141,-71.4285714285714,4,2,2,70,0,0
46589,-62.5,4,2,2,80,0,0
46813,-62.5,4,2,2,5,0,0
46887,-76.9230769230769,4,2,2,80,0,0
47111,-76.9230769230769,4,2,2,5,0,0
47186,-166.666666666667,4,2,2,60,0,0
47261,-166.666666666667,4,2,2,5,0,0
47335,-250,4,2,2,60,0,0
47559,-250,4,2,2,5,0,0
47634,-100,4,2,2,70,0,0
47858,-100,4,2,2,5,0,0
47932,-333.333333333333,4,2,2,70,0,0
48007,-333.333333333333,4,2,2,5,0,0
48081,-333.333333333333,4,2,2,100,0,0
48678,-333.333333333333,4,2,2,90,0,0
49275,-333.333333333333,4,2,2,80,0,0
49872,-333.333333333333,4,2,2,70,0,0
50469,-333.333333333333,4,2,2,60,0,0
51067,-333.333333333333,4,2,2,50,0,0
51664,-333.333333333333,4,2,2,40,0,0
52372,-333.333333333333,4,2,2,5,0,0
52410,-833.333333333333,4,2,1,50,0,0
52932,-833.333333333333,4,2,1,5,0,0
53007,-166.666666666667,4,2,1,80,0,0
53305,-166.666666666667,4,2,1,50,0,0
53902,-133.333333333333,4,2,1,50,0,0
55693,-142.857142857143,4,2,1,60,0,0
56290,-111.111111111111,4,3,1,60,0,0
56440,-333.333333333332,4,3,1,60,0,0
56589,-111.111111111111,4,3,1,60,0,0
56887,-111.111111111111,4,3,1,60,0,0
57037,-90.9090909090908,4,3,1,60,0,0
57186,-111.111111111111,4,3,1,60,0,0
57335,-142.857142857143,4,3,1,60,0,0
57484,-111.111111111111,4,3,1,60,0,0
57634,-58.8235294117647,4,3,1,60,0,0
57783,-52.6315789473684,4,2,1,70,0,0
58977,-62.5,4,2,1,70,0,0
60171,-111.111111111111,4,2,1,70,0,0
61067,-111.111111111111,4,2,2,60,0,0
61962,-142.857142857143,4,2,2,60,0,0
62261,-142.857142857143,4,2,3,70,0,0
62559,-45.4545454545455,4,2,3,70,0,1
62858,-166.666666666667,4,2,3,70,0,1
63156,-47.6190476190476,4,2,3,70,0,1
63305,-47.6190476190476,4,2,4,70,0,1
63417,-47.6190476190476,4,2,4,5,0,1
63455,-47.6190476190476,4,2,3,70,0,1
63865,-47.6190476190476,4,2,3,5,0,1
63902,-47.6190476190476,4,2,3,70,0,1
64164,-47.6190476190476,4,2,3,5,0,1
64201,-111.111111111111,4,2,3,70,0,1
64350,-50,4,2,3,70,0,1
64499,-111.111111111111,4,2,3,70,0,1
64649,-66.6666666666667,4,2,3,70,0,1
64947,-43.4782608695652,4,2,3,70,0,1
65246,-142.857142857143,4,2,3,70,0,1
65544,-50,4,2,3,70,0,1
65693,-50,4,2,4,70,0,1
65805,-47.6190476190476,4,2,4,5,0,1
65843,-50,4,2,3,70,0,1
66253,-47.6190476190476,4,2,3,5,0,1
66290,-47.6190476190476,4,2,3,70,0,1
66552,-47.6190476190476,4,2,3,5,0,1
66589,-33.3333333333333,4,2,3,70,0,1
66626,-33.3333333333333,4,2,3,5,0,1
66738,-33.3333333333333,4,2,3,70,0,1
66775,-33.3333333333333,4,2,3,5,0,1
66887,-33.3333333333333,4,2,3,70,0,1
66925,-33.3333333333333,4,2,3,5,0,1
67037,-37.037037037037,4,2,3,70,0,1
67335,-52.6315789473684,4,2,3,70,0,1
67634,-47.6190476190476,4,2,3,70,0,1
67932,-41.6666666666667,4,2,3,70,0,1
68081,-41.6666666666667,4,2,4,70,0,1
68193,-41.6666666666667,4,2,4,70,0,1
68231,-41.6666666666667,4,2,3,70,0,1
68641,-41.6666666666667,4,2,3,5,0,1
68678,-41.6666666666667,4,2,3,70,0,1
68940,-41.6666666666667,4,2,3,5,0,1
68977,-111.111111111111,4,2,3,70,0,1
69126,-45.4545454545455,4,2,3,70,0,1
69238,-45.4545454545455,4,2,3,5,0,1
69275,-45.4545454545455,4,2,3,70,0,1
69425,-50,4,2,3,70,0,1
69723,-76.9230769230769,4,2,3,60,0,0
70581,-76.9230769230769,4,2,3,5,0,0
70619,-76.9230769230769,4,2,3,60,0,0
71067,-100,4,2,3,60,0,0
71178,-100,4,2,3,5,0,0
71216,-100,4,2,3,60,0,0
71477,-100,4,2,3,5,0,0
71514,-100,4,2,3,60,0,0
71701,-100,4,2,3,5,0,0
71813,-100,4,2,3,60,0,0
72111,-45.4545454545455,4,2,3,70,0,1
72410,-166.666666666667,4,2,3,70,0,1
72708,-45.4545454545455,4,2,3,70,0,1
72858,-45.4545454545455,4,2,4,70,0,1
72969,-45.4545454545455,4,2,4,70,0,1
73007,-45.4545454545455,4,2,3,70,0,1
73417,-45.4545454545455,4,2,3,5,0,1
73455,-45.4545454545455,4,2,3,70,0,1
73716,-45.4545454545455,4,2,3,5,0,1
73753,-111.111111111111,4,2,3,70,0,1
73902,-50,4,2,3,70,0,1
74201,-66.6666666666667,4,2,3,70,0,1
74499,-43.4782608695652,4,2,3,70,0,1
74798,-111.111111111111,4,2,3,70,0,1
75096,-45.4545454545455,4,2,3,70,0,1
75246,-45.4545454545455,4,2,4,70,0,1
75358,-45.4545454545455,4,2,4,5,0,1
75395,-45.4545454545455,4,2,3,70,0,1
75805,-45.4545454545455,4,2,3,5,0,1
75843,-45.4545454545455,4,2,3,70,0,1
76104,-45.4545454545455,4,2,3,5,0,1
76141,-33.3333333333333,4,2,3,70,0,1
76178,-33.3333333333333,4,2,3,5,0,1
76290,-33.3333333333333,4,2,3,70,0,1
76328,-33.3333333333333,4,2,3,5,0,1
76440,-33.3333333333333,4,2,3,70,0,1
76477,-33.3333333333333,4,2,3,5,0,1
76589,-37.037037037037,4,2,3,70,0,1
76887,-62.5,4,2,3,70,0,1
77186,-71.4285714285714,4,2,3,70,0,1
77484,-250,4,2,3,70,0,1
77783,-200,4,2,3,70,0,1
78081,-142.857142857143,4,2,3,70,0,1
78380,-111.111111111111,4,2,3,70,0,1
78678,-125,4,2,3,70,0,1
78828,-100,4,2,3,70,0,1
78977,-45.4545454545455,4,2,3,70,0,1
79238,-45.4545454545455,4,2,3,5,0,1
79275,-142.857142857143,4,2,1,50,0,0
79872,-111.111111111111,4,2,1,50,0,0
81067,-166.666666666666,4,2,1,60,0,0
81365,-166.666666666666,4,2,1,70,0,0
81664,-66.6666666666667,4,2,5,70,0,1
82111,-90.9090909090909,4,2,5,70,0,1
83305,-100,4,2,5,70,0,1
84052,-62.5,4,2,5,70,0,1
84499,-90.9090909090909,4,2,5,70,0,1
85693,-71.4285714285714,4,2,5,70,0,1
86440,-62.5,4,2,5,70,0,1
86887,-90.9090909090909,4,2,5,70,0,1
88081,-100,4,2,5,70,0,1
88828,-66.6666666666667,4,2,5,70,0,1
90619,-83.3333333333333,4,2,5,70,0,1
90656,-83.3333333333333,4,2,5,5,0,1
90768,-83.3333333333333,4,2,5,70,0,1
90805,-83.3333333333333,4,2,5,5,0,1
90917,-83.3333333333333,4,2,5,70,0,1
90955,-83.3333333333333,4,2,5,5,0,1
91067,-83.3333333333333,4,2,5,70,0,1
91216,-62.5,4,2,5,70,0,1
91664,-90.9090909090909,4,2,5,70,0,1
92858,-100,4,2,5,70,0,1
93604,-62.5,4,2,5,70,0,1
94052,-90.9090909090909,4,2,5,70,0,1
95246,-71.4285714285714,4,2,5,70,0,1
95992,-66.6666666666667,4,2,5,70,0,1
97783,-83.3333333333333,4,2,5,70,0,1
97820,-83.3333333333333,4,2,5,5,0,1
97932,-83.3333333333333,4,2,5,70,0,1
97969,-83.3333333333333,4,2,5,5,0,1
98081,-83.3333333333333,4,2,5,70,0,1
98119,-83.3333333333333,4,2,5,5,0,1
98231,-83.3333333333333,4,2,5,70,0,1
98380,-55.5555555555556,4,2,5,70,0,1
98678,-250.000000000001,4,2,1,50,0,0
98977,-142.857142857143,4,2,1,50,0,0
99275,-90.9090909090911,4,2,1,50,0,0
99574,-166.666666666667,4,2,1,55,0,0
99723,-111.111111111111,4,2,1,60,0,0
99872,-83.3333333333333,4,2,1,65,0,0
100022,-66.6666666666667,4,2,1,70,0,0
100171,-142.857142857143,4,2,1,50,0,0
100768,-66.6666666666667,4,2,5,100,0,0
101067,-125,4,2,5,5,0,0
101141,-125,4,2,5,70,0,0
101514,-62.5,4,2,5,85,0,0
101738,-62.5,4,2,5,5,0,0
101813,-52.6315789473684,4,2,5,100,0,0
102111,-125,4,2,5,70,0,0
103007,-52.6315789473684,4,2,5,100,0,0
103231,-52.6315789473684,4,2,5,5,0,0
103305,-71.4285714285714,4,2,5,70,0,0
103604,-100,4,2,5,70,0,0
103902,-52.6315789473684,4,2,5,85,0,0
104126,-52.6315789473684,4,2,5,5,0,0
104201,-58.8235294117647,4,2,5,100,0,0
104425,-58.8235294117647,4,2,5,5,0,0
104499,-58.8235294117647,4,2,5,70,0,0
104947,-250,4,2,5,70,0,0
105544,-50,4,2,5,100,0,0
105768,-50,4,2,5,5,0,0
105843,-83.3333333333333,4,2,5,70,0,0
106290,-58.8235294117647,4,2,5,85,0,0
106514,-58.8235294117647,4,2,5,5,0,0
106589,-55.5555555555556,4,2,5,100,0,0
106813,-55.5555555555556,4,2,5,5,0,0
106887,-55.5555555555556,4,2,5,70,0,0
107037,-100,4,2,5,70,0,0
107783,-58.8235294117647,4,2,5,100,0,0
107932,-58.8235294117647,4,2,5,5,0,0
108007,-100,4,2,5,70,0,0
108231,-76.9230769230769,4,2,5,70,0,0
108678,-62.5,4,2,5,85,0,0
108902,-62.5,4,2,5,5,0,0
108977,-100,4,2,5,100,0,0
109201,-100,4,2,5,5,0,0
109275,-142.857142857143,4,2,5,70,0,0
109425,-111.111111111111,4,2,5,70,0,0
109723,-250,4,2,5,70,0,0
110320,-66.6666666666667,4,2,5,100,0,0
110544,-66.6666666666667,4,2,5,5,0,0
110619,-66.6666666666667,4,2,5,100,0,0
110768,-200,4,2,5,70,0,0
111067,-83.3333333333333,4,2,5,70,0,0
111365,-52.6315789473684,4,2,5,100,0,0
111589,-52.6315789473684,4,2,5,5,0,0
111664,-125,4,2,5,70,0,0
112559,-58.8235294117647,4,2,5,100,0,0
112783,-58.8235294117647,4,2,5,5,0,0
112858,-76.9230769230769,4,2,5,70,0,0
113156,-111.111111111111,4,2,5,70,0,0
113455,-55.5555555555556,4,2,5,85,0,0
113678,-55.5555555555556,4,2,5,5,0,0
113753,-52.6315789473684,4,2,5,100,0,0
113977,-52.6315789473684,4,2,5,5,0,0
114052,-52.6315789473684,4,2,5,70,0,0
114499,-100,4,2,5,70,0,0
114798,-200,4,2,5,70,0,0
115096,-58.8235294117647,4,2,5,85,0,0
115320,-58.8235294117647,4,2,5,5,0,0
115395,-125,4,2,5,70,0,0
115843,-55.5555555555556,4,2,5,85,0,0
116067,-55.5555555555556,4,2,5,5,0,0
116141,-50,4,2,5,100,0,0
116365,-50,4,2,5,5,0,0
116440,-83.3333333333333,4,2,5,70,0,0
116887,-125,4,2,5,70,0,0
117335,-100,4,2,5,90,0,0
117783,-100,4,2,5,83,0,0
118231,-100,4,2,5,76,0,0
118678,-100,4,2,5,69,0,0
119126,-100,4,2,5,62,0,0
119574,-100,4,2,5,55,0,0
120022,-100,4,2,5,48,0,0
120469,-100,4,2,5,41,0,0
120917,-100,4,2,5,34,0,0
121365,-100,4,2,5,27,0,0
121813,-100,4,2,5,20,0,0
122223,-100,4,2,5,5,0,0
122261,-100,4,2,1,60,0,0
122708,-142.857142857143,4,2,1,60,0,0
122858,-100,4,2,1,60,0,0
123305,-125,4,2,1,60,0,0
123455,-62.5,4,2,1,60,0,0
123902,-125,4,2,1,60,0,0
124052,-62.5,4,2,1,60,0,0
124499,-125,4,2,1,60,0,0
124649,-58.8235294117647,4,2,1,65,0,0
125246,-58.8235294117647,4,2,1,70,0,0
125544,-58.8235294117647,4,2,1,80,0,0
125843,-250,4,2,1,70,0,0
125917,-250,4,2,1,5,0,0
125992,-250,4,2,1,70,0,0
126067,-250,4,2,1,5,0,0
126141,-555.555555555556,4,2,1,70,0,0
126365,-555.555555555556,4,2,1,5,0,0
126440,-250,4,2,1,70,0,0
126514,-250,4,2,1,5,0,0
126589,-250,4,2,1,70,0,0
126664,-250,4,2,1,5,0,0
126738,-250,4,2,6,70,0,0
127037,-50,4,2,6,70,0,1
127261,-52.6315789473684,4,2,6,70,0,1
127559,-52.6315789473684,4,2,6,5,0,1
127634,-47.6190476190476,4,2,6,70,0,0
128081,-71.4285714285714,4,2,6,70,0,0
128231,-47.6190476190476,4,2,6,70,0,0
128380,-200,4,2,6,70,0,0
128678,-55.5555555555556,4,2,6,70,0,0
129425,-43.4782608695652,4,2,6,70,0,0
129872,-100,4,2,6,70,0,0
130022,-47.6190476190476,4,2,6,70,0,0
130320,-47.6190476190476,4,2,6,5,0,0
130469,-76.9230769230769,4,2,6,70,0,0
130619,-52.6315789473684,4,2,6,70,0,0
130768,-142.857142857143,4,2,6,70,0,0
131216,-52.6315789473684,4,2,6,70,0,0
131365,-43.4782608695652,4,2,6,70,0,0
131738,-43.4782608695652,4,2,6,5,0,0
131813,-52.6315789473684,4,2,6,70,0,0
132037,-52.6315789473684,4,2,6,5,0,0
132111,-52.6315789473684,4,2,6,70,0,0
132335,-52.6315789473684,4,2,6,5,0,0
132410,-125,4,2,6,70,0,0
132708,-62.5,4,2,6,70,0,0
132858,-100,4,2,6,70,0,0
134201,-125,4,2,6,70,0,0
134649,-76.9230769230769,4,2,6,70,0,0
134947,-125,4,2,6,70,0,0
135843,-71.4285714285714,4,2,6,70,0,0
135955,-71.4285714285714,4,2,6,5,0,0
135992,-71.4285714285714,4,2,6,70,0,0
136141,-100,4,2,6,70,0,0
136589,-45.4545454545455,4,2,6,70,0,1
136813,-52.6315789473684,4,2,6,70,0,1
137111,-52.6315789473684,4,2,6,5,0,1
137186,-47.6190476190476,4,2,6,70,0,0
137634,-90.9090909090909,4,2,6,70,0,0
137783,-58.8235294117647,4,2,6,70,0,0
137932,-250,4,2,6,70,0,0
138231,-55.5555555555556,4,2,6,70,0,0
138977,-43.4782608695652,4,2,6,70,0,0
139425,-55.5555555555556,4,2,6,70,0,0
139574,-47.6190476190476,4,2,6,70,0,0
139872,-47.6190476190476,4,2,6,5,0,0
140022,-76.9230769230769,4,2,6,70,0,0
140171,-58.8235294117647,4,2,6,70,0,0
140320,-250,4,2,6,70,0,0
140619,-55.5555555555556,4,2,6,70,0,0
140917,-43.4782608695652,4,2,6,70,0,0
141290,-43.4782608695652,4,2,6,5,0,0
141365,-50,4,2,6,70,0,0
141589,-50,4,2,6,5,0,0
141664,-50,4,2,6,70,0,0
141887,-50,4,2,6,5,0,0
141962,-90.9090909090909,4,2,6,70,0,0
142261,-55.5555555555556,4,2,6,70,0,0
142410,-100,4,2,6,70,0,0
143753,-250.000000000001,4,2,6,70,0,0
144052,-250.000000000001,4,2,6,40,0,0
144798,-166.666666666667,4,2,6,40,0,0
145544,-200,4,2,6,60,0,0
146141,-50,4,2,6,70,0,1
146390,-50,4,2,6,5,0,1
146440,-50,4,2,6,70,0,1
146539,-45.4545454545455,4,2,6,70,0,1
146738,-62.5,4,2,6,70,0,0
147236,-90.9090909090909,4,2,6,70,0,0
147634,-76.9230769230769,4,2,6,70,0,0
147932,-90.9090909090909,4,2,6,70,0,0
148529,-43.4782608695652,4,2,6,70,0,0
149126,-55.5555555555556,4,2,6,70,0,0
149425,-45.4545454545455,4,2,6,70,0,0
149773,-76.9230769230769,4,2,6,70,0,0
150320,-62.5,4,2,6,70,0,0
150917,-47.6190476190476,4,2,6,70,0,0
151166,-47.6190476190476,4,2,6,5,0,0
151216,-47.6190476190476,4,2,6,70,0,0
151465,-47.6190476190476,4,2,6,5,0,0
151514,-62.5,4,2,6,70,0,0
152012,-90.9090909090909,4,2,6,70,0,0
152310,-142.857142857143,4,2,6,70,0,0
152410,-90.9090909090909,4,2,6,70,0,0
152708,-52.6315789473684,4,2,6,70,0,0
152969,-52.6315789473684,4,2,6,5,0,0
153007,-66.6666666666667,4,2,6,70,0,0
153305,-58.8235294117647,4,2,6,70,0,0
153380,-71.4285714285714,4,2,6,70,0,0
153455,-90.9090909090909,4,2,6,70,0,0
153529,-166.666666666667,4,2,6,70,0,0
153604,-125,4,2,6,70,0,0
153803,-71.4285714285714,4,2,6,70,0,0
154101,-58.8235294117647,4,2,6,70,0,0
154400,-90.9090909090909,4,2,6,70,0,0
155693,-50,4,2,6,70,0,1
155942,-50,4,2,6,5,0,1
155992,-50,4,2,6,70,0,1
156091,-43.4782608695652,4,2,6,70,0,1
156290,-62.5,4,2,6,70,0,0
156788,-90.9090909090909,4,2,6,70,0,0
157186,-76.9230769230769,4,2,6,70,0,0
158081,-47.6190476190476,4,2,6,70,0,0
158678,-55.5555555555556,4,2,6,70,0,0
158977,-52.6315789473684,4,2,6,70,0,0
160071,-66.6666666666667,4,2,6,70,0,0
160469,-52.6315789473684,4,2,6,70,0,0
160718,-52.6315789473684,4,2,6,5,0,0
160768,-52.6315789473684,4,2,6,70,0,0
161017,-52.6315789473684,4,2,6,5,0,0
161067,-58.8235294117647,4,2,6,70,0,0
161564,-83.3333333333333,4,2,6,70,0,0
161863,-46.5116279069767,4,2,6,70,0,0
162186,-46.5116279069767,4,2,6,5,0,0
162261,-62.5,4,2,6,70,0,0
162484,-62.5,4,2,6,5,0,0
162559,-500,4,2,6,70,0,0
162808,-500,4,2,6,5,0,0
162858,-90.9090909090909,4,2,6,70,0,0
163007,-90.9090909090909,4,2,6,5,0,0
163057,-90.9090909090909,4,2,6,70,0,0
163206,-90.9090909090909,4,2,6,5,0,0
163256,-90.9090909090909,4,2,6,70,0,0
163604,-90.9090909090909,4,2,6,5,0,0
163654,-71.4285714285714,4,2,6,70,0,0
163803,-71.4285714285714,4,2,6,5,0,0
163853,-71.4285714285714,4,2,6,70,0,0
164201,-71.4285714285714,4,2,6,5,0,0
164251,-71.4285714285714,4,2,6,70,0,0
164400,-71.4285714285714,4,2,6,5,0,0
164450,-71.4285714285714,4,2,6,70,0,0
164649,-47.6190476190476,4,2,6,70,0,0
165208,-47.6190476190476,4,2,6,5,0,0
165246,-100,4,2,6,70,0,0
166440,315.789473684211,4,2,1,70,1,0
167703,324.324324324324,4,2,1,70,1,0
169000,342.857142857143,4,2,1,70,1,0
170371,352.941176470588,4,2,1,70,1,0
171782,375,4,2,1,70,1,0
173282,387.096774193548,4,2,1,70,1,0
174830,425.531914893617,4,2,1,70,1,0
176532,431.654676258993,4,2,1,70,1,0
176532,-76.9230769230769,4,2,7,40,0,0
181927,-76.9230769230769,4,2,7,50,0,0
183438,-71.4285714285714,4,1,7,60,0,0
188618,-111.111111111111,4,1,8,70,0,0
189913,-833.333333333333,4,2,8,30,0,0
190290,-833.333333333333,4,2,7,5,0,0
190344,-40,4,3,10,100,0,1
190722,-40,4,3,10,5,0,1
190776,-62.5,4,3,10,70,0,0
196819,-50,4,3,10,70,0,0
197197,-50,4,3,10,5,0,0
197251,-43.4782608695652,4,3,10,100,0,1
197629,-43.4782608695652,4,3,10,5,0,1
197683,-62.5,4,3,10,70,0,0
202431,-71.4285714285714,4,3,10,70,0,0
203834,-111.111111111111,4,3,10,70,0,0
204157,-40,4,3,10,100,0,1
204535,-40,4,3,10,5,0,1
204589,-62.5,4,3,10,70,0,0
206747,-200,4,3,10,70,0,0
207071,-62.5,4,3,10,70,0,0
210093,-166.666666666667,4,3,10,70,0,0
210255,-166.666666666667,4,3,10,5,0,0
210308,-62.5,4,3,10,70,0,0
210578,-62.5,4,3,10,5,0,0
210632,-125,4,3,10,70,0,0
211064,-45.4545454545455,4,3,10,70,0,1
211334,-45.4545454545455,4,3,10,5,0,1
211388,-90.9090909090909,4,3,10,70,0,0
214517,-111.111111111111,4,3,10,70,0,0
216244,-66.6666666666667,4,3,10,70,0,0
216567,-66.6666666666667,4,3,10,5,0,0
216783,-55.5555555555556,4,3,10,70,0,0
216999,-55.5555555555556,4,3,10,5,0,0
217107,-55.5555555555556,4,3,10,70,0,0
217431,-166.666666666667,4,3,10,70,0,0
217916,-166.666666666667,4,3,10,5,0,0
217970,-66.6666666666667,4,3,10,70,0,1
231783,-76.9230769230769,4,3,10,70,0,1
233510,-125,4,3,10,70,0,0
235237,-66.6666666666667,4,3,10,70,0,1
236963,-100,4,3,10,70,0,0
238690,-50,4,3,10,100,0,1
238906,-50,4,3,10,5,0,1
239121,-66.6666666666667,4,3,10,70,0,0
240201,-66.6666666666667,4,3,10,100,0,1
240308,-66.6666666666667,4,3,10,5,0,1
240416,-66.6666666666667,4,3,10,100,0,1
240632,-66.6666666666667,4,3,10,5,0,0
241388,-66.6666666666667,4,3,10,80,0,0
242143,-142.857142857143,4,3,10,70,0,0
243870,-142.857142857143,4,3,10,60,0,0
245165,-142.857142857143,4,3,10,60,0,0
245596,-43.4782608695652,4,2,11,85,0,1
245866,-31.25,4,2,11,85,0,1
246028,-40,4,2,11,85,0,1
246837,-40,4,2,11,5,0,1
246891,-40,4,2,11,85,0,1
247053,-40,4,2,11,5,0,1
247107,-40,4,2,11,85,0,1
247701,-40,4,2,11,5,0,1
247755,-40,4,2,11,85,0,1
248186,-45.4545454545455,4,2,11,85,0,1
248618,-142.857142857143,4,2,11,5,0,0
248726,-142.857142857143,4,2,11,85,0,0
248834,-142.857142857143,4,2,11,5,0,0
249049,-45.4545454545455,4,2,11,85,0,1
249157,-45.4545454545455,4,2,11,5,0,1
249265,-45.4545454545455,4,2,11,85,0,1
249373,-45.4545454545455,4,2,11,5,0,1
249481,-40,4,2,11,85,0,1
250668,-30.3030303030303,4,2,11,85,0,1
250722,-30.3030303030303,4,2,11,5,0,1
250776,-40,4,2,11,85,0,1
251585,-40,4,2,11,5,0,1
251639,-333.333333333333,4,2,11,85,0,0
252179,-333.333333333333,4,2,11,5,0,0
252287,-333.333333333333,4,2,11,85,0,0
252503,-40,4,2,11,85,0,1
252880,-40,4,2,11,5,0,1
252934,-40,4,2,11,85,0,1
253744,-40,4,2,11,5,0,1
253798,-40,4,2,11,85,0,1
255039,-40,4,2,11,5,0,1
255093,-47.6190476190476,4,2,11,85,0,1
255632,-333.333333333333,4,2,11,85,0,0
255740,-333.333333333333,4,2,11,5,0,0
255956,-52.6315789473684,4,2,11,85,0,1
257898,-62.5,4,2,11,75,0,1
258114,-62.5,4,2,11,5,0,1
258222,-76.9230769230769,4,2,11,65,0,1
258438,-76.9230769230769,4,2,11,5,0,1
258546,-111.111111111111,4,2,11,55,0,1
258762,-111.111111111111,4,2,11,5,0,1
258870,-250,4,2,11,45,0,1
259355,-250,4,2,11,5,0,1
259409,425.531914893617,4,2,11,70,1,0
260260,413.793103448276,4,2,1,70,1,0
261087,408.163265306122,4,2,1,70,1,0
261903,387.096774193548,4,2,1,70,1,0
262677,375,4,2,1,70,1,0
263427,363.636363636364,4,2,1,70,1,0
264881,352.941176470588,4,2,1,70,1,0
265586,342.857142857143,4,2,1,70,1,0
266271,333.333333333333,4,2,1,70,1,0
267604,324.324324324324,4,2,1,70,1,0
268252,315.789473684211,4,2,1,70,1,0
268883,307.692307692308,4,2,1,70,1,0
269498,300,4,2,1,70,1,0
273098,298.507462686567,4,2,1,70,1,0
273098,-250,4,2,1,50,0,0
281306,-333.333333333333,4,2,1,50,0,0
281978,-333.333333333333,4,2,1,5,0,0
282053,-400,4,2,1,50,0,0
282575,-400,4,2,1,5,0,0
282650,-62.5,4,2,2,100,0,0
282874,-62.5,4,2,2,5,0,0
282948,-125,4,2,2,70,0,0
283023,-125,4,2,2,5,0,0
283098,-166.666666666667,4,2,2,70,0,0
283172,-166.666666666667,4,2,2,5,0,0
283247,-250.000000000001,4,2,2,70,0,0
283321,-250.000000000001,4,2,2,5,0,0
283396,-62.5,4,2,2,100,0,0
283620,-62.5,4,2,2,5,0,0
283695,-76.9230769230769,4,2,2,100,0,0
283956,-76.9230769230769,4,2,2,5,0,0
283993,-142.857142857143,4,2,2,70,0,0
284142,-100,4,2,2,70,0,0
284889,-58.8235294117647,4,2,2,100,0,0
285112,-58.8235294117647,4,2,2,5,0,0
285187,-100,4,2,2,70,0,0
285784,-58.8235294117647,4,2,2,100,0,0
286008,-58.8235294117647,4,2,2,5,0,0
286083,-66.6666666666667,4,2,2,100,0,0
286306,-66.6666666666667,4,2,2,5,0,0
286381,-100,4,2,2,70,0,0
286530,-200,4,2,2,70,0,0
286829,-250,4,2,2,70,0,0
287426,-55.5555555555556,4,2,2,100,0,0
287650,-55.5555555555556,4,2,2,5,0,0
287724,-83.3333333333333,4,2,2,70,0,0
288172,-58.8235294117647,4,2,2,100,0,0
288396,-58.8235294117647,4,2,2,5,0,0
288471,-71.4285714285714,4,2,2,100,0,0
288695,-71.4285714285714,4,2,2,5,0,0
288769,-166.666666666667,4,2,2,70,0,0
288844,-166.666666666667,4,2,2,5,0,0
288918,-250,4,2,2,70,0,0
289142,-250,4,2,2,5,0,0
289217,-90.9090909090909,4,2,2,70,0,0
289441,-90.9090909090909,4,2,2,5,0,0
289515,-90.9090909090909,4,2,2,70,0,0
289665,-55.5555555555556,4,2,2,100,0,0
289889,-55.5555555555556,4,2,2,5,0,0
289963,-111.111111111111,4,2,2,70,0,0
290038,-111.111111111111,4,2,2,5,0,0
290112,-125,4,2,2,70,0,0
290187,-125,4,2,2,5,0,0
290262,-166.666666666667,4,2,2,70,0,0
290336,-166.666666666667,4,2,2,5,0,0
290411,-200,4,2,2,70,0,0
290486,-200,4,2,2,5,0,0
290560,-76.9230769230769,4,2,2,100,0,0
290784,-76.9230769230769,4,2,2,5,0,0
290859,-100,4,2,2,100,0,0
291083,-100,4,2,2,5,0,0
291157,-142.857142857143,4,2,2,70,0,0
291232,-142.857142857143,4,2,2,5,0,0
291306,-142.857142857143,4,2,2,70,0,0
291381,-142.857142857143,4,2,2,5,0,0
291456,-250.000000000001,4,2,2,70,0,0
292202,-66.6666666666667,4,2,2,100,0,0
292426,-58.8235294117647,4,2,2,5,0,0
292500,-71.4285714285714,4,2,2,70,0,0
292724,-55.5555555555556,4,2,2,70,0,0
292948,-58.8235294117647,4,2,2,100,0,0
293172,-58.8235294117647,4,2,2,5,0,0
293247,-62.5,4,2,2,100,0,0
293508,-62.5,4,2,2,5,0,0
293545,-100,4,2,2,70,0,0
293695,-125,4,2,2,70,0,0
294441,-58.8235294117647,4,2,2,100,0,0
294665,-58.8235294117647,4,2,2,5,0,0
294739,-83.3333333333333,4,2,2,70,0,0
295336,-58.8235294117647,4,2,2,100,0,0
295560,-58.8235294117647,4,2,2,5,0,0
295635,-62.5,4,2,2,100,0,0
295859,-62.5,4,2,2,5,0,0
295933,-100,4,2,2,70,0,0
296381,-250,4,2,2,70,0,0
296978,-58.8235294117647,4,2,2,100,0,0
297202,-58.8235294117647,4,2,2,5,0,0
297277,-83.3333333333333,4,2,2,70,0,0
297724,-62.5,4,2,2,100,0,0
297948,-62.5,4,2,2,5,0,0
298023,-55.5555555555556,4,2,2,100,0,0
298247,-55.5555555555556,4,2,2,5,0,0
298321,-166.666666666667,4,2,2,70,0,0
298396,-166.666666666667,4,2,2,5,0,0
298471,-250,4,2,2,70,0,0
298695,-250,4,2,2,5,0,0
298769,-100,4,2,2,70,0,0
298993,-100,4,2,2,5,0,0
299068,-333.333333333333,4,2,2,70,0,0
299142,-333.333333333333,4,2,2,5,0,0
299217,-166.666666666667,4,2,2,70,0,0
299963,-166.666666666667,4,3,1,70,0,0
300560,-111.111111111111,4,3,1,70,0,0
302053,-166.666666666666,4,3,1,70,0,0
302650,-99.9999999999998,4,3,1,70,0,0
304142,-58.8235294117647,4,2,1,70,0,0
306530,-100,4,1,1,70,0,0
307426,-111.111111111111,4,2,2,70,0,0
308321,-142.857142857143,4,2,2,70,0,0
308620,-142.857142857143,4,2,20,70,0,0
308918,-43.4782608695652,4,2,20,85,0,1
309142,-50,4,2,20,85,0,1
309515,-45.4545454545455,4,2,20,85,0,1
309739,-50,4,2,20,85,0,1
309963,-43.4782608695652,4,2,20,85,0,1
310112,-43.4782608695652,4,2,21,85,0,1
310187,-43.4782608695652,4,2,20,85,0,1
310262,-50,4,2,20,85,0,1
310411,-100,4,2,20,85,0,1
311306,-43.4782608695652,4,2,20,85,0,1
311605,-50,4,2,20,85,0,1
311903,-45.4545454545455,4,2,20,85,0,1
312351,-40,4,2,20,85,0,1
312500,-40,4,2,21,85,0,1
312575,-40,4,2,20,85,0,1
312650,-43.4782608695652,4,2,20,85,0,1
312799,-100,4,2,20,85,0,1
313695,-41.6666666666667,4,2,20,85,0,1
313918,-55.5555555555556,4,2,20,85,0,1
314292,-43.4782608695652,4,2,20,85,0,1
314515,-50,4,2,20,85,0,1
314739,-45.4545454545455,4,2,20,85,0,1
314889,-45.4545454545455,4,2,21,85,0,1
314963,-45.4545454545455,4,2,20,85,0,1
315187,-100,4,2,20,85,0,1
316083,-41.6666666666667,4,2,20,85,0,1
316381,-62.5,4,2,20,85,0,1
316680,-50,4,2,20,85,0,1
317127,-41.6666666666667,4,2,20,85,0,1
317277,-41.6666666666667,4,2,21,85,0,1
317351,-41.6666666666667,4,2,20,85,0,1
317426,-83.3333333333333,4,2,20,85,0,1
317575,-166.666666666667,4,2,20,85,0,1
317724,-83.3333333333333,4,2,20,85,0,1
317874,-166.666666666667,4,2,20,85,0,1
318023,-62.5,4,2,20,85,0,1
318471,-47.6190476190476,4,2,20,85,0,1
318918,-100,4,2,20,85,0,1
319068,-66.6666666666667,4,2,20,85,0,0
319105,-66.6666666666667,4,2,20,5,0,0
319292,-66.6666666666667,4,2,20,85,0,0
319329,-66.6666666666667,4,2,20,5,0,0
319515,-43.4782608695652,4,2,20,85,0,1
319814,-62.5,4,2,20,85,0,1
320859,-47.6190476190476,4,2,20,85,0,1
321157,-58.8235294117647,4,2,20,85,0,1
321306,-100,4,2,20,85,0,1
321456,-66.6666666666667,4,2,20,85,0,0
321493,-66.6666666666667,4,2,20,5,0,0
321680,-66.6666666666667,4,2,20,85,0,0
321717,-66.6666666666667,4,2,20,5,0,0
321903,-47.6190476190476,4,2,20,85,0,1
322202,-62.5,4,2,20,85,0,1
323247,-50,4,2,20,85,0,1
323396,-66.6666666666667,4,2,20,85,0,1
325635,-100,4,2,20,85,0,0
326829,-100,4,2,20,5,0,0
326978,-100,4,2,20,85,0,0
328023,-41.6666666666667,4,2,20,85,0,1
328247,-50,4,2,20,85,0,1
328620,-41.6666666666667,4,2,20,85,0,1
328844,-50,4,2,20,85,0,1
329068,-45.4545454545455,4,2,20,85,0,1
329366,-50,4,2,20,85,0,1
329515,-100,4,2,20,85,0,1
330411,-43.4782608695652,4,2,20,85,0,1
330560,-43.4782608695652,4,2,21,85,0,1
330635,-43.4782608695652,4,2,20,85,0,1
330709,-50,4,2,20,85,0,1
331008,-43.4782608695652,4,2,20,85,0,1
331456,-40,4,2,20,85,0,1
331754,-47.6190476190476,4,2,20,85,0,1
331903,-100,4,2,20,85,0,1
332799,-43.4782608695652,4,2,20,85,0,1
333098,-50,4,2,20,85,0,1
333396,-43.4782608695652,4,2,20,85,0,1
333620,-55.5555555555556,4,2,20,85,0,1
333844,-50,4,2,20,85,0,1
334292,-100,4,2,20,85,0,1
335187,-47.6190476190476,4,2,20,85,0,1
335411,-50,4,2,20,85,0,1
335784,-55.5555555555556,4,2,20,85,0,1
336232,-45.4545454545455,4,2,20,85,0,1
336530,-52.6315789473684,4,2,20,85,0,1
336978,-58.8235294117647,4,2,20,85,0,1
337277,-50,4,2,20,85,0,1
337575,-50,4,2,20,85,0,0
337874,-58.8235294117647,4,2,20,85,0,1
338620,-47.6190476190476,4,2,20,85,0,1
339068,-100,4,2,20,85,0,1
339814,-33.3333333333333,4,2,20,85,0,0
340112,-33.3333333333333,4,2,21,85,0,0
340187,-33.3333333333333,4,2,20,85,0,0
340262,-50,4,2,20,85,0,1
340560,-58.8235294117647,4,2,20,85,0,1
340859,-58.8235294117647,4,2,22,85,0,1
340933,-58.8235294117647,4,2,20,85,0,1
341008,-41.6666666666667,4,2,20,85,0,1
341232,-62.5,4,2,20,85,0,1
341456,-50,4,2,20,85,0,1
342351,-58.8235294117647,4,2,20,85,0,1
343545,-52.6315789473684,4,2,20,85,0,1
344292,-200,4,2,20,85,0,1
344590,-100,4,2,20,70,0,0
346344,-100,4,2,20,5,0,0
346381,-100,4,2,20,70,0,0
347127,-66.6666666666667,4,2,15,70,0,0
347575,-43.4782608695652,4,2,15,70,0,0
347874,-47.6190476190476,4,2,15,70,0,0
348172,-52.6315789473684,4,2,15,70,0,0
348471,-62.5,4,2,15,70,0,0
348769,-66.6666666666667,4,2,15,70,0,0
349515,-58.8235294117647,4,2,15,70,0,0
349963,-41.6666666666667,4,2,15,70,0,0
350262,-45.4545454545455,4,2,15,70,0,0
350560,-50,4,2,15,70,0,0
350859,-55.5555555555556,4,2,15,70,0,0
351157,-83.3333333333333,4,2,15,70,0,0
351306,-62.5,4,2,15,70,0,0
351903,-200,4,2,6,70,0,0
352127,-200,4,2,6,5,0,0
352202,-47.6190476190476,4,2,6,70,0,0
352426,-47.6190476190476,4,2,6,5,0,0
352500,-100,4,2,6,70,0,0
353097,-66.6666666666667,4,2,6,70,0,0
353396,-100,4,2,6,70,0,0
353433,-100,4,2,6,5,0,0
353471,-100,4,2,6,70,0,0
353508,-100,4,2,6,5,0,0
353545,-100,4,2,6,70,0,0
353583,-100,4,2,6,5,0,0
353620,-100,4,2,6,70,0,0
353657,-100,4,2,6,5,0,0
353695,-100,4,2,6,70,0,0
353732,-100,4,2,6,5,0,0
353769,-100,4,2,6,70,0,0
353806,-100,4,2,6,5,0,0
353844,-100,4,2,6,70,0,0
353881,-100,4,2,6,5,0,0
353918,-100,4,2,6,70,0,0
353956,-100,4,2,6,5,0,0
353993,-100,4,2,6,70,0,0
354030,-100,4,2,6,5,0,0
354068,-100,4,2,6,70,0,0
354105,-100,4,2,6,5,0,0
354142,-100,4,2,6,70,0,0
354180,-100,4,2,6,5,0,0
354217,-100,4,2,6,70,0,0
354254,-100,4,2,6,5,0,0
354292,-55.5555555555556,4,2,6,70,0,0
354553,-55.5555555555556,4,2,6,5,0,0
354590,-55.5555555555556,4,2,6,70,0,0
354739,-71.4285714285714,4,2,6,70,0,0
355038,-90.9090909090909,4,2,6,70,0,0
355486,-55.5555555555556,4,2,6,70,0,0
355784,-100,4,2,6,70,0,0
355821,-100,4,2,6,5,0,0
355859,-100,4,2,6,70,0,0
355896,-100,4,2,6,5,0,0
355933,-100,4,2,6,70,0,0
355971,-100,4,2,6,5,0,0
356008,-100,4,2,6,70,0,0
356045,-100,4,2,6,5,0,0
356083,-71.4285714285714,4,2,6,70,0,0
356232,-62.5,4,2,6,70,0,0
356605,-62.5,4,2,6,5,0,0
356680,-62.5,4,2,15,70,0,0
357127,-43.4782608695652,4,2,15,70,0,0
357426,-47.6190476190476,4,2,15,70,0,0
357724,-52.6315789473684,4,2,15,70,0,0
358023,-58.8235294117647,4,2,15,70,0,0
358321,-66.6666666666667,4,2,15,70,0,0
359068,-90.9090909090909,4,2,15,70,0,0
359515,-43.4782608695652,4,2,15,70,0,0
359814,-47.6190476190476,4,2,15,70,0,0
360112,-52.6315789473684,4,2,15,70,0,0
360411,-71.4285714285714,4,2,15,70,0,0
360859,-47.6190476190476,4,2,15,70,0,0
361083,-66.6666666666667,4,2,15,70,0,0
361456,-200,4,2,6,70,0,0
361754,-45.4545454545455,4,2,6,70,0,0
362053,-100,4,2,6,70,0,0
362650,-66.6666666666667,4,2,6,70,0,0
362948,-100,4,2,6,70,0,0
362986,-100,4,2,6,5,0,0
363023,-100,4,2,6,70,0,0
363060,-100,4,2,6,5,0,0
363097,-100,4,2,6,70,0,0
363135,-100,4,2,6,5,0,0
363172,-100,4,2,6,70,0,0
363209,-100,4,2,6,5,0,0
363247,-100,4,2,6,70,0,0
363284,-100,4,2,6,5,0,0
363321,-100,4,2,6,70,0,0
363359,-100,4,2,6,5,0,0
363396,-100,4,2,6,70,0,0
363433,-100,4,2,6,5,0,0
363471,-100,4,2,6,70,0,0
363508,-100,4,2,6,5,0,0
363545,-100,4,2,6,70,0,0
363583,-100,4,2,6,5,0,0
363620,-100,4,2,6,70,0,0
363657,-100,4,2,6,5,0,0
363695,-100,4,2,6,70,0,0
363732,-100,4,2,6,5,0,0
363769,-100,4,2,6,70,0,0
363806,-100,4,2,6,5,0,0
363844,-55.5555555555556,4,2,6,70,0,0
364105,-55.5555555555556,4,2,6,5,0,0
364142,-55.5555555555556,4,2,6,70,0,0
364292,-71.4285714285714,4,2,6,70,0,0
364441,-142.857142857143,4,2,6,70,0,0
364889,-58.8235294117647,4,2,5,70,0,0
365187,-90.9090909090909,4,2,5,70,0,0
369665,-66.6666666666667,4,2,5,70,0,0
370112,-90.9090909090909,4,2,5,70,0,0
372202,-66.6666666666667,4,2,1,70,0,0
373993,-43.4782608695652,4,2,1,70,0,0
374142,-66.6666666666667,4,2,1,70,0,0
374292,-55.5555555555556,4,2,1,70,0,0
374590,-58.8235294117647,4,1,1,70,0,0
375784,-250,4,2,1,70,0,0
375859,-250,4,2,1,5,0,0
375933,-250,4,2,1,70,0,0
376008,-250,4,2,1,5,0,0
376083,-555.555555555556,4,2,1,70,0,0
376306,-555.555555555556,4,2,1,5,0,0
376381,-250,4,2,1,70,0,0
376456,-250,4,2,1,5,0,0
376530,-250,4,2,1,70,0,0
376605,-250,4,2,1,5,0,0
376680,-333.333333333333,4,2,1,70,0,0
376978,-50,4,2,3,85,0,1
377724,-62.5,4,2,3,85,0,1
377874,-125,4,2,3,85,0,1
378023,-62.5,4,2,3,85,0,1
378172,-50,4,2,3,85,0,1
378321,-62.5,4,2,3,85,0,1
378471,-125,4,2,3,85,0,1
378620,-50,4,2,3,85,0,1
378769,-41.6666666666667,4,2,3,85,0,1
378881,-41.6666666666667,4,2,3,5,0,1
378918,-50,4,2,3,85,0,1
379366,-45.4545454545455,4,2,3,85,0,1
380112,-62.5,4,2,3,85,0,1
380262,-125,4,2,3,85,0,1
380411,-50,4,2,3,85,0,1
380560,-62.5,4,2,3,85,0,1
380859,-125,4,2,3,85,0,1
381008,-43.4782608695652,4,2,3,85,0,1
381120,-43.4782608695652,4,2,3,5,0,1
381157,-52.6315789473684,4,2,3,85,0,1
381456,-38.4615384615385,4,2,3,85,0,1
381754,-50,4,2,3,85,0,1
382500,-62.5,4,2,3,85,0,1
382650,-125,4,2,3,85,0,1
382799,-50,4,2,3,85,0,1
382948,-50,4,2,3,85,0,1
383097,-62.5,4,2,3,85,0,1
383247,-125,4,2,3,85,0,1
383396,-50,4,2,3,85,0,1
384142,-62.5,4,2,3,85,0,1
386530,-50,4,2,3,85,0,1
387277,-62.5,4,2,3,85,0,1
387426,-125,4,2,3,85,0,1
387575,-50,4,2,3,85,0,1
387724,-62.5,4,2,3,85,0,1
388023,-125,4,2,3,85,0,1
388247,-50,4,2,3,85,0,1
388732,-50,4,2,3,5,0,1
388769,-50,4,2,3,85,0,1
389068,-12.5,4,2,3,85,0,1
389217,-50,4,2,3,85,0,1
389665,-62.5,4,2,3,85,0,1
389814,-125,4,2,3,85,0,1
389963,-50,4,2,3,85,0,1
390112,-52.6315789473684,4,2,3,85,0,1
391008,-38.4615384615385,4,2,3,85,0,1
391306,-47.6190476190476,4,2,3,85,0,1
393097,-52.6315789473684,4,2,3,85,0,1
393695,-83.3333333333333,4,2,3,85,0,1
394441,-100,4,2,3,85,0,1
394739,-125,4,2,3,85,0,1
395336,-200,4,2,3,85,0,1
395933,-200,4,2,3,5,0,1
396008,-200,4,2,3,5,0,1
396083,-333.333333333333,4,2,1,50,0,0
405635,-333.333333333333,4,2,1,40,0,0
415187,-333.333333333333,4,2,1,30,0,0
420560,-384.615384615385,4,2,1,70,0,0
421157,-384.615384615385,4,2,2,68,0,0
421754,-384.615384615385,4,2,1,66,0,0
422351,-384.615384615385,4,2,2,64,0,0
422948,-384.615384615385,4,2,1,62,0,0
423545,-384.615384615385,4,2,2,60,0,0
424142,-384.615384615385,4,2,1,58,0,0
424739,-384.615384615385,4,2,2,56,0,0
425336,-384.615384615385,4,2,1,54,0,0
425933,-384.615384615385,4,2,2,52,0,0
426530,-384.615384615385,4,2,1,50,0,0
427127,-384.615384615385,4,2,2,48,0,0
427724,-384.615384615385,4,2,1,46,0,0
428321,-384.615384615385,4,2,2,44,0,0
428918,-384.615384615385,4,2,1,42,0,0
429515,-384.615384615385,4,2,2,40,0,0
430112,-384.615384615385,4,2,1,38,0,0
430709,-384.615384615385,4,2,2,36,0,0
431306,-384.615384615385,4,2,1,34,0,0
431903,-384.615384615385,4,2,2,32,0,0
432500,-384.615384615385,4,2,1,30,0,0
433097,-384.615384615385,4,2,2,28,0,0
433695,-384.615384615385,4,2,1,26,0,0
434292,-384.615384615385,4,2,2,24,0,0
434889,-384.615384615385,4,2,1,22,0,0
435486,-384.615384615385,4,2,2,20,0,0
436083,-384.615384615385,4,2,1,10,0,0
436680,-1000,4,2,2,5,0,0

[Colours]
Combo1 : 255,66,180
Combo2 : 224,224,180
Combo3 : 158,177,199
Combo4 : 255,255,102
Combo5 : 91,145,255
Combo6 : 62,255,124

[HitObjects]
404,127,470,5,0,0:0:0:0:
404,127,1465,1,0,0:0:0:0:
404,127,2460,1,0,0:0:0:0:
416,346,2858,5,0,0:0:0:0:
384,355,3007,1,0,0:0:0:0:
352,365,3156,1,0,0:0:0:0:
234,307,3305,69,0,0:0:0:0:
39,143,5246,5,0,0:0:0:0:
48,174,5395,1,0,0:0:0:0:
57,205,5544,1,0,0:0:0:0:
152,151,5693,69,0,0:0:0:0:
193,317,7634,5,0,0:0:0:0:
106,363,7783,1,0,0:0:0:0:
18,357,7932,1,0,0:0:0:0:
108,266,8081,69,0,0:0:0:0:
333,78,10022,5,0,0:0:0:0:
457,116,10171,1,0,0:0:0:0:
363,204,10320,1,0,0:0:0:0:
384,134,10469,69,0,0:0:0:0:
39,105,12410,6,0,L|84:100,2,44,10|0|0,0:0|0:0|0:0,0:0:0:0:
132,164,12858,1,0,0:0:0:0:
330,10,13156,69,0,0:0:0:0:
317,115,13455,1,0,0:0:0:0:
302,219,13753,1,0,0:0:0:0:
109,309,14052,5,0,0:0:0:0:
21,241,14201,2,0,P|58:249|70:258,1,44
204,378,14499,2,0,P|167:370|155:361,1,44
457,282,14798,70,0,L|462:236,2,44,2|0|0,0:0|0:0|0:0,0:0:0:0:
446,362,15246,1,0,0:0:0:0:
93,172,15544,5,0,0:0:0:0:
198,183,15843,1,0,0:0:0:0:
302,195,16141,1,0,0:0:0:0:
386,66,16440,69,0,0:0:0:0:
254,16,16589,2,0,L|261:63,1,44
506,98,16887,2,0,L|513:145,1,44
149,60,17186,6,0,L|90:41,2,44,2|0|0,0:0|0:0|0:0,0:0:0:0:
40,17,17634,1,0,0:0:0:0:
258,270,17932,69,0,0:0:0:0:
155,295,18231,1,0,0:0:0:0:
51,316,18529,1,0,0:0:0:0:
386,182,18828,5,0,0:0:0:0:
491,232,18977,2,0,L|443:222,1,44
369,319,19275,2,0,L|318:308,1,44
211,100,19574,70,0,L|207:57,2,44,2|0|0,0:0|0:0|0:0,0:0:0:0:
213,113,20022,1,0,0:0:0:0:
8,63,20320,5,0,0:0:0:0:
17,177,20619,1,0,0:0:0:0:
26,290,20917,1,0,0:0:0:0:
138,340,21216,69,0,0:0:0:0:
240,345,21365,2,0,P|248:315|245:291,1,44,2|0,0:0|0:0,0:0:0:0:
335,373,21664,2,0,P|356:351|366:329,1,44
500,207,21962,5,2,0:0:0:0:
404,239,22111,1,0,0:0:0:0:
468,287,22261,1,0,0:0:0:0:
423,126,22410,1,0,0:0:0:0:
281,0,22708,69,0,0:0:0:0:
251,101,23007,1,0,0:0:0:0:
354,83,23305,1,0,0:0:0:0:
121,66,23604,5,0,0:0:0:0:
76,132,23753,2,0,L|87:195,1,44
6,33,24052,2,0,L|15:90,1,44
107,363,24350,69,2,0:0:0:0:
168,310,24499,1,0,0:0:0:0:
148,233,24649,1,0,0:0:0:0:
27,348,24798,1,0,0:0:0:0:
282,269,25096,5,0,0:0:0:0:
385,289,25395,1,0,0:0:0:0:
488,311,25693,1,0,0:0:0:0:
401,32,25992,69,0,0:0:0:0:
353,138,26141,1,0,0:0:0:0:
338,69,26290,1,0,0:0:0:0:
454,85,26440,1,0,0:0:0:0:
423,149,26589,1,0,0:0:0:0:
160,170,26738,5,2,0:0:0:0:
203,162,26887,1,0,0:0:0:0:
246,154,27037,1,0,0:0:0:0:
325,217,27186,1,0,0:0:0:0:
133,291,27484,69,0,0:0:0:0:
80,40,27783,1,2,0:0:0:0:
80,40,28081,2,0,P|95:72|95:93,1,44
29,251,28380,6,0,L|32:227,3,14.6666666666667
254,314,28678,2,0,L|251:338,3,14.6666666666667
252,328,28977,1,0,0:0:0:0:
395,199,29126,69,2,0:0:0:0:
338,127,29275,1,0,0:0:0:0:
426,115,29425,1,0,0:0:0:0:
387,149,29574,5,0,0:0:0:0:
494,329,29872,69,0,0:0:0:0:
149,300,30171,2,0,B|155:320|177:344|216:336|216:336|292:315,1,148.49999546814,2|0,0:0|0:0,0:0:0:0:
407,318,30917,6,0,B|376:312|376:312|311:331,1,96.25
96,287,31514,70,2,B|27:306|27:306|58:100,1,247.500009441376,8|0,0:0|0:0,0:0:0:0:
137,32,31813,6,0,P|143:47|129:95,1,49.4999984893799,2|0,0:0|0:0,0:0:0:0:
273,55,31962,2,0,P|263:77|242:98,1,38.4999988250733,2|0,0:0|0:0,0:0:0:0:
342,166,32111,2,0,P|326:176|304:178,1,27.5,2|0,0:0|0:0,0:0:0:0:
129,216,32261,70,2,P|209:153|199:258,1,264,8|0,0:0|0:0,0:0:0:0:
430,69,32559,6,2,B|456:157|456:157|425:236|425:236|462:355,1,285.99998690796,8|0,0:0|0:0,0:0:0:0:
458,341,33007,69,2,0:2:0:0:
388,320,33081,1,2,0:2:0:0:
334,321,33156,1,2,0:2:0:0:
288,343,33231,1,2,0:2:0:0:
251,365,33305,1,2,0:2:0:0:
222,363,33380,1,2,0:2:0:0:
203,340,33455,1,2,0:2:0:0:
212,320,33529,1,2,0:2:0:0:
233,323,33604,1,2,0:2:0:0:
43,176,33753,6,2,B|247:142|247:142|176:103,1,280.500005350113,8|0,0:0|0:0,0:0:0:0:
103,46,34052,69,0,0:0:0:0:
284,24,34201,1,0,0:0:0:0:
294,21,34275,2,0,B|301:34|301:34|273:92,1,55
197,227,34499,6,0,L|256:214,1,55
465,147,34649,70,2,P|359:142|431:229,1,264,8|0,0:0|0:0,0:0:0:0:
139,316,34947,6,2,B|80:279|80:279|74:102,1,230.99999295044,8|0,0:0|0:0,0:0:0:0:
103,46,35246,70,0,P|71:65|57:91,1,55
250,215,35395,2,0,P|293:179|301:146,1,55
225,13,35544,6,0,L|230:57,4,27.5
465,147,35992,69,0,0:0:0:0:
466,163,36067,1,0,0:0:0:0:
467,179,36141,1,0,0:0:0:0:
468,195,36216,1,0,0:0:0:0:
504,275,36290,6,2,B|405:281|405:281|326:218|326:218|195:229,1,296.99999093628,8|0,0:0|0:0,0:0:0:0:
90,144,36589,70,0,P|79:169|75:188,1,41.2500015735627,0|0,3:0|3:0,3:0:0:0:
57,150,36664,2,0,P|56:183|74:210,1,41.2500015735627,0|0,3:0|3:0,3:0:0:0:
35,166,36738,2,0,P|37:189|60:212,1,41.2500015735627,0|0,3:0|3:0,3:0:0:0:
26,186,36813,2,0,P|40:214|61:224,1,41.2500015735627,0|0,3:0|3:0,3:0:0:0:
22,197,36887,2,0,P|32:218|63:230,1,41.2500015735627,0|0,3:0|3:0,3:0:0:0:
159,318,37037,6,2,B|161:348|151:369|151:369|219:334|260:330|260:330|314:377|376:377|415:368,1,280.500005350113,8|0,0:0|0:0,0:0:0:0:
446,61,37335,70,2,B|376:7|376:7|393:187,1,247.500009441376,8|0,0:0|0:0,0:0:0:0:
400,239,37634,6,0,L|394:187,1,32.99999899292
203,41,37783,70,0,L|210:123,1,66
297,8,38081,2,0,L|313:194,1,181.500005538941
325,359,38380,1,0,0:0:0:0:
40,232,38529,6,2,B|1:166|1:166|188:185,1,264,8|0,0:0|0:0,0:0:0:0:
444,359,38828,70,0,P|446:331|418:287,1,49.4999984893799,2|0,0:1|0:0,0:0:0:0:
365,284,38977,2,0,P|349:266|322:254,1,44,2|0,0:1|0:0,0:0:0:0:
250,291,39126,2,0,P|227:288|194:301,1,32.99999899292,2|0,0:1|0:0,0:0:0:0:
195,371,39275,2,0,P|176:380|151:397,1,27.5,2|0,0:1|0:0,0:0:0:0:
505,268,39425,6,2,B|515:235|489:205|489:205|430:194|415:119|415:119|452:46,1,214.49999018097,8|0,0:0|0:0,0:0:0:0:
219,47,39723,70,2,B|340:64|340:64|296:103,1,165,8|0,0:0|0:0,0:0:0:0:
72,34,40022,6,0,L|71:74,1,38.4999988250733
69,147,40171,2,0,L|67:191,1,38.4999988250733
64,298,40320,69,8,0:0:0:0:
362,141,41067,6,2,B|343:186|343:186|413:318|413:318|389:377,1,247.500009441376,8|0,0:0|0:0,0:0:0:0:
473,200,41365,69,2,0:0:0:0:
473,200,41440,2,0,P|479:171|475:201,1,93.500001783371,2|2,0:0|0:0,0:0:0:0:
272,40,41589,2,0,P|284:17|273:41,1,76.9999976501466,2|0,0:0|0:0,0:0:0:0:
203,355,41813,6,2,P|308:324|190:290,1,280.500005350113,8|0,0:0|0:0,0:0:0:0:
46,55,42111,70,2,B|20:79|-9:78|-9:78|70:79|111:164|234:132,1,285.99998690796,8|0,0:0|0:0,0:0:0:0:
203,137,42559,5,2,0:0:0:0:
266,172,42634,1,2,0:0:0:0:
319,169,42708,1,2,0:0:0:0:
348,145,42783,1,2,0:0:0:0:
366,114,42858,1,2,0:0:0:0:
383,101,42932,1,2,0:0:0:0:
396,102,43007,1,2,0:0:0:0:
404,111,43081,1,2,0:0:0:0:
402,124,43156,1,2,0:0:0:0:
439,296,43305,70,2,B|250:337|250:337|304:230,1,264,8|0,0:0|0:0,0:0:0:0:
194,198,43604,5,0,0:0:0:0:
194,198,43678,2,0,P|166:223|162:260,1,49.4999984893799
132,333,43828,1,0,0:0:0:0:
132,333,43902,2,0,P|141:368|170:391,1,49.4999984893799
69,255,44052,70,0,P|49:242|25:237,1,49.4999984893799
117,60,44201,6,2,P|89:155|46:62,1,247.500009441376,8|0,0:0|0:0,0:0:0:0:
253,29,44499,70,2,B|326:27|326:27|383:60|383:60|472:58,1,214.49999018097,8|0,0:0|0:0,0:0:0:0:
294,224,44798,6,0,L|249:227,1,32.99999899292
431,220,44947,1,0,0:0:0:0:
431,220,45022,1,0,0:0:0:0:
431,220,45096,2,0,L|475:216,1,32.99999899292
352,126,45246,70,0,L|358:194,1,55
364,260,45395,2,0,L|369:323,1,55
497,303,45544,6,0,L|419:309,1,55
294,318,45693,2,0,L|209:323,1,55
54,226,45843,70,2,P|46:330|112:253,1,264,8|0,0:0|0:0,0:0:0:0:
47,55,46141,6,0,P|58:80|62:99,1,38.4999988250733,0|0,3:0|3:0,3:0:0:0:
80,62,46216,2,0,P|81:95|63:122,1,38.4999988250733,0|0,3:0|3:0,3:0:0:0:
102,77,46290,2,0,P|100:100|77:123,1,38.4999988250733,0|0,3:0|3:0,3:0:0:0:
111,97,46365,2,0,P|97:125|76:135,1,38.4999988250733,0|0,3:0|3:0,3:0:0:0:
115,108,46439,2,0,P|105:129|74:141,1,38.4999988250733,0|0,3:0|3:0,3:0:0:0:
260,106,46589,70,2,B|304:111|304:111|368:65|368:65|486:79|486:79|450:102,1,264,8|0,0:0|0:0,0:0:0:0:
452,314,46887,6,2,B|422:332|422:332|274:316|274:316|205:343,1,214.49999018097,8|0,0:0|0:0,0:0:0:0:
254,286,47186,70,0,L|303:262,1,32.99999899292
132,238,47335,6,0,L|210:203,1,66
0,191,47634,2,0,L|195:103,1,165
15,31,47932,70,0,L|43:42,1,16.49999949646
315,142,48081,1,12,0:0:0:0:
256,192,48119,12,0,52372,0:0:0:0:
413,64,52410,6,0,L|418:114,1,46.2000011279297
437,322,53007,69,8,0:0:0:0:
98,340,53305,6,0,L|54:346,3,32.99999899292,0|0|0|0,1:0|0:0|0:0|0:0,0:0:0:0:
274,302,53604,2,0,L|321:311,3,32.99999899292,0|0|0|0,1:0|3:0|3:0|3:0,3:0:0:0:
35,125,53902,69,0,1:3:0:0:
35,125,53977,1,0,3:0:0:0:
35,125,54052,2,0,P|68:127|94:144,1,41.2500015735627,2|0,3:0|3:0,0:0:0:0:
214,192,54201,5,0,1:3:0:0:
214,192,54276,1,0,3:0:0:0:
214,192,54351,2,0,P|186:209|155:211,1,41.2500015735627,2|0,3:0|3:0,0:0:0:0:
26,245,54499,69,0,1:3:0:0:
26,245,54574,1,0,3:0:0:0:
26,245,54649,2,0,P|38:214|62:194,1,41.2500015735627,2|0,3:0|3:0,0:0:0:0:
151,93,54798,5,0,1:3:0:0:
151,93,54873,1,0,3:0:0:0:
151,93,54948,2,0,P|159:125|151:154,1,41.2500015735627,2|0,3:0|3:0,0:0:0:0:
141,277,55096,69,0,1:3:0:0:
132,271,55170,1,0,3:0:0:0:
123,265,55245,1,0,3:0:0:0:
117,257,55319,1,0,3:0:0:0:
111,249,55394,1,0,1:0:0:0:
471,55,55693,6,0,L|463:124,3,38.4999988250733,0|0|0|0,1:3|0:0|0:0|0:0,0:0:0:0:
245,13,55992,2,0,L|256:61,3,38.4999988250733,0|0|0|0,1:3|0:0|0:0|0:0,0:0:0:0:
384,149,56290,70,0,P|359:148|336:156,1,49.4999984893799,0|0,1:0|2:0,0:0:0:0:
213,305,56440,2,0,L|191:310,1,16.49999949646
273,119,56589,6,0,P|264:142|264:166,1,49.4999984893799,0|0,1:0|2:0,2:0:0:0:
367,333,56739,2,0,L|364:370,2,24.74999924469
208,216,56887,70,0,P|227:231|250:238,1,49.4999984893799,0|0,1:0|2:0,0:0:0:0:
449,191,57037,2,0,L|483:204,2,30.2500009231568
285,303,57186,6,0,P|305:289|319:269,1,49.4999984893799,0|0,1:0|2:0,2:0:0:0:
342,83,57336,2,0,L|371:45,1,38.4999988250733
392,262,57484,70,0,P|385:237|370:218,1,49.4999984893799,0|0,1:0|2:0,0:0:0:0:
200,141,57634,2,0,L|157:73,2,46.7500008916855
193,268,57783,6,0,B|201:318|201:318|204:321|204:321|202:324|202:324|210:370,1,104.499997209549,0|0,1:0|0:0,0:0:0:0:
136,363,57932,2,0,B|129:312|129:312|126:309|126:309|128:306|128:306|120:260,1,104.499997209549,0|0,1:0|0:0,0:0:0:0:
319,268,58081,70,0,B|311:318|311:318|308:321|308:321|310:324|310:324|302:370,1,104.499997209549,0|0,1:0|0:0,0:0:0:0:
376,363,58230,2,0,B|383:312|383:312|386:309|386:309|384:306|384:306|392:260,1,104.499997209549,0|0,1:0|0:0,0:0:0:0:
170,83,58380,6,0,B|178:133|178:133|181:136|181:136|179:139|179:139|187:185,1,104.499997209549,0|0,1:0|0:0,0:0:0:0:
92,171,58529,2,0,B|85:120|85:120|82:117|82:117|84:114|84:114|76:68,1,104.499997209549,0|0,1:0|0:0,0:0:0:0:
342,83,58678,70,0,B|334:133|334:133|331:136|331:136|333:139|333:139|325:185,1,104.499997209549,0|0,1:0|0:0,0:0:0:0:
420,169,58828,2,0,B|427:118|427:118|430:115|430:115|428:112|428:112|436:66,1,104.499997209549,0|0,1:0|0:0,0:0:0:0:
156,260,58977,6,0,B|153:302|153:302|182:349,1,88,0|0,1:0|0:0,0:0:0:0:
334,341,59126,2,0,B|359:302|359:302|356:260,1,88,0|0,1:0|0:0,0:0:0:0:
136,166,59275,70,0,B|111:205|111:205|114:247,1,88,0|0,1:0|0:0,0:0:0:0:
395,241,59424,2,0,B|398:199|398:199|373:159,1,88,0|0,1:0|0:0,0:0:0:0:
170,83,59574,6,0,B|134:57|134:57|118:16,1,88,0|0,1:0|0:0,0:0:0:0:
393,16,59723,2,0,B|377:57|377:57|342:83,1,88,0|0,1:0|0:0,0:0:0:0:
100,155,59872,70,0,B|59:138|59:138|10:64,1,88,0|0,1:0|0:0,0:0:0:0:
412,155,60022,2,0,B|453:138|453:138|502:64,1,88,0|0,1:0|0:0,0:0:0:0:
256,160,60171,5,0,1:0:0:0:
250,173,60246,1,0,1:0:0:0:
245,186,60320,1,0,1:0:0:0:
245,199,60395,1,0,1:0:0:0:
245,212,60469,1,0,1:0:0:0:
248,225,60544,1,0,1:0:0:0:
253,238,60619,1,0,1:0:0:0:
258,250,60693,1,0,1:0:0:0:
260,263,60768,1,0,1:0:0:0:
266,275,60843,1,0,1:0:0:0:
267,288,60917,1,0,1:0:0:0:
269,301,60992,1,0,1:0:0:0:
267,315,61067,2,0,P|258:351|228:380,1,49.4999984893799,2|0,0:3|0:0,0:0:0:0:
143,235,61216,69,0,0:0:0:0:
143,235,61291,1,0,0:0:0:0:
143,234,61366,2,0,P|165:225|190:224,1,49.4999984893799,2|0,0:3|0:0,0:0:0:0:
142,384,61514,5,0,0:0:0:0:
142,384,61589,1,0,0:0:0:0:
142,384,61664,2,0,P|122:368|109:347,1,49.4999984893799,2|0,0:3|0:0,0:0:0:0:
251,120,61813,69,0,0:0:0:0:
251,120,61887,1,0,0:0:0:0:
251,120,61962,2,0,L|261:62,3,38.4999988250733
97,125,62261,21,2,0:0:0:0:
87,127,62310,1,2,0:0:0:0:
77,129,62360,1,2,0:0:0:0:
67,131,62410,1,2,0:0:0:0:
57,133,62460,1,2,0:0:0:0:
47,135,62509,1,2,0:0:0:0:
21,119,62559,6,0,P|4:69|79:1,1,121.000003692627,6|0,3:2|0:0,0:0:0:0:
429,335,62858,70,0,B|437:388|437:388|410:332,1,98.9999969787599,0|0,1:0|0:0,0:0:0:0:
503,90,63156,6,2,B|517:87|517:87|488:121|488:121|424:139|424:139|425:145|425:145|424:139|424:139|360:157|360:157|362:150|362:150|302:166|302:166|300:160|300:160|300:167|300:167|239:183|239:183|211:214|211:214|249:210,1,404.24998766327,2|0,0:1|0:0,0:0:0:0:
223,212,63455,1,0,1:0:0:0:
486,211,63604,70,2,B|500:208|500:208|471:242|471:242|406:259|406:259|404:253|404:253|406:259|406:259|342:273|342:273|347:276|347:276|286:290|286:290|285:295|285:295|281:291|281:291|222:304|222:304|194:335|194:335|232:331,1,404.24998766327,2|0,0:1|0:0,0:0:0:0:
212,333,63903,1,0,3:0:0:0:
365,34,64052,6,2,B|341:54|341:54|190:94,1,173.24999471283,2|0,1:1|0:0,0:0:0:0:
197,87,64201,70,0,P|189:71|190:48,1,24.74999924469
104,345,64350,2,0,B|116:337|116:337|81:287|10:307,1,110
334,232,64499,5,0,3:0:0:0:
409,149,64649,2,0,P|407:188|390:226,1,82.5000031471254,0|0,1:0|0:0,0:0:0:0:
368,330,64798,2,0,P|334:309|310:275,1,82.5000031471254
115,187,64947,70,0,B|89:207|46:207|46:207|114:214|167:270|167:270|227:177|321:187,1,379.500007238388,0|0,3:0|0:0,0:0:0:0:
64,44,65246,6,0,B|54:28|59:2|59:2|40:20|32:50|36:99,1,115.49999647522,0|0,1:0|0:0,0:0:0:0:
293,64,65544,70,2,B|279:73|279:73|264:128|264:128|276:113|276:113|262:175|262:175|248:196|248:196|241:223|241:223|236:225|236:225|241:226|241:226|232:263|232:263|245:247|245:247|229:317|229:317|214:343|214:343|205:382,1,385,2|0,0:1|0:0,0:0:0:0:
214,348,65843,1,0,1:0:0:0:
437,66,65992,6,2,B|434:80|434:80|417:104|417:104|401:174|401:174|414:159|414:159|406:194|406:194|411:196|411:196|405:198|405:198|398:225|398:225|384:246|384:246|370:309|370:309|382:293|382:293|371:341|371:341|350:360,1,385,2|0,0:1|0:0,0:0:0:0:
360,352,66291,1,0,3:0:0:0:
154,70,66440,70,2,B|129:82|129:82|109:149|109:149|114:165|114:165|86:257,1,173.24999471283,2|0,1:0|0:0,0:0:0:0:
100,227,66589,6,0,P|139:198|190:196,1,82.5000031471254
360,352,66738,2,0,P|316:332|288:289,1,82.5000031471254,0|0,3:0|0:0,0:0:0:0:
338,58,66887,2,0,P|342:106|319:151,1,82.5000031471254,0|0,3:0|0:0,0:0:0:0:
53,319,67037,70,2,B|-14:278|-14:278|15:144|168:76|277:96,1,445.500001699448,0|0,1:0|0:0,0:0:0:0:
457,120,67335,6,0,P|519:40|453:117,1,313.499991628647,8|0,3:2|0:0,0:0:0:0:
430,291,67634,70,0,B|452:365|452:365|522:368|556:290|537:216|479:186|416:194,1,346.49998942566,8|0,1:2|0:0,0:0:0:0:
0,182,67932,6,2,B|34:172|34:172|25:170|25:170|40:166|40:166|56:170|56:170|48:172|48:172|187:204|187:204|179:208|179:208|310:239|310:239|302:244|302:244|319:248|319:248|335:243|335:243|326:239|326:239|378:222,1,461.999985900879,2|0,0:1|0:0,0:0:0:0:
362,228,68231,1,0,1:0:0:0:
42,295,68380,70,2,B|76:285|76:285|67:283|67:283|82:279|82:279|98:283|98:283|90:285|90:285|226:323|226:323|219:314|219:314|352:352|352:352|344:357|344:357|361:361|361:361|377:356|377:356|368:352|368:352|420:335,1,461.999985900879,2|0,0:1|0:0,0:0:0:0:
399,341,68678,1,0,3:0:0:0:
114,67,68828,6,2,B|99:43|99:43|238:75|238:75|271:138,1,197.99999395752,2|0,1:1|0:0,0:0:0:0:
255,104,68977,70,0,L|297:114,1,24.74999924469
508,295,69126,6,0,B|503:231|503:231|487:185|487:185|482:102,1,181.500005538941
478,16,69275,1,0,3:0:0:0:
202,244,69425,70,0,B|179:283|179:283|272:257|272:257|295:217|295:217|388:190|388:190|365:230,1,330,0|0,1:0|0:0,0:0:0:0:
102,369,69723,53,0,3:0:0:0:
52,350,69797,1,0,0:0:0:0:
21,307,69872,1,0,0:0:0:0:
21,254,69946,1,0,0:0:0:0:
50,211,70022,2,0,P|96:186|144:196,1,71.4999967269899,0|0,1:0|0:0,0:0:0:0:
275,14,70171,6,0,B|125:26|125:26|212:89,1,214.49999018097
234,368,70469,70,0,L|221:233,1,107.249995090485,0|0,3:0|0:0,0:0:0:0:
219,214,70619,1,0,1:0:0:0:
488,246,70768,2,0,B|405:253|450:298|352:310,1,142.99999345398
61,71,71067,6,0,L|164:64,1,82.5,0|0,3:0|0:0,0:0:0:0:
176,63,71216,1,0,1:0:0:0:
113,282,71365,70,0,B|134:268|134:268|130:189,1,82.5
131,194,71514,1,0,3:0:0:0:
293,118,71664,2,0,L|305:83,1,27.5,0|0,3:0|0:0,0:0:0:0:
364,308,71813,5,0,3:0:0:0:
366,318,71887,1,0,3:0:0:0:
368,328,71962,1,0,3:0:0:0:
370,338,72037,1,0,3:0:0:0:
452,365,72111,6,0,P|464:304|418:248,1,121.000003692627,4|0,3:2|0:0,0:0:0:0:
43,12,72410,6,0,B|29:25|-6:29|-6:29|36:30|47:22,1,98.9999969787599,0|0,1:0|0:0,0:0:0:0:
126,346,72708,70,2,B|123:357|123:357|166:328|177:293|177:293|182:294|182:294|178:291|178:291|190:255|175:197|175:197|170:213|170:213|154:156|166:120|166:120|162:118|162:118|166:119|166:119|178:85|222:53|222:53|214:77,1,423.500012924195,2|0,0:1|0:0,0:0:0:0:
218,65,73007,1,0,1:0:0:0:
281,310,73156,6,2,B|278:321|278:321|321:292|332:257|332:257|329:254|329:254|333:255|333:255|345:219|330:161|330:161|325:177|325:177|309:120|321:84|321:84|326:85|326:85|321:83|321:83|333:49|377:17|377:17|369:41,1,423.500012924195,2|0,0:1|0:0,0:0:0:0:
372,29,73455,1,0,3:0:0:0:
90,253,73604,70,2,B|58:215|54:177|54:177|48:176|48:176|54:174|54:174|52:125|84:79,1,181.500005538941,2|0,1:1|0:0,0:0:0:0:
81,98,73753,6,0,L|95:68,1,24.74999924469
447,121,73902,2,0,B|443:126|434:132|434:132|473:143|508:128|528:82,1,110
251,227,74052,69,0,3:0:0:0:
200,128,74201,2,0,P|187:152|208:214,1,82.5000031471254,0|0,1:0|0:0,0:0:0:0:
367,239,74350,2,0,P|352:215|287:202,1,82.5000031471254
37,288,74499,6,0,B|32:317|-22:347|-22:347|89:314|59:364|240:351|261:265,1,379.500007238388,0|0,3:0|0:0,0:0:0:0:
439,65,74798,70,0,P|479:37|436:59,1,148.49999546814,0|0,1:0|0:0,0:0:0:0:
121,196,75096,6,2,B|102:222|102:222|190:266|250:186|250:186|244:180|244:180|300:103|394:137|394:137|359:179,1,423.500012924195,2|0,0:1|0:0,0:0:0:0:
365,171,75395,1,0,1:0:0:0:
41,81,75544,70,2,B|22:107|22:107|110:151|170:71|170:71|164:65|164:65|220:-12|314:22|314:22|285:58,1,423.500012924195,2|0,0:1|0:0,0:0:0:0:
286,57,75843,1,0,3:0:0:0:
310,330,75992,6,2,B|293:315|293:315|329:224|454:240,1,181.500005538941,2|0,1:1|0:0,0:0:0:0:
426,241,76141,70,0,P|365:201|324:205,1,82.5000031471254
143,356,76290,2,0,P|207:322|224:285,1,82.5000031471254,0|0,3:0|0:0,0:0:0:0:
182,61,76440,2,0,P|178:133|201:167,1,82.5000031471254,0|0,3:0|0:0,0:0:0:0:
458,327,76589,6,2,B|532:268|532:268|507:156|352:71|241:106,1,445.500001699448,0|0,1:0|0:0,0:0:0:0:
54,328,76887,70,0,L|67:234,1,88,8|0,3:2|0:0,0:0:0:0:
357,200,77037,2,0,L|344:287,1,88,0|0,3:0|0:0,0:0:0:0:
33,169,77186,6,0,B|146:140|132:257|259:224,1,230.99999295044,8|0,1:2|0:0,0:0:0:0:
473,30,77484,70,0,L|466:75,1,44,0|0,0:0|3:0,0:0:0:0:
316,337,77783,2,0,L|323:279,1,55,0|0,1:0|0:0,0:0:0:0:
217,59,78081,2,0,L|205:139,1,76.9999976501466,0|0,0:0|3:0,0:0:0:0:
50,364,78380,2,0,L|63:266,1,98.9999969787599,0|0,1:0|0:0,0:0:0:0:
473,30,78678,6,0,L|466:73,1,44
316,337,78828,2,0,L|323:282,1,55,0|0,3:0|0:0,0:0:0:0:
217,59,78977,2,2,B|206:135|206:135|174:167|174:167|177:173|177:173|173:169|173:169|135:206|135:206|140:190|140:190|102:227|102:227|97:222|97:222|101:228|101:228|63:265|63:265|48:378,1,423.500012924195,0|0,1:0|0:0,0:0:0:0:
58,370,79275,38,0,L|63:323,3,38.4999988250733,0|0|0|0,1:0|0:0|0:0|0:0,0:0:0:0:
188,256,79574,6,0,L|229:251,1,38.4999988250733
0,178,79723,2,0,L|49:173,1,38.4999988250733
119,86,79872,70,0,P|141:112|147:133,1,49.4999984893799
167,105,80022,2,0,P|164:130|145:158,1,49.4999984893799
107,350,80171,6,0,P|85:324|79:303,1,49.4999984893799
62,331,80321,2,0,P|65:306|84:278,1,49.4999984893799
115,214,80469,69,0,0:0:0:0:
242,202,80619,2,0,P|218:211|185:209,1,49.4999984893799
115,214,80768,1,0,0:0:0:0:
43,108,80917,2,0,P|63:123|77:153,1,49.4999984893799
167,316,81067,38,0,L|151:282,1,32.99999899292,2|2,0:0|0:0,0:0:0:0:
167,105,81216,2,0,L|147:141,1,32.99999899292,2|2,0:0|0:0,0:0:0:0:
1,221,81365,70,0,L|33:219,1,32.99999899292,2|2,0:0|0:0,0:0:0:0:
232,275,81514,2,0,L|264:273,1,32.99999899292,2|2,0:0|0:0,0:0:0:0:
474,302,81664,6,0,B|405:308|405:308|369:334|369:334|381:334|381:334|340:366|340:366|236:370,1,247.500009441376,8|0,3:1|0:0,0:0:0:0:
182,381,81962,1,0,1:0:0:0:
290,92,82111,70,0,P|318:116|332:151,1,60.5000018463135,2|0,0:2|0:0,0:0:0:0:
242,202,82261,1,0,0:0:0:0:
242,202,82335,1,0,0:0:0:0:
242,202,82410,2,0,P|216:179|201:135,1,60.5000018463135,2|0,3:2|0:0,0:0:0:0:
398,136,82559,2,0,P|391:169|360:204,1,60.5000018463135,0|0,1:0|0:0,0:0:0:0:
249,23,82708,6,0,P|281:12|326:21,1,60.5000018463135,2|0,0:2|0:0,0:0:0:0:
67,109,82858,1,0,0:0:0:0:
67,109,82932,1,0,0:0:0:0:
67,109,83007,2,0,P|35:120|-10:111,1,60.5000018463135,2|0,3:2|0:0,0:0:0:0:
124,276,83156,1,0,1:0:0:0:
56,195,83305,70,0,P|97:198|135:238,1,55,2|0,0:2|0:0,0:0:0:0:
130,377,83455,2,0,P|96:352|89:296,1,55,2|0,0:2|0:0,0:0:0:0:
180,191,83604,2,0,P|191:232|165:281,1,55,2|0,3:2|0:0,0:0:0:0:
28,313,83753,2,0,P|42:274|93:251,1,55,2|0,1:2|0:0,0:0:0:0:
228,303,83902,2,0,P|192:328|137:317,1,55,2|0,0:2|0:0,0:0:0:0:
77,67,84052,6,0,B|71:59|55:58|55:58|119:49|165:94|165:94|156:96|156:96|199:138|277:119,1,264,8|0,3:1|0:0,0:0:0:0:
344,33,84350,1,0,1:0:0:0:
453,270,84499,70,0,P|477:268|510:249,1,60.5000018463135,2|0,0:2|0:0,0:0:0:0:
470,153,84649,1,0,0:0:0:0:
470,153,84723,1,0,0:0:0:0:
470,153,84798,2,0,P|446:154|413:173,1,60.5000018463135,2|0,3:2|0:0,0:0:0:0:
286,305,84947,2,0,P|300:324|334:341,1,60.5000018463135,0|0,1:0|0:0,0:0:0:0:
337,180,85096,6,0,P|326:201|327:239,1,60.5000018463135,2|0,0:2|0:0,0:0:0:0:
344,33,85246,1,0,0:0:0:0:
344,33,85320,1,0,0:0:0:0:
344,33,85395,2,0,P|355:64|340:113,1,60.5000018463135,2|0,3:2|0:0,0:0:0:0:
152,128,85544,1,0,1:0:0:0:
67,170,85693,70,0,P|37:145|25:109,1,76.9999976501466,2|0,0:2|0:0,0:0:0:0:
193,43,85843,2,0,P|230:46|259:71,1,76.9999976501466,2|0,3:2|0:0,0:0:0:0:
160,224,85992,2,0,P|127:243|89:242,1,76.9999976501466,2|0,3:2|0:0,0:0:0:0:
82,64,86141,2,0,P|95:28|127:9,1,76.9999976501466,2|0,1:2|0:0,0:0:0:0:
242,144,86290,2,0,P|249:181|235:216,1,76.9999976501466,2|0,0:2|0:0,0:0:0:0:
407,24,86440,6,0,B|426:43|426:43|413:106|413:106|418:116|418:116|362:153|362:153|370:164|370:164|358:227|358:227|365:247,1,264,8|0,3:1|0:0,0:0:0:0:
481,231,86738,70,0,B|501:213|501:213|518:117,1,88,0|0,1:0|0:0,0:0:0:0:
286,299,86887,6,0,B|278:328|278:328|283:368,1,60.5000018463135,2|0,0:2|0:0,0:0:0:0:
427,373,87037,1,0,0:0:0:0:
427,373,87111,1,0,0:0:0:0:
427,373,87186,2,0,B|435:344|435:344|430:304,1,60.5000018463135,2|0,3:2|0:0,0:0:0:0:
179,272,87335,1,0,1:0:0:0:
185,113,87484,70,0,B|188:84|188:84|176:43,1,60.5000018463135,2|0,0:2|0:0,0:0:0:0:
81,64,87634,1,0,0:0:0:0:
81,64,87708,1,0,0:0:0:0:
81,64,87783,2,0,B|77:95|77:95|87:129,1,60.5000018463135,2|0,3:2|0:0,0:0:0:0:
350,108,87932,1,0,1:0:0:0:
411,26,88081,6,0,P|370:29|332:69,1,55,2|0,0:2|0:0,0:0:0:0:
349,207,88231,2,0,P|383:182|390:126,1,55,2|0,0:2|0:0,0:0:0:0:
289,20,88380,2,0,P|278:61|304:110,1,55,2|0,3:2|0:0,0:0:0:0:
454,144,88529,2,0,P|440:105|389:82,1,55,2|0,1:2|0:0,0:0:0:0:
248,136,88678,2,0,P|284:161|339:150,1,55,2|0,0:2|0:0,0:0:0:0:
387,304,88828,69,0,3:0:0:0:
387,304,88977,2,0,L|302:271,1,82.5000031471254,2|0,0:3|0:0,0:0:0:0:
124,187,89126,1,0,1:0:0:0:
62,238,89275,6,0,P|46:200|50:159,1,82.5000031471254,2|0,0:3|0:0,0:0:0:0:
186,138,89425,2,0,P|201:175|197:216,1,82.5000031471254,2|0,0:3|0:0,0:0:0:0:
147,345,89574,1,0,3:0:0:0:
147,345,89723,70,0,L|134:254,1,82.5000031471254,2|0,1:3|0:0,0:0:0:0:
100,31,89872,2,0,L|111:112,1,82.5000031471254,2|0,0:3|0:0,0:0:0:0:
124,187,90022,1,0,0:0:0:0:
22,170,90171,6,0,P|16:209|63:265,1,82.5000031471254,2|0,3:3|0:0,0:0:0:0:
195,111,90320,2,0,P|164:86|92:99,1,82.5000031471254,2|0,1:3|0:0,0:0:0:0:
156,295,90469,2,0,P|192:280|217:211,1,82.5000031471254,2|0,0:3|0:0,0:0:0:0:
49,96,90619,70,0,L|13:47,1,32.99999899292,2|0,3:3|0:0,0:0:0:0:
78,308,90768,2,0,L|63:337,1,32.99999899292,2|0,3:3|0:0,0:0:0:0:
242,174,90917,2,0,L|274:171,1,32.99999899292,2|0,1:3|0:0,0:0:0:0:
124,187,91067,5,0,0:0:0:0:
463,327,91216,70,0,B|482:312|482:312|401:297|401:297|400:302|400:302|309:356|309:356|306:350|306:350|227:335,1,264,8|0,3:1|0:0,0:0:0:0:
156,295,91514,1,0,1:0:0:0:
368,114,91664,6,0,B|379:87|379:87|376:56,1,60.5000018463135,2|0,0:2|0:0,0:0:0:0:
250,115,91813,1,0,0:0:0:0:
250,115,91887,1,0,0:0:0:0:
250,115,91962,2,0,B|239:144|239:144|244:202,1,60.5000018463135,2|0,3:2|0:0,0:0:0:0:
328,209,92111,2,0,B|347:233|347:233|400:257,1,60.5000018463135,0|0,1:0|0:0,0:0:0:0:
458,210,92261,70,0,B|488:205|488:205|536:171,1,60.5000018463135,2|0,0:2|0:0,0:0:0:0:
266,0,92410,1,0,0:0:0:0:
266,0,92484,1,0,0:0:0:0:
266,0,92559,2,0,B|235:4|235:4|187:38,1,60.5000018463135,2|0,3:2|0:0,0:0:0:0:
98,163,92708,1,0,1:0:0:0:
119,58,92858,6,0,P|143:89|142:136,1,55,2|0,0:2|0:0,0:0:0:0:
22,229,93007,2,0,P|20:189|48:151,1,55,2|0,0:2|0:0,0:0:0:0:
203,152,93156,2,0,P|180:184|135:199,1,55,2|0,3:2|0:0,0:0:0:0:
4,108,93305,2,0,P|41:94|86:109,1,55,2|0,1:2|0:0,0:0:0:0:
144,259,93455,2,0,P|105:248|78:209,1,55,2|0,0:2|0:0,0:0:0:0:
191,39,93604,70,0,B|243:51|243:51|275:37|275:37|306:105|306:105|337:89|337:89|427:120,1,264,8|0,3:1|0:0,0:0:0:0:
512,106,93902,1,0,1:0:0:0:
269,336,94052,6,0,P|210:346|182:362,1,60.5000018463135,2|0,0:2|0:0,0:0:0:0:
454,214,94201,1,0,0:0:0:0:
454,214,94275,1,0,0:0:0:0:
453,215,94350,2,0,P|483:207|510:195,1,60.5000018463135,2|0,3:2|0:0,0:0:0:0:
366,384,94499,1,0,1:0:0:0:
257,230,94649,70,0,P|211:221|182:210,1,60.5000018463135,2|0,0:2|0:0,0:0:0:0:
457,312,94798,1,0,0:0:0:0:
457,312,94872,1,0,0:0:0:0:
457,312,94947,2,0,P|491:320|523:334,1,60.5000018463135,2|0,3:2|0:0,0:0:0:0:
355,137,95096,1,0,1:0:0:0:
261,134,95246,6,0,P|243:168|246:206,1,76.9999976501466,2|0,0:2|0:0,0:0:0:0:
427,201,95396,2,0,P|459:184|476:150,1,76.9999976501466,2|0,3:2|0:0,0:0:0:0:
325,48,95545,2,0,P|288:43|253:59,1,76.9999976501466,2|0,3:2|0:0,0:0:0:0:
316,225,95694,2,0,P|342:253|379:258,1,76.9999976501466,2|0,1:2|0:0,0:0:0:0:
432,89,95843,2,0,P|424:52|398:26,1,76.9999976501466,2|0,0:2|0:0,0:0:0:0:
133,18,95992,69,0,3:0:0:0:
133,18,96141,2,0,L|144:127,1,82.5000031471254,2|0,0:3|0:0,0:0:0:0:
161,250,96290,1,8,3:3:0:0:
193,176,96440,6,0,P|151:171|102:193,1,82.5000031471254,2|0,0:3|0:0,0:0:0:0:
128,325,96589,2,0,P|170:330|219:308,1,82.5000031471254,2|0,3:3|0:0,0:0:0:0:
316,225,96738,1,0,0:0:0:0:
316,225,96887,70,0,L|188:244,1,82.5000031471254,10|0,3:3|0:0,0:0:0:0:
4,268,97037,2,0,L|116:254,1,82.5000031471254,2|0,0:3|0:0,0:0:0:0:
161,250,97186,1,0,3:0:0:0:
70,300,97335,6,0,P|95:335|134:351,1,82.5000031471254,2|0,0:3|0:0,0:0:0:0:
161,150,97484,2,0,P|117:154|84:180,1,82.5000031471254,10|0,3:3|0:0,0:0:0:0:
244,306,97634,2,0,P|262:266|256:224,1,82.5000031471254,2|0,0:3|0:0,0:0:0:0:
46,233,97783,70,0,L|8:226,1,32.99999899292,2|0,3:3|0:0,0:0:0:0:
195,352,97932,2,0,L|206:383,1,32.99999899292,2|0,3:3|0:0,0:0:0:0:
232,163,98081,2,0,L|253:137,1,32.99999899292,10|0,3:3|0:0,0:0:0:0:
161,250,98231,5,0,0:0:0:0:
73,30,98380,70,0,B|52:4|52:4|148:20|148:20|154:28|154:28|239:42|239:42|308:120,1,296.99999093628,8|0,3:1|0:0,0:0:0:0:
347,314,98678,5,2,0:0:0:0:
355,317,98753,1,0,0:0:0:0:
362,321,98828,2,0,L|388:329,1,22
161,250,98977,69,2,0:0:0:0:
146,254,99052,1,0,0:0:0:0:
131,259,99126,2,0,L|91:274,1,38.4999988250733
358,97,99275,5,2,0:0:0:0:
381,103,99350,1,0,0:0:0:0:
404,108,99425,2,0,L|480:127,1,60.5000018463135
101,140,99574,70,0,P|91:153|85:177,1,32.99999899292,2|0,0:0|0:0,0:0:0:0:
17,232,99723,2,0,P|28:258|57:278,1,49.4999984893799,2|0,0:0|0:0,0:0:0:0:
68,358,99872,2,0,P|103:353|130:327,1,65.9999979858399,2|0,0:0|0:0,0:0:0:0:
221,342,100022,2,0,P|230:303|215:265,1,82.5000031471254,2|0,0:0|0:0,0:0:0:0:
285,94,100171,6,0,L|278:43,3,38.4999988250733,2|2|2|2,0:0|0:0|0:0|0:0,0:0:0:0:
310,323,100469,2,0,L|317:374,3,38.4999988250733,2|2|2|2,0:0|0:0|0:0|0:0,0:0:0:0:
498,281,100768,70,2,B|349:255|349:255|299:246|321:200|266:189|266:189|195:175,1,330.000012588501,0|0,3:0|0:0,0:0:0:0:
369,43,101141,53,0,0:0:0:0:
395,30,101216,2,0,L|388:91,1,44
379,183,101365,1,0,1:0:0:0:
184,33,101514,22,2,B|184:30|184:30|187:-4|159:-22|118:-16|114:22|114:22|94:220,1,264,0|0,0:0|0:0,0:0:0:0:
0,274,101813,54,2,B|20:289|20:289|88:303|88:303|107:299|107:299|182:315|182:315|222:325|222:346|216:370|211:390|171:384|171:384|150:381,1,313.499991628647,0|0,3:0|0:0,0:0:0:0:
287,357,102111,22,0,L|297:287,1,44
499,341,102261,2,0,L|492:384,1,44
386,370,102410,2,0,L|392:326,1,44
329,99,102559,53,0,1:0:0:0:
509,137,102708,1,0,0:0:0:0:
386,274,102858,1,0,0:0:0:0:
55,111,103007,22,2,B|13:92|13:92|160:70|160:70|250:58|274:133|271:166,1,313.499991628647,0|0,3:0|0:0,0:0:0:0:
149,282,103305,54,0,P|148:245|117:189,1,76.9999976501466
126,204,103455,2,0,P|127:241|158:297,1,76.9999976501466
278,210,103604,2,0,L|363:198,1,55
51,260,103753,21,0,1:0:0:0:
289,287,103902,54,2,B|354:278|354:278|403:279|410:338|366:351|366:351|169:373,1,313.499991628647,0|0,0:0|0:0,0:0:0:0:
486,284,104201,22,2,B|513:248|507:217|507:217|490:119|490:119|476:81|437:79|437:79|456:149,1,280.500005350113,0|0,3:0|0:0,0:0:0:0:
278,210,104499,53,0,3:0:0:0:
512,363,104649,1,0,3:0:0:0:
77,91,104947,22,0,L|68:36,2,44,0|0|0,1:0|0:0|0:0,0:0:0:0:
442,48,105544,54,2,B|480:26|480:26|344:10|344:10|312:8|293:29|288:50|288:50|271:168,1,330,0|0,3:0|0:0,0:0:0:0:
355,298,105843,21,0,0:0:0:0:
367,292,105917,1,0,0:0:0:0:
379,287,105992,2,0,L|286:272,1,65.9999979858399
120,244,106141,1,0,1:0:0:0:
435,133,106290,54,2,B|450:135|486:164|482:202|482:202|462:364|462:364|440:327,1,280.500005350113,0|0,0:0|0:0,0:0:0:0:
91,155,106589,22,2,B|51:147|51:147|29:142|15:120|21:92|38:76|69:80|69:80|233:114,1,296.99999093628,0|0,3:0|0:0,0:0:0:0:
350,205,106887,53,0,0:0:0:0:
350,205,107037,2,0,L|369:127,1,55
282,0,107186,2,0,L|268:53,1,55
187,281,107335,21,0,1:0:0:0:
58,257,107484,1,0,0:0:0:0:
316,303,107634,1,0,0:0:0:0:
503,131,107783,54,2,B|486:87|438:95|438:95|296:127,1,187.000003566742,0|0,3:0|0:0,0:0:0:0:
255,175,108007,2,0,L|400:143,1,110
466,11,108231,22,0,L|369:30,1,71.4999967269899
250,186,108380,2,0,L|330:167,1,71.4999967269899
184,30,108529,53,0,1:0:0:0:
74,206,108678,22,2,B|113:238|113:238|96:143|96:143|92:115|55:74|0:89,1,264,0|0,0:0|0:0,0:0:0:0:
42,322,108977,54,2,B|49:340|63:353|83:351|83:351|127:342|127:342|139:343|139:343|234:324,1,165,0|0,3:0|0:0,0:0:0:0:
505,175,109275,22,0,L|518:241,1,38.4999988250733,0|0,3:0|0:0,0:0:0:0:
418,287,109425,2,0,L|390:131,1,148.49999546814,0|0,3:0|0:0,0:0:0:0:
390,126,109723,54,0,B|396:100|379:85|379:85|368:105|386:126,1,88,0|0,1:0|0:0,0:0:0:0:
35,54,110320,22,2,B|24:113|24:113|16:168|74:178|64:244|64:244|53:335,1,247.500009441376,0|0,3:0|0:0,0:0:0:0:
57,301,110619,1,0,0:0:0:0:
321,291,110768,54,0,L|357:298,1,27.5
169,256,110917,21,0,0:0:0:0:
126,55,111067,54,0,L|208:72,1,65.9999979858399,0|0,1:0|0:0,0:0:0:0:
389,226,111216,2,0,L|265:202,1,65.9999979858399,0|0,1:0|0:0,0:0:0:0:
101,129,111365,22,2,B|196:152|196:152|249:165|263:101|316:113|316:113|378:125|378:125|337:158,1,313.499991628647,0|0,3:0|0:0,0:0:0:0:
497,182,111664,54,0,L|453:173,1,44
439,70,111813,2,0,L|482:78,1,44
512,284,111962,2,0,L|468:275,1,44
195,321,112111,21,0,1:0:0:0:
375,362,112261,1,0,0:0:0:0:
321,185,112410,1,0,0:0:0:0:
61,258,112559,54,2,B|37:245|37:245|95:232|95:232|126:242|126:242|202:222|202:222|233:211|259:180|232:134,1,280.500005350113,0|0,3:0|0:0,0:0:0:0:
114,107,112858,22,0,P|94:72|88:15,1,71.4999967269899
89,27,113007,2,0,P|108:61|114:118,1,71.4999967269899
241,31,113156,2,0,L|322:10,1,49.4999984893799
24,96,113305,53,0,1:0:0:0:
110,357,113455,22,2,B|130:367|130:367|203:353|203:353|248:342|241:274|298:266|298:266|353:257|353:257|334:306,1,296.99999093628,0|0,0:0|0:0,0:0:0:0:
478,66,113753,54,2,B|504:51|506:10|475:-17|412:-17|406:54|406:54|404:91|404:91|412:108|412:108|400:202,1,313.499991628647,0|0,3:0|0:0,0:0:0:0:
473,367,114052,21,0,3:0:0:0:
497,137,114201,1,0,3:0:0:0:
17,295,114499,54,0,L|11:259,2,27.5
95,253,114649,2,0,L|99:280,2,27.5
183,264,114798,2,0,L|177:228,3,27.5
283,31,115096,22,2,B|266:66|216:57|216:57|54:29|54:29|106:0,1,280.500005350113,0|0,0:0|0:0,0:0:0:0:
263,141,115395,53,0,0:0:0:0:
270,151,115469,1,0,0:0:0:0:
275,159,115544,2,0,L|324:168,1,44
512,198,115693,1,0,1:0:0:0:
336,373,115843,22,2,B|308:349|315:318|315:318|325:271|325:271|334:232|381:242|388:201|388:201|403:132|403:132|376:151,1,296.99999093628,0|0,0:0|0:0,0:0:0:0:
86,105,116141,54,2,B|23:95|23:95|-7:99|-16:124|-17:154|15:165|15:165|213:200,1,330,0|0,3:0|0:0,0:0:0:0:
423,316,116440,21,0,0:0:0:0:
423,316,116589,2,0,L|336:300,1,65.9999979858399
111,317,116738,2,0,L|175:328,1,65.9999979858399
394,184,116887,53,0,1:0:0:0:
394,184,117037,2,0,P|376:219|319:234,1,88
8,363,117335,21,0,3:0:0:0:
256,192,117372,12,0,122223,0:0:0:0:
426,256,122261,54,0,B|437:280|437:280|433:308,1,55,0|0,3:0|0:0,0:0:0:0:
318,227,122410,2,0,B|333:204|333:204|359:194,1,55,0|0,3:0|0:0,0:0:0:0:
347,331,122559,2,0,B|319:328|319:328|297:311,1,55,0|0,3:0|0:0,3:0:0:0:
150,272,122708,22,0,L|119:268,2,19.2499994125366,0|0|0,3:0|3:0|3:0,3:0:0:0:
83,236,122858,2,0,B|71:260|71:260|75:288,1,55,0|0,3:0|0:0,0:0:0:0:
212,233,123007,2,0,B|196:210|196:210|170:200,1,55,0|0,3:0|0:0,0:0:0:0:
150,343,123156,2,0,B|177:340|177:340|199:323,1,55,0|0,3:0|0:0,0:0:0:0:
446,157,123305,53,0,3:0:0:0:
446,157,123380,1,0,3:0:0:0:
446,157,123455,2,0,B|452:117|452:117|449:113|449:113|457:65,1,88,0|0,3:0|0:0,0:0:0:0:
309,77,123604,2,0,B|302:119|302:119|304:123|304:123|298:163,1,88,0|0,3:0|0:0,0:0:0:0:
372,160,123753,2,0,B|378:120|378:120|375:116|375:116|382:73,1,88,0|0,3:0|0:0,0:0:0:0:
68,157,123902,21,0,3:0:0:0:
68,157,123977,1,0,3:0:0:0:
68,157,124052,2,0,B|62:117|62:117|65:113|65:113|57:65,1,88,0|0,3:0|0:0,0:0:0:0:
205,77,124201,2,0,B|212:119|212:119|210:123|210:123|216:163,1,88,0|0,3:0|0:0,0:0:0:0:
142,160,124350,2,0,B|136:120|136:120|139:116|139:116|132:73,1,88,0|0,3:0|0:0,0:0:0:0:
256,352,124499,54,0,L|256:384,2,22,0|0|0,3:0|3:0|3:0,3:0:0:0:
431,311,124649,21,0,3:0:0:0:
401,307,124723,1,0,3:0:0:0:
382,285,124798,1,0,3:0:0:0:
384,254,124872,1,0,3:0:0:0:
408,236,124947,1,0,3:0:0:0:
437,238,125022,1,0,3:0:0:0:
456,262,125096,1,0,3:0:0:0:
453,291,125171,1,0,3:0:0:0:
431,311,125246,53,0,3:0:0:0:
382,285,125320,1,0,3:0:0:0:
325,280,125395,1,0,3:0:0:0:
270,291,125469,1,0,3:0:0:0:
196,303,125544,22,0,P|164:303|141:285,1,46.7500008916855,0|0,3:0|3:0,3:0:0:0:
130,322,125619,2,0,P|95:300|89:276,1,46.7500008916855,0|0,3:0|3:0,3:0:0:0:
62,304,125693,2,0,P|50:263|59:237,1,46.7500008916855,0|0,3:0|3:0,3:0:0:0:
21,245,125768,2,0,P|31:206|52:186,1,46.7500008916855,0|0,3:0|3:0,3:0:0:0:
61,166,125843,54,0,L|54:137,1,22
68,170,125992,2,0,L|61:141,1,22
75,174,126141,22,0,L|67:141,1,29.7000007250977
185,11,126440,54,0,L|177:47,1,22
192,15,126589,2,0,L|184:51,1,22
403,75,126738,37,2,0:0:0:0:
405,81,126788,1,2,0:0:0:0:
408,87,126838,1,2,0:0:0:0:
411,94,126887,1,2,0:0:0:0:
414,100,126937,1,2,0:0:0:0:
417,107,126987,1,2,0:0:0:0:
455,120,127037,22,0,P|468:54|430:9,1,110,2|0,3:2|0:0,0:0:0:0:
313,354,127261,53,0,0:0:0:0:
313,354,127335,2,0,B|334:300|379:281|379:281|381:287|381:287|377:118|248:104,1,313.499991628647,2|0,0:0|0:0,0:0:0:0:
41,174,127634,22,2,B|16:173|-3:185|-3:185|64:203|90:237|90:237|90:243|90:243|204:155|317:162|317:162|311:166|311:166|281:212,1,461.999985900879,0|0,1:0|0:0,0:0:0:0:
210,342,128081,54,2,B|219:340|219:340|224:317|197:258,1,76.9999976501466,2|0,0:0|0:0,0:0:0:0:
131,82,128231,22,2,B|157:64|181:57|181:57|182:53|182:53|182:57|182:57|206:52|260:56,1,115.49999647522,2|0,0:0|0:0,0:0:0:0:
507,210,128380,54,0,L|511:182,1,27.5,2|2,3:1|0:1,3:1:0:0:
292,114,128529,2,0,L|286:140,1,27.5,2|2,3:1|0:1,3:1:0:0:
377,264,128678,21,0,3:0:0:0:
383,295,128753,1,0,3:0:0:0:
390,327,128828,2,0,B|419:299|419:243|419:243|403:257,1,98.9999969787599,8|2,3:0|0:1,0:0:0:0:
379,109,128977,53,2,0:1:0:0:
382,95,129052,1,2,0:1:0:0:
386,82,129126,1,2,0:1:0:0:
390,69,129201,1,2,0:1:0:0:
394,56,129275,1,2,0:1:0:0:
400,42,129350,1,2,0:1:0:0:
415,52,129425,22,2,B|444:23|433:-15|433:-15|489:46|489:46|487:36|487:36|537:97|537:97|531:96|531:96|490:184|346:153|338:226|338:226|355:197|392:189,1,506.000009651184,8|0,3:1|0:0,0:0:0:0:
455,341,129872,54,0,P|411:328|371:333,1,55,2|0,0:0|0:0,0:0:0:0:
195,373,130022,22,0,B|181:339|149:323|106:324|106:324|104:327|104:327|29:224|125:68|263:106|294:221|151:159,1,461.999985900879,0|0,1:0|0:0,0:0:0:0:
170,54,130469,54,2,B|181:45|196:48|196:48|222:65|282:68,1,71.4999967269899,2|0,0:0|0:0,0:0:0:0:
486,172,130619,22,2,B|433:148|432:247|329:205,1,104.499997209549,2|0,0:0|0:0,0:0:0:0:
144,253,130768,54,0,L|140:209,1,38.4999988250733,2|2,3:1|0:1,0:1:0:0:
358,109,130917,2,0,L|363:148,1,38.4999988250733,2|2,3:1|0:1,0:1:0:0:
216,256,131067,21,0,3:0:0:0:
211,282,131141,1,0,3:0:0:0:
205,308,131216,2,0,P|243:245|226:190,1,104.499997209549,8|0,3:0|0:0,0:0:0:0:
108,44,131365,54,2,B|55:84|1:65|1:65|60:78|99:112|99:112|146:85|146:85|145:93|145:93|148:83|148:83|183:57|183:57|175:54|175:54|214:28|214:28|225:29|225:29|275:1|275:1|223:104|354:104|300:184,1,632.50001206398,0|0,3:0|0:0,0:0:0:0:
382,369,131813,22,0,B|416:306|416:306|300:343|300:343|302:336|302:336|296:345|296:345|171:389,1,313.499991628647,2|0,3:2|0:0,0:0:0:0:
460,216,132111,54,0,B|494:153|494:153|378:190|378:190|372:198|372:198|374:192|374:192|249:236,1,313.499991628647,2|0,3:2|0:0,0:0:0:0:
50,357,132410,22,0,P|67:333|54:358,1,88,0|0,1:0|0:0,0:0:0:0:
11,158,132708,54,0,P|24:114|81:89,1,88
345,157,132858,22,0,L|334:230,1,55
240,221,133007,54,0,P|259:183|286:169,1,55,2|0,0:1|0:0,0:0:0:0:
339,27,133156,2,0,P|362:62|361:92,1,55,2|0,3:1|0:0,0:0:0:0:
460,216,133305,2,0,P|417:218|391:202,1,55,2|0,3:1|0:0,0:0:0:0:
460,216,133604,22,0,P|433:221|406:214,1,55,2|0,1:1|0:0,0:0:0:0:
240,221,133753,2,0,P|249:195|269:176,1,55,2|0,0:1|0:0,0:0:0:0:
339,27,133902,2,0,P|357:48|364:75,1,55,2|0,0:1|0:0,0:0:0:0:
345,157,134052,53,0,0:0:0:0:
124,379,134201,21,0,3:0:0:0:
167,374,134275,1,0,0:0:0:0:
210,369,134350,1,0,0:0:0:0:
254,365,134425,1,0,0:0:0:0:
297,362,134499,2,0,L|352:356,1,44
460,216,134649,53,0,3:0:0:0:
473,217,134723,1,0,3:0:0:0:
486,216,134798,2,0,P|458:209|401:220,1,71.4999967269899,8|0,3:0|0:0,0:0:0:0:
220,115,134947,22,0,P|210:157|222:199,1,88
434,117,135246,53,0,3:0:0:0:
434,117,135320,1,0,3:0:0:0:
434,117,135395,2,0,L|430:73,1,44,0|0,3:0|0:0,0:0:0:0:
442,313,135544,21,0,0:0:0:0:
442,313,135619,2,0,L|445:376,1,44,0|0,3:0|0:0,0:0:0:0:
290,144,135843,54,0,P|285:70|235:38,1,115.49999647522,0|0,3:0|0:0,0:0:0:0:
244,41,135992,1,0,1:0:0:0:
16,90,136141,22,0,L|76:72,1,55
44,186,136290,2,0,L|104:168,1,55
70,279,136440,2,0,L|130:261,1,55
310,382,136589,54,0,P|331:312|268:254,1,121.000003692627,0|0,3:0|0:0,0:0:0:0:
512,54,136813,21,0,0:0:0:0:
512,54,136887,2,2,B|485:22|451:28|451:28|451:31|451:31|406:29|368:72|369:114|369:114|372:119|372:119|348:156|305:181|272:146,1,313.499991628647,2|0,0:0|0:0,0:0:0:0:
132,367,137186,54,2,B|160:336|214:337|214:337|207:335|207:335|272:216|41:128|179:76|179:76|189:101|130:145,1,461.999985900879,2|0,1:2|0:0,0:0:0:0:
46,75,137634,22,2,P|78:103|140:109,1,60.5000018463135,2|0,0:0|0:0,0:0:0:0:
278,332,137783,54,2,B|278:312|266:301|266:301|263:268|285:241,1,93.500001783371,2|0,0:0|0:0,0:0:0:0:
219,92,137932,22,0,L|221:62,1,22,2|2,3:1|0:1,0:1:0:0:
501,187,138081,2,0,L|499:208,1,22,2|2,3:1|0:1,0:1:0:0:
300,153,138231,53,0,3:0:0:0:
327,142,138305,1,0,3:0:0:0:
354,130,138380,2,0,B|369:128|369:128|346:144|349:186|297:189,1,98.9999969787599,8|2,3:0|0:1,0:0:0:0:
132,367,138529,21,2,0:1:0:0:
117,362,138604,1,2,0:1:0:0:
103,358,138678,1,2,0:1:0:0:
88,354,138753,1,2,0:1:0:0:
74,349,138828,1,2,0:1:0:0:
60,345,138902,1,2,0:1:0:0:
29,353,138977,54,2,B|23:358|23:358|24:303|-24:254|-24:254|137:284|137:284|136:277|136:277|141:285|141:285|303:317|303:317|298:315|298:315|236:359,1,506.000009651184,8|0,3:1|0:0,0:0:0:0:
489,327,139425,22,0,B|482:339|482:339|498:295|442:253|436:249,1,98.9999969787599,2|0,0:0|0:0,0:0:0:0:
429,53,139574,54,0,B|394:48|371:68|371:68|375:69|375:69|388:111|385:150|385:150|390:150|390:150|355:262|271:292|271:292|317:265|269:204|339:207,1,461.999985900879,2|0,1:2|0:0,0:0:0:0:
357,128,140022,22,2,P|308:129|259:153,1,71.4999967269899,2|0,0:0|0:0,0:0:0:0:
140,365,140171,54,2,B|152:364|159:367|159:367|202:341|203:276,1,93.500001783371,2|0,0:0|0:0,0:0:0:0:
4,136,140320,22,0,L|0:170,1,22,2|2,3:1|0:1,0:1:0:0:
291,253,140469,2,0,L|293:231,1,22,2|2,3:1|0:1,0:1:0:0:
152,111,140619,53,0,3:0:0:0:
138,83,140693,1,0,3:0:0:0:
124,56,140768,2,0,B|114:55|114:55|89:116|187:151,1,98.9999969787599,8|0,3:0|0:0,0:0:0:0:
473,144,140917,22,2,B|493:167|528:163|528:163|452:185|422:112|422:112|426:121|426:121|311:97|258:160|394:229|161:248|101:135|163:44|210:35|236:45|236:45|205:75|185:83,1,632.50001206398,0|0,3:0|0:0,1:0:0:0:
306,330,141365,54,0,B|297:343|323:356|326:380|326:380|352:306|352:240|352:240|360:249|360:249|353:194|413:93,1,330,2|0,3:2|0:0,0:0:0:0:
170,336,141663,22,0,B|161:349|187:362|190:386|190:386|216:312|216:246|216:246|224:255|224:255|217:200|277:99,1,330,2|0,3:2|0:0,0:0:0:0:
35,35,141962,54,0,B|-53:55|-31:-42|-21:34|39:21,1,121.000003692627,0|0,1:0|0:0,0:0:0:0:
464,178,142261,22,0,P|435:211|353:202,1,98.9999969787599
140,197,142410,54,0,L|154:135,1,55
254,142,142559,22,0,P|242:167|220:184,1,55,2|0,0:1|0:1,0:1:0:0:
135,325,142708,2,0,P|119:302|114:275,1,55,2|0,3:1|0:1,0:1:0:0:
33,124,142858,2,0,P|61:121|86:131,1,55,2|0,3:1|0:1,0:1:0:0:
33,124,143156,54,0,P|61:121|86:131,1,55,2|0,1:1|0:1,0:1:0:0:
254,142,143305,2,0,P|242:167|220:184,1,55,2|0,0:1|0:1,0:1:0:0:
135,325,143455,2,0,P|119:302|114:275,1,55,2|0,0:1|0:1,0:1:0:0:
140,197,143604,21,0,0:0:0:0:
343,335,143753,53,4,0:2:0:0:
470,121,144052,22,0,P|470:141|456:169,1,44
289,220,144350,2,0,P|344:210|389:219,1,88
328,122,144798,53,0,0:0:0:0:
327,113,144947,2,0,L|322:69,2,43.9999986572266
339,292,145246,2,0,L|344:344,2,43.9999986572266
25,139,145544,21,0,0:0:0:0:
98,129,145644,1,0,0:0:0:0:
54,70,145743,1,0,0:0:0:0:
120,222,145843,53,0,0:0:0:0:
147,153,145943,1,0,0:0:0:0:
74,162,146042,1,0,0:0:0:0:
284,206,146141,54,0,B|319:207|365:238|365:238|360:242|360:242|430:231|485:148|468:118|468:118|470:112|470:112|426:158|367:157,1,366.666666666667,2|0,3:2|0:0,0:0:0:0:
210,109,146440,21,0,0:0:0:0:
228,27,146539,2,0,B|235:61|239:76|239:76|247:83|247:83|253:124|215:185,1,161.333338256836,2|0,0:0|0:0,0:0:0:0:
161,349,146738,54,0,B|134:342|134:342|90:357|-21:349,1,117.333333333333,0|0,1:0|0:0,0:0:0:0:
363,334,146937,21,0,0:0:0:0:
293,304,147037,2,0,B|350:308|350:308|355:311|355:311|453:313,1,117.333333333333
113,225,147236,54,0,P|119:174|134:148,1,80.6666691284181
38,153,147534,21,0,3:0:0:0:
249,197,147634,2,0,B|270:195|282:200|282:200|305:222|347:230,1,95.3333289693199,0|0,3:0|0:0,0:0:0:0:
157,103,147833,53,0,3:0:0:0:
336,29,147932,21,2,1:2:0:0:
400,54,148017,1,2,0:0:0:0:
438,99,148103,1,2,0:0:0:0:
447,146,148188,1,2,0:0:0:0:
419,180,148273,1,2,0:0:0:0:
391,182,148359,1,2,0:0:0:0:
372,161,148444,1,2,0:0:0:0:
395,279,148529,54,0,B|398:307|421:340|421:340|425:340|425:340|360:285|286:265|286:265|285:260|285:260|284:313|257:340|257:340|212:313|185:310|185:310|142:322|142:322|142:317|142:317|138:323|138:323|85:338,1,506.000009651184,8|0,3:1|0:0,0:0:0:0:
271,346,149027,21,0,0:0:0:0:
144,289,149126,2,0,B|151:246|101:108|140:287|99:165|97:119|97:119|100:124|100:124|97:117|97:117|101:89|113:77|113:77|111:91|119:110,1,263.99999194336,2|0,1:2|0:0,0:0:0:0:
392,236,149425,54,0,B|404:256|438:257|438:257|392:262|363:246|363:246|359:247|359:247|358:243|358:243|324:222|304:182|304:182|265:151|196:165,1,322.666676513672,2|0,0:2|0:0,0:0:0:0:
416,21,149773,22,0,B|440:54|440:54|421:117,1,95.3333289693199,2|0,0:1|0:0,0:0:0:0:
190,27,149922,53,0,3:0:0:0:
290,94,150022,2,0,B|315:136|315:136|317:133|317:133|304:181|304:181|300:186|300:186|274:276,1,142.99999345398,2|0,3:1|0:0,3:0:0:0:
57,373,150221,21,0,3:0:0:0:
57,373,150270,1,0,3:0:0:0:
57,373,150320,2,0,B|28:336|28:336|40:304|40:304|44:299|44:299|62:249,1,117.333333333333,2|0,1:1|0:0,0:0:0:0:
364,318,150519,54,0,B|317:323|317:323|311:327|311:327|224:341,1,117.333333333333,0|0,3:0|0:0,0:0:0:0:
107,52,150818,21,2,0:0:0:0:
39,144,150917,54,0,B|17:108|-26:99|-26:99|22:91|65:137|110:114|110:114|116:137|116:137|122:133|122:133|187:147|187:147|193:147|193:147|272:164,1,384.999988250733,2|0,3:2|0:0,0:0:0:0:
48,258,151216,22,0,B|26:222|-17:213|-17:213|31:205|74:251|113:228|113:228|120:250|120:250|133:246|133:246|196:261|196:261|202:261|202:261|282:278,1,384.999988250733,2|0,3:2|0:0,0:0:0:0:
512,109,151514,54,0,B|500:92|500:68|500:68|489:43|430:20,1,117.333333333333,0|0,1:0|0:0,0:0:0:0:
444,304,151713,21,0,0:0:0:0:
393,218,151813,2,0,B|398:274|398:274|402:277|402:277|417:361,1,117.333333333333
173,168,152012,54,0,P|175:123|188:87,1,80.6666691284181
27,15,152310,22,0,L|1:12,1,25.6666658833822,0|0,3:0|0:0,0:0:0:0:
120,54,152410,2,0,B|188:60|188:60|195:64|195:64|264:67,1,121.000003692627,0|0,3:0|0:0,0:0:0:0:
388,102,152609,53,0,3:0:0:0:
321,306,152708,22,2,B|249:345|165:303|165:303|123:310|95:338|95:338|201:307|186:220,1,365.749990233422,0|0,3:0|0:0,0:0:0:0:
191,265,153007,2,2,B|201:221|180:177|133:172|133:172|136:169|136:169|132:172|132:172|82:170|50:215|66:272,1,247.500009441376,2|0,0:1|0:0,0:0:0:0:
396,361,153305,54,0,P|425:367|470:356,1,46.7500008916855,8|0,3:1|0:0,0:0:0:0:
413,326,153380,2,0,P|440:320|463:302,1,38.4999988250733
418,280,153455,2,0,P|433:263|437:248,1,30.2500009231568
404,238,153529,2,0,P|406:222|400:211,1,16.49999949646
368,211,153604,2,0,P|339:194|301:196,1,58.6666666666667
41,55,153803,21,0,3:0:0:0:
41,55,153853,1,0,3:0:0:0:
41,55,153902,2,0,B|71:62|83:83|83:83|145:84|216:32,1,153.999995300293,0|0,1:0|0:0,0:0:0:0:
376,0,154101,54,0,B|382:9|382:9|376:55|376:55|371:62|371:62|361:136,1,124.666669044495
57,338,154400,21,0,3:0:0:0:
57,338,154450,1,0,3:0:0:0:
57,338,154499,2,0,B|97:333|97:333|103:328|103:328|155:323,1,80.6666691284181,0|0,3:0|0:0,0:0:0:0:
406,335,154698,2,0,B|371:340|371:340|364:339|364:339|297:351,1,80.6666691284181,0|0,3:0|0:0,0:0:0:0:
216,227,154897,54,0,B|220:192|220:192|216:187|216:187|221:148,1,80.6666691284181,0|0,3:0|0:0,0:0:0:0:
222,384,155096,21,0,1:0:0:0:
54,120,155295,53,0,0:0:0:0:
179,55,155395,1,0,0:0:0:0:
373,189,155594,21,0,0:0:0:0:
482,137,155693,2,0,B|432:155|395:146|395:146|393:139|393:139|356:131|323:104|323:104|242:100|199:156|199:156|221:139|252:146,1,366.666666666667,0|0,3:0|0:0,0:0:0:0:
81,269,155992,53,0,0:0:0:0:
131,360,156091,2,0,B|141:304|141:304|163:275|163:275|164:227|141:200,1,168.666669883728,2|0,0:2|0:0,0:0:0:0:
303,30,156290,22,0,B|310:54|334:76|334:76|334:73|334:73|340:105|330:168,1,117.333333333333,0|0,1:0|0:0,0:0:0:0:
54,120,156489,1,0,0:0:0:0:
119,64,156589,2,0,B|53:57|62:102|-18:83,1,117.333333333333
277,286,156788,54,0,B|318:274|318:274|362:239,1,80.6666691284181
428,310,157086,21,0,3:0:0:0:
240,182,157186,2,0,B|218:184|200:198|200:198|188:215|119:232,1,95.3333289693199,0|0,3:0|0:0,0:0:0:0:
362,223,157385,53,0,3:0:0:0:
150,331,157484,21,2,1:2:0:0:
78,322,157569,1,2,0:0:0:0:
38,281,157655,1,2,0:0:0:0:
29,234,157740,1,2,0:0:0:0:
57,200,157825,1,2,0:0:0:0:
83,197,157911,1,2,0:0:0:0:
88,212,157996,1,2,0:0:0:0:
47,68,158081,54,0,B|53:19|11:-10|11:-10|76:35|76:35|92:32|92:32|140:58|140:58|139:62|139:62|142:59|142:59|184:81|184:81|194:95|194:95|211:101|211:101|185:157|242:182|218:250,1,461.999985900879,8|0,3:1|0:0,0:0:0:0:
296,17,158579,21,0,0:0:0:0:
462,78,158678,2,0,B|490:94|515:83|515:83|480:114|403:108|461:86|369:110|369:110|364:117|364:117|279:139,1,263.99999194336,2|0,1:2|0:0,0:0:0:0:
356,337,158977,54,0,B|406:463|543:354|468:261|317:190|213:269,1,417.999988838196,2|0,0:2|0:0,0:0:0:0:
69,377,159375,22,0,B|95:340|95:340|81:300|81:300|77:296|77:296|50:225,1,139.333329612732,2|0,0:1|3:0,0:0:0:0:
296,198,159574,53,0,3:0:0:0:
247,143,159673,2,0,B|233:131|233:131|171:150,1,69.666664806366,2|0,0:1|0:0,0:0:0:0:
57,23,159773,21,0,3:0:0:0:
57,23,159823,1,0,3:0:0:0:
57,23,159872,2,0,B|28:61|28:61|40:98|40:98|44:103|44:103|68:168,1,139.333329612732,2|0,1:1|0:0,0:0:0:0:
280,289,160071,53,0,3:0:0:0:
367,265,160171,2,0,B|396:251|396:251|400:225|400:225|398:216|398:216|405:164,1,110.000004196167
122,189,160370,21,2,0:0:0:0:
16,202,160469,2,0,B|44:191|44:191|44:187|44:187|45:191|45:191|78:189|78:189|131:255|241:249|241:249|229:238|229:238|297:223|302:180,1,348.33332403183,2|0,3:2|0:0,0:0:0:0:
414,113,160768,2,0,B|386:124|386:124|386:128|386:128|385:124|385:124|352:126|352:126|299:60|189:66|189:66|201:77|201:77|133:92|128:135,1,348.33332403183,2|0,3:2|0:0,0:0:0:0:
40,297,161067,54,0,B|47:306|47:317|47:317|73:354|154:343,1,124.666669044495,0|0,1:0|0:0,0:0:0:0:
344,368,161266,21,0,0:0:0:0:
367,265,161365,2,0,B|375:320|375:320|383:325|383:325|399:412,1,124.666669044495
113,271,161564,54,0,P|105:228|134:175,1,87.9999973144532,0|0,0:0|3:0,0:0:0:0:
444,58,161863,21,2,0:0:0:0:
455,71,161962,2,2,B|477:70|477:70|453:78|453:78|474:77|474:77|451:85|451:85|472:85|472:85|448:92|448:92|470:92|470:92|445:100|445:100|468:99|468:99|442:107|442:107|465:105|465:105|439:114|439:114|463:112|463:112|436:122|436:122|460:118|460:118|434:129|434:129|458:125|458:125,1,354.750005413056,2|0,0:0|0:0,0:0:0:0:
202,301,162261,54,2,P|214:388|208:300,1,264,0|0,3:0|0:0,0:0:0:0:
176,48,162559,22,0,L|171:6,1,36.6666666666667
316,76,162858,54,0,B|336:119|336:119|301:197,1,121.000003692627,0|0,3:0|0:0,0:0:0:0:
135,176,163057,2,0,B|162:137|162:137|247:128,1,121.000003692627
398,196,163256,21,0,0:0:0:0:
391,216,163355,1,0,0:0:0:0:
311,283,163455,2,0,B|263:278|263:278|213:209,1,121.000003692627,0|0,1:0|0:0,0:0:0:0:
340,56,163654,2,0,B|360:99|360:99|305:222,1,153.999995300293
157,290,163853,53,0,0:0:0:0:
143,272,163952,1,0,0:0:0:0:
113,162,164052,2,0,B|140:123|140:123|274:109,1,153.999995300293,0|0,3:0|0:0,0:0:0:0:
313,308,164251,2,0,B|265:303|265:303|186:194,1,153.999995300293
176,48,164450,21,0,0:0:0:0:
198,44,164549,1,0,0:0:0:0:
375,35,164649,54,2,B|420:29|420:29|419:22|419:22|422:29|422:29|476:23|476:23|465:28|465:28|449:144|267:93|315:276|409:233|440:274|440:274|358:211|413:128|361:76|336:133|302:52|302:52|327:95|333:142|298:178,1,866.249973564149,0|0,1:0|0:0,0:0:0:0:
305,169,165246,21,4,0:0:0:0:
101,282,176532,37,2,3:2:0:0:
30,272,176639,1,0,0:0:0:0:
3,206,176747,1,0,0:0:0:0:
74,216,176855,2,0,L|159:231,1,71.4999967269899,0|0,0:0|3:0,0:0:0:0:
387,16,177071,6,0,L|312:25,1,71.4999967269899
245,35,177287,2,0,L|169:43,1,71.4999967269899,0|0,0:0|3:0,0:0:0:0:
102,52,177503,2,0,L|26:60,1,71.4999967269899
397,120,177719,69,0,0:0:0:0:
327,106,177826,1,0,3:0:0:0:
351,173,177934,1,0,0:0:0:0:
361,272,178042,5,0,0:0:0:0:
317,329,178150,1,0,0:0:0:0:
162,267,178258,69,2,3:2:0:0:
233,277,178365,1,0,0:0:0:0:
276,220,178474,1,0,0:0:0:0:
207,208,178582,2,0,L|112:195,1,71.4999967269899,0|0,0:0|3:0,0:0:0:0:
478,373,178798,6,0,L|466:279,1,71.4999967269899
459,230,179014,2,0,L|447:136,1,71.4999967269899,0|0,0:0|3:0,0:0:0:0:
442,87,179229,2,0,L|430:-7,1,71.4999967269899
276,220,179445,69,0,0:0:0:0:
346,234,179553,1,0,3:0:0:0:
279,119,179661,5,0,0:0:0:0:
209,102,179769,1,0,0:0:0:0:
141,125,179877,1,0,0:0:0:0:
34,220,179985,69,2,3:2:0:0:
102,243,180093,1,0,0:0:0:0:
88,173,180201,1,0,0:0:0:0:
73,103,180308,2,0,L|58:22,1,71.4999967269899,0|0,0:0|3:0,0:0:0:0:
17,353,180524,6,0,L|98:344,1,71.4999967269899
159,337,180740,2,0,L|240:328,1,71.4999967269899,0|0,0:0|3:0,0:0:0:0:
301,320,180956,2,0,L|382:311,1,71.4999967269899
141,125,181172,69,0,0:0:0:0:
88,173,181280,1,0,3:0:0:0:
156,192,181388,1,0,0:0:0:0:
277,139,181496,6,0,L|292:76,1,35.749998363495
304,124,181603,2,0,L|319:61,1,35.749998363495
282,222,181711,1,0,3:0:0:0:
512,48,181927,69,0,0:0:0:0:
443,67,182035,1,0,0:0:0:0:
407,173,182143,5,0,3:0:0:0:
476,156,182251,1,0,0:0:0:0:
349,245,182359,70,0,L|340:207,1,35.749998363495
334,259,182467,2,0,L|325:221,1,35.749998363495
427,349,182575,5,0,3:0:0:0:
467,290,182682,1,0,0:0:0:0:
395,282,182790,1,0,0:0:0:0:
323,273,182898,1,0,0:0:0:0:
156,307,183006,69,0,3:0:0:0:
195,248,183114,1,0,0:0:0:0:
85,169,183222,6,0,L|134:186,1,35.749998363495
101,242,183330,2,0,L|149:258,1,35.749998363495
120,315,183438,69,0,0:0:0:0:
496,61,183654,5,0,0:0:0:0:
421,42,183762,1,0,0:0:0:0:
485,85,183870,69,0,0:0:0:0:
410,64,183978,1,0,0:0:0:0:
304,87,184085,2,0,L|326:45,1,38.4999988250733,2|2,0:0|0:0,0:0:0:0:
287,93,184193,2,0,L|312:46,1,38.4999988250733,2|2,0:0|0:0,0:0:0:0:
276,248,184301,5,0,0:0:0:0:
349,224,184409,1,0,0:0:0:0:
369,149,184517,1,0,0:0:0:0:
296,174,184625,1,0,0:0:0:0:
177,284,184733,69,0,0:0:0:0:
150,203,184841,1,0,0:0:0:0:
37,134,184949,2,0,L|100:156,1,38.4999988250733,2|2,0:0|0:0,0:0:0:0:
120,118,185057,2,0,L|188:144,1,38.4999988250733,2|2,0:0|0:0,0:0:0:0:
203,99,185165,5,0,0:0:0:0:
364,349,185380,69,0,0:0:0:0:
293,379,185488,1,0,0:0:0:0:
350,329,185596,5,0,0:0:0:0:
278,357,185704,1,0,0:0:0:0:
177,284,185812,2,0,L|121:304,1,38.4999988250733,2|2,0:0|0:0,0:0:0:0:
167,315,185920,2,0,L|111:335,1,38.4999988250733,2|2,0:0|0:0,0:0:0:0:
46,285,186028,69,0,0:0:0:0:
20,200,186136,1,0,0:0:0:0:
75,131,186244,1,0,0:0:0:0:
43,48,186352,1,0,0:0:0:0:
506,130,186567,5,0,0:0:0:0:
404,154,186675,2,0,L|429:183,1,38.4999988250733,2|2,0:0|0:0,0:0:0:0:
430,161,186783,2,0,L|455:190,1,38.4999988250733,2|2,0:0|0:0,0:0:0:0:
432,44,186891,69,2,0:2:0:0:
360,14,186999,1,2,0:2:0:0:
288,41,187107,1,2,0:2:0:0:
257,111,187215,1,2,0:2:0:0:
286,181,187323,1,0,0:0:0:0:
354,215,187431,1,2,0:2:0:0:
378,287,187539,1,0,0:0:0:0:
350,358,187647,1,2,0:2:0:0:
276,380,187755,1,0,0:0:0:0:
262,304,187862,1,2,0:2:0:0:
208,248,187970,1,0,0:0:0:0:
138,213,188078,1,2,0:2:0:0:
107,142,188186,1,2,0:2:0:0:
128,67,188294,1,2,0:2:0:0:
193,26,188402,1,2,0:2:0:0:
268,40,188510,1,2,0:2:0:0:
304,108,188618,5,2,0:0:0:0:
303,115,188672,1,0,0:0:0:0:
302,122,188726,1,0,0:0:0:0:
301,129,188780,1,0,0:0:0:0:
300,136,188834,1,0,0:0:0:0:
299,143,188888,1,0,0:0:0:0:
298,150,188942,1,0,0:0:0:0:
297,157,188996,1,0,0:0:0:0:
295,166,189049,2,0,L|292:191,1,24.74999924469,2|0,0:0|0:0,0:0:0:0:
370,191,189157,2,0,L|356:217,1,24.74999924469
431,241,189265,2,0,L|410:259,1,24.74999924469
461,317,189373,2,0,L|424:325,1,24.74999924469
287,220,189481,70,0,L|282:253,1,24.74999924469,2|0,0:0|0:0,0:0:0:0:
191,233,189589,2,0,L|203:264,1,24.74999924469
116,295,189697,2,0,L|144:314,1,24.74999924469
93,384,189805,2,0,L|124:379,1,24.74999924469
238,360,189913,6,0,L|262:356,1,23.1000005639649
444,144,190344,38,0,B|518:110|518:110|519:104|519:104|465:32|386:7|386:7|387:-2|387:-2|382:6|382:6|243:-30|143:61,1,481.25,4|0,1:3|0:0,0:0:0:0:
0,250,190776,5,0,1:0:0:0:
87,255,190884,1,0,0:0:0:0:
165,215,190992,1,0,0:0:0:0:
208,138,191100,1,0,0:0:0:0:
233,300,191208,69,0,1:0:0:0:
306,250,191316,1,0,0:0:0:0:
333,166,191424,1,0,0:0:0:0:
312,80,191532,1,0,0:0:0:0:
81,47,191639,5,0,1:0:0:0:
5,92,191747,1,0,0:0:0:0:
88,120,191855,1,0,0:0:0:0:
163,75,191963,1,0,0:0:0:0:
7,261,192071,69,2,1:3:0:0:
125,248,192179,1,2,0:0:0:0:
233,300,192287,2,0,L|319:272,1,88,2|2,0:3|0:0,0:0:0:0:
498,42,192503,5,2,1:3:0:0:
411,29,192611,1,0,0:0:0:0:
327,54,192719,1,0,0:0:0:0:
269,119,192826,1,0,0:0:0:0:
423,240,192934,69,0,1:0:0:0:
476,169,193042,1,0,0:0:0:0:
390,149,193150,1,0,0:0:0:0:
337,219,193258,1,0,0:0:0:0:
236,356,193366,5,2,1:3:0:0:
146,327,193474,1,0,0:0:0:0:
353,331,193582,2,0,L|463:362,1,88,2|0,0:0|0:0,0:0:0:0:
269,119,193798,69,0,1:0:0:0:
327,54,193906,1,0,0:0:0:0:
241,75,194014,2,0,L|181:86,1,44,2|0,0:0|0:3,0:0:0:0:
148,91,194121,2,0,L|90:102,1,44,2|0,0:0|0:3,0:0:0:0:
0,262,194229,5,0,1:0:0:0:
86,276,194337,1,2,0:0:0:0:
167,241,194445,1,2,0:0:0:0:
186,155,194553,1,2,0:0:0:0:
327,54,194661,69,2,1:3:0:0:
332,141,194769,1,2,0:3:0:0:
386,210,194877,1,0,0:0:0:0:
469,237,194985,1,0,0:0:0:0:
477,11,195093,5,0,1:0:0:0:
406,36,195201,1,0,0:0:0:0:
407,110,195308,1,0,0:0:0:0:
478,87,195416,1,0,0:0:0:0:
255,20,195524,69,0,1:0:0:0:
235,105,195632,1,0,0:0:0:0:
267,186,195740,1,2,0:0:0:0:
258,273,195848,1,0,0:0:0:0:
133,358,195956,5,0,1:0:0:0:
144,266,196064,1,0,0:0:0:0:
56,136,196172,2,2,L|75:37,1,88,2|0,0:0|0:0,0:2:0:0:
258,273,196388,69,0,1:0:0:0:
338,308,196496,1,0,0:0:0:0:
353,166,196603,1,2,0:0:0:0:
267,186,196711,1,0,0:0:0:0:
402,242,196819,6,0,B|424:240|424:240|449:219|449:219|327:231|327:231|241:300|241:300|94:317,1,385,8|0,1:1|0:0,0:0:0:0:
0,27,197251,70,0,B|84:-1|180:16|180:16|182:9|182:9|181:16|181:16|291:36|334:98|334:98|269:152,1,442.750008444786,4|0,0:0|0:0,0:0:0:0:
0,289,197683,5,0,1:0:0:0:
47,215,197790,1,0,0:0:0:0:
123,171,197898,1,0,0:0:0:0:
210,177,198006,1,0,0:0:0:0:
195,360,198114,69,0,1:0:0:0:
227,278,198222,1,0,0:0:0:0:
300,229,198330,1,0,0:0:0:0:
386,214,198438,1,0,0:0:0:0:
461,80,198546,5,0,1:0:0:0:
506,70,198654,1,0,0:0:0:0:
512,26,198762,1,0,0:0:0:0:
465,34,198870,1,0,0:0:0:0:
282,143,198978,69,0,1:0:0:0:
354,128,199085,1,0,0:0:0:0:
359,53,199193,1,0,0:0:0:0:
285,67,199301,1,0,0:0:0:0:
124,11,199409,5,0,1:0:0:0:
104,96,199517,1,0,0:0:0:0:
119,182,199625,1,2,0:0:0:0:
178,246,199733,1,2,0:0:0:0:
361,337,199841,69,0,1:0:0:0:
451,314,199949,1,0,0:0:0:0:
383,229,200057,1,2,0:0:0:0:
353,236,200165,1,2,0:0:0:0:
219,362,200273,5,0,1:0:0:0:
248,357,200380,1,2,0:0:0:0:
274,232,200488,2,0,L|286:126,1,88,2|0,0:0|0:0,0:0:0:0:
87,255,200704,69,2,1:3:0:0:
120,173,200812,1,2,0:0:0:0:
194,125,200920,1,2,0:0:0:0:
192,142,201028,1,0,0:0:0:0:
88,59,201136,5,0,1:0:0:0:
93,42,201244,1,2,0:0:0:0:
171,3,201352,1,2,0:0:0:0:
256,20,201460,1,2,0:0:0:0:
420,63,201567,69,0,1:3:0:0:
408,117,201675,1,0,0:3:0:0:
463,110,201783,1,2,0:0:0:0:
477,55,201891,1,2,0:0:0:0:
364,208,201999,5,0,1:0:0:0:
355,244,202107,1,0,0:0:0:0:
392,242,202215,1,2,0:3:0:0:
401,205,202323,1,2,0:3:0:0:
290,329,202431,69,2,1:2:0:0:
290,329,202485,1,2,0:2:0:0:
290,329,202539,1,2,0:2:0:0:
290,329,202593,1,2,0:2:0:0:
290,329,202647,2,0,B|326:331|326:331|332:334|332:334|397:338,1,76.9999976501466,2|0,0:2|0:0,0:0:0:0:
51,235,202862,5,0,1:0:0:0:
136,205,202970,2,0,L|32:222,1,76.9999976501466,2|0,0:2|0:0,0:0:0:0:
314,149,203186,69,0,0:0:0:0:
299,42,203294,1,2,1:2:0:0:
315,161,203402,2,0,L|330:248,1,76.9999976501466,2|0,0:2|0:0,0:0:0:0:
80,47,203618,6,0,P|124:30|176:35,1,76.9999976501466,2|0,0:2|1:0,0:0:0:0:
159,296,203834,70,0,L|166:344,2,49.4999984893799,2|2|2,0:2|0:2|0:2,0:2:0:0:
512,206,204157,6,0,B|531:145|531:145|310:108|421:253|198:214|198:214|221:156,1,481.25,4|0,1:3|0:0,0:0:0:0:
117,181,204589,69,8,1:3:0:0:
113,163,204697,1,0,0:0:0:0:
110,145,204805,1,2,0:0:0:0:
106,127,204913,1,0,0:0:0:0:
80,47,205021,5,0,1:0:0:0:
5,108,205129,1,0,0:0:0:0:
5,204,205237,1,2,0:0:0:0:
80,263,205344,1,0,0:0:0:0:
154,344,205452,69,10,1:3:0:0:
171,340,205560,1,0,0:0:0:0:
167,322,205668,1,0,0:0:0:0:
150,327,205776,1,0,0:0:0:0:
275,334,205884,5,2,1:3:0:0:
286,237,205992,1,0,0:0:0:0:
363,179,206100,1,2,0:0:0:0:
458,197,206208,1,0,0:0:0:0:
511,268,206316,69,10,1:3:0:0:
506,285,206424,1,0,0:0:0:0:
420,108,206532,2,0,P|413:77|443:18,1,88,2|0,0:0|0:0,0:0:0:0:
353,277,206747,6,2,L|371:281,1,13.75,2|2,1:2|0:2,0:2:0:0:
350,289,206855,2,2,L|368:293,1,13.75,2|2,0:2|0:2,0:2:0:0:
348,298,206963,2,2,L|366:302,1,13.75,2|2,0:2|0:2,0:2:0:0:
424,377,207071,69,2,0:2:0:0:
420,368,207125,1,2,0:2:0:0:
416,359,207179,1,2,1:2:0:0:
512,384,207395,1,0,0:0:0:0:
261,110,207611,5,0,1:0:0:0:
347,92,207719,1,0,1:0:0:0:
330,86,207826,1,0,0:0:0:0:
313,80,207934,1,0,0:0:0:0:
245,0,208042,69,8,1:3:0:0:
170,61,208150,1,0,0:0:0:0:
168,157,208258,1,2,0:0:0:0:
237,224,208366,1,0,0:0:0:0:
329,274,208474,5,0,1:0:0:0:
346,277,208582,1,0,0:0:0:0:
350,259,208690,1,2,0:0:0:0:
333,254,208798,1,0,0:0:0:0:
397,174,208906,69,8,1:3:0:0:
347,92,209014,1,0,0:0:0:0:
252,76,209121,1,2,0:0:0:0:
167,123,209229,1,2,0:0:0:0:
53,38,209337,5,0,1:0:0:0:
7,174,209445,1,0,1:0:0:0:
9,182,209499,1,0,1:0:0:0:
11,190,209553,1,0,1:0:0:0:
84,283,209661,69,0,0:0:0:0:
0,325,209769,2,0,B|7:313|7:313|50:291|111:302,1,88,8|0,1:3|0:0,0:0:0:0:
411,350,209985,5,0,1:0:0:0:
280,371,210093,2,2,L|221:379,1,49.4999984893799,2|0,0:1|0:0,0:3:0:0:
228,203,210308,69,0,0:0:0:0:
258,90,210416,2,2,B|251:154|251:154|254:164|254:164|247:251,1,132,0|0,0:0|0:0,0:2:0:0:
87,78,210632,5,8,1:1:0:0:
87,69,210740,1,0,0:0:0:0:
88,60,210848,1,0,0:0:0:0:
88,51,210956,1,0,0:0:0:0:
12,184,211064,70,0,B|145:147|142:322|300:265,1,302.500009231568,4|0,1:3|0:0,0:0:0:0:
398,88,211388,6,0,P|415:61|450:38,1,60.5000018463135,2|0,0:3|0:0,0:0:0:0:
467,44,211603,1,0,0:0:0:0:
404,184,211711,70,0,P|371:182|334:163,1,60.5000018463135,2|0,0:3|0:0,0:0:0:0:
332,145,211926,1,0,0:0:0:0:
481,131,212035,6,0,P|495:159|497:201,1,60.5000018463135,2|0,0:3|0:0,0:0:0:0:
484,213,212250,1,0,0:0:0:0:
292,75,212359,70,0,L|302:15,1,60.5000018463135,2|0,0:3|0:0,0:0:0:0:
393,263,212575,2,0,L|384:322,1,60.5000018463135,2|0,0:0|0:0,0:0:0:0:
242,303,212790,5,2,0:0:0:0:
229,295,212898,2,0,P|184:299|154:319,1,60.5000018463135,2|0,0:0|0:0,0:0:0:0:
10,164,213114,69,2,0:0:0:0:
164,122,213222,2,0,B|199:114|199:114|240:120,1,60.5000018463135
128,10,213438,5,2,0:0:0:0:
86,164,213546,2,0,B|74:198|74:198|49:231,1,60.5000018463135
201,189,213762,69,2,0:0:0:0:
88,76,213870,2,0,B|64:48|64:48|48:10,1,60.5000018463135
295,202,214085,5,0,0:0:0:0:
276,280,214193,2,0,L|290:222,1,60.5000018463135,2|0,0:0|0:0,0:0:0:0:
325,75,214409,2,0,L|333:44,1,30.2500009231568,2|0,0:0|0:0,0:0:0:0:
426,94,214517,69,0,0:0:0:0:
427,102,214571,1,0,0:0:0:0:
428,110,214625,1,0,0:0:0:0:
429,118,214679,1,0,0:0:0:0:
430,126,214733,1,0,0:0:0:0:
431,134,214787,1,0,0:0:0:0:
432,142,214841,1,0,0:0:0:0:
433,150,214895,1,0,0:0:0:0:
434,158,214949,6,0,L|438:190,13,24.74999924469
342,203,215704,2,0,L|363:240,3,24.74999924469
285,282,215920,2,0,L|319:298,1,24.74999924469
277,384,216028,2,0,L|310:376,3,24.74999924469
430,336,216244,69,2,0:2:0:0:
430,336,216298,1,2,0:2:0:0:
430,336,216352,1,2,0:2:0:0:
430,336,216406,1,2,0:2:0:0:
430,336,216460,2,0,B|473:329|473:329|480:325|480:325|520:320,1,82.5000031471254,2|0,1:2|0:0,0:0:0:0:
42,208,216783,6,0,B|15:185|-18:201|-18:201|22:211|25:276|89:252|111:230,1,197.99999395752,2|0,1:0|0:0,0:1:0:0:
374,112,217107,69,2,1:2:0:0:
391,25,217215,2,0,L|397:143,1,98.9999969787599,2|0,1:2|0:0,0:0:0:0:
200,372,217431,6,2,B|203:367|203:367|195:368|195:368|203:363|203:363|195:364|195:364|203:359|203:359|195:360|195:360|202:355|202:355|194:356|194:356|202:351|202:351|194:352|194:352|202:347|202:347|194:348|194:348|202:343|202:343|194:344|194:344|201:339|201:339|193:340|193:340|199:335|199:335|197:332|197:332|196:328,1,148.49999546814,0|0,1:0|0:0,2:1:0:0:
120,104,217970,69,0,1:0:0:0:
14,88,218078,2,0,P|9:135|34:169,1,82.5000031471254,2|0,0:1|0:0,0:0:0:0:
224,124,218294,2,0,P|229:83|210:48,1,82.5000031471254,2|8,0:1|1:3,0:0:0:0:
14,337,218510,5,0,0:0:0:0:
119,315,218618,1,0,0:0:0:0:
193,233,218726,1,2,0:1:0:0:
338,310,218834,69,0,1:0:0:0:
234,336,218942,2,0,P|231:280|256:240,1,82.5000031471254,2|0,0:1|0:0,0:0:0:0:
443,283,219157,2,0,P|445:338|420:378,1,82.5000031471254,2|8,0:1|1:3,0:0:0:0:
277,45,219373,5,0,0:0:0:0:
377,8,219481,1,2,0:1:0:0:
480,36,219589,1,2,0:1:0:0:
359,174,219697,69,0,1:0:0:0:
273,139,219805,2,0,P|242:146|204:183,1,82.5000031471254,2|0,0:1|0:0,0:0:0:0:
445,204,220021,2,0,P|476:197|514:160,1,82.5000031471254,2|8,0:1|1:3,0:0:0:0:
118,321,220237,5,0,0:0:0:0:
9,297,220344,2,0,L|105:289,1,82.5000031471254,2|2,0:1|0:1,0:0:0:0:
271,252,220560,69,0,1:0:0:0:
284,367,220668,2,0,P|317:340|325:276,1,82.5000031471254,2|0,0:1|0:0,0:0:0:0:
180,235,220884,2,0,P|154:200|111:186,1,82.5000031471254,2|8,0:1|1:3,0:0:0:0:
413,284,221100,5,0,0:0:0:0:
512,314,221208,2,0,L|393:296,1,82.5000031471254,2|2,0:1|0:1,0:0:0:0:
237,58,221424,69,2,1:1:0:0:
343,43,221532,2,0,P|345:85|315:129,1,82.5000031471254,2|0,0:1|0:0,0:0:0:0:
131,76,221747,2,0,P|128:35|147:0,1,82.5000031471254,2|8,0:1|1:3,0:0:0:0:
110,261,221963,5,0,0:0:0:0:
22,217,222071,2,0,P|44:254|113:258,1,82.5000031471254,2|0,0:1|0:0,0:0:0:0:
364,221,222287,69,2,1:1:0:0:
413,315,222395,2,0,P|416:276|381:227,1,82.5000031471254,2|0,0:1|0:0,0:0:0:0:
194,349,222611,2,0,P|231:313|230:271,1,82.5000031471254,2|8,0:1|1:3,0:0:0:0:
0,146,222826,5,0,0:0:0:0:
52,51,222934,1,0,0:0:0:0:
151,13,223042,1,0,0:0:0:0:
318,22,223150,69,0,1:3:0:0:
404,46,223258,1,2,0:1:0:0:
426,134,223366,1,2,0:1:0:0:
339,108,223474,1,2,0:1:0:0:
396,238,223582,5,8,1:3:0:0:
485,200,223690,1,0,0:0:0:0:
380,213,223798,2,0,L|286:224,1,82.5000031471254,2|2,0:1|0:1,0:0:0:0:
45,245,224014,69,2,1:1:0:0:
102,124,224121,2,0,B|118:145|118:145|114:250,1,82.5000031471254,2|0,0:1|0:0,0:0:0:0:
345,370,224337,5,0,0:0:0:0:
360,380,224445,1,8,1:3:0:0:
312,306,224553,1,0,0:0:0:0:
226,277,224661,1,2,0:1:0:0:
120,280,224769,1,2,0:1:0:0:
18,358,224877,69,2,1:1:0:0:
28,370,224985,2,0,L|159:359,1,82.5000031471254,2|0,0:1|0:0,0:0:0:0:
364,138,225201,5,0,1:0:0:0:
416,240,225308,2,0,P|425:204|402:144,1,82.5000031471254,8|2,1:3|0:1,0:0:0:0:
253,0,225524,69,0,0:0:0:0:
238,89,225632,1,2,0:1:0:0:
156,179,225740,5,0,1:0:0:0:
63,124,225848,2,0,P|96:88|150:80,1,82.5000031471254,2|0,0:1|0:0,0:0:0:0:
244,234,226064,2,0,P|211:270|157:278,1,82.5000031471254,2|8,0:1|1:3,0:0:0:0:
367,32,226280,69,0,0:0:0:0:
460,64,226388,1,0,0:0:0:0:
501,154,226496,1,2,0:1:0:0:
401,264,226603,5,0,1:0:0:0:
505,352,226711,2,0,P|497:301|470:266,1,82.5000031471254,2|0,0:1|0:0,0:0:0:0:
319,258,226927,2,0,P|285:236|234:236,1,82.5000031471254,2|8,0:1|1:3,0:0:0:0:
52,53,227143,69,0,0:0:0:0:
143,91,227251,1,0,0:1:0:0:
174,184,227359,1,0,0:1:0:0:
92,267,227467,5,0,1:0:0:0:
106,366,227575,2,0,P|143:332|145:280,1,82.5000031471254,2|0,0:1|0:0,0:0:0:0:
39,181,227790,2,0,P|28:140|-2:112,1,82.5000031471254,2|8,0:1|1:3,0:0:0:0:
229,41,228006,69,0,0:0:0:0:
329,10,228114,2,0,L|227:22,1,82.5000031471254,2|2,0:1|0:1,0:0:0:0:
319,258,228330,5,2,1:1:0:0:
387,356,228438,2,0,P|406:306|377:261,1,82.5000031471254,2|0,0:1|0:0,0:0:0:0:
254,160,228654,2,0,P|235:210|264:255,1,82.5000031471254,2|8,0:1|1:3,0:0:0:0:
495,104,228870,69,0,0:0:0:0:
406,43,228978,1,2,0:1:0:0:
299,48,229085,1,0,0:0:0:0:
165,88,229193,5,2,1:1:0:0:
137,5,229301,2,0,P|172:24|188:84,1,82.5000031471254,2|0,0:1|0:0,0:0:0:0:
60,179,229517,2,0,P|63:219|23:265,1,82.5000031471254,2|8,0:1|1:3,0:0:0:0:
209,363,229733,69,0,0:0:0:0:
303,312,229841,1,0,0:0:0:0:
342,212,229949,1,0,0:0:0:0:
229,133,230057,5,0,1:0:0:0:
173,205,230165,1,2,0:1:0:0:
209,288,230273,1,2,0:1:0:0:
266,218,230380,1,2,0:1:0:0:
388,120,230488,69,8,1:3:0:0:
445,199,230596,1,0,0:0:0:0:
423,109,230704,2,0,L|405:28,1,82.5000031471254,2|2,0:1|0:1,0:0:0:0:
0,109,231028,5,2,1:1:0:0:
165,88,231136,2,0,L|275:69,1,82.5000031471254,2|0,1:1|0:0,0:0:0:0:
41,271,231352,69,8,1:3:0:0:
41,271,231406,1,0,1:0:0:0:
41,271,231460,1,0,1:0:0:0:
75,148,231567,2,0,P|86:92|69:46,1,82.5000031471254,0|2,1:0|0:1,0:0:0:0:
195,301,231783,5,8,0:1:0:0:
302,295,231891,1,2,0:1:0:0:
360,384,231999,1,2,0:1:0:0:
409,288,232107,2,0,P|412:248|404:213,1,71.4999967269899,2|8,0:1|1:3,0:0:0:0:
226,19,232323,70,0,B|220:36|220:36|233:106,1,71.4999967269899
323,150,232539,5,0,1:0:0:0:
323,150,232593,1,0,1:0:0:0:
323,150,232647,1,0,1:0:0:0:
258,213,232755,2,0,P|226:224|167:221,1,71.4999967269899,0|0,1:0|0:0,0:0:0:0:
385,69,232970,2,0,P|417:58|476:61,1,71.4999967269899,0|0,1:0|0:0,0:0:0:0:
126,56,233186,69,0,1:0:0:0:
66,162,233294,1,0,1:0:0:0:
64,152,233348,1,0,1:0:0:0:
62,142,233402,1,0,1:0:0:0:
60,132,233456,1,0,1:0:0:0:
57,122,233510,2,0,L|46:62,1,44,0|0,1:0|0:0,0:0:0:0:
6,339,233834,6,0,L|53:324,1,44
278,269,234049,69,0,0:0:0:0:
189,224,234157,2,0,L|145:239,1,44
372,357,234373,5,0,0:0:0:0:
495,346,234481,1,0,0:0:0:0:
486,324,234589,2,0,L|473:282,1,44
318,114,234805,69,0,0:0:0:0:
328,116,234859,1,0,0:0:0:0:
338,118,234913,1,0,0:0:0:0:
348,120,234967,1,0,0:0:0:0:
358,122,235021,1,0,0:0:0:0:
368,124,235075,1,0,0:0:0:0:
378,126,235129,1,0,0:0:0:0:
388,129,235183,1,0,0:0:0:0:
407,156,235237,6,0,P|448:129|451:63,1,82.5000031471254,0|2,1:0|0:1,0:0:0:0:
201,81,235452,1,2,0:1:0:0:
127,26,235560,1,2,0:1:0:0:
36,32,235668,2,0,P|6:65|12:122,1,82.5000031471254,8|0,1:3|0:0,0:0:0:0:
299,217,235884,69,0,1:0:0:0:
385,226,235992,2,0,L|282:234,1,82.5000031471254,0|0,1:0|0:0,0:0:0:0:
110,219,236208,5,0,1:0:0:0:
30,262,236316,1,0,1:0:0:0:
4,345,236424,2,0,L|51:333,2,41.2500015735627,0|0|0,1:0|1:0|1:0,0:0:0:0:
202,319,236603,69,0,1:0:0:0:
256,311,236675,1,0,1:0:0:0:
308,327,236747,1,0,1:0:0:0:
354,355,236819,1,0,1:0:0:0:
408,362,236891,1,0,1:0:0:0:
462,352,236963,2,0,P|496:337|516:312,1,55,0|2,1:0|0:1,0:0:0:0:
292,131,237179,2,0,L|301:70,1,55,0|2,0:0|0:1,0:0:0:0:
465,174,237395,5,0,0:0:0:0:
478,199,237503,1,0,0:0:0:0:
334,220,237611,2,0,L|260:233,1,55,0|2,0:0|0:1,0:0:0:0:
117,58,237826,69,2,0:1:0:0:
120,37,237934,1,2,0:1:0:0:
95,25,238042,2,0,P|92:55|128:112,1,55
0,292,238258,5,0,0:0:0:0:
8,293,238312,1,0,0:0:0:0:
16,294,238366,1,0,0:0:0:0:
24,295,238420,1,0,0:0:0:0:
32,296,238474,1,0,0:0:0:0:
40,297,238528,1,0,0:0:0:0:
48,298,238582,1,0,0:0:0:0:
56,300,238636,1,0,0:0:0:0:
84,331,238690,70,0,L|307:308,1,220,8|0,0:2|0:0,0:0:0:0:
431,78,240201,6,0,L|464:2,1,82.5000031471254,8|0,0:2|0:0,0:0:0:0:
280,42,240416,2,0,L|326:200,1,165.000006294251,8|0,0:2|0:0,0:0:0:0:
139,297,241388,69,8,0:2:0:0:
44,230,241496,1,8,0:2:0:0:
182,183,241603,1,8,0:2:0:0:
109,12,241819,5,8,0:2:0:0:
83,143,241927,1,8,0:2:0:0:
455,55,242143,69,8,0:2:0:0:
454,64,242197,1,0,0:0:0:0:
452,73,242251,1,0,0:0:0:0:
450,82,242305,1,0,0:0:0:0:
448,91,242359,2,0,L|444:117,7,19.2499994125366
489,201,242790,2,0,L|468:184,7,19.2499994125366
373,181,243222,2,0,L|397:171,11,19.2499994125366
498,274,243870,6,0,L|465:277,1,19.2499994125366
459,308,243978,2,0,L|428:297,1,19.2499994125366
409,324,244085,2,0,L|386:306,1,19.2499994125366
358,314,244193,2,0,L|346:288,1,19.2499994125366
316,283,244301,2,0,L|318:256,1,19.2499994125366
284,241,244409,2,0,L|295:214,1,19.2499994125366
260,194,244517,2,0,L|276:170,1,19.2499994125366
238,147,244625,2,0,L|222:177,1,19.2499994125366
211,102,244733,2,0,L|207:133,1,19.2499994125366
170,69,244841,2,0,L|178:92,1,19.2499994125366
119,64,244949,2,0,L|138:81,1,19.2499994125366
70,83,245057,2,0,L|102:93,1,19.2499994125366
70,187,245165,69,0,0:0:0:0:
183,345,245596,6,0,P|219:133|189:33,1,253.000004825592,0|0,1:0|3:0,3:0:0:0:
105,244,245866,2,0,B|80:231|46:247|49:274|91:272|115:248,2,88,0|0|0,3:0|3:0|3:0,3:0:0:0:
0,132,246028,38,2,B|140:93|128:208|271:176,1,275,0|0,1:0|3:0,0:0:0:0:
500,156,246352,1,0,3:0:0:0:
425,321,246460,38,2,P|330:161|340:73,1,275,0|0,1:0|3:0,0:0:0:0:
236,34,246783,2,2,P|269:7|327:27,1,68.75,0|0,3:0|0:0,0:0:0:0:
454,212,246891,38,0,P|262:214|213:250,1,206.25,0|0,1:0|0:0,0:0:0:0:
177,370,247107,2,2,P|108:314|104:227,1,137.5,0|0,3:0|3:0,0:0:0:0:
230,29,247323,38,0,B|264:166|112:143|200:328,1,275,0|0,1:0|3:0,0:0:0:0:
110,52,247647,2,2,P|144:14|177:23,1,68.75,0|0,3:0|0:0,0:0:0:0:
413,171,247755,38,2,B|253:234|282:77|95:159,1,275,0|0,1:0|3:0,0:0:0:0:
10,251,248078,1,0,3:0:0:0:
174,384,248186,38,2,L|159:211,1,121.000003692627,0|0,1:0|3:0,0:0:0:0:
329,11,248402,1,0,3:0:0:0:
340,0,248510,2,2,L|354:165,1,121.000003692627,0|0,3:0|0:0,0:0:0:0:
367,332,248726,38,0,L|362:266,1,38.4999988250733
111,187,249049,38,0,P|65:137|-1:138,1,121.000003692627,0|0,1:0|0:0,0:0:0:0:
264,12,249265,2,2,P|308:57|292:137,1,121.000003692627,0|0,1:0|0:0,0:0:0:0:
107,363,249481,38,2,P|236:273|389:297,1,275,0|0,1:0|3:0,0:0:0:0:
504,254,249805,1,0,3:0:0:0:
294,370,249913,38,2,B|187:251|328:193|247:82,1,275,0|0,1:0|3:0,0:0:0:0:
112,74,250237,2,0,P|122:101|158:117,1,68.75,0|0,3:0|3:0,0:0:0:0:
270,242,250344,38,0,P|102:249|-46:351,1,275,0|0,1:0|3:0,0:0:0:0:
207,384,250668,2,2,P|215:328|190:305,1,90.7500008654595,0|0,3:0|0:0,0:0:0:0:
111,187,250776,37,0,1:0:0:0:
270,100,250992,37,0,1:0:0:0:
272,113,251046,1,0,1:0:0:0:
274,126,251100,1,0,1:0:0:0:
276,139,251154,1,0,1:0:0:0:
258,161,251208,38,2,B|192:121|199:43|279:-19|489:23|487:240,1,481.25,0|0,1:0|0:0,0:0:0:0:
460,312,251639,38,0,L|449:226,1,82.4999974822999
446,204,252287,37,8,0:0:0:0:
18,97,252503,38,0,B|160:64|113:225|312:148,1,275,0|0,1:0|0:0,0:0:0:0:
248,9,252826,2,2,P|227:4|185:38,1,68.75,0|0,0:0|0:0,0:0:0:0:
420,10,252934,38,2,B|505:13|531:122|389:266,1,275,0|0,1:0|3:0,0:0:0:0:
431,372,253258,1,0,3:0:0:0:
248,336,253366,38,2,P|237:208|263:40,1,275,0|0,1:0|3:0,0:0:0:0:
125,119,253690,2,2,P|125:159|155:188,1,68.75,0|0,3:0|0:0,0:0:0:0:
377,311,253798,38,0,L|514:335,1,137.5,0|0,1:0|3:0,0:0:0:0:
135,196,254014,2,2,L|-2:172,1,137.5,0|0,1:0|3:0,0:0:0:0:
377,196,254229,38,0,L|512:172,1,137.5,0|0,1:0|3:0,0:0:0:0:
135,311,254445,2,0,L|0:334,1,137.5,0|0,1:0|3:0,0:0:0:0:
297,104,254661,38,2,B|369:40|301:-51|211:-62|113:36|133:114|332:190|204:325,1,481.25,0|0,1:0|0:0,0:0:0:0:
217,365,255093,37,0,1:0:0:0:
354,234,255201,2,2,P|394:231|359:243,1,115.49999647522,0|0,0:0|0:0,0:0:0:0:
106,148,255416,2,2,P|72:173|109:163,1,115.49999647522,0|0,0:0|0:0,0:0:0:0:
256,64,255632,38,0,L|256:46,1,16.49999949646
512,191,255956,38,0,P|520:241|495:286,1,104.499997209549,0|0,1:0|0:0,0:0:0:0:
257,228,256172,2,2,P|263:278|302:311,1,104.499997209549,0|0,1:0|0:0,0:0:0:0:
434,236,256388,37,0,1:0:0:0:
441,221,256496,2,2,P|374:220|333:243,1,104.499997209549,0|0,0:0|0:0,0:0:0:0:
168,159,256711,37,0,1:0:0:0:
137,47,256819,2,2,P|173:70|170:159,1,104.499997209549,0|0,1:0|0:0,0:0:0:0:
80,349,257035,2,2,P|155:289|166:256,1,104.499997209549,0|0,1:0|0:0,0:0:0:0:
92,143,257251,38,2,P|-22:168|89:232,1,313.499991628647,0|0,1:0|0:0,0:0:0:0:
256,42,257683,37,0,1:0:0:0:
512,103,257898,2,2,P|399:118|355:168,1,176,0|0,1:0|0:0,0:0:0:0:
495,362,258222,2,0,P|501:261|468:221,1,142.99999345398,0|0,1:0|0:0,0:0:0:0:
246,223,258546,2,0,P|277:262|337:280,1,98.9999969787599,0|0,1:0|0:0,0:0:0:0:
82,53,258870,38,0,B|78:41|85:16|85:16|59:37|71:80,1,99,0|0,1:0|0:0,0:0:0:0:
92,143,259409,37,4,0:0:0:0:
80,71,273098,53,2,0:0:0:0:
178,19,273247,2,0,L|173:62,2,44
497,167,273844,5,0,0:0:0:0:
464,294,274142,1,0,0:0:0:0:
342,346,274441,1,0,0:0:0:0:
464,44,274739,69,0,0:0:0:0:
335,11,274889,2,0,L|344:63,1,44
370,161,275187,2,0,L|379:213,1,44
161,369,275486,5,2,0:0:0:0:
45,288,275635,2,0,L|105:298,2,44
272,298,276232,69,0,0:0:0:0:
300,169,276530,1,0,0:0:0:0:
256,44,276829,1,0,0:0:0:0:
124,227,277127,5,0,0:0:0:0:
1,178,277277,2,0,L|47:172,1,44
186,150,277575,2,0,L|232:144,1,44
491,130,277874,69,2,0:0:0:0:
401,119,278023,1,0,0:0:0:0:
411,32,278172,1,0,0:0:0:0:
499,41,278321,1,0,0:0:0:0:
420,298,278620,5,0,0:0:0:0:
120,367,278918,2,0,P|97:347|89:326,1,44,0|2,0:0|0:0,0:0:0:0:
98,329,279217,2,0,P|92:296|99:274,1,44
328,179,279515,70,0,L|324:205,3,14.6666666666667
86,170,279814,2,0,L|88:155,3,14.6666666666667
88,155,280112,5,0,0:0:0:0:
251,43,280262,69,2,0:0:0:0:
276,91,280411,1,0,0:0:0:0:
202,46,280560,1,0,0:0:0:0:
279,3,280709,1,0,0:0:0:0:
250,294,281008,5,0,0:0:0:0:
475,93,281306,70,0,B|454:96|427:115|430:148|430:148|442:233,1,148.49999546814,2|0,0:0|0:0,0:0:0:0:
423,322,282053,6,0,L|408:227,1,96.25
115,101,282650,70,2,B|81:139|81:139|178:125|178:125|179:129|179:129|179:125|179:125|323:106,1,264,8|0,0:0|0:0,0:0:0:0:
239,367,282948,6,0,P|226:349|215:318,1,44,2|0,0:0|0:0,0:0:0:0:
100,340,283098,2,0,P|102:321|112:306,1,32.99999899292,2|0,0:0|0:0,0:0:0:0:
44,231,283247,2,0,L|71:224,1,22,2|0,1:2|0:0,0:0:0:0:
268,273,283396,70,2,B|309:267|309:267|312:264|312:264|347:260|347:260|425:309|425:309|462:304|462:304|466:300|466:300|524:286,1,264,8|0,0:0|0:0,0:0:0:0:
400,38,283695,6,2,B|435:31|440:-6|440:-6|433:84|433:84|440:95|440:95|433:181,1,250.249988544465,8|0,0:0|0:0,0:0:0:0:
437,183,283993,2,0,L|434:232,1,38.4999988250733
278,111,284142,69,2,0:2:0:0:
229,62,284217,1,2,0:2:0:0:
181,51,284292,1,2,0:2:0:0:
133,58,284366,1,2,0:2:0:0:
101,88,284441,5,2,1:2:0:0:
94,118,284515,1,2,0:2:0:0:
107,141,284590,1,2,0:2:0:0:
119,145,284665,1,2,0:2:0:0:
127,141,284739,1,2,0:2:0:0:
155,350,284889,70,2,B|211:300|211:300|154:170|154:170|206:112,1,280.500005350113,8|0,0:0|0:0,0:0:0:0:
300,15,285187,5,0,0:0:0:0:
486,65,285336,1,0,0:0:0:0:
486,65,285411,2,0,P|441:56|413:60,1,55
321,249,285560,1,0,0:0:0:0:
321,249,285635,2,0,P|365:258|393:253,1,55,0|0,1:0|0:0,0:0:0:0:
501,178,285784,70,2,B|515:171|515:171|451:145|451:145|368:183|368:183|373:181|373:181|271:150,1,280.500005350113,8|0,0:0|0:0,0:0:0:0:
0,67,286083,6,2,P|86:115|60:20,1,247.500009441376,8|0,0:0|0:0,0:0:0:0:
103,6,286381,70,0,P|126:30|134:54,1,55
201,243,286530,1,0,0:0:0:0:
201,243,286605,2,0,L|207:270,2,27.5
437,348,286829,6,0,L|478:332,2,44,0|0|0,1:0|0:0|0:0,0:0:0:0:
0,203,287426,70,2,B|100:215|100:215|187:163|187:163|308:178,1,296.99999093628,8|0,0:0|0:0,0:0:0:0:
467,141,287724,6,0,P|466:160|447:183,1,32.99999899292,0|0,3:0|3:0,3:0:0:0:
474,219,287799,2,0,P|455:224|427:213,1,32.99999899292,0|0,3:0|3:0,3:0:0:0:
404,246,287874,2,0,P|392:229|394:200,1,32.99999899292,0|0,3:0|3:0,3:0:0:0:
354,186,287948,2,0,P|366:170|394:163,1,32.99999899292,0|0,3:0|3:0,3:0:0:0:
395,125,288023,2,0,P|413:131|429:156,1,32.99999899292,0|0,1:0|3:0,0:0:0:0:
330,276,288172,70,2,B|333:298|351:313|351:313|250:301|250:301|199:322|199:322|97:311,1,280.500005350113,8|0,0:0|0:0,0:0:0:0:
63,34,288471,6,2,B|101:-21|101:-21|130:166,1,230.99999295044,8|0,0:0|0:0,0:0:0:0:
138,204,288769,70,0,L|131:166,1,32.99999899292
213,29,288918,2,0,L|226:103,1,66
394,0,289217,6,2,L|427:190,1,181.500005538941,0|0,1:0|0:0,0:0:0:0:
457,337,289515,69,0,0:0:0:0:
179,351,289665,6,2,B|109:333|109:333|186:323|186:323|221:302|221:302|334:290,1,296.99999093628,8|0,0:0|0:0,0:0:0:0:
323,103,289963,70,0,P|293:102|266:118,1,49.4999984893799,2|0,0:1|0:0,0:0:0:0:
213,29,290112,2,0,P|201:44|196:79,1,44,2|0,0:1|0:0,0:0:0:0:
94,71,290262,2,0,P|91:86|101:107,1,32.99999899292,2|0,0:1|0:0,0:0:0:0:
181,211,290411,2,0,L|185:182,1,27.5,2|0,1:1|0:0,0:0:0:0:
425,178,290560,6,2,B|451:195|485:198|485:198|457:222|388:213|358:234|358:234|348:275,1,214.49999018097,8|0,0:0|0:0,0:0:0:0:
27,269,290859,70,2,B|10:154|10:154|52:187,1,165,8|0,0:0|0:0,0:0:0:0:
274,325,291157,6,0,L|234:332,1,38.4999988250733
154,345,291306,2,0,L|93:355,1,38.4999988250733
0,370,291456,69,8,0:0:0:0:
48,184,291605,6,0,B|42:156|60:140|60:140|70:162|48:184,1,88,0|0,1:0|0:0,0:0:0:0:
175,20,292202,70,2,B|213:69|213:69|180:151|180:151|166:157|166:157|119:258,1,247.500009441376,8|0,0:0|0:0,0:0:0:0:
76,133,292500,5,2,0:0:0:0:
76,133,292575,2,0,P|56:114|82:125,1,76.9999976501466,2|2,0:0|0:0,0:0:0:0:
315,76,292724,69,2,0:2:0:0:
315,76,292799,2,0,P|333:45|318:78,1,98.9999969787599,0|0,1:0|0:0,0:0:0:0:
507,143,292948,6,2,P|402:178|501:228,1,280.500005350113,8|0,0:0|0:0,0:0:0:0:
247,324,293247,70,2,B|115:332|115:332|43:262|43:262|125:257,1,308,8|0,0:0|0:0,0:0:0:0:
124,253,293545,2,0,L|185:249,1,55
377,306,293695,5,2,0:2:0:0:
326,287,293769,1,2,0:2:0:0:
294,254,293844,1,2,0:2:0:0:
285,223,293918,1,2,0:2:0:0:
283,192,293993,69,2,1:2:0:0:
264,162,294068,1,2,0:2:0:0:
239,154,294142,1,2,0:2:0:0:
223,158,294217,1,2,0:2:0:0:
223,171,294292,1,2,0:2:0:0:
396,30,294441,6,2,B|444:1|444:1|418:93|418:93|386:112|386:112|339:255,1,280.500005350113,8|0,0:0|0:0,0:0:0:0:
261,322,294739,70,0,P|255:348|269:383,1,65.9999979858399
458,275,294889,1,0,0:0:0:0:
458,275,294963,1,0,0:0:0:0:
458,275,295038,2,0,P|464:249|450:214,1,65.9999979858399
159,330,295187,5,0,1:0:0:0:
2,200,295336,70,2,P|102:165|51:266,1,280.500005350113,8|0,0:0|0:0,0:0:0:0:
138,3,295635,6,2,B|149:83|149:83|204:143|204:143|214:255,1,264,8|0,0:0|0:0,0:0:0:0:
167,337,295933,69,0,0:0:0:0:
167,337,296008,1,0,0:0:0:0:
167,337,296083,2,0,P|212:337|244:310,1,55
366,268,296232,2,0,P|374:297|373:331,1,55
283,82,296381,6,0,L|326:72,2,44,0|0|0,1:0|0:0|0:0,0:0:0:0:
498,215,296978,70,2,B|395:206|395:206|327:166|327:166|192:150,1,280.500005350113,8|0,0:0|0:0,0:0:0:0:
24,149,297277,6,0,P|38:163|67:167,1,32.99999899292,0|0,3:0|3:0,3:0:0:0:
71,207,297352,2,0,P|88:198|101:171,1,32.99999899292,0|0,3:0|3:0,3:0:0:0:
142,180,297427,2,0,P|138:160|117:140,1,32.99999899292,0|0,3:0|3:0,3:0:0:0:
137,105,297501,2,0,P|118:102|92:116,1,32.99999899292,0|0,3:0|3:0,3:0:0:0:
65,87,297575,2,0,P|56:104|61:133,1,32.99999899292,0|0,1:0|3:0,3:0:0:0:
143,279,297724,70,2,B|140:301|122:316|122:316|218:331|218:331|257:317|257:317|379:333,1,264,8|0,0:0|0:0,0:0:0:0:
459,82,298023,6,2,B|509:49|509:49|348:29|348:29|239:96,1,296.99999093628,8|0,0:0|0:0,0:0:0:0:
254,65,298321,70,0,L|298:35,1,32.99999899292
115,71,298471,2,0,L|180:24,1,66
361,123,298769,6,0,L|214:231,1,165,0|0,1:0|0:0,0:0:0:0:
341,249,299068,70,0,L|324:244,1,16.49999949646
81,173,299217,1,12,0:0:0:0:
459,82,299515,5,8,0:0:0:0:
471,98,299665,1,8,0:0:0:0:
261,358,299963,70,0,L|221:367,3,32.99999899292
479,274,300262,2,0,L|535:282,3,32.99999899292,0|0|2|2,0:0|0:0|0:0|0:0,0:0:0:0:
485,160,300560,6,0,P|463:166|433:193,1,49.4999984893799
390,240,300709,2,0,P|378:259|374:299,1,49.4999984893799,2|2,0:0|0:0,0:0:0:0:
293,50,300859,70,0,P|309:65|347:77,1,49.4999984893799
411,90,301008,2,0,P|433:90|469:73,1,49.4999984893799,2|2,0:0|0:0,0:0:0:0:
298,270,301157,6,0,P|303:248|295:208,1,49.4999984893799
274,148,301306,2,0,P|262:128|230:105,1,49.4999984893799,2|2,0:0|0:0,0:0:0:0:
377,154,301456,69,2,0:0:0:0:
369,154,301530,1,2,0:0:0:0:
361,156,301605,1,2,0:0:0:0:
353,158,301680,1,2,0:0:0:0:
344,161,301754,1,2,0:0:0:0:
16,67,302053,6,0,L|8:19,3,32.99999899292
40,248,302351,2,0,L|24:298,3,32.99999899292
263,78,302650,70,0,P|262:105|246:142,1,55
44,168,302799,5,2,0:0:0:0:
44,168,302874,1,2,0:0:0:0:
44,168,302948,2,0,P|61:145|96:125,1,55
283,227,303098,69,2,0:0:0:0:
283,227,303172,1,2,0:0:0:0:
283,227,303247,2,0,P|256:233|216:229,1,55
119,48,303396,5,2,0:0:0:0:
119,48,303471,1,2,0:0:0:0:
119,48,303545,2,0,P|145:57|175:84,1,55
139,286,303695,69,2,0:0:0:0:
139,286,303770,1,2,0:0:0:0:
139,286,303844,2,0,P|123:262|115:223,1,55
263,78,303993,6,0,P|262:105|246:142,1,55,2|2,0:0|0:0,0:0:0:0:
313,271,304142,70,0,L|295:381,1,93.500001783371,0|0,1:0|0:0,0:0:0:0:
472,338,304292,2,0,L|487:231,1,93.500001783371,0|0,1:0|0:0,0:0:0:0:
399,257,304441,1,0,1:0:0:0:
399,257,304515,1,0,0:0:0:0:
399,257,304590,2,0,L|381:367,1,93.500001783371,0|0,1:0|0:0,0:0:0:0:
209,141,304739,6,0,L|194:49,1,93.500001783371,0|0,1:0|0:0,0:0:0:0:
22,23,304889,2,0,L|35:116,1,93.500001783371,0|0,1:0|0:0,0:0:0:0:
123,127,305038,1,0,1:0:0:0:
123,127,305112,1,0,0:0:0:0:
123,127,305187,2,0,L|108:35,1,93.500001783371,0|0,1:0|0:0,0:0:0:0:
319,14,305336,70,0,L|304:106,1,93.500001783371,0|0,1:0|0:0,0:0:0:0:
484,212,305486,2,0,L|497:119,1,93.500001783371,0|0,1:0|0:0,0:0:0:0:
405,65,305635,1,0,1:0:0:0:
405,65,305709,1,0,0:0:0:0:
405,65,305784,2,0,L|390:157,1,93.500001783371,0|0,1:0|0:0,0:0:0:0:
184,155,305933,6,0,L|199:247,1,93.500001783371,0|0,1:0|0:0,0:0:0:0:
19,353,306083,2,0,L|6:260,1,93.500001783371,0|0,1:0|0:0,0:0:0:0:
98,206,306232,1,0,1:0:0:0:
98,206,306306,1,0,0:0:0:0:
98,206,306381,2,0,L|113:298,1,93.500001783371,0|0,1:0|0:0,0:0:0:0:
276,359,306530,69,0,0:0:0:0:
287,357,306604,1,0,0:0:0:0:
299,356,306679,1,0,0:0:0:0:
314,353,306753,1,0,0:0:0:0:
326,350,306828,1,0,0:0:0:0:
338,347,306903,1,0,0:0:0:0:
351,345,306977,1,0,0:0:0:0:
363,342,307052,1,0,0:0:0:0:
375,341,307127,1,0,0:0:0:0:
388,338,307201,1,0,0:0:0:0:
400,337,307276,1,0,0:0:0:0:
411,334,307350,1,0,0:0:0:0:
431,342,307426,2,0,P|466:326|478:309,1,49.4999984893799,2|0,0:3|0:0,0:0:0:0:
333,223,307575,5,0,0:0:0:0:
333,223,307650,1,0,0:0:0:0:
333,223,307724,2,0,P|329:261|338:280,1,49.4999984893799,2|0,0:3|0:0,0:0:0:0:
475,187,307874,69,0,0:0:0:0:
475,187,307948,1,0,0:0:0:0:
475,187,308023,2,0,P|443:164|422:162,1,49.4999984893799,2|0,0:3|0:0,0:0:0:0:
72,63,308172,5,0,0:0:0:0:
72,63,308247,1,0,0:0:0:0:
72,63,308321,2,0,L|65:15,3,38.4999988250733
112,295,308620,5,2,0:0:0:0:
109,305,308670,1,2,0:0:0:0:
107,314,308719,1,2,0:0:0:0:
105,324,308769,1,2,0:0:0:0:
103,334,308819,1,2,0:0:0:0:
101,344,308869,1,2,0:0:0:0:
76,366,308918,6,0,B|40:349|37:316|37:316|33:274|33:274|68:203|68:203|66:207|66:207|57:101,1,253.000004825592,2|0,3:2|0:0,0:0:0:0:
250,34,309142,69,0,0:0:0:0:
250,34,309217,2,0,B|158:47|158:47|136:68,1,110,10|0,3:2|0:0,0:0:0:0:
173,158,309366,2,0,B|265:145|265:145|287:124,1,110,2|0,2:2|0:0,0:0:0:0:
439,26,309515,6,0,B|466:38|475:56|470:85|470:85|463:143|463:143|467:148|467:148|457:146|457:146|462:152|462:152|441:316,1,242.000007385254,2|0,3:2|0:0,0:0:0:0:
424,357,309739,1,0,0:0:0:0:
424,357,309814,2,0,B|411:333|411:333|425:237,1,110,10|0,3:2|0:0,0:0:0:0:
168,301,309963,70,0,B|173:311|173:311|210:336|210:336|220:394|283:396|308:365|308:365|313:369|313:369|309:364|309:364|332:334|322:279|268:274|268:274|227:247|227:247|213:245,1,379.500007238388,2|0,0:0|0:0,0:0:0:0:
36,56,310262,2,0,B|61:72|61:72|73:183,1,110,2|0,0:0|0:0,0:0:0:0:
9,275,310411,5,10,3:2:0:0:
101,262,310486,1,2,0:0:0:0:
157,205,310560,1,2,0:0:0:0:
179,150,310635,1,2,0:0:0:0:
188,100,310709,69,2,3:2:0:0:
222,58,310784,1,2,0:0:0:0:
276,53,310859,1,2,0:0:0:0:
309,73,310933,1,2,0:0:0:0:
332,108,311008,6,0,B|335:135|335:135|313:160,1,55,10|2,3:2|0:2,0:0:0:0:
119,71,311157,2,0,B|121:44|121:44|143:21,1,55,2|2,0:0|0:2,0:0:0:0:
425,174,311306,70,0,B|451:152|494:142|548:222|474:283|425:248|425:248|410:235|388:234|388:234|363:233|363:233|361:226|361:226|358:232|358:232|330:231|330:231|309:241|309:241|233:240,1,379.500007238388,2|0,3:2|0:0,0:0:0:0:
80,345,311605,5,10,3:2:0:0:
58,348,311680,1,2,0:0:0:0:
36,352,311754,2,0,P|36:312|108:274,1,110,2|0,0:0|0:0,0:0:0:0:
326,365,311903,70,0,B|312:335|312:335|405:366,1,121.000003692627,2|0,3:2|0:0,0:0:0:0:
77,179,312053,1,0,0:0:0:0:
77,179,312127,2,0,B|-8:151|-8:151|5:180,1,121.000003692627,2|8,0:0|3:2,0:0:0:0:
176,23,312277,5,0,0:0:0:0:
176,23,312351,2,0,B|204:37|204:37|209:66|209:66|214:65|214:65|209:66|209:66|213:99|213:99|212:93|212:93|190:137|190:137|193:142|193:142|185:138|185:138|188:143|188:143|165:197|165:197|164:190|164:190|169:228|169:228|162:229|162:229|169:228|169:228|175:269|175:269|222:305|222:305|215:267,1,412.5,2|0,0:0|0:0,0:0:0:0:
479,353,312650,2,0,P|468:315|378:279,1,126.500002412796,2|0,0:0|0:0,0:0:0:0:
367,51,312799,69,10,3:2:0:0:
448,78,312874,1,2,0:0:0:0:
475,147,312948,1,2,0:0:0:0:
445,203,313023,1,2,0:0:0:0:
380,194,313098,5,2,3:2:0:0:
327,204,313172,1,2,0:0:0:0:
302,250,313247,1,2,0:0:0:0:
313,301,313321,1,2,0:0:0:0:
345,329,313396,70,0,B|348:357|348:357|326:402,1,55,10|2,3:2|0:2,0:0:0:0:
184,144,313545,2,0,B|181:116|181:116|203:71,1,55,2|2,0:2|0:2,0:0:0:0:
4,238,313695,6,0,B|9:264|36:280|68:275|68:275|111:266|111:266|138:238|138:238|291:209,1,263.99999194336,2|0,3:2|0:0,0:0:0:0:
277,114,313918,69,0,0:0:0:0:
277,114,313993,2,0,B|290:64|290:64|244:-7,1,98.9999969787599,10|2,3:2|0:0,0:0:0:0:
94,51,314142,2,0,B|81:101|81:101|126:172,1,98.9999969787599,2|0,0:0|0:0,0:0:0:0:
423,285,314292,6,0,B|423:315|388:322|388:322|310:336|310:336|292:324|268:328|268:328|128:356,1,253.000004825592,2|0,3:2|0:0,0:0:0:0:
88,324,314515,1,2,0:2:0:0:
88,324,314590,2,0,B|107:332|107:332|200:313,1,110,8|0,3:2|0:0,0:0:0:0:
350,123,314739,70,0,B|434:100|434:100|432:93|432:93|436:100|436:100|469:91|469:91|522:78|539:149|486:163|486:163|457:171|457:171|443:186|443:186|355:210,1,363.000011077881,2|0,0:2|0:0,0:0:0:0:
13,288,315038,6,0,P|49:250|143:267,1,121.000003692627,2|0,0:0|0:0,0:0:0:0:
404,314,315187,69,10,3:2:0:0:
322,327,315262,1,2,0:2:0:0:
262,284,315336,1,2,0:2:0:0:
262,234,315411,1,2,0:2:0:0:
295,204,315486,5,2,3:2:0:0:
283,157,315560,1,2,0:2:0:0:
240,124,315635,1,2,0:2:0:0:
167,117,315709,1,2,0:2:0:0:
113,174,315784,70,0,B|112:203|112:203|125:234,1,55,10|2,3:2|0:0,0:0:0:0:
300,76,315933,2,0,B|301:47|301:47|288:16,1,55,2|2,0:0|0:0,0:0:0:0:
386,237,316083,6,0,B|399:264|464:267|472:214|472:214|481:156|481:156|484:150|484:150|502:15|502:15|501:23|501:23|407:94,1,395.999987915039,2|0,3:2|0:0,0:0:0:0:
224,52,316381,69,10,3:2:0:0:
210,40,316456,1,2,0:0:0:0:
195,29,316530,2,0,B|146:16|114:61,1,88,2|0,0:2|0:0,0:0:0:0:
301,242,316680,6,0,B|295:319|295:319|257:359,1,110,2|0,3:2|0:0,0:0:0:0:
48,365,316829,1,0,0:0:0:0:
48,365,316903,2,0,B|57:286|57:286|118:220,1,110,2|8,0:2|3:2,0:0:0:0:
346,122,317053,69,0,0:0:0:0:
366,111,317127,2,0,B|284:107|284:107|268:96|268:96|163:87|163:87|137:117|137:117|132:115|132:115|137:117|137:117|106:151|106:151|217:159,1,395.999987915039,2|0,0:0|0:0,0:0:0:0:
423,278,317426,6,0,L|473:265,1,32.99999899292,2|0,3:2|3:0,0:0:0:0:
439,191,317500,2,0,L|489:178,1,32.99999899292,0|0,3:0|3:0,0:0:0:0:
453,104,317575,2,0,L|503:91,1,32.99999899292,10|0,3:2|0:0,0:0:0:0:
238,351,317724,70,0,L|288:338,1,32.99999899292,2|0,3:2|3:0,0:0:0:0:
254,264,317798,2,0,L|304:251,1,32.99999899292,0|0,3:0|3:0,0:0:0:0:
268,177,317874,2,0,L|318:164,1,32.99999899292,0|0,3:0|0:0,0:0:0:0:
37,59,318023,5,0,0:0:0:0:
37,59,318098,2,0,P|16:121|46:159,1,88,0|0,3:0|0:0,0:0:0:0:
14,355,318247,69,2,3:2:0:0:
67,325,318321,1,2,3:2:0:0:
78,264,318396,1,2,3:2:0:0:
16,215,318471,6,0,B|48:252|48:252|117:243|117:243|121:238|121:238|271:211,1,230.99999295044,2|0,3:2|0:0,0:0:0:0:
312,30,318695,69,2,0:2:0:0:
369,35,318769,1,2,3:2:0:0:
409,76,318844,1,2,0:2:0:0:
413,123,318918,2,0,L|408:173,2,36.6666666666667,2|0|0,3:2|3:0|3:0,0:0:0:0:
491,300,319068,6,0,L|494:341,1,41.2500015735627,2|0,3:2|0:0,0:0:0:0:
310,111,319292,2,0,L|321:69,1,41.2500015735627,2|0,3:2|0:0,0:0:0:0:
16,215,319515,70,0,B|48:269|48:269|46:273|46:273|80:248|92:215|92:215|98:214|98:214|93:210|93:210|105:177|81:134|81:134|78:136|78:136|130:56|227:82,1,379.500007238388,2|0,3:2|0:0,0:0:0:0:
389,267,319814,5,0,3:0:0:0:
403,277,319889,1,0,3:0:0:0:
416,287,319963,2,0,P|415:329|358:359,1,88,10|0,3:2|0:0,0:0:0:0:
208,380,320112,2,0,P|172:359|159:308,1,88,2|0,0:2|0:0,0:0:0:0:
234,147,320262,69,2,3:2:0:0:
310,111,320336,1,2,0:2:0:0:
383,125,320411,1,2,0:2:0:0:
425,165,320486,1,2,0:2:0:0:
468,191,320560,5,10,3:2:0:0:
512,161,320635,1,2,0:2:0:0:
508,119,320709,1,2,0:2:0:0:
483,112,320784,1,2,0:2:0:0:
440,44,320859,70,0,B|455:21|455:21|357:33|357:33|346:40|346:40|339:25|339:25|248:37|248:37|257:36|257:36|211:69|228:127,1,346.49998942566,2|0,3:2|0:0,0:0:0:0:
297,358,321157,6,0,P|329:317|331:274,1,93.500001783371,10|2,3:2|0:2,0:0:0:0:
41,219,321306,2,0,L|80:204,2,36.6666666666667,2|0|0,3:2|3:0|3:0,0:0:0:0:
215,284,321456,70,0,L|263:296,1,41.2500015735627,2|0,3:2|0:0,0:0:0:0:
5,97,321680,2,0,L|26:49,1,41.2500015735627,2|0,3:2|0:0,0:0:0:0:
258,196,321903,6,0,B|289:162|350:173|350:173|347:168|347:168|391:225|391:225|387:227|387:227|436:285|436:285|429:285|429:285|482:283|517:245,1,346.49998942566,2|0,3:2|0:0,0:0:0:0:
316,14,322202,69,0,3:0:0:0:
298,16,322277,1,0,3:0:0:0:
280,19,322351,2,0,P|272:61|305:107,1,88,8|0,3:2|0:0,0:0:0:0:
96,71,322500,5,0,3:0:0:0:
89,88,322575,1,0,3:0:0:0:
82,104,322650,69,2,3:2:0:0:
91,207,322749,1,2,3:2:0:0:
101,300,322849,1,2,3:2:0:0:
198,374,322948,5,10,3:2:0:0:
208,280,323048,1,2,3:2:0:0:
218,187,323147,1,2,3:2:0:0:
293,98,323247,70,0,P|364:109|400:157,1,110,2|0,3:2|0:0,0:0:0:0:
376,376,323396,5,2,0:2:0:0:
335,339,323471,1,2,0:2:0:0:
332,262,323545,1,10,3:2:0:0:
388,209,323620,1,2,0:2:0:0:
462,186,323695,2,0,P|480:147|468:104,1,82.5000031471254,0|0,0:2|0:0,0:0:0:0:
280,21,323844,69,0,3:0:0:0:
233,29,323918,1,0,0:0:0:0:
209,68,323993,2,0,P|201:106|276:163,1,82.5000031471254
27,234,324142,5,8,3:2:0:0:
43,306,324217,1,0,0:0:0:0:
111,334,324292,2,0,P|147:321|159:228,1,82.5000031471254,2|0,0:0|0:0,0:0:0:0:
402,284,324441,70,0,P|373:258|286:294,1,82.5000031471254,2|0,3:2|0:0,0:0:0:0:
0,128,324590,6,0,L|103:150,1,82.5000031471254
280,21,324739,69,10,3:2:0:0:
361,36,324814,1,2,0:2:0:0:
399,109,324889,1,2,0:2:0:0:
390,190,324963,1,2,3:2:0:0:
320,235,325038,1,2,3:2:0:0:
231,241,325112,1,2,0:0:0:0:
157,202,325187,1,2,3:2:0:0:
76,213,325262,1,2,0:2:0:0:
34,283,325336,2,0,P|96:283|124:250,1,82.5000031471254,2|0,3:2|0:0,0:0:0:0:
209,68,325486,6,0,P|227:109|214:156,1,82.5000031471254,2|2,3:2|3:2,0:0:0:0:
302,346,325635,69,0,3:0:0:0:
256,192,325672,12,0,326829,0:0:0:0:
194,320,326978,5,0,3:0:0:0:
208,308,327053,1,0,3:0:0:0:
191,303,327127,1,0,3:0:0:0:
201,357,327227,69,0,3:0:0:0:
237,276,327326,5,0,3:0:0:0:
151,287,327426,69,0,3:0:0:0:
350,309,327650,5,0,3:0:0:0:
73,333,327874,1,0,3:0:0:0:
15,47,328023,70,0,B|4:16|4:16|56:2|110:18|110:18|114:13|114:13|114:19|114:19|162:33|205:91,1,263.99999194336,2|0,3:2|0:0,0:0:0:0:
461,146,328247,5,2,0:0:0:0:
461,146,328321,2,0,B|494:120|494:120|513:18,1,110,10|0,0:2|0:0,0:0:0:0:
379,38,328471,2,0,B|346:64|346:64|327:166,1,110,2|0,0:0|0:0,0:0:0:0:
483,296,328620,70,0,B|508:291|508:291|460:267|417:271|417:271|382:273|382:273|375:268|375:268|380:274|380:274|345:279|345:279|335:287|335:287|232:296,1,263.99999194336,2|0,0:0|3:0,0:0:0:0:
170,351,328844,5,2,0:0:0:0:
170,351,328918,2,0,L|295:341,1,110,8|0,0:2|0:0,0:0:0:0:
76,148,329068,70,0,B|36:137|-2:161|-31:207|-6:254|-6:254|-12:260|-12:260|-3:260|-3:260|36:316|104:300|139:261|132:207,1,363.000011077881,2|0,0:0|0:0,0:0:0:0:
200,85,329366,6,0,B|211:97|211:97|203:135|203:135|204:143|204:143|199:143|199:143|200:151|200:151|189:210,1,110,2|0,3:2|0:0,0:0:0:0:
322,370,329515,69,10,0:2:0:0:
383,317,329590,1,2,0:2:0:0:
387,253,329665,1,2,0:2:0:0:
348,221,329739,1,2,0:2:0:0:
289,164,329814,5,2,0:2:0:0:
283,80,329889,1,2,0:2:0:0:
317,40,329963,1,2,3:2:0:0:
349,40,330038,1,2,0:2:0:0:
421,61,330112,70,0,L|332:74,1,55,10|2,0:2|0:0,0:0:0:0:
200,85,330262,2,0,L|119:96,1,55,2|2,3:2|0:0,0:0:0:0:
0,186,330411,6,0,B|-3:216|26:238|56:234|56:234|59:244|59:244|58:234|58:234|97:226|121:188|101:158|101:158|89:147|76:132|76:132|71:103|71:103|66:103|66:103|70:100|70:100|67:79|67:79|81:54|81:54|71:-7,1,379.500007238388,2|0,0:2|0:0,0:0:0:0:
248,29,330709,69,10,0:2:0:0:
269,35,330784,1,2,0:0:0:0:
289,44,330859,2,0,P|307:72|272:172,1,110,2|0,0:2|0:0,0:0:0:0:
399,353,331008,5,2,0:2:0:0:
399,353,331083,2,0,B|488:334|488:334|414:303,1,126.500002412796,0|0,0:0|3:0,0:0:0:0:
133,241,331232,1,2,0:0:0:0:
133,241,331306,2,0,B|147:208|147:208|30:231,1,126.500002412796,8|0,0:2|0:0,0:0:0:0:
361,106,331456,70,0,B|385:153|385:153|376:204|376:204|375:196|375:196|338:214|338:214|336:220|336:220|336:215|336:215|302:232|302:232|309:223|309:223|278:237|278:237|276:235|276:235|274:239|274:239|235:257|235:257|234:248|234:248|213:300|213:300|233:350,1,412.5,2|0,0:2|0:0,0:0:0:0:
23,384,331754,6,0,P|31:328|90:294,1,115.49999647522,2|0,3:2|0:0,0:0:0:0:
46,78,331903,69,10,0:2:0:0:
74,157,331978,1,2,0:2:0:0:
149,172,332053,1,2,0:2:0:0:
195,139,332127,1,2,0:2:0:0:
220,71,332202,5,2,3:2:0:0:
288,33,332277,1,2,0:2:0:0:
325,36,332351,1,2,3:2:0:0:
336,44,332426,1,2,0:2:0:0:
404,56,332500,70,0,L|389:138,1,55,10|2,0:2|0:0,0:0:0:0:
360,266,332650,2,0,L|345:348,1,55,2|2,0:0|0:0,0:0:0:0:
509,165,332799,6,0,B|518:163|518:163|473:133|473:133|480:139|480:139|375:155|375:155|386:159|386:159|273:176|273:176|276:169|276:169|249:213|249:213|297:203,1,379.500007238388,2|0,3:2|0:0,0:0:0:0:
222,347,333098,70,0,P|177:314|176:259,1,110,10|0,0:2|0:0,0:0:0:0:
18,261,333247,2,0,P|69:196|115:202,1,110,2|0,0:2|0:0,0:0:0:0:
271,71,333396,6,0,B|289:71|289:71|326:56|319:1|275:1|275:1|125:23,1,253.000004825592,2|0,0:2|3:0,0:0:0:0:
22,128,333620,69,2,0:2:0:0:
52,120,333695,2,0,P|105:118|151:152,1,98.9999969787599,8|0,0:2|0:0,0:0:0:0:
309,332,333844,6,0,B|313:343|337:377|337:377|317:314|358:263|358:263|323:208|323:208|365:161|331:91,1,330,2|0,0:2|0:0,0:0:0:0:
488,20,334142,70,0,P|494:49|426:115,1,110,2|0,3:2|0:0,0:0:0:0:
261,149,334292,5,10,0:2:0:0:
232,227,334366,1,2,0:2:0:0:
182,232,334441,1,2,0:2:0:0:
153,213,334515,1,2,0:2:0:0:
147,204,334590,69,2,0:2:0:0:
129,247,334665,1,2,0:2:0:0:
143,322,334739,1,2,3:2:0:0:
214,355,334814,1,2,0:2:0:0:
309,332,334889,6,0,P|314:301|303:271,1,55,10|2,0:2|0:0,0:0:0:0:
456,204,335038,2,0,P|418:176|393:168,1,55,2|2,3:2|0:2,0:0:0:0:
318,54,335187,70,0,B|327:31|327:31|253:45|253:45|252:41|252:41|253:45|253:45|212:54|215:97|168:105|168:105|131:113,1,230.99999295044,2|0,0:2|3:0,0:0:0:0:
25,280,335411,5,0,0:0:0:0:
29,299,335486,1,10,0:2:0:0:
34,319,335560,2,0,B|91:242|10:162|10:162|19:220,1,220,2|0,0:0|0:0,0:0:0:0:
226,270,335784,70,0,P|274:250|295:211,1,98.9999969787599,2|0,0:2|0:0,0:0:0:0:
124,13,335933,1,0,3:0:0:0:
124,13,336008,2,0,P|76:33|55:72,1,98.9999969787599,2|8,0:2|0:2,0:0:0:0:
487,38,336232,6,0,B|491:18|517:10|517:10|437:29|437:29|432:34|432:34|386:45|386:45|382:42|382:42|385:45|385:45|336:57|336:57|340:57|340:57|390:105|390:105|392:113|392:113|445:168,1,363.000011077881,2|0,0:0|0:0,0:0:0:0:
476,319,336530,70,0,P|478:263|434:205,1,104.499997209549,2|0,3:2|0:0,0:0:0:0:
271,103,336680,1,10,0:2:0:0:
219,86,336754,1,2,0:2:0:0:
191,91,336829,1,2,0:2:0:0:
177,101,336903,1,2,0:2:0:0:
170,112,336978,6,0,B|158:137|158:137|193:223,1,93.500001783371,2|0,3:2|0:0,0:0:0:0:
376,242,337127,2,0,B|360:219|360:219|268:206,1,93.500001783371,0|0,3:0|0:0,0:0:0:0:
66,319,337277,2,0,B|17:380|17:380|93:376|93:376|95:373|95:373|170:367|170:367|168:362|168:362|231:281,1,330,8|0,0:2|0:0,0:0:0:0:
22,85,337575,70,0,B|22:88|30:87|30:87|21:84|21:84|29:83|29:83|21:81|21:81|29:79|29:79|20:77|20:77|28:75|28:75|19:73|19:73|27:71|27:71|18:69|18:69|26:67|26:67|18:65|18:65|25:63|25:63|17:61|17:61|25:59|25:59|16:57|16:57|24:55|24:55|15:53|15:53|23:52|23:52|15:49|15:49|22:48|22:48|14:45|14:45|22:44|22:44|13:41|13:41|21:40|21:40|12:37|12:37|20:36|20:36|12:33|12:33|19:32|19:32|11:30|11:30|19:28|19:28|10:26|10:26|18:24|18:24|9:22|9:22|17:20|17:20|8:18|8:18|16:16|16:16|8:14|8:14|16:12|16:12|7:10|7:10|15:8,1,330,0|0,3:0|0:0,0:0:0:0:
303,23,337874,6,0,P|332:54|323:120,1,93.500001783371,8|0,0:2|0:0,0:0:0:0:
352,327,338023,69,0,0:0:0:0:
352,327,338097,1,0,0:0:0:0:
352,327,338172,2,0,L|463:338,1,93.500001783371,2|0,0:2|0:0,0:0:0:0:
146,179,338321,2,0,L|35:168,1,93.500001783371,0|2,3:0|0:2,0:0:0:0:
365,178,338471,2,0,L|476:167,1,93.500001783371,8|0,0:2|0:0,0:0:0:0:
156,332,338620,6,0,B|121:383|89:316|33:346|33:346|74:303|74:303|78:305|78:305|113:273|113:273|170:290|204:329,1,346.49998942566,2|0,0:2|0:0,0:0:0:0:
497,227,338918,70,0,P|527:171|503:115,1,115.49999647522,2|0,3:2|0:0,0:0:0:0:
258,84,339068,5,10,0:2:0:0:
180,43,339142,1,2,0:2:0:0:
101,54,339217,1,2,0:2:0:0:
53,98,339292,1,2,0:2:0:0:
37,167,339366,69,2,0:2:0:0:
73,228,339441,1,2,0:2:0:0:
119,243,339515,1,2,3:2:0:0:
146,235,339590,1,2,0:2:0:0:
204,180,339665,6,0,L|215:106,1,55,10|0,0:2|0:0,0:0:0:0:
459,332,339814,70,0,B|487:289|487:289|443:305|443:305|435:302|435:302|394:318|394:318|406:326|406:326|387:320|387:320|399:329|399:329|379:323|379:323|391:332|391:332|372:326|372:326|384:335|384:335|364:329|364:329|376:337|376:337|357:332|357:332|369:340|369:340|349:335|349:335|376:359|376:359|338:339|338:339|365:363|365:363|327:343|327:343|353:368|353:368|316:348|316:348|342:372|342:372|305:352|305:352|331:376|331:376|293:356|293:356|320:380|320:380|282:361|282:361|309:385,1,825.000031471254,0|0,3:0|0:0,0:0:0:0:
212,384,340262,6,0,P|180:370|160:286,1,110,10|2,0:2|0:2,0:0:0:0:
43,160,340411,2,0,P|111:164|133:211,1,110,2|0,0:2|0:0,0:0:0:0:
398,175,340560,70,0,P|457:186|519:143,1,93.500001783371,2|0,0:2|0:0,0:0:0:0:
235,70,340709,1,0,3:0:0:0:
235,70,340784,2,0,B|192:39|163:61|97:23|97:23|168:111,1,187.000003566742,2|0,0:2|0:0,0:0:0:0:
257,251,341008,6,0,B|241:257|241:257|262:212|262:212|253:209|253:209|262:211|262:211|279:175|279:175|323:144|323:144|338:100|338:100|343:102|343:102|338:99|338:99|356:48,1,263.99999194336,2|0,0:2|0:0,0:0:0:0:
467,23,341232,1,0,0:0:0:0:
467,23,341306,2,0,P|471:72|450:113,1,88,2|0,3:2|0:0,0:0:0:0:
508,287,341456,69,10,0:2:0:0:
490,314,341530,1,2,0:2:0:0:
472,342,341605,2,2,P|427:300|422:243,1,110,2|2,0:2|0:2,0:2:0:0:
269,369,341754,5,2,3:2:0:0:
248,377,341829,1,2,0:2:0:0:
227,383,341903,2,2,P|214:327|241:286,1,110,2|2,3:2|0:2,0:2:0:0:
71,299,342053,69,10,0:2:0:0:
38,293,342128,1,2,0:2:0:0:
6,287,342202,2,2,P|25:232|70:213,1,110,2|2,0:2|0:2,0:2:0:0:
322,138,342351,6,0,B|363:131|363:131|362:137|362:137|364:131|364:131|420:121,1,93.500001783371,2|0,3:2|0:0,0:0:0:0:
430,41,342500,2,0,B|389:48|389:48|390:42|390:42|388:48|388:48|332:58,1,93.500001783371,2|2,3:2|0:2,0:0:0:0:
190,138,342650,70,0,B|149:131|149:131|150:137|150:137|148:131|148:131|92:121,1,93.500001783371,10|2,3:2|0:2,0:0:0:0:
82,41,342799,2,0,B|123:48|123:48|122:42|122:42|124:48|124:48|180:58,1,93.500001783371,2|0,3:2|0:0,0:0:0:0:
337,306,342948,6,0,B|378:299|378:299|377:305|377:305|379:299|379:299|435:289,1,93.500001783371,0|0,3:0|0:0,0:0:0:0:
445,209,343097,2,0,B|404:216|404:216|405:210|405:210|403:216|403:216|347:226,1,93.500001783371,2|0,3:2|0:0,0:0:0:0:
175,306,343247,70,0,B|134:299|134:299|135:305|135:305|133:299|133:299|77:289,1,93.500001783371,8|0,3:2|0:0,0:0:0:0:
67,209,343396,2,0,B|108:216|108:216|107:210|107:210|109:216|109:216|165:226,1,93.500001783371,2|0,3:2|0:0,0:0:0:0:
408,63,343545,6,0,B|409:114|409:114|380:166,1,104.499997209549,2|0,3:2|0:0,0:0:0:0:
127,149,343695,2,0,B|103:101|103:101|108:42,1,104.499997209549,2|0,3:2|0:0,0:0:0:0:
460,219,343844,70,0,B|458:273|458:273|416:314,1,104.499997209549,10|2,3:2|0:2,0:0:0:0:
174,11,343993,2,0,B|225:-7|225:-7|275:12,1,104.499997209549,2|2,3:2|0:2,0:0:0:0:
142,372,344142,2,0,B|94:341|94:341|82:288,1,104.499997209549,2|2,3:2|0:2,0:0:0:0:
247,62,344292,5,2,3:2:0:0:
251,48,344366,1,2,3:2:0:0:
250,37,344441,2,0,L|245:-3,1,27.5,10|2,3:2|3:2,0:0:0:0:
255,369,344590,69,0,3:0:0:0:
256,192,344627,12,0,346344,0:0:0:0:
413,179,346381,5,0,0:0:0:0:
411,189,346456,1,0,0:0:0:0:
409,199,346530,1,0,0:0:0:0:
461,181,346605,1,0,0:0:0:0:
488,132,346680,1,0,0:0:0:0:
496,78,346754,1,0,0:0:0:0:
476,26,346829,1,8,0:0:0:0:
435,364,347127,69,8,3:2:0:0:
251,352,347277,2,0,B|329:336|329:336|322:332|322:332|398:317,1,165.000006294251,0|0,0:0|3:0,0:0:0:0:
6,91,347575,6,0,B|19:174|19:174|60:233|60:233|75:327,1,253.000004825592,0|0,0:0|3:0,0:0:0:0:
86,69,347874,2,0,B|98:145|98:145|136:199|136:199|149:285,1,230.99999295044,0|0,0:0|3:0,0:0:0:0:
166,49,348172,2,0,B|177:119|177:119|212:168|212:168|224:248,1,208.999994419098,0|0,0:0|3:0,0:0:0:0:
246,31,348471,2,0,B|255:89|255:89|284:130|284:130|294:196,1,176,0|0,0:0|3:0,0:0:0:0:
441,353,348769,70,0,P|392:335|378:272,1,82.5000031471254
413,140,348918,2,0,P|442:182|416:241,1,82.5000031471254,0|0,3:0|0:0,0:0:0:0:
310,329,349068,2,0,P|312:278|367:244,1,82.5000031471254
503,235,349217,2,0,P|472:276|408:270,1,82.5000031471254,0|0,3:0|0:0,0:0:0:0:
294,196,349366,2,0,P|344:181|391:225,1,82.5000031471254
425,61,349515,6,0,B|428:37|428:37|433:35|433:35|440:-5|440:-5|445:-9|445:-9|335:11|335:11|329:16|329:16|226:35,1,280.500005350113,8|0,3:2|0:0,0:0:0:0:
86,69,349814,1,0,3:0:0:0:
274,294,349963,70,0,B|220:308|220:308|161:353|161:353|81:339|81:339|17:354,1,263.99999194336,0|0,0:0|3:0,0:0:0:0:
245,212,350262,2,0,B|197:224|197:224|143:264|143:264|74:252|74:252|14:263,1,242.000007385254,0|0,0:0|3:0,0:0:0:0:
214,124,350560,2,0,B|163:136|163:136|120:170|120:170|56:161|56:161|9:171,1,220,0|0,0:0|3:0,0:0:0:0:
184,36,350859,2,0,B|137:46|137:46|96:79|96:79|41:69|41:69|-1:78,1,197.99999395752,0|0,0:0|3:0,0:0:0:0:
368,65,351157,6,0,L|469:53,1,65.9999979858399
472,265,351306,69,0,3:0:0:0:
479,289,351381,2,0,P|491:238|458:200,1,88,0|0,3:0|0:0,0:0:0:0:
245,212,351530,5,0,3:0:0:0:
219,219,351605,2,0,L|132:234,1,88,0|0,3:0|0:0,0:0:0:0:
405,316,351754,69,0,3:0:0:0:
409,337,351829,1,0,3:0:0:0:
340,366,351903,2,0,B|331:327|331:327|334:329|334:329|323:279,1,82.5,0|0,3:0|0:0,0:0:0:0:
184,36,352202,6,0,B|174:21|160:13|160:13|205:36|260:27|281:58|281:58|282:52|282:52|270:126|270:126|260:123|260:123|243:223,1,346.49998942566
39,379,352500,70,0,L|29:318,1,55,0|0,1:0|0:0,0:0:0:0:
180,355,352650,2,0,L|171:300,1,55
109,366,352799,2,0,L|100:311,1,55
250,342,352948,2,0,L|240:281,1,55
166,129,353097,5,0,3:0:0:0:
370,65,353247,2,0,P|383:113|355:159,1,82.5000031471254
381,285,353396,70,0,L|346:291,1,27.5,2|0,0:1|0:1,0:1:0:0:
379,274,353471,2,0,L|344:280,1,27.5,2|0,0:1|0:1,0:1:0:0:
378,264,353545,2,0,L|343:270,1,27.5,2|0,0:1|0:1,0:1:0:0:
376,253,353620,2,0,L|341:259,1,27.5,2|0,0:1|0:1,0:1:0:0:
440,194,353695,6,0,L|479:197,1,27.5,2|0,1:1|0:1,0:1:0:0:
443,177,353769,2,0,L|482:180,1,27.5,2|0,0:1|0:1,0:1:0:0:
446,160,353844,2,0,L|485:163,1,27.5,2|0,0:1|0:1,0:1:0:0:
449,143,353918,2,0,L|488:146,1,27.5,2|0,0:1|0:1,0:1:0:0:
452,126,353993,2,0,L|491:129,1,27.5,2|0,0:1|0:1,0:1:0:0:
455,109,354068,2,0,L|494:112,1,27.5,2|0,0:1|0:1,0:1:0:0:
458,92,354142,2,0,L|497:95,1,27.5,2|0,0:1|0:1,0:1:0:0:
461,75,354217,2,0,L|500:78,1,27.5,2|0,0:1|0:1,0:1:0:0:
370,65,354292,70,0,B|342:64|342:64|343:59|343:59|342:64|342:64|287:62|287:62|293:62|293:62|232:104|232:104|231:99|231:99|170:140|170:140|174:141|174:141|120:137|120:137|119:141|119:141|118:136|118:136|56:131,1,346.49998942566,0|0,3:0|0:0,0:0:0:0:
90,133,354590,1,0,0:0:0:0:
70,52,354739,6,0,P|116:51|142:66,1,76.9999976501466
137,271,354889,1,0,1:0:0:0:
91,213,355038,70,0,P|69:236|63:266,1,60.5000018463135
110,342,355187,2,0,P|141:349|169:339,1,60.5000018463135
211,258,355336,2,0,P|201:227|178:207,1,60.5000018463135
351,343,355486,6,0,B|371:354|371:354|352:268|352:268|364:269|364:269|341:164,1,197.99999395752,0|0,3:0|0:0,0:0:0:0:
402,5,355784,70,0,L|371:0,1,27.5,2|0,0:1|0:1,0:1:0:0:
401,16,355859,2,0,L|370:11,1,27.5,2|0,0:1|0:1,0:1:0:0:
400,26,355933,2,0,L|369:21,1,27.5,2|0,0:1|0:1,0:1:0:0:
399,37,356008,2,0,L|368:32,1,27.5,2|0,0:1|0:1,0:1:0:0:
445,102,356083,6,0,P|406:115|356:100,1,76.9999976501466,0|0,1:0|0:0,0:0:0:0:
139,21,356232,2,2,B|134:41|118:65|118:65|92:100|18:145|1:95|1:95|-3:95|-3:95|66:105|57:43|123:55|123:55|170:64|197:91|229:149,1,440,0|0,0:0|0:0,0:0:0:0:
61,277,356680,69,8,3:2:0:0:
86,272,356754,1,0,3:0:0:0:
112,267,356829,1,0,3:0:0:0:
137,263,356903,1,0,3:0:0:0:
187,327,356978,6,0,P|219:351|282:343,1,88,0|0,3:0|0:0,0:0:0:0:
491,238,357127,70,0,B|431:250|431:250|424:247|424:247|348:264,1,126.500002412796
244,282,357277,1,0,3:0:0:0:
480,159,357426,6,0,B|426:170|426:170|418:167|418:167|337:185,1,115.49999647522
259,203,357576,1,0,3:0:0:0:
467,81,357724,70,0,B|419:90|419:90|412:88|412:88|340:103,1,104.499997209549
270,117,357874,1,0,3:0:0:0:
451,4,358023,6,0,B|406:13|406:13|400:10|400:10|333:25,1,93.500001783371
285,32,358173,1,0,3:0:0:0:
50,236,358321,70,0,P|40:262|56:317,1,82.5000031471254
216,268,358471,2,0,P|239:251|258:197,1,82.5000031471254,0|0,3:0|0:0,0:0:0:0:
100,138,358620,2,0,P|71:137|24:169,1,82.5000031471254
125,315,358769,2,0,P|147:331|204:333,1,82.5000031471254,0|0,3:0|0:0,0:0:0:0:
207,157,358918,2,0,P|198:130|153:94,1,82.5000031471254
313,325,359068,6,0,L|326:405,1,60.5000018463135,8|0,3:2|0:0,0:0:0:0:
480,159,359217,2,0,L|467:79,1,60.5000018463135,0|0,3:0|0:0,0:0:0:0:
398,248,359366,69,0,3:0:0:0:
216,34,359515,6,0,B|201:59|201:59|209:196,1,126.500002412796
216,268,359665,1,0,3:0:0:0:
135,20,359814,70,0,B|123:39|123:39|131:176,1,115.49999647522
136,226,359964,1,0,3:0:0:0:
54,0,360112,6,0,B|40:22|40:22|46:112,1,104.499997209549
53,180,360262,1,0,3:0:0:0:
324,54,360411,69,0,3:0:0:0:
291,47,360486,2,0,L|182:27,1,76.9999976501466,0|0,3:0|0:0,0:0:0:0:
231,255,360635,5,0,3:0:0:0:
216,268,360709,2,0,P|255:218|299:225,1,76.9999976501466,0|0,3:0|0:0,0:0:0:0:
425,315,360859,70,0,B|453:340|453:340|399:332|399:332|404:332|404:332|360:307|360:307|365:308|365:308|269:288,1,230.99999295044,0|0,3:0|0:0,0:0:0:0:
134,194,361083,2,0,L|53:180,1,82.5000031471254,0|0,3:0|0:0,0:0:0:0:
349,211,361232,5,0,3:0:0:0:
337,235,361306,2,0,B|332:203|332:203|350:125,1,82.5000031471254,0|0,3:0|0:0,0:0:0:0:
501,6,361456,70,0,B|499:30|499:30|503:41|503:41|493:39|493:39|496:50|496:50|493:78,1,82.5,0|0,3:0|0:0,0:0:0:0:
238,273,361754,6,0,B|215:266|215:266|204:295|208:335|246:374|299:365|299:365|302:372|302:372|303:364|303:364|352:357|373:306|372:256|325:226,1,363.000011077881
87,123,362053,70,0,L|80:67,1,55,0|0,1:0|0:0,0:0:0:0:
241,36,362202,2,0,L|248:92,1,55
164,107,362351,2,0,L|157:51,1,55
318,20,362500,2,0,L|325:76,1,55
469,252,362650,5,0,3:0:0:0:
352,160,362799,2,0,P|311:161|259:214,1,82.5000031471254
155,312,362948,70,0,L|150:359,1,27.5,2|0,0:1|0:1,0:1:0:0:
145,308,363023,2,0,L|140:355,1,27.5,2|0,0:1|0:1,0:1:0:0:
135,305,363097,2,0,L|130:352,1,27.5,2|0,0:1|0:1,0:1:0:0:
125,302,363172,2,0,L|120:349,1,27.5,2|0,0:1|0:1,0:1:0:0:
63,269,363247,6,0,L|71:224,1,27.5,2|0,1:1|0:1,0:1:0:0:
78,263,363321,2,0,L|86:218,1,27.5,2|0,0:1|0:1,0:1:0:0:
93,258,363396,2,0,L|101:213,1,27.5,2|0,0:1|0:1,0:1:0:0:
108,252,363471,2,0,L|116:207,1,27.5,2|0,0:1|0:1,0:1:0:0:
123,247,363545,2,0,L|131:202,1,27.5,2|0,0:1|0:1,0:1:0:0:
138,242,363620,2,0,L|146:197,1,27.5,2|0,0:1|0:1,0:1:0:0:
153,236,363695,2,0,L|161:191,1,27.5,2|0,0:1|0:1,0:1:0:0:
168,231,363769,2,0,L|176:186,1,27.5,2|0,0:1|0:1,0:1:0:0:
252,266,363844,70,0,B|280:286|280:319|280:319|326:206|326:206|331:207|331:207|352:154|352:154|357:155|357:155|353:152|353:152|373:100|373:100|371:104|371:104|330:51,1,346.49998942566,0|0,3:0|0:0,0:0:0:0:
353,81,364142,1,0,0:0:0:0:
255,25,364292,6,0,P|253:69|290:115,1,76.9999976501466
447,220,364441,2,0,B|474:219|457:183|465:164|465:164|451:186|428:183|436:202,1,115.49999647522,0|0,1:0|0:0,0:0:0:0:
420,208,364739,1,0,0:0:0:0:
90,84,364889,70,0,B|79:61|62:53|62:53|125:65|125:65|160:107|160:107|153:108|153:108|188:148|188:148|263:167,1,280.500005350113,0|0,3:0|0:0,0:0:0:0:
445,311,365187,5,0,0:0:0:0:
445,311,365262,1,0,0:0:0:0:
445,311,365336,2,0,P|405:306|356:332,1,60.5000018463135,0|0,1:0|0:0,0:0:0:0:
289,343,365486,2,0,P|256:367|239:419,1,60.5000018463135
199,238,365635,2,0,P|239:243|288:217,1,60.5000018463135
397,164,365785,2,0,P|380:189|355:206,1,60.5000018463135,0|0,3:0|0:0,0:0:0:0:
324,272,365933,1,0,1:0:0:0:
159,367,366083,69,0,0:0:0:0:
159,367,366157,1,0,0:0:0:0:
159,367,366232,2,0,P|154:326|118:285,1,60.5000018463135
6,254,366381,2,0,P|14:223|42:190,1,60.5000018463135,0|0,3:0|0:0,0:0:0:0:
110,139,366530,1,0,1:0:0:0:
261,166,366680,5,0,0:0:0:0:
261,166,366754,1,0,0:0:0:0:
261,166,366829,2,0,P|230:166|201:158,1,60.5000018463135
61,4,366978,2,0,P|76:28|81:58,1,60.5000018463135,0|0,3:0|0:0,0:0:0:0:
132,242,367127,69,0,1:0:0:0:
189,53,367277,1,0,3:0:0:0:
469,212,367426,6,0,P|496:226|512:252,1,60.5000018463135
388,353,367575,2,0,P|406:328|408:298,1,60.5000018463135,0|0,3:0|0:0,0:0:0:0:
361,214,367724,1,0,1:0:0:0:
462,111,367874,70,0,P|423:116|399:143,1,60.5000018463135
288,274,368023,1,0,0:0:0:0:
288,274,368097,1,0,0:0:0:0:
288,274,368172,2,0,P|258:271|232:255,1,60.5000018463135,0|0,3:0|0:0,0:0:0:0:
274,106,368321,1,0,1:0:0:0:
110,13,368471,5,0,0:0:0:0:
110,13,368545,1,0,0:0:0:0:
110,13,368620,2,0,P|111:61|130:86,1,60.5000018463135
18,139,368769,2,0,P|38:161|66:172,1,60.5000018463135,0|0,3:0|0:0,0:0:0:0:
53,292,368918,2,0,P|78:293|116:270,1,60.5000018463135,0|0,1:0|0:0,0:0:0:0:
274,106,369068,69,0,0:0:0:0:
274,106,369142,1,0,0:0:0:0:
274,106,369217,2,0,L|262:172,1,60.5000018463135,0|0,3:0|0:0,0:0:0:0:
166,176,369366,2,0,L|176:116,1,60.5000018463135,0|0,3:0|0:0,0:0:0:0:
368,86,369515,2,0,L|357:145,1,60.5000018463135,0|0,1:0|0:0,0:0:0:0:
504,334,369665,5,0,0:0:0:0:
504,334,369739,1,0,0:0:0:0:
504,334,369814,2,0,B|442:313|442:313|436:325|436:325|356:357|356:357|251:320,1,247.500009441376,0|0,3:0|0:0,0:0:0:0:
121,361,370112,70,0,P|165:334|187:333,1,60.5000018463135,0|0,1:0|0:0,0:0:0:0:
205,238,370262,2,0,P|228:240|271:274,1,60.5000018463135
357,210,370411,1,0,0:0:0:0:
357,210,370486,1,0,0:0:0:0:
357,210,370560,2,0,P|378:248|375:281,1,60.5000018463135,0|0,3:0|0:0,0:0:0:0:
150,90,370709,1,0,1:0:0:0:
164,177,370859,5,0,0:0:0:0:
164,177,370933,1,0,0:0:0:0:
164,177,371008,2,0,P|121:209|80:199,1,60.5000018463135
218,31,371157,2,0,P|267:51|279:91,1,60.5000018463135,0|0,3:0|0:0,0:0:0:0:
73,65,371306,2,0,P|66:11|96:-18,1,60.5000018463135,0|0,1:0|0:0,0:0:0:0:
217,243,371456,69,0,0:0:0:0:
217,243,371530,1,0,0:0:0:0:
217,243,371605,2,0,L|233:319,1,60.5000018463135
337,278,371754,2,0,L|355:347,1,60.5000018463135,0|0,3:0|0:0,0:0:0:0:
463,304,371903,2,0,L|479:369,1,60.5000018463135,0|0,1:0|0:0,0:0:0:0:
300,116,372053,1,0,3:0:0:0:
99,325,372202,6,0,L|13:309,1,82.5000031471254,0|0,1:0|0:0,0:0:0:0:
30,227,372351,2,0,L|111:241,1,82.5000031471254,0|0,1:0|0:0,0:0:0:0:
150,38,372500,70,0,L|69:24,1,82.5000031471254,0|0,1:0|0:0,0:0:0:0:
51,121,372649,2,0,L|133:136,1,82.5000031471254,0|0,1:0|0:0,0:0:0:0:
303,0,372799,6,0,B|344:36|344:36|339:63,1,82.5000031471254,0|0,1:0|0:0,0:0:0:0:
224,223,372948,1,0,1:0:0:0:
206,194,373023,1,0,0:0:0:0:
208,162,373097,2,0,B|218:108|218:108|244:99,1,82.5000031471254,0|0,1:0|0:0,0:0:0:0:
397,170,373247,2,0,B|344:187|344:187|323:170,1,82.5000031471254,0|0,1:0|0:0,0:0:0:0:
184,337,373396,69,0,1:0:0:0:
225,362,373471,1,0,0:0:0:0:
274,364,373545,1,0,1:0:0:0:
322,353,373620,1,0,0:0:0:0:
364,327,373695,2,0,P|395:295|388:232,1,82.5000031471254,0|0,1:0|0:0,0:0:0:0:
485,185,373844,2,0,P|481:133|452:108,1,82.5000031471254,0|0,1:0|0:0,0:0:0:0:
339,63,373993,6,0,B|279:72|279:72|274:74|274:74|214:83,1,126.500002412796,0|0,1:0|0:0,0:0:0:0:
31,186,374142,2,0,B|72:179|72:179|77:177|77:177|143:167,1,82.5000031471254,0|0,1:0|0:0,0:0:0:0:
266,256,374292,70,0,B|283:205|283:205|249:133,1,98.9999969787599,0|0,1:0|0:0,0:0:0:0:
100,0,374441,2,0,B|83:51|83:51|117:123,1,98.9999969787599,0|0,1:0|0:0,0:0:0:0:
99,305,374590,5,0,0:0:0:0:
89,312,374665,1,0,0:0:0:0:
111,306,374739,1,0,0:0:0:0:
95,293,374814,1,0,0:0:0:0:
107,272,374889,69,0,0:0:0:0:
72,284,374963,1,0,0:0:0:0:
72,322,375038,1,0,0:0:0:0:
107,332,375112,1,0,0:0:0:0:
129,303,375187,1,0,0:0:0:0:
179,277,375262,1,0,0:0:0:0:
234,269,375336,1,0,0:0:0:0:
288,284,375411,1,0,0:0:0:0:
343,334,375486,6,0,P|375:330|398:315,1,46.7500008916855
417,330,375560,2,0,P|439:305|439:279,1,46.7500008916855
475,282,375635,2,0,P|481:246|469:224,1,46.7500008916855
498,211,375709,2,0,P|475:171|456:158,1,46.7500008916855
482,131,375784,38,0,L|487:100,1,22
470,138,375933,2,0,L|475:107,1,22
457,145,376083,2,0,L|462:114,1,29.7000007250977
215,30,376381,6,0,L|211:51,1,22
203,44,376530,2,0,L|207:23,1,22
199,15,376680,2,0,L|193:50,1,32.99999899292
498,58,376978,22,0,B|341:23|347:177|187:134,1,330,8|0,3:2|0:0,0:0:0:0:
1,9,377277,2,0,P|29:135|12:254,1,220,8|0,3:2|0:0,0:0:0:0:
430,135,377575,6,0,P|448:167|427:137,1,110,0|0,3:0|0:0,0:0:0:0:
241,354,377724,6,0,L|231:291,1,44,2|0,0:0|0:0,0:0:0:0:
341,336,377799,2,0,L|330:275,1,44,2|0,0:0|0:0,0:0:0:0:
440,314,377874,2,0,L|427:253,1,44,2|2,3:2|0:0,0:0:0:0:
430,135,378023,54,0,P|413:180|342:195,1,88,2|0,0:0|0:0,0:0:0:0:
131,384,378172,6,0,P|119:346|154:250,1,110,0|0,3:0|0:0,0:0:0:0:
291,155,378321,6,0,L|301:92,1,44,2|0,0:0|0:0,0:0:0:0:
192,135,378396,2,0,L|203:74,1,44,2|0,0:0|0:0,0:0:0:0:
93,113,378471,2,0,L|106:52,1,44,2|2,3:2|0:0,0:0:0:0:
377,38,378620,54,0,P|416:63|422:140,1,110,8|0,0:3|0:0,0:0:0:0:
465,363,378769,6,0,P|418:310|284:282,1,197.99999395752,8|0,3:1|0:0,0:0:0:0:
304,284,378918,2,0,L|231:294,1,55,8|0,0:3|0:0,0:0:0:0:
26,156,379068,6,0,P|70:186|124:183,1,110,0|0,3:0|0:0,0:0:0:0:
166,30,379217,2,0,P|121:0|67:2,1,110
77,321,379366,54,0,B|81:351|100:383|100:383|119:275|244:248|205:106,1,363.000011077881,0|0,3:0|0:0,0:0:0:0:
506,116,379665,6,0,P|501:210|380:297,1,242.000007385254,0|0,3:0|0:0,0:0:0:0:
82,76,379963,6,0,P|107:104|80:77,1,121.000003692627,0|0,3:0|0:0,0:0:0:0:
265,12,380112,54,0,L|326:28,1,44,2|0,0:0|0:0,0:0:0:0:
284,106,380187,2,0,L|345:122,1,44,2|0,0:0|0:0,0:0:0:0:
301,199,380262,2,0,L|362:215,1,44,2|2,3:2|0:0,0:0:0:0:
510,23,380411,6,0,P|446:48|426:107,1,110,8|0,0:3|0:0,0:0:0:0:
411,289,380560,6,0,P|417:318|413:346,1,44,2|0,3:2|0:0,0:0:0:0:
340,341,380635,2,0,P|329:366|298:383,1,44,2|0,0:0|0:0,0:0:0:0:
252,337,380709,2,0,P|223:347|186:344,1,44,2|0,0:0|0:0,0:0:0:0:
181,283,380784,2,0,P|149:271|135:255,1,44,2|0,0:0|0:0,0:0:0:0:
170,195,380859,2,0,P|164:182|163:149,1,44,2|0,3:2|0:0,0:0:0:0:
509,230,381008,54,0,P|440:168|331:196,1,189.750003619194,8|0,0:3|0:0,0:0:0:0:
355,186,381157,2,0,L|335:259,1,52.2499986047745,0|0,3:0|0:0,0:0:0:0:
21,73,381306,2,0,L|37:3,1,52.2499986047745
252,337,381456,6,0,B|170:375|170:375|124:357|89:313|78:258|78:258|67:257|67:257|77:254|77:254|64:194|73:130|115:86,1,428.999980361939,0|0,3:0|0:0,0:0:0:0:
507,117,381754,6,0,B|451:187|341:174|311:117|311:117|286:59|206:59,1,330,8|0,3:2|0:0,0:0:0:0:
17,357,382053,54,0,B|54:282|134:263|134:263|134:254|134:254|137:262|137:262|230:243|302:311,1,330,8|0,3:2|0:0,0:0:0:0:
392,23,382351,6,0,P|388:61|393:23,1,110,0|0,3:0|0:0,0:0:0:0:
427,282,382500,6,0,L|413:219,1,44,2|0,0:0|0:0,0:0:0:0:
330,261,382575,2,0,L|318:200,1,44,2|0,0:0|0:0,0:0:0:0:
234,237,382650,2,0,L|224:175,1,44,2|2,3:2|0:0,0:0:0:0:
177,379,382799,54,0,P|245:352|257:318,1,110,8|0,0:3|0:0,0:0:0:0:
505,198,382948,6,0,P|460:153|412:150,1,110,2|2,3:2|0:0,0:0:0:0:
201,83,383097,6,0,L|194:126,1,44,2|0,0:0|0:0,0:0:0:0:
292,50,383172,2,0,L|284:93,1,44,2|0,0:0|0:0,0:0:0:0:
382,21,383247,2,0,L|372:64,1,44,2|2,3:2|0:0,0:0:0:0:
12,13,383396,54,0,P|66:55|68:118,1,110,8|0,0:1|0:0,0:0:0:0:
82,267,383545,5,0,3:0:0:0:
0,304,383620,2,0,L|129:287,1,110,0|0,3:0|0:0,0:0:0:0:
330,261,383769,5,0,3:0:0:0:
371,344,383844,2,0,P|374:269|344:241,1,110,0|0,3:0|0:0,0:0:0:0:
156,135,383993,2,0,P|166:207|207:238,1,110,0|0,3:0|0:0,0:0:0:0:
477,158,384142,53,2,3:2:0:0:
463,125,384217,1,2,0:2:0:0:
467,47,384292,5,2,3:2:0:0:
433,36,384366,1,2,0:2:0:0:
356,17,384441,6,0,P|325:59|353:124,1,88,2|0,3:2|0:0,0:0:0:0:
267,331,384590,54,0,B|292:219|241:158,1,176,2|0,0:0|3:0,0:0:0:0:
9,40,384889,2,0,L|131:72,1,88,2|0,0:0|0:0,0:0:0:0:
337,182,385038,5,0,3:0:0:0:
349,170,385112,1,2,0:0:0:0:
342,147,385187,2,0,P|302:142|256:157,1,88,2|0,0:0|0:0,0:0:0:0:
2,229,385336,5,2,3:2:0:0:
72,295,385411,1,2,0:2:0:0:
147,318,385486,1,2,0:2:0:0:
213,306,385560,1,2,0:2:0:0:
279,265,385635,53,2,3:2:0:0:
347,269,385709,1,2,0:2:0:0:
386,313,385784,2,0,P|433:273|429:132,1,176,2|0,0:2|3:0,0:0:0:0:
120,61,386008,5,2,3:2:0:0:
125,29,386083,1,2,3:2:0:0:
178,6,386157,1,2,3:2:0:0:
210,96,386232,5,2,3:2:0:0:
140,158,386306,1,2,3:2:0:0:
67,146,386381,1,2,3:2:0:0:
39,108,386456,1,2,3:2:0:0:
36,67,386530,54,0,B|207:156|47:237|246:338,1,330,8|0,3:2|0:0,0:0:0:0:
444,51,386829,6,0,P|349:35|235:103,1,220,8|0,3:2|0:0,0:0:0:0:
58,342,387127,6,0,P|45:375|61:345,1,110,0|0,3:0|0:0,0:0:0:0:
234,176,387277,54,0,L|280:186,1,44,2|0,0:0|0:0,0:0:0:0:
269,268,387351,2,0,L|315:278,1,44,2|0,0:0|0:0,0:0:0:0:
310,359,387426,2,0,L|356:369,1,44,2|2,3:2|0:0,0:0:0:0:
113,210,387575,6,0,P|119:157|174:125,1,110,8|0,0:3|0:0,0:0:0:0:
389,249,387724,6,0,P|407:273|448:280,1,44,2|0,3:2|0:0,0:0:0:0:
470,212,387799,2,0,P|492:217|517:200,1,44,2|0,0:0|0:0,0:0:0:0:
490,126,387874,2,0,P|506:106|511:71,1,44,2|0,0:0|0:0,0:0:0:0:
444,51,387948,2,0,P|444:24|427:3,1,44,2|0,0:0|0:0,0:0:0:0:
355,43,388023,2,0,P|331:31|304:32,1,44,2|2,3:2|2:2,0:0:0:0:
239,361,388172,1,8,0:3:0:0:
170,297,388247,53,0,3:0:0:0:
269,268,388321,2,0,L|146:285,1,110,8|0,3:1|0:0,0:0:0:0:
0,288,388471,6,0,P|-5:239|24:186,1,110,0|0,3:0|0:0,0:0:0:0:
100,27,388620,2,0,B|116:61|116:61|100:204,1,165,0|0,3:0|0:0,0:0:0:0:
113,210,388769,2,2,L|126:82,1,110,0|0,0:0|0:0,0:0:0:0:
387,146,388918,5,0,3:0:0:0:
206,10,389068,2,2,B|194:26|194:26|211:59|211:59|222:25|222:25|206:10,6,110,0|0|0|0|0|0|0,0:0|0:0|0:0|0:0|0:0|0:0|0:0,0:0:0:0:
293,0,389217,54,0,P|311:43|268:124,1,110,0|0,3:0|0:0,0:0:0:0:
269,268,389366,1,0,0:0:0:0:
445,350,389515,6,0,P|459:378|447:347,1,110,0|0,3:0|0:0,0:0:0:0:
165,359,389665,6,0,L|122:368,1,44,2|0,0:0|0:0,0:0:0:0:
187,266,389739,2,0,L|144:275,1,44,2|0,0:0|0:0,0:0:0:0:
209,174,389814,2,0,L|166:183,1,44,2|2,3:2|0:0,0:0:0:0:
312,378,389963,54,0,P|343:324|347:261,1,110,8|0,0:3|0:0,0:0:0:0:
250,23,390112,6,0,B|237:-5|209:-15|209:-15|187:65|233:139,1,208.999994419098,8|0,3:2|0:0,0:0:0:0:
457,248,390336,2,0,B|484:263|512:254|512:254|483:176|402:144,1,208.999994419098,8|0,3:2|0:0,0:0:0:0:
153,190,390560,2,0,B|121:193|104:217|104:217|173:262|258:242,1,208.999994419098,8|0,3:2|0:0,0:0:0:0:
447,61,390784,2,0,B|471:39|470:10|470:10|388:14|331:80,1,208.999994419098,8|0,3:2|0:0,0:0:0:0:
89,131,391008,6,2,B|67:67|55:-36|168:-54|186:47|166:169|12:73|-9:189|20:281,1,428.999980361939,0|0,0:0|0:0,0:0:0:0:
180,380,391306,53,0,3:0:0:0:
247,315,391381,1,0,3:0:0:0:
335,287,391456,1,0,3:0:0:0:
425,298,391530,1,0,3:0:0:0:
503,348,391605,1,0,3:0:0:0:
233,71,391754,6,0,P|255:37|245:77,1,115.49999647522
3,79,391903,5,0,3:0:0:0:
3,79,392053,1,0,3:0:0:0:
11,303,392202,54,0,B|19:332|19:332|75:346|171:305|183:215,1,230.99999295044,0|0,3:0|0:0,0:0:0:0:
397,65,392500,5,0,3:0:0:0:
309,152,392600,1,0,3:0:0:0:
427,184,392699,1,0,3:0:0:0:
228,53,392799,6,0,B|202:44|191:9|191:9|226:197,1,230.99999295044,0|8,3:0|0:1,0:0:0:0:
327,298,393023,53,0,0:0:0:0:
398,363,393097,2,0,P|468:274|354:331,1,313.499991628647,0|0,3:0|0:0,0:0:0:0:
236,369,393396,5,0,0:0:0:0:
137,356,393471,1,0,0:0:0:0:
78,300,393545,1,0,0:0:0:0:
38,261,393620,1,0,0:0:0:0:
7,245,393695,5,0,3:0:0:0:
19,249,393769,1,0,0:0:0:0:
32,249,393844,1,0,0:0:0:0:
43,243,393918,1,0,0:0:0:0:
53,234,393993,2,0,P|70:192|61:163,1,65.9999979858399,0|0,3:0|0:0,0:0:0:0:
228,53,394142,2,0,P|193:35|219:128,1,197.99999395752
503,66,394441,54,0,B|533:106|533:106|410:136,1,165,0|0,3:0|0:0,0:0:0:0:
198,223,394739,6,0,L|250:214,1,44
454,249,394889,1,0,3:0:0:0:
454,249,394963,1,0,0:0:0:0:
454,249,395038,2,0,L|396:234,1,44
320,284,395187,2,0,L|315:349,1,44
307,75,395336,6,0,B|342:23|342:23|326:230,1,247.5,0|0,3:0|0:0,0:0:0:0:
313,374,396083,6,0,L|316:335,2,32.99999899292,14|0|0,0:0|0:0|0:0,0:0:0:0:
312,384,396530,1,0,0:0:0:0:
5,152,396829,5,0,0:0:0:0:
121,181,397127,1,0,0:0:0:0:
7,277,397426,1,0,0:0:0:0:
127,300,397724,1,0,0:0:0:0:
455,294,397874,69,0,0:0:0:0:
512,197,398023,1,0,0:0:0:0:
339,220,398172,5,0,0:0:0:0:
355,306,398321,1,0,0:0:0:0:
422,135,398471,70,0,L|429:101,2,32.99999899292,2|0|0,0:0|0:0|0:0,0:0:0:0:
418,151,398918,1,0,0:0:0:0:
218,5,399217,5,0,0:0:0:0:
170,102,399515,1,0,0:0:0:0:
60,128,399814,1,0,0:0:0:0:
111,44,400112,1,0,0:0:0:0:
66,249,400262,69,0,0:0:0:0:
57,218,400411,1,0,0:0:0:0:
204,342,400560,5,0,0:0:0:0:
166,247,400709,1,0,0:0:0:0:
408,306,400859,70,0,L|453:318,2,32.99999899292,2|0|0,0:0|0:0|0:0,0:0:0:0:
327,289,401306,1,0,0:0:0:0:
431,37,401605,5,0,0:0:0:0:
512,78,401903,1,0,0:0:0:0:
344,167,402202,1,0,0:0:0:0:
197,118,402500,1,0,0:0:0:0:
226,2,402650,69,0,0:0:0:0:
252,68,402799,1,0,0:0:0:0:
135,79,402948,5,0,0:0:0:0:
155,10,403097,1,0,0:0:0:0:
16,236,403247,70,0,L|52:226,2,32.99999899292,2|0|0,0:0|0:0|0:0,0:0:0:0:
124,276,403695,1,0,0:0:0:0:
441,222,403993,5,0,0:0:0:0:
277,256,404291,1,0,0:0:0:0:
304,336,404590,1,0,0:0:0:0:
203,359,404888,1,0,0:0:0:0:
479,372,405038,70,0,L|513:365,1,32.99999899292,2|0,0:0|0:0,0:0:0:0:
298,137,405336,2,0,L|340:129,1,32.99999899292
441,40,405635,6,0,L|444:4,3,32.99999899292,2|0|0|0,0:0|0:0|0:0|0:0,0:0:0:0:
58,47,406381,69,0,0:0:0:0:
72,122,406679,1,0,0:0:0:0:
90,200,406978,1,0,0:0:0:0:
234,231,407277,5,0,0:0:0:0:
104,346,407426,2,0,L|136:340,1,32.99999899292
303,320,407724,2,0,L|335:313,1,32.99999899292
440,184,408023,70,0,L|435:217,3,32.99999899292,2|0|0|0,0:0|0:0|0:0|0:0,0:0:0:0:
470,68,408769,5,0,0:0:0:0:
349,120,409068,1,0,0:0:0:0:
416,303,409366,1,0,0:0:0:0:
153,94,409665,69,0,0:0:0:0:
264,69,409814,2,0,L|274:105,1,32.99999899292
1,26,410112,2,0,L|10:66,1,32.99999899292
64,263,410411,6,0,L|59:229,2,32.99999899292,2|0|0,0:0|0:0|0:0,0:0:0:0:
5,316,410859,1,0,0:0:0:0:
170,373,411157,69,0,0:0:0:0:
479,272,411456,2,0,P|480:245|474:227,1,32.99999899292,0|2,0:0|0:0,0:0:0:0:
484,228,411754,2,0,P|468:211|450:200,1,32.99999899292
207,216,412053,6,0,L|223:217,3,10.9999996643067
287,33,412351,2,0,L|270:31,3,10.9999996643067
296,34,412650,1,0,0:0:0:0:
123,93,412799,69,2,0:0:0:0:
128,142,412948,1,0,0:0:0:0:
77,72,413097,1,0,0:0:0:0:
162,63,413247,1,0,0:0:0:0:
41,257,413545,5,0,0:0:0:0:
317,131,413844,1,2,0:0:0:0:
440,356,415187,69,0,0:0:0:0:
429,331,415336,1,0,0:0:0:0:
418,306,415486,1,0,0:0:0:0:
456,183,415635,5,0,0:0:0:0:
124,288,417575,69,0,0:0:0:0:
12,181,417724,1,0,0:0:0:0:
158,128,417874,1,0,0:0:0:0:
104,199,418023,5,0,0:0:0:0:
373,72,420560,70,0,B|346:8|346:8|339:13|339:13|503:56|503:56|496:24|496:24|466:16|466:16|496:143|496:143|419:124|419:124|425:125|425:125|353:190|353:190|366:277|366:277|371:274|371:274|388:357|388:357|455:298|455:298|447:294|447:294|513:228|513:228|426:205|426:205|426:211|426:211|354:191|354:191|313:179|313:179|316:177|316:177|262:166|262:166|236:147|199:149|199:149|197:113|176:91|176:91|205:71|218:37|218:37|246:56|279:54|279:54|282:86|303:111|303:111|274:129|261:165|261:165|205:234|205:234|169:294|182:378|263:374|263:374|268:383|268:383|267:373|267:373|317:341|303:253|204:235|204:235|141:237|116:274|116:274|109:262|109:262|102:348|38:376|38:376|77:285|-3:271|21:182|21:182|2:193|2:193|-2:117|44:39|124:24|124:24|111:11|111:11|62:99|120:170|120:170|96:163|91:152,1,3088.79998114746
