osu file format v14

[General]
AudioFilename: audio.mp3
AudioLeadIn: 0
PreviewTime: 190237
Countdown: 0
SampleSet: Soft
StackLeniency: 0.5
Mode: 0
LetterboxInBreaks: 0
WidescreenStoryboard: 0

[Editor]
Bookmarks: 12410,31514,48231,53007,62559,72111,81664,100768,117484,127037,146141,165246,176532,190344,211064,217970,245596,259409,273098,282650,299366,308918,328023,347127,351903,356680,361456,365038,372202,376978,396083
DistanceSpacing: 0.1
BeatDivisor: 4
GridSize: 32
TimelineZoom: 4.099998

[Metadata]
Title:Nacreous Snowmelt
TitleUnicode:Nacreous Snowmelt
Artist:Camellia
ArtistUnicode:かめりあ
Creator:Tycani
Version:Iridescence
Source:
Tags:Fuiba Fuyu artcore dnb future bass drumstep 200step glitch hop psytrance hardstyle hardcore full flavor かめるかめりあ kamelcamellia cametek THX for 70k Twitter Followers electronic instrumental
BeatmapID:3924754
BeatmapSetID:1903575

[Difficulty]
HPDrainRate:5
CircleSize:4
OverallDifficulty:9.3
ApproachRate:9.7
SliderMultiplier:2
SliderTickRate:1

[Events]
//Background and Video events
0,0,"1198159.jpg",0,0
//Break Periods
2,165446,176037
2,259609,272603
//Storyboard Layer 0 (Background)
//Storyboard Layer 1 (Fail)
//Storyboard Layer 2 (Pass)
//Storyboard Layer 3 (Foreground)
//Storyboard Layer 4 (Overlay)
//Storyboard Sound Samples

[TimingPoints]
470,298.507462686567,4,2,1,50,1,0
30917,-200,4,2,1,60,0,0
31514,-40,4,2,1,70,0,0
31813,-55.5555555555556,4,2,1,70,0,0
32261,-43.4782608695652,4,2,1,70,0,0
32559,-41.6666666666667,4,2,1,70,0,0
33455,-83.3333333333333,4,2,1,70,0,0
33753,-40,4,2,1,70,0,0
34052,-43.4782608695652,4,2,1,70,0,0
34350,-76.9230769230769,4,2,1,70,0,0
34649,-40,4,2,1,70,0,0
35693,-76.9230769230769,4,2,1,70,0,0
36290,-43.4782608695652,4,2,1,70,0,0
36589,-66.6666666666667,4,2,1,70,0,0
37037,-50,4,2,1,70,0,0
37335,-41.6666666666667,4,2,1,70,0,0
37634,-58.8235294117647,4,2,1,70,0,0
38081,-38.4615384615385,4,2,1,70,0,0
38380,-62.5,4,2,1,70,0,0
38529,-37.037037037037,4,2,1,70,0,0
39425,-45.4545454545455,4,2,1,70,0,0
39723,-43.4782608695652,4,2,1,70,0,0
40022,-58.8235294117647,4,2,1,70,0,0
40320,-100,4,2,1,70,0,0
41067,-41.6666666666667,4,2,1,70,0,0
41440,-76.9230769230769,4,2,1,70,0,0
41813,-50,4,2,1,70,0,0
42111,-43.4782608695652,4,2,1,70,0,0
42559,-22.5171198772031,4,2,1,70,0,0
43305,-45.4545454545455,4,2,1,70,0,0
43604,-40,4,2,1,70,0,0
43902,-83.3333333333333,4,2,1,70,0,0
44052,-83.3333333333333,4,2,1,70,0,0
44201,-43.4782608695652,4,2,1,70,0,0
44499,-43.4782608695652,4,2,1,70,0,0
44947,-100,4,2,1,70,0,0
45843,-40,4,2,1,70,0,0
46141,-55.5555555555556,4,2,1,70,0,0
46589,-45.4545454545455,4,2,1,70,0,0
52410,-45.4545454545455,4,2,1,60,0,0
53007,-50,4,2,1,65,0,0
53305,-66.6666666666667,4,2,1,65,0,0
61067,-83.3333333333333,4,2,1,60,0,0
62261,-66.6666666666667,4,2,1,60,0,0
62559,-18.0281690140845,4,2,1,80,0,1
62858,-43.4782608695652,4,2,1,80,0,1
63902,-66.6666666666667,4,2,1,80,0,1
64052,-50,4,2,1,80,0,1
64201,-43.4782608695652,4,2,1,80,0,1
64350,-38.4615384615385,4,2,1,80,0,1
64798,-66.6666666666667,4,2,1,80,0,1
64947,-40,4,2,1,80,0,1
65246,-45.4545454545455,4,2,1,80,0,1
65544,-43.4782608695652,4,2,1,80,0,1
65693,-47.6190476190476,4,2,1,80,0,1
65992,-41.6666666666667,4,2,1,80,0,1
66290,-66.6666666666667,4,2,1,80,0,1
66589,-50,4,2,1,80,0,1
66738,-38.4615384615385,4,2,1,80,0,1
67335,-40,4,2,1,80,0,1
67634,-66.6666666666667,4,2,1,80,0,1
67932,-43.4782608695652,4,2,1,80,0,1
68081,-52.6315789473684,4,2,1,80,0,1
68380,-43.4782608695652,4,2,1,80,0,1
68678,-66.6666666666667,4,2,1,80,0,1
68828,-47.6190476190476,4,2,1,80,0,1
68977,-43.4782608695652,4,2,1,80,0,1
69126,-38.4615384615385,4,2,1,80,0,1
69425,-333.333333333333,4,2,1,80,0,1
70022,-50,4,2,1,80,0,1
71365,-66.6666666666667,4,2,1,80,0,1
71514,-38.4615384615385,4,2,1,80,0,1
72074,-38.4615384615385,4,2,1,80,0,0
72111,-45.4545454545455,4,2,1,80,0,1
72410,-41.6666666666667,4,2,1,80,0,1
72708,-45.4545454545455,4,2,1,80,0,1
72858,-52.6315789473684,4,2,1,80,0,1
73156,-43.4782608695652,4,2,1,80,0,1
73753,-66.6666666666667,4,2,1,80,0,1
73902,-38.4615384615385,4,2,1,80,0,1
74499,-200,4,2,1,80,0,1
74798,-66.6666666666667,4,2,1,80,0,1
75096,-43.4782608695652,4,2,1,80,0,1
75246,-50,4,2,1,80,0,1
75544,-41.6666666666667,4,2,1,80,0,1
75843,-62.5,4,2,1,80,0,1
75992,-45.4545454545455,4,2,1,80,0,1
76290,-100,4,2,1,80,0,1
76887,-58.8235294117647,4,2,1,80,0,1
77186,-40,4,2,1,80,0,1
77484,-47.6190476190476,4,2,1,80,0,1
78977,-55.5555555555556,4,2,1,80,0,1
79275,-55.5555555555556,4,2,1,70,0,0
81962,-76.9230769230769,4,2,1,70,0,0
84052,-50,4,2,1,70,0,0
84350,-76.9230769230769,4,2,1,70,0,0
86440,-200,4,2,1,70,0,0
86738,-66.6666666666667,4,2,1,70,0,0
86887,-76.9230769230769,4,2,1,70,0,0
88828,-50,4,2,1,70,0,0
88977,-58.8235294117647,4,2,1,70,0,0
91216,-50,4,2,1,70,0,0
91514,-76.9230769230769,4,2,1,70,0,0
93604,-50,4,2,1,70,0,0
93902,-76.9230769230769,4,2,1,70,0,0
95992,-50,4,2,1,70,0,0
98380,-32.2691417576668,4,2,1,70,0,0
99574,-66.6666666666667,4,2,1,70,0,0
99872,-50,4,2,1,70,0,0
100768,-40,4,2,1,70,0,0
101216,-66.6666666666667,4,2,1,70,0,0
101365,-43.4782608695652,4,2,1,70,0,0
101813,-41.6666666666667,4,2,1,70,0,0
102111,-38.4615384615385,4,2,1,70,0,0
103007,-43.4782608695652,4,2,1,70,0,0
103305,-66.6666666666667,4,2,1,70,0,0
103753,-43.4782608695652,4,2,1,70,0,0
103902,-50,4,2,1,70,0,0
104201,-41.6666666666667,4,2,1,70,0,0
104499,-50,4,2,1,70,0,0
104947,-100,4,2,1,70,0,0
105246,-50,4,2,1,70,0,0
105544,-50,4,2,1,70,0,0
105992,-66.6666666666667,4,2,1,70,0,0
106141,-55.5555555555556,4,2,1,70,0,0
106290,-50,4,2,1,70,0,0
106589,-40,4,2,1,70,0,0
106887,-66.6666666666667,4,2,1,70,0,0
107037,-50,4,2,1,70,0,0
107335,-40,4,2,1,70,0,0
107783,-35.7142857142857,4,2,1,70,0,0
108081,-66.6666666666667,4,2,1,70,0,0
108529,-50,4,2,1,70,0,0
108678,-41.6666666666667,4,2,1,70,0,0
108977,-38.4615384615385,4,2,1,70,0,0
109275,-50,4,2,1,70,0,0
109723,-40,4,2,1,70,0,0
110171,-55.5555555555556,4,2,1,70,0,0
110320,-43.4782608695652,4,2,1,70,0,0
110768,-100,4,2,1,70,0,0
110917,-50,4,2,1,70,0,0
111067,-43.4782608695652,4,2,1,70,0,0
111365,-41.6666666666667,4,2,1,70,0,0
111664,-38.4615384615385,4,2,1,70,0,0
111962,-76.9230769230769,4,2,1,70,0,0
112410,-66.6666666666667,4,2,1,70,0,0
112559,-41.6666666666667,4,2,1,70,0,0
113007,-52.6315789473684,4,2,1,70,0,0
113455,-55.5555555555556,4,2,1,70,0,0
113753,-43.4782608695652,4,2,1,70,0,0
114052,-47.6190476190476,4,2,1,70,0,0
114499,-45.4545454545455,4,2,1,70,0,0
114649,-90.9090909090909,4,2,1,70,0,0
115096,-133.333333333333,4,2,1,70,0,0
115544,-100,4,2,1,70,0,0
115693,-50,4,2,1,70,0,0
116141,-40,4,2,1,70,0,0
116440,-58.8235294117647,4,2,1,70,0,0
116887,-50,4,2,1,70,0,0
122186,-50,4,2,1,60,0,0
122261,-58.8235294117647,4,2,1,65,0,0
122410,-71.4285714285714,4,2,1,65,0,0
125843,-100,4,2,1,55,0,0
126440,-58.8235294117647,4,2,1,55,0,0
126738,-58.8235294117647,4,2,1,60,0,0
127037,-40,4,2,1,80,0,0
127335,-43.4782608695652,4,2,1,80,0,0
127634,-40,4,2,1,80,0,0
128081,-66.6666666666667,4,2,1,80,0,0
128231,-47.6190476190476,4,2,1,80,0,0
128380,-55.5555555555556,4,2,1,80,0,0
129425,-18.7797125950747,4,2,1,80,0,0
129723,-100,4,2,1,80,0,0
129872,-50,4,2,1,80,0,0
130022,-66.6666666666667,4,2,1,80,0,0
130619,-50,4,2,1,80,0,0
131216,-43.4782608695652,4,2,1,80,0,0
131365,-17.3347778981582,4,2,1,80,0,0
131664,-55.5555555555556,4,2,1,80,0,0
131813,-43.4782608695652,4,2,1,80,0,0
132410,-16.6927490871153,4,2,1,80,0,0
132708,-45.4545454545455,4,2,1,80,0,0
132858,-50,4,2,1,80,0,0
133156,-47.6190476190476,4,2,1,80,0,0
133604,-40,4,2,1,80,0,0
134499,-66.6666666666667,4,2,1,80,0,0
134798,-50,4,2,1,80,0,0
134947,-55.5555555555556,4,2,1,80,0,0
135395,-66.6666666666667,4,2,1,80,0,0
135992,-50,4,2,1,80,0,0
136589,-200,4,2,1,80,0,0
136887,-50,4,2,1,80,0,0
137186,-100,4,2,1,80,0,0
137634,-50,4,2,1,80,0,0
137783,-43.4782608695652,4,2,1,80,0,0
138231,-66.6666666666667,4,2,1,80,0,0
138977,-20.4876880738923,4,2,1,80,0,0
139275,-100,4,2,1,80,0,0
139425,-50,4,2,1,80,0,0
139574,-66.6666666666667,4,2,1,80,0,0
140171,-50,4,2,1,80,0,0
140917,-18.7793427230047,4,2,1,80,0,0
141365,-50,4,2,1,80,0,0
141962,-100,4,2,1,80,0,0
142261,-50,4,2,1,80,0,0
142559,-66.6666666666667,4,2,1,80,0,0
142708,-50,4,2,1,80,0,0
143753,-50,4,2,1,70,0,0
146141,-40,4,2,1,80,0,0
146738,-50,4,2,1,80,0,0
147236,-66.6666666666667,4,2,1,80,0,0
148529,-45.4545454545455,4,2,1,80,0,0
148828,-133.333333333333,4,2,1,80,0,0
149126,-40,4,2,1,80,0,0
150320,-43.4782608695652,4,2,1,80,0,0
150619,-66.6666666666667,4,2,1,80,0,0
150917,-40,4,2,1,80,0,0
151514,-50,4,2,1,80,0,0
152410,-43.4782608695652,4,2,1,80,0,0
152708,-38.4615384615385,4,2,1,80,0,0
153007,-41.6666666666667,4,2,1,80,0,0
153305,-66.6666666666667,4,2,1,80,0,0
153902,-55.5555555555556,4,2,1,80,0,0
154101,-50,4,2,1,80,0,0
154499,-45.4545454545455,4,2,1,80,0,0
155096,-58.8235294117647,4,2,1,80,0,0
155693,-40,4,2,1,80,0,0
156290,-47.6190476190476,4,2,1,80,0,0
157484,-76.9230769230769,4,2,1,80,0,0
157783,-62.5,4,2,1,80,0,0
158081,-45.4545454545455,4,2,1,80,0,0
158380,-90.9090909090909,4,2,1,80,0,0
158678,-41.6666666666667,4,2,1,80,0,0
160171,-100,4,2,1,80,0,0
160469,-50,4,2,1,80,0,0
161067,-43.4782608695652,4,2,1,80,0,0
161664,-100,4,2,1,80,0,0
161863,-50,4,2,1,80,0,0
161962,-43.4782608695652,4,2,1,80,0,0
162261,-66.6666666666667,4,2,1,80,0,0
162559,-40,4,2,1,80,0,0
162858,-66.6666666666667,4,2,1,80,0,0
163455,-58.8235294117647,4,2,1,80,0,0
164052,-52.6315789473684,4,2,1,80,0,0
164649,-111.111111111111,4,2,1,80,0,0
165246,-111.111111111111,4,2,1,60,0,0
166440,315.789473684211,4,2,1,70,1,0
167703,324.324324324324,4,2,1,70,1,0
169000,342.857142857143,4,2,1,70,1,0
170371,352.941176470588,4,2,1,70,1,0
171782,375,4,2,1,70,1,0
173282,387.096774193548,4,2,1,70,1,0
174830,425.531914893617,4,2,1,70,1,0
176532,431.654676258993,4,2,1,60,1,0
183438,-66.6666666666667,4,2,1,65,0,0
184085,-76.9230769230769,4,2,1,65,0,0
188618,-33.3333333333333,4,2,1,65,0,0
189049,-50,4,2,1,65,0,0
189481,-100,4,2,1,65,0,0
189913,-200,4,2,1,65,0,0
190344,-40,4,3,1,70,0,0
190776,-40,4,3,1,70,0,0
192179,-50,4,3,1,70,0,0
196819,-43.4782608695652,4,3,1,70,0,0
197251,-40,4,3,1,70,0,0
199841,-55.5555555555556,4,3,1,70,0,0
202647,-40,4,3,1,70,0,0
202970,-35.7142857142857,4,3,1,70,0,0
203402,-37.7358490566038,4,3,1,70,0,0
203618,-66.6666666666667,4,3,1,70,0,0
204157,-40,4,3,1,70,0,0
206532,-45.4545454545455,4,3,1,70,0,0
207179,-40,4,3,1,70,0,0
207611,-50,4,3,1,70,0,0
210093,-100,4,3,1,70,0,0
210308,-50,4,3,1,70,0,0
211064,-35.7142857142857,4,3,1,70,0,0
211388,-40,4,3,1,70,0,0
217970,-40,4,3,1,80,0,1
233510,-66.6666666666667,4,3,1,70,0,0
235237,-40,4,3,1,80,0,1
236963,-50,4,3,1,70,0,0
238258,-100,4,3,1,70,0,0
238690,-40,4,2,1,70,0,0
239985,-66.6666666666667,4,2,1,70,0,0
240201,-43.4782608695652,4,2,1,70,0,0
240416,-40,4,2,1,70,0,0
240848,-55.5555555555556,4,2,1,70,0,0
243870,-40,4,2,1,70,0,0
245165,-37.037037037037,4,2,1,70,0,0
245596,-28.5714285714286,4,2,1,80,0,1
246028,-33.3333333333333,4,2,1,80,0,1
246567,-25,4,2,1,80,0,1
246891,-50,4,2,1,80,0,1
247107,-28.5714285714286,4,2,1,80,0,1
247755,-100,4,2,1,80,0,1
248186,-27.027027027027,4,2,1,80,0,1
248618,-200,4,2,1,65,0,0
249049,-25,4,2,1,80,0,1
249913,-33.3333333333333,4,2,1,80,0,1
250344,-35.7142857142857,4,2,1,80,0,1
250560,-29.4117647058824,4,2,1,80,0,1
250776,-25,4,2,1,80,0,1
251639,-100,4,2,1,65,0,0
252287,-25,4,2,1,80,0,0
252503,-28.5714285714286,4,2,1,80,0,1
252934,-25,4,2,1,80,0,1
253474,-28.5714285714286,4,2,1,80,0,1
253798,-27.027027027027,4,2,1,80,0,1
254229,-29.4117647058824,4,2,1,80,0,1
254661,-25,4,2,1,80,0,1
255201,-27.7777777777778,4,2,1,80,0,1
255632,-100,4,2,1,65,0,0
255956,-25,4,2,1,80,0,1
257251,-28.5714285714286,4,2,1,80,0,1
257683,-30.3030303030303,4,2,1,80,0,1
259409,425.531914893617,4,2,11,60,1,0
260260,413.793103448276,4,2,1,70,1,0
261087,408.163265306122,4,2,1,70,1,0
261903,387.096774193548,4,2,1,70,1,0
262677,375,4,2,1,70,1,0
263427,363.636363636364,4,2,1,70,1,0
264881,352.941176470588,4,2,1,70,1,0
265586,342.857142857143,4,2,1,70,1,0
266271,333.333333333333,4,2,1,70,1,0
267604,324.324324324324,4,2,1,70,1,0
268252,315.789473684211,4,2,1,70,1,0
268883,307.692307692308,4,2,1,70,1,0
269498,300,4,2,1,70,1,0
273098,298.507462686567,4,2,1,60,1,0
282053,-200,4,2,1,65,0,0
282650,-40,4,2,1,70,0,0
282948,-66.6666666666667,4,2,1,70,0,0
283247,-50,4,2,1,70,0,0
283396,-43.4782608695652,4,2,1,70,0,0
283695,-45.4545454545455,4,2,1,70,0,0
284590,-66.6666666666667,4,2,1,70,0,0
284889,-43.4782608695652,4,2,1,70,0,0
285486,-100,4,2,1,70,0,0
285635,-50,4,2,1,70,0,0
286083,-40,4,2,1,70,0,0
286530,-66.6666666666667,4,2,1,70,0,0
286829,-43.4782608695652,4,2,1,70,0,0
287426,-40,4,2,1,70,0,0
287724,-66.6666666666667,4,2,1,70,0,0
288023,-50,4,2,1,70,0,0
288172,-45.4545454545455,4,2,1,70,0,0
288471,-43.4782608695652,4,2,1,70,0,0
288769,-58.8235294117647,4,2,1,70,0,0
289217,-45.4545454545455,4,2,1,70,0,0
289665,-40,4,2,1,70,0,0
289963,-55.5555555555556,4,2,1,70,0,0
290411,-50,4,2,1,70,0,0
290560,-43.4782608695652,4,2,1,70,0,0
290859,-40,4,2,1,70,0,0
291157,-55.5555555555556,4,2,1,70,0,0
292202,-40,4,2,1,70,0,0
292500,-37.8787878787879,4,2,1,70,0,0
292799,-50,4,2,1,70,0,0
293247,-40,4,2,1,70,0,0
293993,-58.8235294117647,4,2,1,70,0,0
294441,-41.6666666666667,4,2,1,70,0,0
294739,-50,4,2,1,70,0,0
294963,-100,4,2,1,70,0,0
295187,-50,4,2,1,70,0,0
295336,-43.4782608695652,4,2,1,70,0,0
295635,-40,4,2,1,70,0,0
295933,-58.8235294117647,4,2,1,70,0,0
296381,-45.4545454545455,4,2,1,70,0,0
296978,-41.6666666666667,4,2,1,70,0,0
297277,-50,4,2,1,70,0,0
297724,-45.4545454545455,4,2,1,70,0,0
298321,-58.8235294117647,4,2,1,70,0,0
298769,-43.4782608695652,4,2,1,70,0,0
299217,-58.8235294117647,4,2,1,65,0,0
299515,-76.9230769230769,4,2,1,65,0,0
307426,-100,4,2,1,70,0,0
307724,-80,4,2,1,70,0,0
308023,-66.6666666666667,4,2,1,70,0,0
308620,-333.333333333333,4,2,2,80,0,0
308918,-37.037037037037,4,2,1,85,0,1
309515,-43.4782608695652,4,2,1,85,0,1
309739,-41.6666666666667,4,2,1,85,0,1
310262,-66.6666666666667,4,2,1,85,0,1
311008,-100,4,2,1,85,0,1
311306,-40,4,2,1,85,0,1
312202,-45.4545454545455,4,2,1,85,0,1
314590,-50,4,2,1,85,0,1
314739,-40,4,2,1,85,0,1
316083,-47.6190476190476,4,2,1,85,0,1
316381,-43.4782608695652,4,2,1,85,0,1
316680,-37.037037037037,4,2,1,85,0,1
316903,-33.3333333333333,4,2,1,85,0,1
317277,-50,4,2,1,85,0,1
317575,-43.4782608695652,4,2,1,85,0,1
317724,-50,4,2,1,85,0,1
319068,-35.7142857142857,4,2,1,85,0,0
319963,-35.7142857142857,4,2,1,85,0,1
320262,-50,4,2,1,85,0,1
320859,-41.6666666666667,4,2,1,85,0,1
321306,-50,4,2,1,85,0,1
321456,-37.037037037037,4,2,1,85,0,0
321680,-33.3333333333333,4,2,1,85,0,0
322351,-38.4615384615385,4,2,1,85,0,1
323247,-35.7142857142857,4,2,1,85,0,1
323396,-50,4,2,1,85,0,1
323844,-40,4,2,1,85,0,1
324142,-43.4782608695652,4,2,1,85,0,1
324441,-40,4,2,1,85,0,1
324739,-24.2752757972669,4,2,1,85,0,1
325635,-250,4,2,1,80,0,0
327127,-83.3333333333333,4,2,1,80,0,0
327426,-55.5555555555556,4,2,1,80,0,0
328023,-40,4,2,1,80,0,1
328321,-45.4545454545455,4,2,1,85,0,1
328620,-58.8235294117647,4,2,1,85,0,1
328769,-50,4,2,1,85,0,1
329068,-43.4782608695652,4,2,1,85,0,1
329366,-55.5555555555556,4,2,1,85,0,1
330262,-45.4545454545455,4,2,1,85,0,1
330560,-52.6315789473684,4,2,1,85,0,1
331008,-40,4,2,1,85,0,1
331456,-41.6666666666667,4,2,1,85,0,1
332202,-50,4,2,1,85,0,1
332799,-40,4,2,1,85,0,1
333247,-45.4545454545455,4,2,1,85,0,1
333396,-37.037037037037,4,2,1,85,0,1
333695,-50,4,2,1,85,0,1
334292,-30.9553445060202,4,2,1,85,0,1
335262,-40,4,2,1,85,0,1
335635,-45.4545454545455,4,2,1,85,0,1
335784,-38.4615384615385,4,2,1,85,0,1
336083,-35.7142857142857,4,2,1,85,0,1
336232,-33.3333333333333,4,2,1,85,0,1
336530,-43.4782608695652,4,2,1,85,0,1
336680,-40,4,2,1,85,0,1
336978,-37.037037037037,4,2,1,85,0,1
337575,-166.666666666667,4,2,1,85,0,1
337874,-37.037037037037,4,2,1,85,0,1
338471,-41.6666666666667,4,2,1,85,0,1
338620,-38.4615384615385,4,2,1,85,0,1
338918,-50,4,2,1,85,0,1
339814,-133.333333333333,4,2,1,85,0,1
340112,-50,4,2,1,85,0,1
340560,-58.8235294117647,4,2,1,85,0,1
340784,-50,4,2,1,85,0,1
341008,-38.4615384615385,4,2,1,85,0,1
341306,-43.4782608695652,4,2,1,85,0,1
342948,-38.4615384615385,4,2,1,85,0,1
343545,-41.6666666666667,4,2,1,85,0,1
343844,-37.037037037037,4,2,1,85,0,1
344142,-45.4545454545455,4,2,1,85,0,1
344590,-45.4545454545455,4,2,1,75,0,0
347127,-45.4545454545455,4,2,1,80,0,1
347277,-30.3030303030303,4,2,1,85,0,1
348918,-40,4,2,1,85,0,1
349515,-35.7142857142857,4,2,1,85,0,1
349963,-30.3030303030303,4,2,1,85,0,1
351381,-37.037037037037,4,2,1,85,0,1
351903,-33.3333333333333,4,2,1,85,0,0
352202,-41.6666666666667,4,2,1,85,0,0
352351,-45.4545454545455,4,2,1,85,0,0
352650,-50,4,2,1,85,0,0
353097,-37.037037037037,4,2,1,85,0,0
354292,-41.6666666666667,4,2,1,85,0,0
354739,-40,4,2,1,85,0,0
355336,-52.6315789473684,4,2,1,85,0,0
355486,-38.4615384615385,4,2,1,85,0,0
356680,-30.3030303030303,4,2,1,85,0,1
358471,-50,4,2,1,85,0,1
359068,-33.3333333333333,4,2,1,85,0,1
359515,-30.3030303030303,4,2,1,85,0,1
360709,-37.037037037037,4,2,1,85,0,1
360859,-33.3333333333333,4,2,1,85,0,1
361306,-66.6666666666667,4,2,1,85,0,1
361456,-33.3333333333333,4,2,1,85,0,0
361754,-41.6666666666667,4,2,1,85,0,0
362053,-37.037037037037,4,2,1,85,0,0
362500,-47.6190476190476,4,2,1,85,0,0
362650,-38.4615384615385,4,2,1,85,0,0
363844,-200,4,2,1,85,0,0
364292,-41.6666666666667,4,2,1,85,0,0
364441,-38.4615384615385,4,2,1,80,0,0
364889,-55.5555555555556,4,2,1,70,0,0
365336,-66.6666666666667,4,2,1,70,0,0
373993,-43.4782608695652,4,2,1,70,0,0
376680,-66.6666666666667,4,2,1,70,0,0
376829,-50,4,2,1,70,0,0
376978,-40,4,2,1,80,0,1
377575,-55.5555555555556,4,2,1,80,0,1
378471,-50,4,2,1,80,0,1
378769,-41.6666666666667,4,2,1,80,0,1
379366,-38.4615384615385,4,2,1,80,0,1
379665,-100,4,2,1,80,0,1
379963,-55.5555555555556,4,2,1,80,0,1
381008,-40,4,2,1,80,0,1
381157,-35.7142857142857,4,2,1,80,0,1
381456,-43.4782608695652,4,2,1,80,0,1
381754,-38.4615384615385,4,2,1,80,0,1
382053,-50,4,2,1,80,0,1
382351,-55.5555555555556,4,2,1,80,0,1
384142,-40,4,2,1,80,0,1
384889,-45.4545454545455,4,2,1,80,0,1
386530,-37.037037037037,4,2,1,80,0,1
386978,-41.6666666666667,4,2,1,80,0,1
387127,-55.5555555555556,4,2,1,80,0,1
388769,-43.4782608695652,4,2,1,80,0,1
388918,-50,4,2,1,80,0,1
389217,-40,4,2,1,80,0,1
389515,-55.5555555555556,4,2,1,80,0,1
390112,-37.037037037037,4,2,1,80,0,1
391008,-100,4,2,1,80,0,1
391306,-58.8235294117647,4,2,1,80,0,1
392202,-43.4782608695652,4,2,1,80,0,1
393097,-58.8235294117647,4,2,1,80,0,0
393993,-58.8235294117647,4,2,1,80,0,1
394068,-58.8235294117647,4,2,1,80,0,0
394441,-58.8235294117647,4,2,1,80,0,1
394515,-58.8235294117647,4,2,1,80,0,0
394889,-58.8235294117647,4,2,1,80,0,1
394963,-58.8235294117647,4,2,1,80,0,0
395336,-58.8235294117647,4,2,1,80,0,1
395411,-58.8235294117647,4,2,1,80,0,0

[Colours]
Combo1 : 192,192,192
Combo2 : 89,126,164

[HitObjects]
256,192,470,12,0,2783,0:0:0:0:
64,171,2858,6,0,P|37:122|52:67,2,100,6|2|2,0:0|0:0|0:0,0:0:0:0:
100,28,3305,6,0,B|-1:39|-42:188|96:268|195:199|196:117|196:117|199:16|344:-38|436:93|376:197|294:206|294:206|193:217|152:366|290:447|389:378|390:296,1,1200,2|0,0:0|0:0,0:0:0:0:
512,191,5246,6,0,P|477:218|422:221,1,100,2|2,0:0|0:0,0:0:0:0:
422,221,5544,1,2,0:0:0:0:
260,32,5693,6,0,B|369:1|474:151|331:292|199:221|194:125|194:125|188:11|13:-41|-76:140|34:243|127:217|127:217|198:189|261:244|223:299|312:358|389:333,1,1200,2|0,0:0|0:0,0:0:0:0:
486,258,7634,5,2,0:0:0:0:
472,247,7783,2,0,P|447:192|455:145,1,100,2|2,0:0|0:0,0:0:0:0:
442,56,8081,6,0,B|516:70|536:186|424:234|357:172|365:111|365:111|375:35|273:-20|190:69|227:153|289:165|289:165|363:180|384:295|271:344|204:282|212:220|212:220|221:144|119:88|37:179|75:263|135:275,1,1200,2|0,0:0|0:0,0:0:0:0:
274,375,10022,5,2,0:0:0:0:
350,352,10171,1,2,0:0:0:0:
426,329,10320,1,2,0:0:0:0:
491,198,10469,5,2,0:0:0:0:
256,192,10544,12,0,12335,0:0:0:0:
91,64,12410,6,0,B|106:71|106:71|188:47,2,100,12|2|2,1:3|0:0|0:0,0:0:0:0:
317,7,12858,6,0,P|290:69|290:120,1,100,2|0,0:0|0:0,0:0:0:0:
161,166,13156,2,0,P|188:228|188:279,1,100,2|0,0:0|0:0,0:0:0:0:
302,366,13455,6,0,P|246:300|142:322,2,200,2|2|2,0:0|0:0|0:0,0:0:0:0:
445,297,14201,5,2,0:0:0:0:
383,104,14350,1,2,0:0:0:0:
442,158,14499,5,2,0:0:0:0:
405,227,14649,1,2,0:0:0:0:
210,64,14798,6,0,P|260:59|310:55,2,100,2|2|2,3:2|0:0|0:0,0:0:0:0:
48,150,15246,6,0,P|89:188|152:200,1,100,2|0,0:0|0:0,0:0:0:0:
205,330,15544,2,0,P|246:292|309:280,1,100,2|0,0:0|0:0,0:0:0:0:
344,336,15843,6,0,P|261:317|242:209,2,200,2|2|2,0:0|0:0|0:0,0:0:0:0:
456,261,16589,5,2,0:0:0:0:
467,174,16738,1,2,0:0:0:0:
415,89,16887,1,2,0:0:0:0:
302,63,17037,1,2,0:0:0:0:
199,148,17186,6,0,P|155:131|100:117,2,100,2|2|2,3:2|0:0|0:0,0:0:0:0:
302,63,17634,6,0,P|333:92|338:148,1,100,2|0,0:0|0:0,0:0:0:0:
146,222,17932,2,0,P|115:251|110:307,1,100,2|0,0:0|0:0,0:0:0:0:
261,318,18231,6,0,P|264:220|199:148,2,200,2|2|2,0:0|0:0|0:0,0:0:0:0:
447,374,18977,5,2,0:0:0:0:
261,318,19126,1,2,0:0:0:0:
388,317,19275,5,2,0:0:0:0:
326,363,19425,1,2,0:0:0:0:
274,184,19574,6,0,P|285:130|293:73,2,100,2|2|2,3:2|0:0|0:0,0:0:0:0:
21,72,20022,6,0,P|51:110|113:119,1,100,2|0,0:0|0:0,0:0:0:0:
195,233,20320,2,0,P|225:195|287:186,1,100,2|0,0:0|0:0,0:0:0:0:
299,260,20619,6,0,P|213:192|115:199,2,200,2|2|2,0:0|0:0|0:0,0:0:0:0:
473,97,21365,5,2,3:2:0:0:
495,189,21514,1,2,0:0:0:0:
403,212,21664,1,2,0:0:0:0:
380,119,21813,1,2,0:0:0:0:
222,30,21962,6,0,P|288:43|327:49,2,100,2|2|2,3:2|0:0|0:0,0:0:0:0:
99,112,22410,2,0,P|115:186|119:221,1,100,2|0,0:0|0:0,0:0:0:0:
28,224,22708,2,0,P|12:150|8:115,1,100,2|0,0:0|0:0,0:0:0:0:
190,132,23007,6,0,B|134:120|98:167|117:189|85:228|26:223,2,200,2|2|2,0:0|0:0|0:0,0:0:0:0:
321,237,23753,5,2,0:0:0:0:
504,288,23902,1,2,0:0:0:0:
380,295,24052,5,2,0:0:0:0:
439,243,24201,1,2,0:0:0:0:
296,357,24350,6,0,P|237:347|196:339,2,100,2|2|2,3:2|0:0|0:0,0:0:0:0:
335,141,24798,6,0,P|333:210|317:241,1,100,2|0,0:0|0:0,0:0:0:0:
241,221,25096,2,0,P|242:151|258:120,1,100,2|0,0:0|0:0,0:0:0:0:
412,125,25395,6,0,P|314:104|228:56,2,200,2|2|2,0:0|0:0|0:0,0:0:0:0:
493,224,26141,5,2,0:0:0:0:
512,137,26290,1,2,0:0:0:0:
468,46,26439,1,2,0:0:0:0:
359,10,26589,1,2,0:0:0:0:
248,83,26738,6,0,P|260:139|266:187,2,100,2|2|2,3:2|0:0|0:0,0:0:0:0:
40,190,27186,6,0,P|98:195|145:216,1,100,2|0,0:0|0:0,0:0:0:0:
412,340,27484,2,0,P|354:335|307:314,1,100,2|0,0:0|0:0,0:0:0:0:
165,137,27783,6,0,P|174:217|209:280,1,150,2|0,3:2|0:0,0:0:0:0:
222,288,28081,2,0,P|278:304|328:325,1,100,2|0,0:0|0:0,0:0:0:0:
399,377,28380,5,2,0:0:0:0:
411,372,28430,1,2,0:0:0:0:
423,367,28479,1,2,0:0:0:0:
435,362,28529,2,0,P|444:320|461:262,1,100,0|2,0:0|0:0,0:0:0:0:
447,259,28728,1,2,0:0:0:0:
434,253,28778,1,2,0:0:0:0:
421,247,28828,1,2,0:0:0:0:
365,180,28977,1,2,0:0:0:0:
222,288,29126,6,0,P|154:301|110:308,2,100,2|2|2,3:2|0:0|0:0,0:0:0:0:
291,70,29574,6,0,P|293:124|264:178,1,100,2|0,0:0|0:0,0:0:0:0:
175,147,29872,2,0,P|173:93|202:39,1,100,2|0,0:0|0:0,0:0:0:0:
372,50,30171,6,0,P|236:54|144:289,1,400,2|0,3:2|0:0,0:0:0:0:
194,322,30917,6,0,P|221:278|135:282,1,175,8|0,0:1|0:0,0:0:0:0:
118,366,31514,6,0,B|249:329|249:329|280:233|280:233|415:197,1,375,6|0,1:2|0:0,0:0:0:0:
492,173,31813,6,0,B|499:191|499:191|486:244|486:244|465:253,1,89.9999972534181,2|0,0:0|0:0,0:0:0:0:
471,249,31962,1,2,0:0:0:0:
350,297,32111,2,0,B|342:315|342:315|355:368|355:368|376:377,1,89.9999972534181,2|0,0:0|0:0,0:0:0:0:
438,75,32261,6,0,B|423:102|423:102|254:144|254:144|211:125,1,230.000004386902,6|0,1:2|0:0,0:0:0:0:
119,210,32559,6,0,B|61:109|61:109|169:135|169:135|183:152|183:152|411:195,1,479.999985351563,6|0,1:2|0:0,0:0:0:0:
251,0,33007,5,2,0:0:0:0:
258,69,33081,1,2,0:0:0:0:
303,103,33156,1,2,0:0:0:0:
352,91,33231,1,2,0:0:0:0:
370,68,33305,1,2,0:0:0:0:
370,51,33380,1,2,0:0:0:0:
363,41,33455,2,0,L|353:118,1,59.9999981689454,2|0,0:0|0:0,0:0:0:0:
215,137,33604,2,0,L|205:211,1,59.9999981689454,2|0,0:0|0:0,0:0:0:0:
323,377,33753,6,0,B|292:349|292:349|257:226|257:226|258:212|258:212|216:68|216:68|168:37,1,375,6|0,1:2|0:0,0:0:0:0:
115,0,34052,6,0,P|40:37|60:175,1,230.000004386902,8|0,0:0|0:0,0:0:0:0:
129,184,34275,1,8,0:0:0:0:
153,155,34350,2,0,L|236:132,1,64.9999970245363,8|0,0:0|0:0,0:0:0:0:
270,73,34499,2,0,L|353:96,1,64.9999970245363,4|0,1:3|0:0,0:0:0:0:
451,248,34649,6,0,P|415:233|198:296,1,250,6|0,1:2|0:0,0:0:0:0:
86,358,34947,2,0,B|6:251|6:251|363:365,1,500,6|0,1:2|0:0,0:0:0:0:
441,239,35693,6,0,P|403:188|398:130,2,86.6666626993817,8|8|8,3:2|3:0|3:0,0:0:0:0:
340,293,35992,5,4,3:0:0:0:
283,236,36091,1,4,3:0:0:0:
203,248,36191,1,4,3:0:0:0:
113,312,36290,6,0,P|226:275|208:69,1,345.000006580353,6|0,1:2|0:0,0:0:0:0:
143,27,36589,2,0,P|124:39|96:44,5,50.0000019073487,2|2|2|2|2|2,0:0|0:0|0:0|0:0|0:0|0:0,0:0:0:0:
60,29,36887,1,2,0:0:0:0:
86,235,37037,6,0,B|61:226|36:231|36:231|17:190|17:190|16:181|16:181|2:142|2:142|25:129|43:101,1,200,6|0,1:2|0:3,0:3:0:0:
293,7,37335,6,0,B|366:81|299:211|228:155|192:259|267:343,1,359.999989013672,6|0,1:2|0:0,0:0:0:0:
352,383,37634,6,0,P|383:379|411:330,1,85.0000016212464,2|0,0:0|0:0,0:0:0:0:
423,324,37783,2,0,P|411:234|267:232,1,255.000004863739,2|0,0:0|0:0,0:0:0:0:
43,301,38081,6,0,B|91:349|91:349|156:332,1,129.999994049073,2|0,0:0|0:0,0:0:0:0:
150,347,38231,2,0,B|89:362|89:362|41:314,1,129.999994049073,2|0,0:0|0:0,0:0:0:0:
86,235,38380,6,0,B|122:225|122:225|152:254,1,80,2|0,0:0|0:0,0:0:0:0:
338,294,38529,6,0,B|381:315|381:315|414:368|414:368|466:267|466:267|467:260|467:260|484:226|484:226|424:86,1,405.000001544952,6|0,1:2|0:0,0:0:0:0:
500,60,38828,5,2,0:0:0:0:
247,0,38977,1,2,0:0:0:0:
500,60,39126,1,2,0:0:0:0:
247,0,39275,1,2,0:0:0:0:
338,294,39425,6,0,B|368:308|368:308|411:340|411:340|440:279|440:279|390:231,1,220.000006713867,6|0,1:2|0:0,0:0:0:0:
65,110,39723,6,0,B|50:79|50:79|29:60|29:60|145:92|145:92|161:119|161:119|291:156,1,345.000006580353,6|0,1:2|0:0,0:0:0:0:
351,96,40022,6,0,P|376:85|388:27,1,85.0000016212464,2|0,0:0|0:0,0:0:0:0:
104,173,40171,2,0,P|79:162|67:104,1,85.0000016212464,2|0,0:0|0:0,0:0:0:0:
247,0,40320,6,0,B|320:102|220:188|148:160|71:241|112:331,1,400,6|0,1:2|0:0,0:0:0:0:
457,251,41067,6,0,B|507:155|507:155|251:236,1,359.999989013672,6|0,1:2|0:0,0:0:0:0:
206,296,41365,1,0,1:0:0:0:
178,285,41440,2,0,P|155:266|152:214,1,64.9999970245363,2|0,0:0|0:0,0:0:0:0:
262,90,41589,2,0,P|242:158|187:168,1,129.999994049073,2|0,0:0|0:0,0:0:0:0:
1,76,41813,6,0,B|21:87|21:87|169:36|169:36|177:13,1,200,6|0,1:2|0:0,0:0:0:0:
473,60,42111,6,0,B|295:96|295:96|239:187|239:187|72:226,1,460.000008773804,4|0,1:2|0:0,0:0:0:0:
214,373,42559,5,2,0:0:0:0:
285,345,42633,1,2,0:0:0:0:
308,277,42708,1,2,0:0:0:0:
282,224,42782,1,2,0:0:0:0:
234,199,42857,1,2,0:0:0:0:
189,204,42932,1,2,0:0:0:0:
158,225,43006,1,2,0:0:0:0:
139,254,43081,1,2,0:0:0:0:
133,279,43156,1,2,0:0:0:0:
135,305,43230,1,2,0:0:0:0:
141,322,43305,6,0,B|170:317|170:317|193:288|193:288|235:92|235:92|256:70|256:70|302:70,1,330.000010070801,6|0,1:2|0:0,0:0:0:0:
458,52,43604,6,0,P|458:157|383:99,1,250,8|0,0:0|0:0,0:0:0:0:
337,0,43828,1,8,0:0:0:0:
352,10,43902,2,0,L|368:83,1,59.9999981689454,8|0,0:0|0:0,0:0:0:0:
472,129,44052,2,0,L|456:202,1,59.9999981689454,8|0,0:0|0:0,0:0:0:0:
300,325,44201,6,0,B|334:346|334:346|355:379|355:379|388:227,1,230.000004386902,6|0,1:2|0:0,0:0:0:0:
204,5,44499,6,0,B|286:96|197:237|93:160|9:274|81:383,1,460.000008773804,6|0,1:2|0:0,0:0:0:0:
80,382,44947,6,0,P|126:352|110:256,1,150,2|0,0:0|0:0,0:0:0:0:
20,180,45246,5,8,1:3:0:0:
57,207,45345,1,8,1:3:0:0:
99,187,45445,1,8,1:3:0:0:
153,125,45544,5,4,1:3:0:0:
190,98,45643,1,4,1:3:0:0:
231,117,45743,1,4,1:3:0:0:
305,200,45843,6,0,B|320:137|320:137|328:125|328:125|347:53|347:53|263:0|263:0|252:43|252:43|252:58|252:58|226:133,1,375,6|0,1:2|0:0,0:0:0:0:
200,190,46141,6,0,P|218:223|221:244,2,59.9999981689454,2|2|2,0:0|0:0|0:0,0:0:0:0:
231,117,46290,2,0,P|250:84|267:71,2,59.9999981689454,2|2|2,0:0|0:0|0:0,0:0:0:0:
153,125,46440,1,2,0:0:0:0:
12,302,46589,6,0,B|49:323|89:315|89:315|125:357|125:357|161:348|215:374,1,220.000006713867,6|0,1:2|0:0,0:0:0:0:
409,243,46887,2,0,B|425:219|458:200|458:200|470:154|491:57|491:57|431:88|375:61,1,330.000010070801,6|0,1:2|0:0,0:0:0:0:
238,1,47186,6,0,P|265:8|293:81,1,110.000003356934,2|0,0:0|0:0,0:0:0:0:
308,95,47335,2,0,P|315:122|266:183,1,110.000003356934,2|0,0:0|0:0,0:0:0:0:
172,257,47484,1,8,1:3:0:0:
130,241,47559,1,8,1:3:0:0:
88,225,47634,6,0,B|62:176|62:176|91:127,1,110.000003356934,2|0,1:2|0:0,0:0:0:0:
308,95,47783,2,0,B|362:190|362:190|299:288,1,220.000006713867,2|2,0:0|0:0,0:0:0:0:
50,54,48081,5,6,1:2:0:0:
256,192,48156,12,2,52410,3:0:0:0:
32,264,53007,6,0,L|335:322,1,300,12|0,1:2|0:0,0:0:0:0:
393,259,53305,2,0,L|243:293,1,150.000005722046,8|0,1:2|0:0,0:0:0:0:
98,384,53604,1,8,1:2:0:0:
107,333,53678,1,8,0:0:0:0:
117,282,53753,1,8,0:0:0:0:
127,231,53827,1,8,0:0:0:0:
137,180,53902,2,0,L|119:97,1,75.0000028610231,8|0,1:2|0:0,0:0:0:0:
26,29,54052,1,8,0:0:0:0:
31,34,54126,1,8,0:0:0:0:
35,39,54201,6,0,L|113:25,1,75.0000028610231,8|0,1:2|0:0,0:0:0:0:
319,79,54350,2,0,L|241:93,1,75.0000028610231,8|0,0:0|0:0,0:0:0:0:
63,193,54499,2,0,L|141:179,1,75.0000028610231,8|0,1:2|0:0,0:0:0:0:
313,252,54648,2,0,L|235:266,1,75.0000028610231,8|0,0:0|0:0,0:0:0:0:
231,370,54798,5,8,1:2:0:0:
238,371,54872,1,8,0:0:0:0:
245,373,54947,1,8,0:0:0:0:
252,375,55022,1,8,0:0:0:0:
259,377,55096,1,8,1:2:0:0:
249,321,55170,1,8,0:0:0:0:
240,266,55245,1,8,0:0:0:0:
230,210,55319,1,8,0:0:0:0:
221,155,55395,6,0,L|514:229,2,300.000011444092,8|8|8,1:2|1:2|1:2,0:0:0:0:
40,107,56141,1,8,0:0:0:0:
83,96,56216,1,8,0:0:0:0:
126,85,56290,1,8,1:2:0:0:
170,74,56365,1,8,0:0:0:0:
214,63,56440,1,8,0:0:0:0:
257,53,56514,1,8,0:0:0:0:
301,43,56589,6,0,L|289:125,1,75.0000028610231,8|0,1:2|0:0,0:0:0:0:
240,266,56738,2,0,L|252:322,2,50.0000019073487,8|8|8,0:0|0:0|0:0,0:0:0:0:
154,237,56887,6,0,L|249:263,1,75.0000028610231,8|0,1:2|0:0,0:0:0:0:
382,317,57037,2,0,L|438:304,2,50.0000019073487,8|8|8,0:0|0:0|0:0,0:0:0:0:
328,382,57186,6,0,L|357:226,1,150.000005722046,8|8,1:2|0:0,0:0:0:0:
456,149,57484,1,8,1:2:0:0:
444,104,57559,1,8,0:0:0:0:
433,60,57634,2,0,L|449:10,2,50.0000019073487,8|8|8,0:0|0:0|0:0,0:0:0:0:
366,122,57783,5,14,1:2:0:0:
64,208,57932,1,8,1:2:0:0:
177,11,58081,1,8,1:2:0:0:
263,306,58231,1,8,1:2:0:0:
91,61,58380,5,8,1:2:0:0:
238,87,58529,1,8,1:2:0:0:
212,234,58678,1,8,1:2:0:0:
64,208,58828,2,0,L|51:143,2,50.0000019073487,8|8|8,1:2|0:0|0:0,0:0:0:0:
31,297,58977,5,8,1:2:0:0:
331,176,59126,1,8,1:2:0:0:
232,384,59275,1,8,1:2:0:0:
232,384,59350,1,8,0:0:0:0:
232,384,59425,1,8,1:2:0:0:
137,63,59574,5,8,1:2:0:0:
225,143,59723,1,8,1:2:0:0:
332,89,59872,1,8,1:2:0:0:
417,173,60022,1,8,1:2:0:0:
426,320,60171,5,8,1:2:0:0:
381,341,60245,1,8,1:2:0:0:
333,344,60320,1,8,1:2:0:0:
290,323,60394,1,8,1:2:0:0:
263,282,60469,1,8,1:2:0:0:
248,238,60544,1,8,1:2:0:0:
236,190,60618,1,8,1:2:0:0:
225,143,60693,1,8,1:2:0:0:
207,97,60768,1,8,1:2:0:0:
178,59,60842,1,8,1:2:0:0:
136,35,60917,1,8,1:2:0:0:
89,31,60991,1,8,1:2:0:0:
47,55,61067,6,0,L|66:139,1,59.9999981689454,8|0,0:0|0:0,0:0:0:0:
137,195,61216,1,2,3:0:0:0:
135,202,61290,1,2,3:0:0:0:
133,209,61365,2,0,L|114:293,1,59.9999981689454,8|0,0:0|0:0,0:0:0:0:
58,361,61514,1,2,3:0:0:0:
60,368,61589,1,2,3:0:0:0:
62,375,61664,5,10,1:2:0:0:
107,364,61738,1,2,0:0:0:0:
153,354,61813,1,2,0:0:0:0:
199,344,61887,1,2,0:0:0:0:
244,333,61962,1,2,0:0:0:0:
290,323,62037,1,2,0:0:0:0:
336,313,62111,1,2,0:0:0:0:
382,303,62186,1,2,0:0:0:0:
427,292,62261,6,0,P|437:264|453:241,2,50.0000019073487,2|2|2,0:0|0:0|0:0,0:0:0:0:
324,226,62410,2,0,P|314:198|298:175,2,50.0000019073487,2|2|2,0:0|0:0|0:0,0:0:0:0:
471,106,62559,6,0,B|470:102|470:102|471:106|471:106|464:107|464:107|465:112|465:112|464:107|464:107|457:109|457:109|456:104|456:104|457:109|457:109|449:110|449:110|450:114|450:114|449:110|449:110|442:111|442:111|441:107|441:107|442:111|442:111|435:113|435:113|436:117|436:117|435:113|435:113|428:114|428:114|427:110|427:110|428:114|428:114|421:116|421:116|421:120|421:120|421:116|421:116|413:117|413:117|413:113|413:113|413:117|413:117|406:118|406:118|407:123|407:123|406:118|406:118|399:120|399:120|398:115|398:115|399:120|399:120|392:121|392:121|393:125|393:125|392:121|392:121|385:122|385:122|384:118|384:118|385:122|385:122|377:124|377:124|378:128|378:128|377:124|377:124|370:125|370:125|369:121|369:121|370:125|370:125|363:127|363:127|364:131|364:131|363:127|363:127|356:128|356:128|355:124|355:124|356:128|356:128|349:129|349:129|350:134|350:134|349:129|349:129|342:131|342:131|341:126|341:126|342:131|342:131|334:132|334:132|335:136|335:136|334:132|334:132|327:133|327:133|326:129|326:129|327:133|327:133|320:135|320:135|321:139|321:139|320:135|320:135|313:136|313:136|312:132|312:132|313:136|313:136|306:138|306:138|306:142|306:142|306:138|306:138|298:139|298:139|298:135|298:135|298:139|298:139|291:140|291:140|292:145|292:145|291:140|291:140|284:142|284:142|283:137|283:137|284:142|284:142|277:143|277:143|278:147|278:147|277:143|277:143|270:144|270:144|269:140|269:140|270:144|270:144|262:146|262:146|263:150|263:150|262:146|262:146|255:147|255:147|254:143|254:143|255:147|255:147|248:149|248:149|249:153|249:153|248:149|248:149|241:150|241:150|240:146|240:146|241:150|241:150|234:151|234:151|234:156|234:156|234:151|234:151|226:153|226:153|226:148|226:148|226:153|226:153|219:154|219:154|220:158|220:158|219:154|219:154|212:155|212:155|211:151|211:151|212:155|212:155|205:157|205:157|206:161|206:161|205:157|205:157|198:158|198:158|197:154|197:154|198:158|198:158|190:160|190:160|191:164|191:164|190:160|190:160|183:161|183:161|182:157|182:157|183:161|183:161|176:162|176:162|177:167|177:167|176:162|176:162|169:164|169:164|168:159|168:159|169:164|169:164|162:165|162:165|162:169|162:169|162:165|162:165|154:166|154:166|154:162|154:162|154:166|154:166|147:168|147:168|148:172|148:172|147:168|147:168|140:169|140:169|139:165|139:165|140:169|140:169|133:171|133:171|134:175|134:175|133:171|133:171|126:172|126:172|125:168|125:168|126:172|126:172|118:173|118:173|119:178|119:178|118:173|118:173|111:175|111:175|110:170|110:170|111:175|111:175|104:176|104:176|105:180|105:180|104:176|104:176|103:176,1,832.03125,4|0,1:2|0:0,0:0:0:0:
5,64,62858,6,0,B|105:-1|105:-1|49:116,1,230.000004386902,8|0,0:0|0:0,0:0:0:0:
0,259,63081,1,2,3:0:0:0:
14,283,63156,6,0,P|56:299|101:240,1,115.000002193451,2|0,0:0|0:0,0:0:0:0:
188,96,63305,2,0,B|159:67|159:67|186:149,1,115.000002193451,0|0,1:0|0:0,0:0:0:0:
310,338,63455,1,8,0:0:0:0:
465,117,63604,6,0,B|352:66|278:130|337:224|208:281,1,345.000006580353,2|0,0:0|0:0,0:0:0:0:
136,357,63902,2,0,B|107:358|107:358|148:335,1,75.0000028610231,0|0,1:0|0:0,0:0:0:0:
488,228,64052,6,0,P|446:213|355:192,1,100,10|0,0:0|0:0,0:0:0:0:
168,91,64201,6,0,B|130:134|130:134|201:99,1,115.000002193451,2|0,0:0|0:0,0:0:0:0:
355,1,64350,6,0,B|324:24|324:24|286:203|286:203|248:234,2,259.999988098145,2|2|10,0:0|1:2|0:0,0:0:0:0:
256,227,64798,2,0,B|245:293|245:293|231:308,1,75.0000028610231,2|0,0:0|0:0,0:0:0:0:
209,20,64947,6,0,B|251:40|251:40|350:355,1,375,2|0,1:1|0:0,0:0:0:0:
421,294,65246,6,0,B|451:202|451:202|228:303,1,330.000010070801,8|0,0:0|0:0,0:0:0:0:
163,355,65544,6,0,P|108:336|118:278,1,115.000002193451,2|0,0:0|0:0,0:0:0:0:
278,207,65693,2,0,B|312:240|312:240|256:227,1,104.999996795654,0|0,1:0|0:0,0:0:0:0:
0,140,65843,1,8,0:0:0:0:
178,35,65992,6,0,B|190:162|292:179|394:231|375:321,1,359.999989013672,2|0,0:0|0:0,0:0:0:0:
309,354,66290,2,0,B|282:369|282:369|305:323,1,75.0000028610231,0|0,1:0|0:0,0:0:0:0:
445,80,66440,2,0,P|475:95|474:134,1,75.0000028610231,10|0,0:0|0:0,0:0:0:0:
414,190,66589,6,0,B|399:200|399:200|335:180|335:180|315:189,1,100,2|0,0:0|0:0,0:0:0:0:
78,231,66738,6,0,B|172:198|172:198|227:221|227:221|336:181,2,259.999988098145,2|2|10,1:2|1:2|0:2,0:0:0:0:
91,194,67111,1,2,0:0:0:0:
104,157,67186,1,2,0:0:0:0:
117,120,67261,1,2,0:0:0:0:
130,83,67335,6,0,P|271:87|355:285,1,375,4|0,1:2|0:0,0:0:0:0:
375,297,67634,6,0,P|348:366|270:372,1,150.000005722046,14|0,0:0|0:0,0:0:0:0:
3,252,67932,6,0,P|17:283|95:308,1,115.000002193451,2|0,0:0|0:0,0:0:0:0:
214,152,68081,2,0,B|225:111|225:111|179:163,1,94.9999974632264,0|0,1:0|0:0,0:0:0:0:
279,376,68231,1,8,0:0:0:0:
464,190,68380,6,0,B|460:144|420:86|288:76|329:226|214:273,1,345.000006580353,2|0,0:0|0:0,0:0:0:0:
153,236,68678,2,0,B|128:207|128:207|177:225,1,75.0000028610231,0|0,1:0|0:0,0:0:0:0:
375,297,68828,2,0,P|317:272|306:228,1,104.999996795654,10|0,0:0|0:0,0:0:0:0:
409,0,68977,6,0,B|434:51|434:51|401:116,1,115.000002193451,2|0,0:0|0:0,0:0:0:0:
211,52,69126,6,0,B|237:47|237:47|319:-2|319:-2|379:82|379:82|439:126,1,259.999988098145,2|2,0:0|1:2,0:0:0:0:
470,321,69425,6,0,B|467:310|467:310|457:282|457:282|453:269,1,44.999998626709,10|0,0:0|0:0,0:0:0:0:
493,194,69723,5,2,1:2:0:0:
443,181,69797,1,2,0:0:0:0:
395,200,69872,1,2,0:0:0:0:
369,244,69946,1,2,0:0:0:0:
374,296,70022,6,0,B|354:288|354:288|266:270,1,100,12|0,1:2|0:0,0:0:0:0:
41,246,70171,1,0,1:0:0:0:
41,246,70246,1,0,1:0:0:0:
41,246,70320,1,0,1:0:0:0:
474,83,70469,6,0,B|453:91|453:91|365:109,1,100,12|0,1:2|0:0,0:0:0:0:
145,154,70618,1,0,1:0:0:0:
145,154,70693,1,0,1:0:0:0:
145,154,70767,1,0,1:0:0:0:
280,0,70917,6,0,B|294:18|294:18|275:101,1,100,14|0,1:2|0:0,0:0:0:0:
214,350,71067,1,0,1:0:0:0:
41,246,71216,2,0,B|6:215|6:215|65:240,1,100,8|0,0:0|0:0,0:0:0:0:
119,284,71365,6,0,B|129:305|129:305|137:367,1,75.0000028610231,14|0,1:2|0:0,0:0:0:0:
124,380,71514,6,0,B|115:351|115:351|159:161|159:161|136:121,1,259.999988098145,0|0,1:0|1:0,0:0:0:0:
416,15,71813,1,8,0:0:0:0:
407,65,71887,1,8,0:0:0:0:
398,116,71962,1,8,0:0:0:0:
389,167,72037,1,8,0:0:0:0:
380,217,72111,6,0,L|55:142,1,330.000010070801,4|0,1:2|0:0,0:0:0:0:
18,56,72410,6,0,B|132:12|132:12|64:244,1,359.999989013672,10|0,0:0|0:0,0:0:0:0:
8,310,72708,6,0,P|31:356|84:359,1,110.000003356934,2|0,0:0|0:0,0:0:0:0:
149,220,72858,2,0,B|197:208|197:208|242:241,1,94.9999974632264,0|0,1:0|0:0,0:0:0:0:
402,356,73007,1,8,0:0:0:0:
268,375,73156,6,0,B|357:328|294:213|388:117|489:158,1,345.000006580353,2|0,0:0|0:0,0:0:0:0:
496,234,73455,2,0,B|463:283|463:283|485:215,1,115.000002193451,0|0,1:0|0:0,0:0:0:0:
433,0,73604,2,0,P|475:18|493:88,1,115.000002193451,10|0,0:0|0:0,0:0:0:0:
380,272,73753,6,0,B|364:277|364:277|305:256,1,75.0000028610231,2|0,0:0|0:0,0:0:0:0:
164,66,73902,6,0,B|272:124|272:124|309:259,2,259.999988098145,2|2|10,0:0|1:2|0:0,0:0:0:0:
0,219,74350,2,0,B|16:226|16:226|56:182|56:182|113:148,1,129.999994049073,2|0,0:0|0:0,0:0:0:0:
313,53,74499,6,0,B|291:20|291:20|255:24,1,75,2|0,1:0|0:0,0:0:0:0:
247,30,74798,6,0,B|289:81|289:81|241:253,1,225.000008583069,10|0,0:0|0:0,0:0:0:0:
319,321,75096,6,0,P|364:296|359:232,1,115.000002193451,2|0,0:0|0:0,0:0:0:0:
175,130,75246,2,0,B|145:172|145:172|166:223,1,100,0|0,1:0|0:0,0:0:0:0:
407,58,75395,1,8,0:0:0:0:
212,334,75544,6,0,B|84:343|49:200|128:132|233:161|257:266,1,359.999989013672,2|0,0:0|0:0,0:0:0:0:
319,321,75843,6,0,B|345:343|345:343|320:292,1,80,0|0,1:0|0:0,0:0:0:0:
164,66,75992,6,0,B|145:80|145:80|126:168,1,110.000003356934,10|0,0:0|0:0,0:0:0:0:
411,304,76141,2,0,B|430:290|430:290|449:202,1,110.000003356934,2|0,0:0|0:0,0:0:0:0:
228,154,76290,6,0,L|286:138,1,50,2|0,1:2|0:0,0:0:0:0:
361,59,76440,2,0,L|303:75,1,50,2|0,1:2|0:0,0:0:0:0:
22,278,76589,5,10,0:0:0:0:
70,292,76664,1,2,0:0:0:0:
117,306,76738,1,2,0:0:0:0:
165,320,76813,1,2,0:0:0:0:
212,334,76887,6,0,L|294:310,1,85.0000016212464,0|0,1:0|0:0,0:0:0:0:
309,316,77037,2,0,L|329:232,1,85.0000016212464,0|0,1:0|0:0,0:0:0:0:
423,0,77186,6,0,B|485:107|485:107|221:37,1,375,12|0,0:0|0:0,0:0:0:0:
9,147,77484,6,0,P|75:57|170:70,1,209.999993591309,2|0,0:0|1:0,0:0:0:0:
393,344,77783,2,0,P|292:347|238:262,1,209.999993591309,10|0,0:0|0:0,0:0:0:0:
484,73,78081,6,0,P|465:186|452:296,1,209.999993591309,2|0,0:0|1:0,0:0:0:0:
126,360,78380,2,0,P|145:247|158:137,1,209.999993591309,10|0,0:0|0:0,0:0:0:0:
319,17,78678,6,0,L|346:132,1,104.999996795654,2|0,0:0|0:0,0:0:0:0:
358,23,78828,2,0,L|354:141,1,104.999996795654,2|0,1:2|0:0,0:0:0:0:
509,332,78977,6,0,B|373:303|373:303|361:308|361:308|236:283,1,269.999991760254,10|0,0:0|0:0,0:0:0:0:
170,230,79275,5,4,1:2:0:0:
168,218,79349,1,0,1:0:0:0:
166,207,79424,1,0,1:0:0:0:
164,196,79498,1,0,1:0:0:0:
162,185,79573,1,0,1:0:0:0:
160,174,79648,1,0,1:0:0:0:
158,163,79722,1,0,1:0:0:0:
156,152,79797,1,0,1:0:0:0:
154,141,79872,1,0,1:0:0:0:
152,130,79946,1,0,1:0:0:0:
150,119,80021,1,0,1:0:0:0:
148,108,80095,1,0,1:0:0:0:
146,96,80170,1,0,1:0:0:0:
145,85,80245,1,0,1:0:0:0:
143,74,80319,1,0,1:0:0:0:
141,63,80394,1,0,1:0:0:0:
139,52,80469,6,0,L|252:76,1,89.9999972534181,8|0,1:2|0:0,0:0:0:0:
413,154,80619,2,0,L|300:178,1,89.9999972534181,8|0,1:2|0:0,0:0:0:0:
133,249,80768,2,0,L|246:273,1,89.9999972534181,8|0,1:2|0:0,0:0:0:0:
407,351,80918,2,0,L|294:375,1,89.9999972534181,8|0,1:2|0:0,0:0:0:0:
23,148,81067,5,8,1:3:0:0:
78,158,81141,1,8,1:3:0:0:
133,168,81216,1,8,1:3:0:0:
188,179,81290,1,8,1:3:0:0:
244,189,81365,1,8,1:3:0:0:
299,200,81440,1,8,1:3:0:0:
354,210,81514,1,8,1:3:0:0:
409,220,81589,1,8,1:3:0:0:
465,231,81664,6,0,P|485:110|357:100,1,269.999991760254,4|0,1:2|0:0,0:0:0:0:
345,87,81962,2,0,P|368:160|416:160,1,129.999994049073,8|0,0:0|0:0,0:0:0:0:
438,144,82185,1,8,0:0:0:0:
455,116,82260,1,0,3:0:0:0:
460,84,82334,1,8,0:0:0:0:
451,54,82409,1,2,1:2:0:0:
291,10,82559,1,10,0:0:0:0:
230,81,82708,1,2,0:0:0:0:
212,89,82783,1,10,0:0:0:0:
194,97,82858,6,0,P|172:58|173:33,1,64.9999970245363,2|0,1:2|0:0,0:0:0:0:
330,166,83007,2,0,P|326:197|307:224,1,64.9999970245363,0|0,1:0|0:0,0:0:0:0:
119,303,83156,1,8,0:0:0:0:
199,365,83305,1,0,3:0:0:0:
205,332,83380,1,8,0:0:0:0:
211,299,83455,1,0,3:0:0:0:
217,267,83529,1,8,0:0:0:0:
223,234,83604,1,0,1:0:0:0:
438,109,83753,2,0,L|240:157,1,194.999991073609,8|8,0:0|0:0,0:0:0:0:
184,91,84052,6,0,B|157:56|157:56|208:77,1,100,2|0,1:3|0:0,0:0:0:0:
416,319,84350,6,0,L|338:297,1,64.9999970245363,8|0,0:0|0:0,0:0:0:0:
293,247,84499,1,0,3:0:0:0:
274,252,84574,1,8,0:0:0:0:
255,257,84649,1,0,3:0:0:0:
236,262,84723,1,8,0:0:0:0:
217,267,84798,1,0,1:0:0:0:
92,357,84947,2,0,L|108:292,1,64.9999970245363,8|0,0:0|0:0,0:0:0:0:
140,224,85096,1,0,3:0:0:0:
135,204,85171,1,8,0:0:0:0:
130,184,85246,1,0,3:0:0:0:
92,33,85395,5,0,1:0:0:0:
26,224,85544,2,0,L|230:269,1,194.999991073609,8|0,0:0|0:0,0:0:0:0:
284,326,85843,6,0,P|316:325|349:306,1,64.9999970245363,0|0,1:0|0:0,0:0:0:0:
307,168,85992,2,0,P|275:169|242:188,1,64.9999970245363,0|0,1:0|0:0,0:0:0:0:
422,361,86141,1,8,0:0:0:0:
430,322,86216,1,0,3:0:0:0:
437,284,86290,1,0,3:0:0:0:
445,245,86365,1,0,3:0:0:0:
453,206,86440,6,0,B|455:192|455:192|436:132,1,75,2|0,1:2|0:0,0:0:0:0:
482,58,86738,6,0,B|467:66|467:66|406:49,1,75.0000028610231,10|0,0:0|0:0,0:0:0:0:
332,8,86887,5,2,3:2:0:0:
288,20,86962,1,8,0:0:0:0:
244,33,87037,1,0,3:0:0:0:
200,45,87111,1,8,0:0:0:0:
156,58,87186,1,0,1:0:0:0:
18,199,87335,2,0,P|23:112|108:132,1,194.999991073609,8|0,0:0|0:0,0:0:0:0:
115,143,87634,2,0,L|101:215,1,64.9999970245363,2|0,3:0|0:0,0:0:0:0:
139,377,87783,5,0,1:0:0:0:
0,317,87932,2,0,L|74:298,1,64.9999970245363,8|0,0:0|0:0,0:0:0:0:
177,234,88081,1,0,3:0:0:0:
189,238,88156,1,8,0:0:0:0:
201,242,88231,1,0,3:0:0:0:
213,246,88305,1,8,0:0:0:0:
225,250,88380,1,0,1:0:0:0:
306,368,88529,2,0,B|295:352|295:352|251:149,1,194.999991073609,8|0,0:0|0:0,0:0:0:0:
312,107,88828,6,0,B|349:80|349:80|321:140,1,100,2|0,1:3|0:0,0:0:0:0:
193,334,88977,6,0,P|130:323|104:223,1,170.000003242493,2|8,0:0|0:0,0:0:0:0:
195,47,89275,2,0,P|196:87|169:124,1,85.0000016212464,2|0,0:0|0:0,0:0:0:0:
64,143,89425,2,0,P|146:114|171:27,1,170.000003242493,2|0,0:0|1:0,0:0:0:0:
458,55,89723,2,0,P|434:29|379:22,1,85.0000016212464,10|0,0:0|0:0,0:0:0:0:
312,107,89872,2,0,P|394:47|446:75,1,170.000003242493,2|0,0:0|0:0,0:0:0:0:
430,254,90171,2,0,P|403:216|404:170,1,85.0000016212464,2|0,1:2|0:0,0:0:0:0:
484,148,90320,5,8,0:0:0:0:
439,340,90469,1,2,0:0:0:0:
268,250,90619,1,2,1:2:0:0:
268,250,90693,1,2,0:0:0:0:
268,250,90768,1,2,1:2:0:0:
350,381,90917,2,0,B|357:355|357:355|335:287,1,85.0000016212464,8|0,0:0|0:0,0:0:0:0:
172,122,91067,2,0,B|165:148|165:148|187:216,1,85.0000016212464,0|0,1:0|0:0,0:0:0:0:
426,190,91216,6,0,P|442:84|285:76,1,300,6|0,1:2|0:0,0:0:0:0:
276,56,91514,2,0,P|274:130|326:152,1,129.999994049073,8|0,0:0|0:0,0:0:0:0:
357,126,91738,1,8,0:0:0:0:
377,83,91813,1,0,3:0:0:0:
370,35,91887,1,8,0:0:0:0:
338,0,91962,1,2,1:2:0:0:
172,122,92111,1,10,0:0:0:0:
89,69,92261,1,2,3:2:0:0:
89,69,92335,1,2,3:2:0:0:
89,69,92410,6,0,L|102:3,1,64.9999970245363,2|0,1:2|0:0,0:0:0:0:
233,200,92559,2,0,L|220:266,1,64.9999970245363,0|0,1:0|0:0,0:0:0:0:
0,152,92708,1,8,0:0:0:0:
45,306,92858,1,0,3:0:0:0:
88,295,92932,1,8,0:0:0:0:
132,284,93007,1,0,3:0:0:0:
176,274,93081,1,8,0:0:0:0:
220,263,93156,1,0,1:0:0:0:
438,268,93305,2,0,P|415:346|306:320,1,194.999991073609,8|8,0:0|0:0,0:0:0:0:
302,239,93604,6,0,B|339:209|339:209|316:270,1,100,2|0,1:3|0:0,0:0:0:0:
119,347,93902,6,0,L|132:278,1,64.9999970245363,8|0,0:0|0:0,0:0:0:0:
191,184,94052,1,0,3:0:0:0:
186,165,94126,1,8,0:0:0:0:
181,145,94201,1,0,3:0:0:0:
176,126,94275,1,8,0:0:0:0:
171,102,94350,1,0,1:0:0:0:
48,26,94499,2,0,L|129:45,1,64.9999970245363,8|0,0:0|0:0,0:0:0:0:
253,96,94649,1,0,3:0:0:0:
289,87,94723,1,8,0:0:0:0:
326,79,94798,1,0,3:0:0:0:
363,71,94872,1,8,0:0:0:0:
401,62,94947,1,0,1:0:0:0:
512,0,95096,6,0,L|476:144,1,129.999994049073,8|0,0:0|0:0,0:0:0:0:
457,149,95320,1,0,3:0:0:0:
434,172,95395,2,0,L|449:237,1,64.9999970245363,0|0,1:0|0:0,0:0:0:0:
507,294,95544,2,0,L|492:359,1,64.9999970245363,0|0,1:0|0:0,0:0:0:0:
298,384,95693,2,0,B|288:357|288:357|331:187,1,194.999991073609,8|0,0:0|0:0,0:0:0:0:
376,118,95992,6,0,B|348:153|348:153|-3:249,3,400,4|8|0|8,1:2|0:0|1:0|0:0,0:0:0:0:
95,99,97037,2,0,B|111:119|111:119|91:200,1,100,2|0,3:0|0:0,0:0:0:0:
202,377,97186,6,0,B|169:351|169:351|100:-8,2,400,0|8|0,1:0|0:0|1:0,0:0:0:0:
282,163,97932,2,0,B|274:170|274:170|256:259,1,100,0|0,1:0|0:0,0:0:0:0:
490,300,98081,6,0,B|396:264|396:264|331:347,1,200,8|0,0:0|1:0,0:0:0:0:
138,349,98380,5,4,1:2:0:0:
71,337,98454,1,8,1:3:0:0:
22,300,98529,1,8,1:3:0:0:
0,249,98603,1,8,1:3:0:0:
0,197,98678,1,8,1:3:0:0:
7,146,98753,1,8,1:3:0:0:
36,110,98827,1,8,1:3:0:0:
78,85,98902,1,8,1:3:0:0:
112,76,98977,1,4,1:3:0:0:
147,81,99051,1,4,1:3:0:0:
180,95,99126,1,4,1:3:0:0:
207,115,99200,1,4,1:3:0:0:
229,144,99275,1,4,1:3:0:0:
242,171,99350,1,4,1:3:0:0:
248,205,99424,1,4,1:3:0:0:
248,228,99499,1,4,1:3:0:0:
242,255,99574,6,0,L|161:237,1,75.0000028610231,2|0,1:2|0:0,0:0:0:0:
318,78,99723,2,0,L|399:96,1,75.0000028610231,2|0,1:2|0:0,0:0:0:0:
195,330,99872,6,0,L|91:305,1,100,2|0,1:2|0:0,0:0:0:0:
377,8,100022,2,0,L|480:32,1,100,2|0,1:2|0:0,0:0:0:0:
499,165,100171,5,2,0:0:0:0:
440,174,100245,1,2,0:0:0:0:
381,184,100320,1,2,0:0:0:0:
322,194,100394,1,2,0:0:0:0:
263,204,100469,1,2,0:0:0:0:
204,214,100544,1,2,0:0:0:0:
145,224,100618,1,2,0:0:0:0:
86,234,100693,1,2,0:0:0:0:
27,244,100768,6,0,B|-2:159|-2:159|171:222|171:222|196:270|196:270|372:332,1,500,6|0,1:2|0:0,0:0:0:0:
449,244,101216,6,0,B|456:233|456:233|439:171,1,75.0000028610231,2|0,0:0|0:0,0:0:0:0:
205,9,101365,6,0,L|184:138,1,115.000002193451,8|0,0:0|0:0,0:0:0:0:
263,204,101514,2,0,P|312:74|186:137,1,345.000006580353,2|0,0:0|0:0,0:0:0:0:
190,316,101813,6,0,B|219:300|219:300|253:182|253:182|253:164|253:164|293:24|293:24|342:5,1,359.999989013672,6|0,1:2|0:0,0:0:0:0:
362,91,102111,6,0,L|94:33,2,259.999988098145,8|8|4,1:3|1:3|1:3,0:0:0:0:
424,273,102559,5,8,0:0:0:0:
436,310,102634,1,0,1:0:0:0:
448,346,102708,1,0,1:0:0:0:
309,272,102858,1,0,1:0:0:0:
502,7,103007,6,0,B|467:41|467:41|179:138,1,345.000006580353,6|0,1:2|0:0,0:0:0:0:
43,192,103305,6,0,P|23:158|38:123,1,75.0000028610231,2|0,0:0|0:0,0:0:0:0:
155,222,103455,2,0,P|135:256|98:261,1,75.0000028610231,2|0,0:0|0:0,0:0:0:0:
125,111,103604,2,0,P|165:111|188:141,1,75.0000028610231,2|0,0:0|0:0,0:0:0:0:
195,345,103753,6,0,B|155:381|155:381|181:313,1,115.000002193451,8|0,0:0|0:0,0:0:0:0:
362,81,103902,6,0,B|373:101|373:101|331:275,1,200,2|0,0:0|0:0,0:0:0:0:
283,342,104126,1,2,3:0:0:0:
283,342,104201,6,0,P|369:238|233:270,1,359.999989013672,6|0,1:2|0:0,0:0:0:0:
283,342,104499,6,0,B|294:327|294:327|384:307,1,100,0|0,1:0|0:0,0:0:0:0:
490,121,104649,2,0,B|479:136|479:136|389:156,1,100,0|0,1:0|0:0,0:0:0:0:
399,153,104947,6,0,B|397:138|397:138|409:64|409:64|420:52,1,100,10|2,0:0|0:1,0:0:0:0:
491,262,105246,6,0,L|182:346,1,300,2|0,0:0|0:0,0:0:0:0:
136,284,105544,6,0,B|85:235|16:225|16:225|63:156|68:78|68:78|110:95|110:95|118:104|118:104|177:126,1,400,6|0,1:2|0:0,0:0:0:0:
250,228,105992,6,0,B|225:251|225:251|238:184,1,75.0000028610231,2|0,0:0|0:0,0:0:0:0:
319,14,106141,2,0,B|329:27|329:27|303:107,1,89.9999972534181,8|0,0:0|0:0,0:0:0:0:
136,284,106290,6,0,L|338:241,1,200,2|0,0:0|0:0,0:0:0:0:
413,3,106589,6,0,B|479:105|479:105|225:31,1,375,6|0,1:2|0:0,0:0:0:0:
166,6,106887,6,0,P|159:41|173:80,1,75.0000028610231,2|0,0:0|0:0,0:0:0:0:
331,242,107037,2,0,P|326:156|213:146,1,200,2|2,0:0|0:0,0:0:0:0:
13,233,107335,6,0,B|191:191|191:191|230:131,2,250,10|2|2,0:0|0:0|0:0,0:0:0:0:
1,121,107783,6,0,B|96:147|96:147|115:167|115:167|275:201|275:201|302:191|302:191|405:211,1,419.999987182618,6|0,1:2|0:0,0:0:0:0:
464,163,108081,6,0,L|446:80,1,75.0000028610231,2|0,0:0|0:0,0:0:0:0:
471,156,108231,2,0,L|453:73,1,75.0000028610231,2|0,0:0|0:0,0:0:0:0:
478,149,108380,2,0,L|460:66,1,75.0000028610231,2|0,0:0|0:0,0:0:0:0:
364,288,108529,6,0,B|352:337|352:337|398:273,1,100,8|0,0:0|0:0,0:0:0:0:
462,76,108678,6,0,P|343:80|341:200,1,239.999992675781,2|0,0:0|0:0,0:0:0:0:
447,357,108977,6,0,B|502:250|502:250|377:294|377:294|356:319|356:319|253:354,1,389.999982147218,6|0,1:2|0:0,0:0:0:0:
184,370,109275,6,0,P|157:348|158:279,1,100,2|0,1:2|0:0,0:0:0:0:
322,68,109425,2,0,P|355:186|206:222,1,300,2|0,1:2|0:0,0:0:0:0:
214,141,109723,6,0,B|202:184|202:184|63:272|63:272|47:311,2,250,8|4|4,0:0|1:3|1:3,0:0:0:0:
117,2,110171,2,0,B|130:16|130:16|152:89,1,89.9999972534181,2|0,3:0|0:0,0:0:0:0:
272,381,110320,6,0,B|239:311|239:311|330:210|330:210|340:191|340:191|415:104|415:104|373:-4,1,460.000008773804,6|0,1:2|0:0,0:0:0:0:
375,1,110768,6,0,L|362:72,1,50,2|0,0:0|0:0,0:0:0:0:
354,190,110917,6,0,B|391:222|391:222|357:155,1,100,2|0,0:0|0:0,0:0:0:0:
265,18,111067,6,0,B|144:-16|171:87|47:54,1,230.000004386902,10|8,0:0|0:0,0:0:0:0:
129,276,111365,6,0,B|211:281|279:239|279:239|350:272|350:272|403:235|498:235,1,359.999989013672,6|0,1:2|0:0,0:0:0:0:
467,236,111664,6,0,B|473:201|503:171|503:171|310:160|412:311|271:351,1,389.999982147218,8|0,1:3|0:0,0:0:0:0:
276,349,111962,6,0,P|277:316|258:284,1,64.9999970245363,4|0,1:3|0:0,0:0:0:0:
35,118,112111,1,10,0:0:0:0:
54,161,112185,1,2,0:0:0:0:
94,189,112260,1,2,0:0:0:0:
142,192,112334,1,2,0:0:0:0:
185,170,112410,2,0,P|211:150|260:142,1,75.0000028610231,2|0,0:0|0:0,0:0:0:0:
460,10,112559,6,0,B|524:108|524:108|153:6,1,479.999985351563,6|0,1:2|0:0,0:0:0:0:
35,118,113007,2,0,B|12:150|12:150|79:117,1,94.9999974632264,2|0,0:0|0:0,0:0:0:0:
119,61,113156,2,0,B|142:29|142:29|75:62,1,94.9999974632264,2|0,0:0|0:0,0:0:0:0:
8,305,113305,1,8,0:0:0:0:
87,249,113455,6,0,B|175:265|142:343|223:373,1,179.999994506836,2|0,0:0|0:0,0:0:0:0:
350,258,113753,6,0,B|382:220|451:202|451:202|430:140|430:140|430:132|430:132|408:68|408:68|375:108|329:116,1,345.000006580353,6|0,1:2|0:0,0:0:0:0:
269,69,114052,2,0,B|233:27|233:27|177:47,1,104.999996795654,0|0,1:0|0:0,0:0:0:0:
8,305,114201,2,0,B|156:357|156:357|220:192,1,314.999990386963,0|0,1:0|0:0,0:0:0:0:
183,136,114499,6,0,B|159:116|159:116|76:99,1,110.000003356934,8|0,0:0|0:0,0:0:0:0:
0,195,114649,2,0,L|54:175,1,55.0000016784668,4|0,3:0|0:0,0:0:0:0:
199,2,114798,5,2,3:2:0:0:
234,35,114872,1,2,3:2:0:0:
269,69,114947,1,2,3:2:0:0:
304,103,115022,1,2,3:2:0:0:
339,136,115096,6,0,L|365:290,1,150.000005722046,2|0,0:0|0:0,0:0:0:0:
418,173,115544,2,0,B|408:181|408:181|394:228,1,50,2|0,0:0|0:0,0:0:0:0:
260,340,115693,2,0,B|294:364|294:364|270:289,1,100,10|0,0:0|0:0,0:0:0:0:
128,95,115843,2,0,L|90:296,1,200,2|0,0:0|0:0,0:0:0:0:
90,291,116141,6,0,P|38:207|205:225,1,375,6|0,1:2|0:0,0:0:0:0:
205,224,116440,6,0,P|149:229|122:215,1,85.0000016212464,2|0,0:0|0:0,0:0:0:0:
374,142,116589,2,0,P|276:163|242:320,1,255.000004863739,2|0,0:0|0:0,0:0:0:0:
297,345,116887,6,0,B|444:292|444:292|489:314,2,200,8|4|4,0:0|1:3|1:3,0:0:0:0:
16,183,117335,5,6,1:2:0:0:
256,192,117410,12,0,122186,0:0:0:0:
74,350,122261,6,0,B|90:338|90:338|156:318,1,85.0000016212464,6|0,1:2|0:0,0:0:0:0:
214,257,122410,6,0,L|292:278,1,69.9999978637696,0|0,1:0|0:0,0:0:0:0:
227,240,122559,2,0,L|300:274,1,69.9999978637696,0|0,1:0|0:0,0:0:0:0:
353,334,122708,6,0,L|335:389,2,46.6666652425131,0|0|0,1:0|1:0|1:0,0:0:0:0:
430,309,122858,6,0,P|438:270|420:238,1,69.9999978637696,0|0,1:0|0:0,0:0:0:0:
354,207,123007,2,0,P|341:175|349:141,1,69.9999978637696,0|0,1:0|0:0,0:0:0:0:
412,90,123156,2,0,P|420:56|407:24,1,69.9999978637696,0|0,1:0|0:0,0:0:0:0:
327,0,123305,2,0,P|299:21|282:22,2,46.6666652425131,0|0|0,1:0|1:0|1:0,0:0:0:0:
217,77,123455,6,0,L|130:54,1,69.9999978637696,0|0,1:0|0:0,0:0:0:0:
286,224,123604,2,0,L|373:201,1,69.9999978637696,0|0,1:0|0:0,0:0:0:0:
199,348,123753,2,0,L|112:325,1,69.9999978637696,0|0,1:0|0:0,0:0:0:0:
94,205,123902,2,0,L|109:256,2,46.6666652425131,0|0|0,1:0|1:0|1:0,0:0:0:0:
77,125,124052,6,0,P|115:125|144:142,1,69.9999978637696,0|0,1:0|0:0,0:0:0:0:
220,239,124201,2,0,P|258:239|287:222,1,69.9999978637696,0|0,1:0|0:0,0:0:0:0:
337,106,124350,2,0,P|375:106|404:123,1,69.9999978637696,0|0,1:0|0:0,0:0:0:0:
451,194,124499,2,0,L|434:254,2,46.6666652425131,0|0|0,1:0|1:0|1:0,0:0:0:0:
346,287,124649,5,0,1:0:0:0:
397,278,124724,1,0,1:0:0:0:
436,243,124799,1,0,1:0:0:0:
451,194,124873,1,0,1:0:0:0:
437,144,124948,1,0,1:0:0:0:
399,109,125023,1,0,1:0:0:0:
348,99,125097,1,0,1:0:0:0:
300,117,125172,1,0,1:0:0:0:
268,158,125246,1,0,1:0:0:0:
237,199,125321,1,0,1:0:0:0:
188,217,125396,1,0,1:0:0:0:
137,208,125470,1,0,1:0:0:0:
99,172,125545,1,0,1:0:0:0:
86,122,125620,1,0,1:0:0:0:
100,73,125694,1,0,1:0:0:0:
139,38,125769,1,0,1:0:0:0:
190,29,125843,6,0,L|201:83,1,50,2|0,1:2|0:0,0:0:0:0:
208,87,125992,2,0,L|197:141,1,50,2|0,0:0|0:0,0:0:0:0:
134,316,126141,2,0,B|126:304|126:304|97:162,1,150,2|0,0:0|0:0,0:0:0:0:
25,195,126440,6,0,L|287:271,1,255.000004863739,2|0,3:0|0:0,0:0:0:0:
333,197,126738,6,0,P|359:181|391:171,2,56.6666677474976,2|2|2,0:0|0:0|0:0,0:0:0:0:
196,133,126887,2,0,P|222:149|254:159,2,56.6666677474976,2|2|2,0:0|0:0|0:0,0:0:0:0:
107,24,127037,6,0,B|141:45|141:45|229:333|229:333|263:359,1,375,6|0,1:2|0:0,0:0:0:0:
369,312,127335,6,0,B|398:272|398:272|322:314,1,115.000002193451,2|0,0:0|0:0,0:0:0:0:
326,381,127484,1,4,3:0:0:0:
499,83,127634,6,0,B|454:119|454:119|14:23,1,500,10|0,0:0|0:0,0:0:0:0:
212,22,128081,6,0,B|222:39|222:39|205:99,1,75.0000028610231,2|0,0:0|0:0,0:0:0:0:
86,341,128231,6,0,B|72:317|72:317|95:236,1,104.999996795654,2|0,0:0|0:0,0:0:0:0:
294,102,128380,6,0,B|321:144|321:144|261:118,1,89.9999972534181,2|2,1:2|0:0,0:0:0:0:
0,148,128529,5,2,1:2:0:0:
52,134,128604,1,2,0:0:0:0:
103,120,128678,1,2,1:2:0:0:
155,106,128753,1,2,1:2:0:0:
207,93,128828,1,10,0:0:0:0:
200,146,128902,1,2,0:0:0:0:
194,199,128977,1,2,0:0:0:0:
188,252,129052,1,2,0:0:0:0:
182,305,129126,1,2,0:0:0:0:
233,289,129201,1,2,0:0:0:0:
284,273,129275,1,2,0:0:0:0:
336,257,129350,1,2,0:0:0:0:
388,242,129425,6,2,B|392:241|392:241|388:242|388:242|387:238|386:235|386:235|382:237|382:237|386:235|386:235|384:232|383:229|383:229|387:227|387:227|383:229|383:229|381:226|379:223|379:223|376:225|376:225|379:223|379:223|377:220|375:217|375:217|378:215|378:215|375:217|375:217|372:214|370:212|370:212|367:215|367:215|370:212|370:212|367:210|365:208|365:208|367:204|367:204|365:208|365:208|362:205|359:204|359:204|357:207|357:207|359:204|359:204|356:202|353:200|353:200|355:196|355:196|353:200|353:200|350:199|347:197|347:197|345:201|345:201|347:197|347:197|342:196|340:195|340:195|341:191|341:191|340:195|340:195|337:194|333:193|333:193|332:197|332:197|333:193|333:193|329:192|326:192|326:192|327:188|327:188|326:192|326:192|323:192|319:191|319:191|319:196|319:196|319:191|319:191|316:191|312:191|312:191|312:187|312:187|312:191|312:191|308:192|305:192|305:192|306:196|306:196|305:192|305:192|302:192|298:193|298:193|297:189|297:189|298:193|298:193|295:193|291:194|291:194|292:198|292:198|291:194|291:194|288:195|285:196|285:196|283:192|283:192|285:196|285:196|282:197|278:199|278:199|280:203|280:203|278:199|278:199|275:200|272:202|272:202|270:198|270:198|272:202|272:202|268:204|266:206|266:206|268:209|268:209|266:206|266:206|264:207|260:210|260:210|257:207|257:207|260:210|260:210|257:212|255:214|255:214|258:218|258:218|255:214|255:214|252:217|250:220|250:220|247:217|247:217|250:220|250:220|248:221|246:225|246:225|249:228|249:228|246:225|246:225|244:228|242:231|242:231|238:229|238:229|242:231|242:231|240:235|239:237|239:237|242:239|242:239|239:237|239:237|237:240|236:244|236:244|232:243|232:243|236:244|236:244|235:246|234:251|234:251|238:251|238:251|234:251|234:251|234:255|233:258|233:258|229:257|229:257|233:258|233:258|233:262|233:265|233:265|237:265|237:265|233:265|233:265|233:268|233:272|233:272|229:272|229:272|233:272|233:272|234:275|234:279|234:279|239:278|239:278|234:279|234:279|235:282|236:285|236:285|232:287|232:287|236:285|236:285|237:288|239:292|239:292|243:290|243:290|239:292|239:292|241:296|242:298|242:298|238:300|238:300|242:298|242:298|244:301|246:304|246:304|249:302|249:302|246:304|246:304|248:307|250:310|250:310|247:312|247:312|250:310|250:310|252:313|254:315|254:315|257:312|257:312|254:315|254:315|256:317|259:320|259:320|257:323|257:323|259:320|259:320|262:322|265:325|265:325|267:321|267:321|265:325|265:325|268:327|270:329|270:329|268:332|268:332|270:329|270:329|272:330|276:333|276:333|279:329|279:329|276:333|276:333|279:334|283:336|283:336|281:340|281:340|283:336|283:336|286:338|289:339|289:339|291:335|291:335|289:339|289:339|292:340|295:342|295:342|294:346|294:346|295:342|295:342|298:343|302:344|302:344|303:340|303:340|302:344|302:344|304:345|309:346|309:346|308:350|308:350|309:346|309:346|313:347|316:347|316:347|316:343|316:343|316:347|316:347|321:348|323:349|323:349|322:353|322:353|323:349|323:349|328:349|330:349|330:349|330:345|330:345|330:349|330:349|331:349,1,798.734244003838,2|0,1:1|0:0,0:1:0:0:
331,349,129723,6,0,L|317:285,1,50,8|0,1:3|0:0,0:0:0:0:
317,69,129872,6,0,B|321:90|321:90|301:173,1,100,2|0,0:0|0:0,0:0:0:0:
128,375,130022,6,0,B|150:329|150:329|92:80,1,300.000011444092,10|0,0:0|0:0,0:0:0:0:
75,10,130469,1,2,0:0:0:0:
0,225,130619,6,0,B|29:239|29:239|105:215,1,100,2|0,0:0|0:0,0:0:0:0:
317,69,130768,6,0,B|334:28|334:28|283:65,1,100,2|2,1:2|0:0,0:0:0:0:
203,169,130917,1,2,1:2:0:0:
213,218,130992,1,2,0:0:0:0:
224,267,131067,1,2,1:2:0:0:
235,314,131141,1,2,1:2:0:0:
247,362,131216,2,0,B|264:343|264:343|277:248,1,115.000002193451,10|0,0:0|0:0,0:0:0:0:
33,119,131365,6,2,B|29:122|29:122|33:119|33:119|38:125|38:125|41:122|41:122|38:125|38:125|43:131|43:131|39:134|39:134|43:131|43:131|48:137|48:137|51:134|51:134|48:137|48:137|52:142|52:142|49:145|49:145|52:142|52:142|57:148|57:148|61:145|61:145|57:148|57:148|62:154|62:154|59:157|59:157|62:154|62:154|67:160|67:160|71:157|71:157|67:160|67:160|72:166|72:166|68:169|68:169|72:166|72:166|72:166|72:166|79:168|79:168|80:164|80:164|79:168|79:168|87:170|87:170|85:175|85:175|87:170|87:170|94:172|94:172|95:168|95:168|94:172|94:172|101:174|101:174|100:179|100:179|101:174|101:174|109:176|109:176|110:172|110:172|109:176|109:176|116:178|116:178|115:183|115:183|116:178|116:178|123:180|123:180|124:176|124:176|123:180|123:180|131:183|131:183|129:187|129:187|131:183|131:183|138:185|138:185|139:180|139:180|138:185|138:185|145:187|145:187|144:191|144:191|145:187|145:187|153:189|153:189|154:184|154:184|153:189|153:189|160:191|160:191|159:195|159:195|160:191|160:191|167:193|167:193|168:188|168:188|167:193|167:193|174:195|174:195|173:199|173:199|174:195|174:195|182:197|182:197|183:193|183:193|182:197|182:197|189:199|189:199|188:203|188:203|189:199|189:199|196:201|196:201|198:197|198:197|196:201|196:201|204:203|204:203|203:208|203:208|204:203|204:203|211:205|211:205|212:201|212:201|211:205|211:205|218:207|218:207|217:212|217:212|218:207|218:207|226:209|226:209|227:205|227:205|226:209|226:209|233:211|233:211|232:216|232:216|233:211|233:211|240:214|240:214|242:209|242:209|240:214|240:214|248:216|248:216|247:220|247:220|248:216|248:216|255:218|255:218|256:213|256:213|255:218|255:218|262:220|262:220|261:224|261:224|262:220|262:220|270:222|270:222|271:217|271:217|270:222|270:222|277:224|277:224|276:228|276:228|277:224|277:224|284:226|284:226|286:222|286:222|284:226|284:226|292:228|292:228|291:232|291:232|292:228|292:228|299:230|299:230|300:226|300:226|299:230|299:230|306:232|306:232|305:237|305:237|306:232|306:232|314:234|314:234|315:230|315:230|314:234|314:234|321:236|321:236|320:241|320:241|321:236|321:236|328:238|328:238|330:234|330:234|328:238|328:238|336:240|336:240|335:245|335:245|336:240|336:240|343:243|343:243|344:238|344:238|343:243|343:243|350:245|350:245|349:249|349:249|350:245|350:245|358:247|358:247|359:242|359:242|358:247|358:247|365:249|365:249|364:253|364:253|365:249|365:249|372:251|372:251|374:246|374:246|372:251|372:251|380:253|380:253|379:257|379:257|380:253|380:253|387:255|387:255|388:251|388:251|387:255|387:255|389:255,1,865.31246038914,2|0,1:1|0:0,0:1:0:0:
388,254,131664,6,0,L|374:165,1,89.9999972534181,2|0,0:0|0:0,0:0:0:0:
144,46,131813,6,0,B|174:74|174:74|218:336|218:336|252:366,1,345.000006580353,6|0,1:2|0:0,0:0:0:0:
374,165,132111,6,0,B|349:194|349:194|87:238|87:238|59:268,1,345.000006580353,6|0,1:2|0:0,0:0:0:0:
34,344,132410,6,2,B|32:348|32:348|34:344|34:344|41:347|41:347|43:343|43:343|41:347|41:347|49:350|49:350|47:355|47:355|49:350|49:350|56:353|56:353|58:349|58:349|56:353|56:353|63:357|63:357|61:361|61:361|63:357|63:357|70:360|70:360|72:355|72:355|70:360|70:360|78:363|78:363|76:367|76:367|78:363|78:363|85:366|85:366|87:362|87:362|85:366|85:366|92:369|92:369|90:374|90:374|92:369|92:369|99:372|99:372|101:368|101:368|99:372|99:372|107:376|107:376|105:380|105:380|107:376|107:376|112:378|112:378|111:376|111:376|107:378|107:378|111:376|111:376|109:369|109:369|113:367|113:367|109:369|109:369|106:361|106:361|102:363|102:363|106:361|106:361|104:354|104:354|108:352|108:352|104:354|104:354|101:346|101:346|97:348|97:348|101:346|101:346|99:339|99:339|103:337|103:337|99:339|99:339|96:331|96:331|92:333|92:333|96:331|96:331|94:324|94:324|98:322|98:322|94:324|94:324|91:316|91:316|87:318|87:318|91:316|91:316|89:309|89:309|93:307|93:307|89:309|89:309|86:301|86:301|82:303|82:303|86:301|86:301|84:294|84:294|88:292|88:292|84:294|84:294|81:286|81:286|77:288|77:288|81:286|81:286|79:279|79:279|83:277|83:277|79:279|79:279|76:271|76:271|72:273|72:273|76:271|76:271|74:264|74:264|78:262|78:262|74:264|74:264|71:256|71:256|67:258|67:258|71:256|71:256|69:249|69:249|73:247|73:247|69:249|69:249|66:241|66:241|62:243|62:243|66:241|66:241|64:234|64:234|68:232|68:232|64:234|64:234|61:226|61:226|57:228|57:228|61:226|61:226|59:219|59:219|63:217|63:217|59:219|59:219|56:211|56:211|52:213|52:213|56:211|56:211|54:204|54:204|58:202|58:202|54:204|54:204|51:196|51:196|47:198|47:198|51:196|51:196|49:189|49:189|53:187|53:187|49:189|49:189|46:181|46:181|42:183|42:183|46:181|46:181|44:174|44:174|48:172|48:172|44:174|44:174|41:166|41:166|37:168|37:168|41:166|41:166|39:159|39:159|43:157|43:157|39:159|39:159|36:151|36:151|32:153|32:153|36:151|36:151|34:144|34:144|38:142|38:142|34:144|34:144|31:136|31:136|27:138|27:138|31:136|31:136|31:135|31:135|34:129|34:129|38:131|38:131|34:129|34:129|38:122|38:122|34:120|34:120|38:122|38:122|42:115|42:115|46:118|46:118|42:115|42:115|46:108|46:108|42:106|42:106|46:108|46:108|50:101|50:101|54:104|54:104|50:101|50:101|54:95|54:95|49:92|49:92|54:95|54:95|57:88|57:88|62:90|62:90|57:88|57:88|61:81|61:81|57:78|57:78|61:81|61:81|62:79,1,898.593753427863,6|0,1:1|0:0,0:1:0:0:
69,66,132708,6,0,B|101:74|101:74|187:48,1,110.000003356934,2|0,0:1|0:0,0:0:0:0:
396,48,132858,6,0,L|288:16,1,100,2|0,0:0|0:0,0:0:0:0:
390,18,133007,2,0,L|278:5,1,100,2|0,0:0|0:0,0:0:0:0:
30,194,133156,6,0,L|146:152,1,104.999996795654,2|0,1:2|0:0,0:0:0:0:
421,285,133305,2,0,L|305:243,1,104.999996795654,2|0,1:2|0:0,0:0:0:0:
314,347,133604,6,0,B|263:141|263:141|223:111,2,250,10|2|2,0:0|0:0|0:0,0:0:0:0:
194,316,134201,5,6,1:2:0:0:
203,267,134275,1,2,0:0:0:0:
212,217,134350,1,2,0:0:0:0:
222,167,134425,1,2,0:0:0:0:
232,118,134499,2,0,B|262:104|262:104|238:149,1,75.0000028610231,2|0,0:0|0:0,0:0:0:0:
99,289,134649,1,0,1:0:0:0:
99,289,134723,1,0,1:0:0:0:
99,289,134798,2,0,B|33:269|33:269|12:239,1,100,8|0,0:0|0:0,0:0:0:0:
171,68,134947,6,0,B|169:104|169:104|280:334,1,269.999991760254,2|0,0:0|0:0,0:0:0:0:
342,351,135246,5,2,1:2:0:0:
379,327,135320,1,0,1:0:0:0:
417,303,135395,2,0,L|429:229,1,75.0000028610231,0|0,1:0|0:0,0:0:0:0:
484,130,135544,1,2,0:0:0:0:
463,103,135619,2,0,B|387:118|387:118|322:56,1,150.000005722046,0|0,1:0|0:0,0:0:0:0:
322,3,135843,2,0,B|346:35|346:35|332:75,1,75.0000028610231,0|0,1:0|0:0,0:0:0:0:
15,243,135992,6,0,B|42:207|42:207|303:127,1,300,8|0,0:0|0:0,0:0:0:0:
338,251,136290,5,8,1:3:0:0:
280,233,136365,1,8,1:3:0:0:
222,215,136440,1,8,1:3:0:0:
165,197,136514,1,8,1:3:0:0:
107,179,136589,6,0,B|109:163|109:163|104:119|104:119|110:101,1,75,2|0,1:2|0:0,0:0:0:0:
161,43,136887,6,0,B|199:19|199:19|171:76,1,100,2|0,0:1|0:0,0:0:0:0:
23,149,137037,1,2,0:0:0:0:
222,215,137186,6,0,B|189:194|189:194|35:246,1,200,2|0,0:0|0:0,0:0:0:0:
21,265,137634,6,0,B|37:276|37:276|117:248,1,100,10|0,0:0|0:0,0:0:0:0:
289,8,137783,6,0,B|271:23|271:23|241:115,1,115.000002193451,2|0,0:0|0:0,0:0:0:0:
290,281,137932,6,0,B|326:313|326:313|303:245,1,115.000002193451,2|2,1:2|0:0,0:0:0:0:
31,50,138081,5,2,1:2:0:0:
87,36,138156,1,2,0:0:0:0:
143,22,138231,2,0,L|215:40,1,75.0000028610231,2|0,1:2|1:0,0:0:0:0:
450,270,138380,5,10,0:0:0:0:
398,259,138455,1,2,0:0:0:0:
347,248,138529,1,2,0:0:0:0:
295,237,138604,1,2,0:0:0:0:
244,226,138678,1,2,0:0:0:0:
192,215,138753,1,2,0:0:0:0:
140,204,138828,1,2,0:0:0:0:
88,194,138902,1,2,0:0:0:0:
36,183,138977,6,2,B|39:180|39:180|36:183|36:183|33:180|32:178|32:178|29:180|29:180|32:178|32:178|30:175|29:172|29:172|33:171|33:171|29:172|29:172|28:170|28:166|28:166|24:167|24:167|28:166|28:166|27:164|27:160|27:160|31:160|31:160|27:160|27:160|28:157|28:153|28:153|25:152|25:152|28:153|28:153|29:151|30:147|30:147|34:149|34:149|30:147|30:147|31:145|33:141|33:141|30:139|30:139|33:141|33:141|35:139|37:136|37:136|40:138|40:138|37:136|37:136|38:133|41:131|41:131|38:128|38:128|41:131|41:131|42:129|45:127|45:127|48:129|48:129|45:127|45:127|48:124|50:123|50:123|48:119|48:119|50:123|50:123|53:121|56:119|56:119|58:123|58:123|56:119|56:119|58:118|62:116|62:116|60:113|60:113|62:116|62:116|65:115|68:114|68:114|69:118|69:118|68:114|68:114|71:113|74:112|74:112|73:109|73:109|74:112|74:112|78:112|80:111|80:111|81:115|81:115|80:111|80:111|84:111|87:111|87:111|87:107|87:107|87:111|87:111|90:111|93:111|93:111|93:115|93:115|93:111|93:111|97:111|100:112|100:112|100:108|100:108|100:112|100:112|103:112|106:113|106:113|105:117|105:117|106:113|106:113|108:113|112:115|112:115|113:111|113:111|112:115|112:115|115:116|118:117|118:117|117:120|117:120|118:117|118:117|121:118|124:120|124:120|126:116|126:116|124:120|124:120|126:121|129:123|129:123|127:126|127:126|129:123|129:123|132:125|135:127|135:127|137:124|137:124|135:127|135:127|137:129|140:131|140:131|137:134|137:134|140:131|140:131|141:133|144:136|144:136|147:133|147:133|144:136|144:136|146:138|148:140|148:140|145:143|145:143|148:140|148:140|151:144|152:146|152:146|155:143|155:143|152:146|152:146|154:149|155:151|155:151|152:153|152:153|155:151|155:151|157:154|158:157|158:157|162:155|162:155|158:157|158:157|160:160|161:163|161:163|157:164|157:164|161:163|161:163|162:166|163:169|163:169|167:168|167:168|163:169|163:169|164:172|165:175|165:175|161:176|161:176|165:175|165:175|166:179|166:181|166:181|170:181|170:181|166:181|166:181|167:186|167:188|167:188|163:188|163:188|167:188|167:188|167:191|168:194|168:194|171:194|171:194|168:194|168:194|168:197|168:201|168:201|164:201|164:201|168:201|168:201|168:204|168:207|168:207|172:207|172:207|168:207|168:207|167:210|167:213|167:213|163:213|163:213|167:213|167:213|167:217|166:220|166:220|170:220|170:220|166:220|166:220|166:223|165:226|165:226|162:226|162:226|165:226|165:226|165:229|164:233|164:233|168:233|168:233|164:233|164:233|163:236|163:239|163:239|159:238|159:238|163:239|163:239|162:242|161:245|161:245|164:246|164:246|161:245|161:245|160:247|159:251|159:251|155:250|155:250|159:251|159:251|158:255|157:257|157:257|160:259|160:259|157:257|157:257|155:261|154:263|154:263|151:262|151:262|154:263|154:263|153:266|152:269|152:269|155:271|155:271|152:269|152:269|150:272|149:275|149:275|145:273|145:273|149:275|149:275|148:277|146:281|146:281|149:282|149:282|146:281|146:281|145:282,1,732.147053570108,2|0,1:1|0:0,0:1:0:0:
149,282,139275,6,0,L|81:298,1,50,8|0,1:3|0:0,0:0:0:0:
266,106,139425,6,0,B|289:130|289:130|373:160,1,100,2|0,0:0|0:0,0:0:0:0:
460,18,139574,6,0,B|429:9|429:9|153:111,1,300.000011444092,10|0,0:0|0:0,0:0:0:0:
103,63,140022,1,2,0:0:0:0:
0,235,140171,6,0,B|19:215|19:215|96:191,1,100,2|0,0:0|0:0,0:0:0:0:
246,37,140320,2,0,B|285:12|285:12|262:74,1,100,2|2,1:2|0:0,0:0:0:0:
229,297,140469,1,2,1:2:0:0:
216,248,140544,1,2,0:0:0:0:
203,199,140619,1,2,1:2:0:0:
190,150,140693,1,2,1:2:0:0:
177,101,140768,2,0,B|133:77|133:77|164:135,1,100,10|0,0:0|0:0,0:0:0:0:
425,290,140917,6,2,B|430:292|430:292|425:290|425:290|428:281|428:281|423:279|423:279|428:281|428:281|431:272|431:272|437:274|437:274|431:272|431:272|435:264|435:264|429:262|429:262|435:264|435:264|438:255|438:255|443:257|443:257|438:255|438:255|441:246|441:246|436:244|436:244|441:246|441:246|444:237|444:237|449:239|449:239|444:237|444:237|447:228|447:228|442:226|442:226|447:228|447:228|451:219|451:219|456:221|456:221|451:219|451:219|454:211|454:211|448:209|448:209|454:211|454:211|457:202|457:202|462:204|462:204|457:202|457:202|460:193|460:193|455:191|455:191|460:193|460:193|463:184|463:184|469:186|469:186|463:184|463:184|467:175|467:175|461:174|461:174|467:175|467:175|470:167|470:167|475:169|475:169|470:167|470:167|470:166|470:166|462:169|462:169|464:174|464:174|462:169|462:169|453:172|453:172|451:167|451:167|453:172|453:172|444:176|444:176|446:181|446:181|444:176|444:176|436:179|436:179|434:174|434:174|436:179|436:179|427:183|427:183|429:188|429:188|427:183|427:183|418:186|418:186|416:181|416:181|418:186|418:186|409:189|409:189|411:195|411:195|409:189|409:189|401:193|401:193|399:187|399:187|401:193|401:193|392:196|392:196|394:201|394:201|392:196|392:196|383:199|383:199|381:194|381:194|383:199|383:199|374:203|374:203|376:208|376:208|374:203|374:203|366:206|366:206|364:201|364:201|366:206|366:206|357:210|357:210|359:215|359:215|357:210|357:210|348:213|348:213|346:208|346:208|348:213|348:213|339:216|339:216|341:221|341:221|339:216|339:216|331:220|331:220|329:214|329:214|331:220|331:220|322:223|322:223|324:228|324:228|322:223|322:223|313:226|313:226|311:221|311:221|313:226|313:226|304:230|304:230|306:235|306:235|304:230|304:230|296:233|296:233|294:228|294:228|296:233|296:233|287:236|287:236|289:242|289:242|287:236|287:236|278:240|278:240|276:235|276:235|278:240|278:240|269:243|269:243|271:248|271:248|269:243|269:243|261:247|261:247|259:241|259:241|261:247|261:247|252:250|252:250|254:255|254:255|252:250|252:250|243:253|243:253|241:248|241:248|243:253|243:253|234:257|234:257|236:262|236:262|234:257|234:257|226:260|226:260|224:255|224:255|226:260|226:260|217:263|217:263|219:269|219:269|217:263|217:263|208:267|208:267|206:261|206:261|208:267|208:267|199:270|199:270|201:275|201:275|199:270|199:270|191:273|191:273|189:268|189:268|191:273|191:273|182:277|182:277|184:282|184:282|182:277|182:277|173:280|173:280|171:275|171:275|173:280|173:280|164:284|164:284|166:289|166:289|164:284|164:284|156:287|156:287|154:282|154:282|156:287|156:287|147:290|147:290|149:296|149:296|147:290|147:290|145:291,1,1064.99996749878,6|2,1:1|1:2,0:1:0:0:
8,79,141365,6,0,B|27:103|27:103|197:152,1,200,6|0,1:2|0:0,0:0:0:0:
447,16,141664,2,0,B|418:43|418:43|334:305,1,300,6|0,1:2|0:0,0:0:0:0:
366,365,141962,6,0,P|418:369|422:287,1,150,2|0,0:0|0:0,0:0:0:0:
424,289,142261,6,0,B|402:297|402:297|325:272,1,100,2|0,0:1|0:0,0:0:0:0:
163,48,142410,6,0,B|142:8|142:8|188:55,1,100,10|0,0:0|0:0,0:0:0:0:
277,141,142559,6,0,L|253:230,1,75.0000028610231,2|0,0:0|0:0,0:0:0:0:
172,344,142708,6,0,B|154:325|154:325|138:247,1,100,2|0,1:2|0:0,0:0:0:0:
382,69,142858,2,0,B|400:88|400:88|416:166,1,100,2|0,1:2|0:0,0:0:0:0:
433,147,143156,6,0,B|418:74|418:74|400:55,1,100,10|0,0:0|0:0,0:0:0:0:
119,271,143305,2,0,B|133:343|133:343|151:362,1,100,2|0,0:0|0:0,0:0:0:0:
453,132,143455,2,0,B|224:85|224:85|164:114,1,300,2|0,0:0|0:0,0:0:0:0:
83,177,143753,5,12,1:3:0:0:
256,192,143828,12,0,145445,0:0:0:0:
154,181,145544,5,8,0:0:0:0:
319,231,145644,1,8,0:0:0:0:
226,78,145743,1,8,0:0:0:0:
245,282,145843,5,8,0:0:0:0:
346,113,145942,1,8,0:0:0:0:
165,201,146042,1,8,0:0:0:0:
308,8,146141,6,0,B|265:31|265:31|215:335|215:335|155:368,1,416.666666666667,6|0,1:2|0:0,0:0:0:0:
91,323,146440,5,2,0:0:0:0:
15,268,146539,1,2,0:0:0:0:
80,331,146639,1,2,0:0:0:0:
155,249,146738,6,0,B|169:233|169:233|280:194,1,133.333333333333,10|0,0:0|0:0,0:0:0:0:
386,81,146937,1,2,0:0:0:0:
492,166,147037,2,0,P|439:164|398:92,1,133.333333333333,2|0,0:0|0:0,0:0:0:0:
308,8,147236,6,0,B|339:36|339:36|392:192,1,200.000007629395,2|0,0:0|0:0,0:0:0:0:
393,350,147534,5,0,1:0:0:0:
492,295,147634,2,0,B|473:315|473:315|389:338,1,100.000003814697,0|0,1:0|0:0,0:0:0:0:
169,253,147833,1,0,1:0:0:0:
255,357,147932,6,0,P|270:304|278:289,5,50.0000019073487,10|2|2|2|2|2,0:0|0:0|0:0|0:0|0:0|0:0,0:0:0:0:
151,241,148231,2,0,P|136:188|118:151,3,75.0000028610231,2|2|2|2,0:0|0:0|0:0|0:0,0:0:0:0:
73,302,148529,6,0,P|72:196|243:208,1,293.333342285157,12|0,1:3|0:0,0:0:0:0:
228,184,148828,6,0,B|236:212|236:212|226:260|226:260|233:283,1,100.000003814697,2|2,0:0|0:0,0:0:0:0:
357,346,149126,6,0,B|414:65|414:65|458:29,1,333.333333333333,10|0,0:0|0:0,0:0:0:0:
512,174,149425,2,0,B|482:138|482:138|36:39,1,500,2|0,0:0|0:0,0:0:0:0:
15,43,149773,6,0,P|124:52|72:141,1,250,2|0,0:0|1:0,0:0:0:0:
195,30,150022,1,0,1:0:0:0:
258,85,150121,6,0,P|284:154|208:140,1,166.666666666667,2|0,0:0|1:0,0:0:0:0:
210,148,150270,1,0,1:0:0:0:
206,140,150320,2,0,B|252:166|252:166|501:94,1,306.666672515869,8|0,0:0|1:0,0:0:0:0:
462,20,150619,6,0,L|420:224,1,200.000007629395,2|2,0:0|0:0,0:0:0:0:
485,301,150917,6,0,B|444:332|444:332|225:280|225:280|178:325,1,333.333333333333,6|0,1:2|0:0,0:0:0:0:
285,384,151216,6,0,B|234:347|234:347|191:141|191:141|133:107,1,333.333333333333,6|0,1:2|0:0,0:0:0:0:
51,30,151514,6,0,B|15:80|15:80|100:39,1,133.333333333333,10|0,0:0|0:0,0:0:0:0:
243,0,151713,1,2,0:0:0:0:
186,53,151813,2,0,B|171:72|171:72|149:191,1,133.333333333333,2|0,0:0|0:0,0:0:0:0:
6,303,152012,2,0,B|29:273|29:273|254:181,1,266.666666666667,2|0,0:0|0:0,0:0:0:0:
398,13,152310,6,0,P|419:32|424:72,1,66.6666666666667,6|0,1:2|0:0,0:0:0:0:
440,84,152410,2,0,P|393:205|233:177,1,306.666672515869,0|0,1:0|1:0,0:0:0:0:
51,30,152708,6,0,B|92:68|92:68|183:355,1,346.666650797527,10|0,0:0|0:0,0:0:0:0:
52,294,153007,6,0,B|3:197|3:197|217:274,1,319.999990234375,2|0,0:1|0:0,0:0:0:0:
272,376,153305,5,6,1:2:0:0:
318,361,153380,1,2,0:0:0:0:
364,347,153455,1,2,0:0:0:0:
409,333,153529,1,2,0:0:0:0:
455,319,153604,2,0,B|463:297|463:297|473:218,1,100.000003814697,2|0,0:0|0:0,0:0:0:0:
435,131,153803,5,0,1:0:0:0:
431,121,153853,1,0,1:0:0:0:
427,111,153902,2,0,B|395:128|395:128|302:108,1,119.999996337891,8|0,0:0|0:0,0:0:0:0:
171,0,154101,2,0,B|211:30|211:30|285:268,1,266.666666666667,2|0,0:0|0:0,0:0:0:0:
241,323,154400,5,0,1:0:0:0:
236,335,154450,1,0,1:0:0:0:
231,347,154499,2,0,P|139:346|127:172,2,293.333342285157,2|0|0,1:2|1:0|1:0,0:0:0:0:
275,236,154997,1,2,0:0:0:0:
369,280,155096,6,0,B|384:257|384:257|479:224,2,113.333335494995,8|8|8,0:0|1:3|1:3,0:0:0:0:
275,236,155395,5,4,1:3:0:0:
201,183,155494,1,4,1:3:0:0:
240,100,155594,1,4,1:3:0:0:
377,37,155693,6,0,B|321:77|321:77|27:22,1,333.333333333333,6|0,1:2|0:0,0:0:0:0:
160,5,155992,5,2,0:0:0:0:
116,94,156091,1,2,0:0:0:0:
186,166,156191,1,0,0:0:0:0:
116,265,156290,6,0,B|72:309|72:309|115:224,1,139.999995727539,10|0,0:0|0:0,0:0:0:0:
240,100,156489,1,2,0:0:0:0:
337,221,156589,2,0,B|295:201|306:129|255:111,1,139.999995727539,2|0,0:0|0:0,0:0:0:0:
376,37,156788,6,0,B|259:92|313:197|201:259,1,279.999991455078,2|0,0:0|0:0,0:0:0:0:
101,355,157086,1,0,1:0:0:0:
5,321,157186,2,0,B|50:300|50:300|270:370,1,279.999991455078,0|0,1:0|1:0,0:0:0:0:
396,309,157484,6,0,P|412:299|461:289,3,64.9999970245363,10|2|2|2,0:0|0:0|0:0|0:0,0:0:0:0:
337,221,157783,6,0,P|317:203|234:178,2,106.666666666667,2|2|2,0:0|0:0|0:0,0:0:0:0:
404,318,158081,6,0,B|366:290|366:290|325:90|325:90|274:65,1,293.333342285157,2|0,1:2|0:0,0:0:0:0:
152,8,158380,6,0,P|139:65|209:46,1,146.666671142578,2|2,0:0|0:0,0:0:0:0:
424,172,158678,6,0,B|397:146|397:146|102:80,1,319.999990234375,10|0,0:0|0:0,0:0:0:0:
0,246,158977,2,0,B|27:272|27:272|464:370,1,479.999985351563,2|0,0:0|0:0,0:0:0:0:
498,250,159325,6,0,B|274:358,1,239.999992675781,2|0,0:1|1:0,0:0:0:0:
167,268,159574,1,0,1:0:0:0:
225,213,159673,2,0,L|188:34,1,159.999995117188,2|0,0:1|1:0,0:0:0:0:
203,44,159823,1,0,1:0:0:0:
215,33,159872,2,0,B|235:70|235:70|187:346,1,319.999990234375,8|0,0:0|1:0,0:0:0:0:
21,252,160171,6,0,P|37:208|117:196,1,133.333333333333,2|2,0:0|0:0,0:0:0:0:
340,359,160469,6,0,B|319:278|319:278|346:209|346:209|318:99,1,266.666666666667,6|0,1:2|0:0,0:0:0:0:
332,106,160768,2,0,B|358:211|358:211|331:280|331:280|352:361,1,266.666666666667,2|0,0:0|0:0,0:0:0:0:
457,300,161067,6,0,B|501:244|501:244|410:293,1,153.333336257935,10|0,0:0|0:0,0:0:0:0:
258,384,161266,1,2,0:0:0:0:
186,331,161365,2,0,P|173:272|254:236,1,153.333336257935,2|0,0:0|0:0,0:0:0:0:
409,384,161564,1,2,0:0:0:0:
420,370,161664,6,0,L|349:354,1,66.6666666666667,0|0,1:0|0:0,0:0:0:0:
127,130,161863,6,0,P|100:149|100:193,1,66.6666666666667,6|0,1:2|0:0,0:0:0:0:
82,205,161962,2,0,P|123:316|290:312,1,306.666672515869,0|0,1:0|1:0,0:0:0:0:
384,110,162261,6,0,B|408:16|408:16|341:118,1,200.000007629395,8|0,0:0|0:0,0:0:0:0:
503,101,162559,6,2,B|341:66|341:66|310:72|310:72|167:42,1,333.333333333333,2|0,0:1|0:0,0:1:0:0:
32,162,162858,6,0,L|145:123,1,100.000003814697,2|0,1:2|0:0,0:0:0:0:
14,137,163057,2,0,L|132:118,1,100.000003814697,2|0,0:0|0:0,0:0:0:0:
243,197,163256,1,2,0:0:0:0:
243,197,163355,1,2,0:0:0:0:
427,101,163455,6,0,B|410:82|410:82|325:56,1,113.333335494995,10|0,0:0|0:0,0:0:0:0:
432,139,163654,2,0,B|418:117|418:117|339:76,1,113.333335494995,2|0,0:0|0:0,0:0:0:0:
212,272,163853,1,2,0:0:0:0:
212,272,163952,1,2,0:0:0:0:
22,116,164052,6,0,B|30:87|30:87|104:63|104:63|123:78,1,126.666663284302,2|0,1:2|0:0,0:0:0:0:
8,95,164251,2,0,B|10:65|10:65|79:28|79:28|100:40,1,126.666663284302,2|0,0:0|0:0,0:0:0:0:
325,202,164450,1,2,0:0:0:0:
325,202,164549,1,2,0:0:0:0:
245,357,164649,6,0,L|317:-14,1,359.999989013672,8|4,0:0|1:0,0:0:0:0:
179,316,176532,5,2,1:2:0:0:
135,303,176639,1,2,0:0:0:0:
250,268,176747,5,2,0:0:0:0:
294,281,176854,1,2,0:0:0:0:
58,139,177071,5,2,0:0:0:0:
145,119,177287,1,2,0:0:0:0:
232,99,177503,1,2,0:0:0:0:
341,10,177719,1,2,0:0:0:0:
401,73,177826,5,2,0:0:0:0:
389,116,177934,1,2,0:0:0:0:
377,159,178042,1,2,0:0:0:0:
365,202,178150,1,2,0:0:0:0:
418,275,178258,5,2,0:0:0:0:
375,289,178366,1,2,0:0:0:0:
327,356,178474,5,2,0:0:0:0:
284,370,178582,1,2,0:0:0:0:
154,298,178798,5,2,0:0:0:0:
174,210,179014,1,2,0:0:0:0:
194,122,179229,1,2,0:0:0:0:
27,83,179445,1,2,0:0:0:0:
98,126,179553,5,2,0:0:0:0:
176,109,179661,1,2,0:0:0:0:
254,93,179769,1,2,0:0:0:0:
332,77,179877,1,2,0:0:0:0:
403,40,179985,5,2,1:2:0:0:
411,4,180093,1,2,0:0:0:0:
332,77,180201,5,2,0:0:0:0:
324,113,180309,1,2,0:0:0:0:
499,290,180524,5,2,0:0:0:0:
322,254,180740,1,2,0:0:0:0:
145,218,180956,1,2,0:0:0:0:
2,337,181172,1,2,0:0:0:0:
65,274,181280,5,2,0:0:0:0:
61,254,181388,1,2,0:0:0:0:
57,234,181496,1,2,0:0:0:0:
53,214,181603,1,2,0:0:0:0:
9,141,181711,5,2,0:0:0:0:
53,131,181819,1,2,0:0:0:0:
127,160,181927,5,2,0:0:0:0:
171,150,182035,1,2,0:0:0:0:
320,56,182251,5,2,0:0:0:0:
301,184,182467,1,2,0:0:0:0:
283,312,182683,1,2,0:0:0:0:
445,356,182898,1,2,0:0:0:0:
374,302,183006,5,2,0:0:0:0:
296,323,183114,1,2,0:0:0:0:
218,344,183222,1,2,0:0:0:0:
141,365,183330,1,2,0:0:0:0:
61,299,183438,6,0,B|56:275|56:275|71:216,1,75.0000028610231,4|0,1:0|0:0,0:0:0:0:
185,94,183654,5,8,0:0:0:0:
185,94,183762,1,8,0:0:0:0:
144,165,183870,1,0,1:0:0:0:
31,126,183978,1,8,0:0:0:0:
74,59,184085,2,0,L|65:19,2,32.4999985122681,8|8|8,0:0|0:0|0:0,0:0:0:0:
185,94,184301,5,8,1:2:0:0:
248,137,184408,1,8,0:0:0:0:
311,94,184516,1,8,0:0:0:0:
294,19,184624,1,8,0:0:0:0:
185,94,184733,5,8,1:2:0:0:
144,165,184841,1,8,0:0:0:0:
189,234,184949,2,0,L|174:281,4,32.4999985122681,8|8|8|8|8,0:0|0:0|0:0|0:0|1:2,0:0:0:0:
41,375,185380,5,8,0:0:0:0:
129,334,185488,2,0,P|66:359|42:363,1,64.9999970245363,0|0,0:0|1:0,0:0:0:0:
264,264,185704,5,8,0:0:0:0:
318,324,185812,2,0,P|336:331|361:348,2,32.4999985122681,8|8|8,0:0|0:0|0:0,0:0:0:0:
195,208,186028,5,8,1:2:0:0:
174,129,186135,1,8,0:0:0:0:
241,82,186243,1,8,0:0:0:0:
307,129,186352,2,0,P|329:169|350:182,1,64.9999970245363,8|0,0:0|1:0,0:0:0:0:
430,250,186567,5,8,0:0:0:0:
488,189,186675,2,0,P|473:141|472:128,2,32.4999985122681,8|8|8,0:0|0:0|0:0,0:0:0:0:
419,55,186891,5,8,0:0:0:0:
374,45,186999,1,8,0:0:0:0:
329,35,187107,2,0,L|266:20,1,64.9999970245363,8|8,0:0|0:0,0:0:0:0:
172,159,187323,5,8,0:0:0:0:
217,149,187431,1,8,0:0:0:0:
262,139,187539,2,0,L|330:121,1,64.9999970245363,8|8,0:0|0:0,0:0:0:0:
418,204,187755,5,8,0:0:0:0:
430,250,187862,1,8,0:0:0:0:
414,295,187970,2,0,P|402:323|371:346,1,64.9999970245363,8|8,0:0|0:0,0:0:0:0:
219,258,188186,5,8,0:0:0:0:
207,212,188293,1,8,0:0:0:0:
223,167,188401,1,8,0:0:0:0:
262,139,188509,1,8,0:0:0:0:
304,244,188618,6,0,B|314:293|380:299|437:216|343:148|343:148|442:103|442:26|353:-10|326:57,1,450.000017166138,10|0,0:0|0:0,0:0:0:0:
262,139,189049,6,0,B|173:172|173:172|179:120|243:99|219:18|159:25|138:70,1,300,10|0,0:0|0:0,0:0:0:0:
46,180,189481,6,0,B|67:145|67:145|107:246,1,150,10|0,0:0|0:0,0:0:0:0:
164,328,189913,6,0,P|154:345|158:319,1,75,2|0,3:0|0:0,0:0:0:0:
15,276,190344,6,0,L|394:340,1,375,4|0,1:2|0:0,0:0:0:0:
454,283,190776,5,0,1:2:0:0:
445,246,190884,1,0,0:0:0:0:
436,209,190992,1,0,0:0:0:0:
427,172,191100,1,0,0:0:0:0:
400,75,191208,5,0,1:2:0:0:
363,84,191316,1,0,0:0:0:0:
326,93,191424,1,0,0:0:0:0:
289,102,191532,1,0,0:0:0:0:
193,129,191639,5,0,1:2:0:0:
202,166,191747,1,0,0:0:0:0:
211,203,191855,1,0,0:0:0:0:
220,240,191963,1,0,0:0:0:0:
247,337,192071,5,2,1:2:0:0:
343,263,192179,2,0,B|319:288|319:288|150:342,1,200,2|0,0:2|0:0,0:0:0:0:
58,300,192503,5,0,1:0:0:0:
25,265,192610,1,0,0:0:0:0:
34,218,192718,1,0,0:0:0:0:
77,197,192826,1,0,0:0:0:0:
146,143,192934,5,0,1:0:0:0:
178,107,193041,1,0,0:0:0:0:
170,60,193149,1,0,0:0:0:0:
126,39,193257,1,0,0:0:0:0:
51,89,193366,5,0,1:0:0:0:
59,117,193474,1,0,0:0:0:0:
146,143,193582,5,0,0:0:0:0:
178,107,193690,1,0,0:0:0:0:
246,21,193798,5,0,1:0:0:0:
293,35,193906,1,0,0:0:0:0:
340,49,194014,1,0,0:0:0:0:
387,64,194121,1,0,0:0:0:0:
500,116,194229,5,0,1:0:0:0:
453,130,194337,1,0,0:0:0:0:
406,144,194445,1,0,0:0:0:0:
359,159,194552,1,0,0:0:0:0:
231,216,194661,5,0,1:0:0:0:
278,230,194769,1,0,0:0:0:0:
325,244,194877,1,0,0:0:0:0:
372,259,194984,1,0,0:0:0:0:
485,311,195092,5,0,1:0:0:0:
438,325,195200,1,0,0:0:0:0:
391,339,195308,1,0,0:0:0:0:
344,354,195415,1,0,0:0:0:0:
235,320,195524,5,0,1:0:0:0:
242,301,195632,1,0,0:0:0:0:
261,309,195740,1,0,0:0:0:0:
253,327,195848,1,0,0:0:0:0:
135,293,195956,5,0,1:0:0:0:
131,272,196064,1,0,0:0:0:0:
204,177,196172,1,0,0:0:0:0:
193,222,196280,1,0,0:0:0:0:
140,127,196388,5,0,1:0:0:0:
177,14,196496,2,0,B|172:51|172:51|44:166,1,200,12|0,3:0|0:0,0:0:0:0:
0,62,196819,6,0,L|352:176,1,345.000006580353,8|0,0:1|0:0,0:0:0:0:
478,14,197251,6,0,L|108:152,1,375,4|0,1:2|0:0,0:0:0:0:
0,244,197683,5,0,1:0:0:0:
42,255,197790,1,0,0:0:0:0:
85,267,197898,1,0,0:0:0:0:
127,278,198006,1,0,0:0:0:0:
189,339,198114,5,0,1:0:0:0:
231,327,198221,1,0,0:0:0:0:
274,315,198329,1,0,0:0:0:0:
316,304,198437,1,0,0:0:0:0:
371,218,198546,5,0,1:0:0:0:
413,229,198653,1,0,0:0:0:0:
456,241,198761,1,0,0:0:0:0:
498,252,198869,1,0,0:0:0:0:
411,346,198978,5,0,1:0:0:0:
406,334,199085,1,0,0:0:0:0:
401,322,199193,1,0,0:0:0:0:
396,310,199301,1,0,0:0:0:0:
282,228,199409,5,0,1:0:0:0:
287,216,199516,1,0,0:0:0:0:
292,204,199624,1,0,0:0:0:0:
297,192,199732,1,0,0:0:0:0:
361,125,199841,6,0,L|453:105,1,89.9999972534181,0|0,1:0|0:0,0:0:0:0:
297,192,200057,1,0,0:0:0:0:
289,187,200165,1,0,0:0:0:0:
228,120,200273,5,0,1:0:0:0:
161,155,200380,1,0,0:0:0:0:
152,157,200488,1,0,0:0:0:0:
143,159,200596,1,0,0:0:0:0:
80,107,200704,5,0,1:0:0:0:
36,108,200811,1,0,0:0:0:0:
8,142,200919,1,0,0:0:0:0:
15,185,201027,1,0,0:0:0:0:
72,241,201136,5,0,1:0:0:0:
73,285,201243,1,0,0:0:0:0:
107,313,201351,1,0,0:0:0:0:
150,306,201459,1,0,0:0:0:0:
211,247,201567,5,0,1:0:0:0:
255,246,201674,1,0,0:0:0:0:
283,212,201782,1,0,0:0:0:0:
276,169,201890,1,0,0:0:0:0:
219,113,201999,5,0,1:0:0:0:
218,69,202106,1,0,0:0:0:0:
184,41,202214,1,0,0:0:0:0:
141,48,202322,1,0,0:0:0:0:
80,107,202431,6,0,L|95:163,1,44.999998626709,2|2,1:2|2:0,0:0:0:0:
85,164,202539,2,0,L|100:220,1,44.999998626709,2|2,0:2|2:2,0:0:0:0:
20,227,202647,6,0,B|53:227|53:227|268:300,1,250,2|0,0:2|1:0,0:0:0:0:
353,378,202970,6,0,B|307:340|307:340|256:105,1,279.999991455078,2|0,0:2|0:0,0:0:0:0:
334,11,203294,5,2,1:2:0:0:
434,91,203402,2,0,B|346:60|346:60|321:31,1,132.500005559922,2|0,0:2|0:0,0:0:0:0:
187,0,203618,6,0,B|130:60|185:134|243:112|292:189|243:265,1,300.000011444092,2|0,0:2|0:0,0:0:0:0:
475,344,204157,6,0,L|108:263,1,375,6|0,1:2|0:0,0:0:0:0:
42,155,204589,5,8,1:2:0:0:
50,141,204697,1,0,0:0:0:0:
98,129,204805,1,0,0:0:0:0:
146,117,204913,1,0,0:0:0:0:
230,71,205021,5,0,1:0:0:0:
242,119,205129,1,0,0:0:0:0:
254,167,205237,1,0,0:0:0:0:
266,215,205345,1,0,0:0:0:0:
276,319,205452,5,8,1:2:0:0:
262,307,205560,1,0,0:0:0:0:
214,319,205668,1,0,0:0:0:0:
166,331,205776,1,0,0:0:0:0:
89,281,205884,5,0,1:0:0:0:
98,257,205992,1,0,0:0:0:0:
107,233,206100,1,0,0:0:0:0:
116,209,206208,1,0,0:0:0:0:
177,144,206316,5,8,1:2:0:0:
168,120,206424,1,0,0:0:0:0:
82,49,206532,6,0,B|103:74|103:74|295:123,1,220.000006713867,2|0,0:2|1:0,0:0:0:0:
371,52,206855,2,0,L|436:36,1,55.0000016784668,0|0,1:0|1:0,0:0:0:0:
385,84,206963,2,0,L|450:68,1,55.0000016784668,0|0,1:0|1:0,0:0:0:0:
399,113,207071,2,0,L|464:97,1,55.0000016784668,0|0,1:0|1:0,0:0:0:0:
450,176,207179,6,0,B|253:131|253:131|210:154,1,250,8|4,1:3|1:3,0:0:0:0:
50,374,207611,5,0,1:0:0:0:
101,316,207719,2,0,L|64:98,1,200,0|0,1:0|1:0,0:0:0:0:
212,4,208042,5,8,1:2:0:0:
142,28,208150,1,0,0:0:0:0:
139,47,208258,1,0,0:0:0:0:
136,66,208366,1,0,0:0:0:0:
227,178,208474,5,0,1:0:0:0:
224,159,208582,1,0,0:0:0:0:
221,140,208690,1,0,0:0:0:0:
218,121,208798,1,0,0:0:0:0:
364,5,208906,5,8,1:2:0:0:
292,21,209014,1,0,0:0:0:0:
289,40,209122,1,0,0:0:0:0:
286,59,209230,1,0,0:0:0:0:
353,122,209337,5,0,1:0:0:0:
422,86,209445,2,0,L|437:20,2,50,0|0|0,1:0|1:0|1:0,0:0:0:0:
344,138,209661,5,0,1:0:0:0:
412,192,209769,2,0,B|454:214|454:214|415:165,1,100,8|0,1:2|0:0,0:0:0:0:
293,74,209985,1,0,1:0:0:0:
219,130,210093,6,0,L|163:144,1,50,2|0,2:2|2:0,0:0:0:0:
7,69,210308,5,8,1:2:0:0:
102,5,210416,2,0,B|108:23|108:23|90:109,1,100,12|0,1:3|0:0,0:0:0:0:
4,327,210632,5,8,1:2:0:0:
81,307,210740,1,0,1:0:0:0:
158,287,210848,1,0,1:0:0:0:
235,267,210956,1,0,1:0:0:0:
361,321,211064,6,0,B|318:316|318:316|90:227,1,279.999991455078,4|0,1:2|0:0,0:0:0:0:
141,59,211388,6,0,P|258:66|269:184,1,250,8|0,0:2|0:0,0:0:0:0:
58,315,211711,2,0,P|6:209|102:140,1,250,8|0,0:2|0:0,0:0:0:0:
316,254,212035,2,0,P|250:351|142:302,1,250,8|0,0:2|0:0,0:0:0:0:
199,128,212359,6,0,B|261:143|261:143|307:103,1,125,8|0,0:2|0:0,0:0:0:0:
289,27,212575,2,0,B|226:11|226:11|180:51,1,125,8|0,0:2|0:0,0:0:0:0:
446,314,212790,6,0,B|486:152|486:152|444:75,1,250,8|0,0:2|0:0,0:0:0:0:
324,332,213114,2,0,B|364:170|364:170|322:93,1,250,8|0,0:2|0:0,0:0:0:0:
202,347,213438,2,0,B|242:185|242:185|200:108,1,250,8|0,0:2|0:0,0:0:0:0:
80,365,213762,2,0,B|120:203|120:203|78:126,1,250,8|0,0:2|0:0,0:0:0:0:
232,30,214085,6,0,P|274:60|290:130,1,125,8|0,0:2|0:0,0:0:0:0:
172,196,214301,2,0,P|130:166|114:96,1,125,8|0,0:2|0:0,0:0:0:0:
398,23,214517,6,0,P|382:51|375:94,6,62.5,0|0|0|0|0|0|0,0:0|0:0|0:0|0:0|0:0|3:0|0:0,0:0:0:0:
290,128,214949,2,0,P|306:153|313:199,6,62.5
387,239,215380,2,0,P|371:267|364:310,4,62.5
301,343,215704,1,0,1:0:0:0:
293,353,215758,1,0,1:0:0:0:
285,363,215812,1,0,1:0:0:0:
209,318,215920,1,0,1:0:0:0:
125,344,216028,2,0,L|61:327,2,62.5,0|0|0,1:0|1:0|1:0,0:0:0:0:
206,305,216244,5,2,0:2:0:0:
203,292,216298,1,2,0:2:0:0:
200,279,216352,1,2,0:2:0:0:
197,266,216406,1,2,0:2:0:0:
194,253,216460,6,0,L|472:299,1,250,6|0,1:2|0:0,0:0:0:0:
367,65,216783,2,0,L|89:19,1,250,6|0,1:2|0:0,0:0:0:0:
12,210,217107,1,6,1:2:0:0:
71,148,217215,2,0,B|102:163|102:163|201:133,1,125,2|0,0:2|0:0,0:0:0:0:
416,4,217431,1,6,1:2:0:0:
367,65,217539,5,8,0:0:0:0:
361,88,217647,1,8,0:0:0:0:
356,112,217755,1,4,0:0:0:0:
350,135,217862,1,4,0:0:0:0:
455,259,217970,5,4,1:2:0:0:
499,162,218078,2,0,B|477:144|477:144|372:113,1,125,2|0,0:2|0:0,0:0:0:0:
202,21,218294,1,2,0:2:0:0:
277,62,218402,1,8,0:2:0:0:
293,40,218510,5,2,0:2:0:0:
202,21,218618,1,2,0:2:0:0:
167,99,218726,1,2,0:2:0:0:
148,113,218834,5,0,1:0:0:0:
35,65,218942,2,0,B|57:81|57:81|89:191,1,125,2|0,0:2|0:0,0:0:0:0:
170,317,219157,2,0,B|133:361|133:361|157:286,1,125,2|8,0:2|1:2,0:0:0:0:
245,205,219373,5,2,0:2:0:0:
328,177,219481,1,2,0:2:0:0:
310,263,219589,2,0,B|284:241|284:241|181:212,1,125,2|0,0:2|1:0,0:0:0:0:
384,92,219805,5,2,0:2:0:0:
425,75,219913,1,0,0:0:0:0:
499,162,220021,2,0,B|468:138|468:138|441:44,1,125,2|8,0:2|1:2,0:0:0:0:
407,204,220237,5,2,0:2:0:0:
427,225,220344,1,2,0:2:0:0:
425,254,220452,1,2,0:2:0:0:
486,326,220560,5,0,1:0:0:0:
410,378,220668,2,0,B|393:359|393:359|287:327,1,125,2|0,0:2|0:0,0:0:0:0:
167,206,220884,1,2,0:2:0:0:
129,231,220992,1,8,1:2:0:0:
68,303,221100,5,2,0:2:0:0:
1,245,221208,1,2,0:2:0:0:
23,165,221316,2,0,B|33:145|33:145|144:91,1,125,2|0,0:2|1:0,0:0:0:0:
308,24,221532,6,0,B|354:59|354:59|281:34,1,125,2|0,0:2|0:2,0:0:0:0:
213,7,221747,1,2,0:2:0:0:
202,38,221855,1,8,1:2:0:0:
125,100,221963,5,2,0:2:0:0:
191,157,222071,1,2,0:2:0:0:
155,234,222179,1,2,0:2:0:0:
238,320,222287,5,0,1:0:0:0:
298,246,222395,2,0,P|169:254|157:367,1,250,2|2,0:2|0:2,0:0:0:0:
312,238,222719,5,8,1:2:0:0:
401,326,222826,1,2,0:2:0:0:
378,317,222934,1,2,0:2:0:0:
355,308,223042,1,2,0:2:0:0:
238,320,223150,5,0,1:0:0:0:
312,238,223258,2,0,B|294:217|294:217|253:113,1,125,2|0,0:2|0:0,0:0:0:0:
308,23,223474,1,2,0:2:0:0:
377,75,223582,1,8,1:2:0:0:
389,87,223690,5,2,0:2:0:0:
293,32,223798,1,2,0:2:0:0:
180,48,223906,1,2,0:2:0:0:
160,38,224014,5,0,1:0:0:0:
95,90,224121,2,0,P|54:71|72:0,1,125,2|0,0:2|0:0,0:0:0:0:
182,169,224337,1,2,0:2:0:0:
123,228,224445,5,10,1:2:0:0:
72,215,224553,1,2,0:2:0:0:
183,285,224661,5,2,0:2:0:0:
234,298,224769,1,2,0:2:0:0:
109,344,224877,5,0,1:0:0:0:
191,274,224985,2,0,B|215:291|215:291|307:262,1,125,2|0,0:2|0:0,0:0:0:0:
423,145,225201,5,0,1:0:0:0:
381,56,225308,1,10,0:2:0:0:
341,91,225415,1,2,0:2:0:0:
328,143,225523,1,2,0:2:0:0:
343,193,225631,1,2,0:2:0:0:
360,204,225740,5,0,1:0:0:0:
423,145,225848,2,0,B|388:124|388:124|304:107,1,125,2|0,0:2|0:0,0:0:0:0:
126,24,226064,1,2,0:2:0:0:
171,89,226172,1,8,1:2:0:0:
249,47,226280,5,2,0:2:0:0:
175,105,226388,1,2,0:2:0:0:
104,30,226496,2,0,B|129:46|129:46|225:19,1,125,2|0,0:2|1:0,0:0:0:0:
423,145,226711,5,2,0:2:0:0:
377,126,226819,1,0,0:0:0:0:
279,227,226927,2,0,B|302:214|302:214|362:128,1,125,2|8,0:2|1:2,0:0:0:0:
175,105,227143,5,2,0:2:0:0:
130,188,227251,1,2,0:2:0:0:
196,247,227359,1,2,0:2:0:0:
209,269,227467,5,0,1:0:0:0:
159,341,227575,2,0,B|134:312|134:312|40:277,1,125,2|0,0:2|0:0,0:0:0:0:
258,368,227790,1,2,0:2:0:0:
322,308,227898,1,8,1:2:0:0:
403,370,228006,5,2,0:2:0:0:
337,294,228114,1,2,0:2:0:0:
384,201,228222,2,0,B|426:158|426:158|395:230,1,125,2|0,0:2|1:0,0:0:0:0:
196,247,228438,5,2,0:2:0:0:
179,199,228546,1,0,0:0:0:0:
209,65,228654,2,0,B|226:102|226:102|196:183,1,125,2|8,0:2|0:2,0:0:0:0:
72,320,228870,5,2,0:2:0:0:
0,262,228978,1,2,0:2:0:0:
30,175,229085,1,2,0:2:0:0:
46,162,229193,5,0,1:0:0:0:
113,210,229301,2,0,B|145:222|145:222|250:185,1,125,2|0,0:2|0:0,0:0:0:0:
318,82,229517,1,2,0:2:0:0:
398,106,229625,1,8,0:2:0:0:
453,45,229733,1,2,0:2:0:0:
449,33,229841,1,2,0:2:0:0:
445,21,229949,1,2,0:2:0:0:
389,122,230057,5,0,1:0:0:0:
447,186,230165,2,0,B|457:211|457:211|430:312,1,125,2|0,0:2|0:0,0:0:0:0:
256,368,230380,1,2,0:2:0:0:
330,308,230488,1,8,1:2:0:0:
237,375,230596,5,2,0:2:0:0:
171,315,230704,1,2,0:2:0:0:
92,345,230812,2,0,B|124:309|124:309|170:96,1,250,2|10,1:2|1:2,0:0:0:0:
0,10,231136,2,0,B|12:35|12:35|102:105,1,125,10|0,1:2|0:0,0:0:0:0:
230,219,231352,2,0,L|300:194,2,62.5,10|8|8,1:2|1:2|1:2,0:0:0:0:
98,195,231567,2,0,L|233:232,1,125,10|2,1:2|0:2,0:0:0:0:
427,46,231783,5,4,1:2:0:0:
448,184,231891,2,0,B|431:169|431:169|406:65,1,125,2|0,0:2|0:0,0:0:0:0:
225,11,232107,1,2,0:2:0:0:
291,72,232215,1,8,1:2:0:0:
276,91,232323,5,2,0:2:0:0:
322,167,232431,1,2,0:2:0:0:
270,230,232539,2,0,L|199:244,1,62.5,2|0,1:2|1:0,0:0:0:0:
190,261,232647,5,0,1:0:0:0:
114,238,232755,2,0,B|95:258|95:258|73:363,1,125,2|0,1:2|0:0,0:0:0:0:
39,155,232970,2,0,B|70:163|70:163|279:89,1,250,2|2,1:2|1:2,0:0:0:0:
416,32,233294,2,0,L|351:14,2,62.5,2|0|0,1:2|1:0|1:0,0:0:0:0:
512,200,233510,6,0,L|357:234,1,150,4|0,1:2|0:0,0:0:0:0:
226,259,233834,2,0,L|216:304,1,37.5000014305115,0|0,1:0|1:0,0:0:0:0:
227,308,233942,2,0,B|260:319|260:319|220:194,1,150.000005722046,8|0,0:2|1:0,0:0:0:0:
159,140,234265,2,0,L|62:117,1,75.0000028610231,8|0,0:2|0:0,0:0:0:0:
244,55,234481,1,8,0:2:0:0:
168,19,234589,1,0,1:0:0:0:
159,42,234697,1,0,1:0:0:0:
253,68,234805,2,0,L|11:124,1,225.000008583069,8|8,0:2|0:2,0:0:0:0:
194,269,235237,5,4,1:2:0:0:
54,199,235344,2,0,B|75:220|75:220|191:259,1,125,2|0,0:2|0:0,0:0:0:0:
385,196,235560,1,2,0:2:0:0:
311,160,235668,1,8,1:2:0:0:
299,144,235776,1,2,0:2:0:0:
344,68,235884,5,10,0:2:0:0:
466,101,235992,2,0,B|440:116|440:116|332:74,1,125,8|2,0:2|0:2,0:0:0:0:
175,12,236208,5,8,0:2:0:0:
223,84,236316,1,8,0:2:0:0:
160,146,236424,2,0,L|173:214,1,62.5,8|8,0:2|0:2,0:0:0:0:
158,227,236532,5,8,1:2:0:0:
95,232,236603,5,8,1:2:0:0:
43,199,236675,5,8,1:2:0:0:
20,142,236747,5,8,1:2:0:0:
36,83,236819,5,8,1:2:0:0:
86,45,236891,5,8,1:2:0:0:
175,12,236963,6,0,B|258:67|258:67|378:17,1,200,4|2,1:2|0:2,0:0:0:0:
498,101,237287,1,0,1:0:0:0:
435,2,237395,2,0,B|455:22|455:22|477:103,1,100,8|0,0:2|0:0,0:0:0:0:
355,221,237611,1,0,1:0:0:0:
463,189,237719,2,0,B|436:169|436:169|269:224,1,200,8|8,0:2|0:2,0:0:0:0:
227,303,238042,1,0,1:0:0:0:
222,327,238150,1,0,1:0:0:0:
294,358,238258,6,0,L|115:329,1,150,2|0,1:2|0:0,0:0:0:0:
0,313,238690,6,0,B|39:329|39:329|499:237,1,500,4|8,1:2|0:2,0:0:0:0:
393,158,239337,1,0,1:0:0:0:
401,129,239445,1,8,0:0:0:0:
481,77,239661,1,8,0:0:0:0:
473,48,239769,1,0,1:0:0:0:
465,19,239877,1,0,1:0:0:0:
473,93,239985,2,0,B|455:101|455:101|392:81,1,75.0000028610231,8|0,0:0|0:0,0:0:0:0:
223,8,240201,6,0,B|251:24|251:24|287:119,1,115.000002193451,4|0,1:2|0:0,0:0:0:0:
258,382,240416,6,0,B|235:337|235:337|338:21,1,375,4|0,1:2|0:0,0:0:0:0:
402,84,240848,6,0,B|381:60|381:60|315:42,1,89.9999972534181,8|0,0:0|0:0,0:0:0:0:
223,8,241064,1,8,0:0:0:0:
163,56,241172,2,0,L|109:40,1,44.999998626709,8|8,0:0|0:0,0:0:0:0:
97,40,241280,1,8,0:0:0:0:
11,107,241388,5,12,1:2:0:0:
94,174,241496,1,8,1:2:0:0:
52,269,241603,1,8,1:2:0:0:
107,186,241819,5,8,1:2:0:0:
203,145,241926,1,8,1:2:0:0:
409,12,242143,6,0,P|396:44|388:70,7,44.999998626709,4|0|0|0|0|0|0|0,1:2|3:0|3:0|3:0|3:0|3:0|3:0|3:0,0:0:0:0:
290,130,242575,2,0,P|303:162|311:188,7,44.999998626709,0|0|0|0|0|0|0|0,1:0|3:0|3:0|3:0|3:0|3:0|3:0|3:0,0:0:0:0:
434,214,243006,2,0,P|421:246|413:272,7,44.999998626709,0|0|0|0|0|0|0|0,1:0|3:0|3:0|3:0|3:0|3:0|3:0|3:0,0:0:0:0:
315,332,243438,2,0,P|328:364|336:390,7,44.999998626709,0|0|0|0|0|0|0|0,1:0|3:0|3:0|3:0|3:0|3:0|3:0|3:0,0:0:0:0:
494,315,243870,6,0,B|-4:222,2,500,4|4|4,1:3|1:3|1:3,0:0:0:0:
399,139,244949,2,0,B|372:159|372:159|341:257,1,125,2|0,3:0|0:0,0:0:0:0:
343,384,245165,6,0,B|269:60|269:60|181:17,1,405.000001544952,6|0,0:0|0:0,0:0:0:0:
0,237,245596,6,0,L|179:193,1,175.00000166893,12|0,1:2|0:0,0:0:0:0:
357,14,245812,5,4,1:3:0:0:
357,14,245884,5,4,1:3:0:0:
357,14,245956,5,4,1:3:0:0:
357,14,246028,6,0,L|321:178,1,150.000005722046,10|0,1:2|0:0,0:0:0:0:
252,298,246244,1,0,1:0:0:0:
265,344,246352,1,0,1:0:0:0:
355,239,246460,1,8,1:2:0:0:
240,169,246567,2,0,L|445:218,1,200,2|0,0:0|0:0,0:0:0:0:
269,82,246783,1,2,0:0:0:0:
157,225,246891,6,0,L|46:258,1,100,8|0,1:2|0:0,0:0:0:0:
303,97,247107,2,0,L|230:271,1,175.00000166893,2|0,0:0|0:0,0:0:0:0:
31,32,247323,6,0,L|420:178,1,350.00000333786,8|0,1:2|0:0,0:0:0:0:
481,18,247647,1,2,0:0:0:0:
303,97,247755,6,0,L|425:68,1,100,10|0,1:2|0:0,0:0:0:0:
470,114,248078,1,4,3:0:0:0:
415,229,248186,5,8,1:2:0:0:
306,231,248294,2,0,L|499:184,1,184.999999294281,2|0,0:0|0:0,0:0:0:0:
321,349,248510,1,2,0:0:0:0:
301,334,248618,6,0,L|218:316,1,75,4|0,1:3|0:0,0:0:0:0:
67,154,249049,6,0,L|123:362,1,200,8|0,1:2|0:0,0:0:0:0:
456,197,249265,2,0,L|400:-11,1,200,10|0,1:2|0:0,0:0:0:0:
39,124,249481,2,0,L|447:224,1,400,10|0,1:2|0:0,0:0:0:0:
352,120,249805,1,4,3:0:0:0:
210,211,249913,6,0,L|512:129,1,300.000011444092,10|0,0:0|0:0,0:0:0:0:
317,39,250237,1,2,0:0:0:0:
422,9,250344,6,0,L|374:146,1,139.999995727539,8|0,1:2|0:0,0:0:0:0:
280,378,250560,6,0,L|227:205,1,170.000003242493,2|0,0:0|0:0,0:0:0:0:
481,333,250776,6,0,L|90:236,1,400,8|10,1:2|0:0,0:0:0:0:
45,193,251064,5,8,0:0:0:0:
62,133,251136,5,8,0:0:0:0:
125,123,251208,6,0,L|157:338,1,200,10|0,0:0|0:0,0:0:0:0:
64,376,251424,1,4,3:0:0:0:
69,357,251532,1,4,3:0:0:0:
2,293,251639,6,0,L|255:222,1,250,4|0,1:3|0:0,0:0:0:0:
262,322,252287,6,0,L|312:97,1,200,2|0,0:1|0:0,0:0:0:0:
209,33,252503,6,0,L|340:402,1,350.00000333786,8|0,1:2|0:0,0:0:0:0:
421,196,252826,1,2,0:0:0:0:
479,317,252934,2,0,L|83:204,1,400,8|0,1:2|0:0,0:0:0:0:
23,132,253258,1,4,3:0:0:0:
104,31,253366,5,8,1:2:0:0:
237,131,253474,2,0,L|67:194,1,175.00000166893,2|0,0:0|0:0,0:0:0:0:
209,25,253690,1,2,0:0:0:0:
333,165,253798,6,0,L|290:354,1,184.999999294281,8|0,1:2|0:0,0:0:0:0:
273,328,254014,2,0,L|316:139,1,184.999999294281,10|0,1:2|0:0,0:0:0:0:
502,223,254229,6,0,L|303:275,1,170.000003242493,8|0,1:2|0:0,0:0:0:0:
44,95,254445,2,0,L|243:43,1,170.000003242493,8|0,1:2|0:0,0:0:0:0:
465,330,254661,6,0,L|67:202,1,400,10|0,0:0|0:0,0:0:0:0:
196,153,254985,1,4,3:0:0:0:
329,314,255093,1,8,1:2:0:0:
413,265,255201,2,0,L|53:346,1,359.999989013672,2|2,0:0|0:0,0:0:0:0:
147,275,255524,1,4,3:0:0:0:
84,207,255632,6,0,L|105:93,1,100,2|0,0:0|0:0,0:0:0:0:
292,19,255956,6,0,L|334:263,1,200,8|0,1:2|0:0,0:0:0:0:
36,384,256172,2,0,L|-6:140,1,200,10|0,1:2|0:0,0:0:0:0:
427,352,256388,2,0,L|12:237,1,400,10|0,1:2|0:0,0:0:0:0:
201,149,256711,1,8,1:2:0:0:
336,231,256819,5,8,0:0:0:0:
406,179,256927,1,2,0:0:0:0:
298,221,257035,2,0,L|97:162,1,200,10|0,0:0|0:0,0:0:0:0:
491,92,257251,6,0,L|-10:279,1,525.00000500679,10|0,1:2|0:0,0:0:0:0:
96,365,257683,6,0,L|133:184,1,165.000001573563,8|0,1:2|0:0,0:0:0:0:
366,17,257898,6,0,L|441:368,1,330.000003147125,8|0,1:2|0:0,0:0:0:0:
268,363,258222,6,0,L|425:62,1,330.000003147125,8|0,1:2|0:0,0:0:0:0:
165,9,258546,6,0,L|352:295,1,330.000003147125,8|0,1:2|0:0,0:0:0:0:
26,339,258870,6,0,L|514:184,1,495.000004720688,8|0,1:2|0:0,0:0:0:0:
270,0,259409,5,4,1:2:0:0:
168,311,273098,6,0,B|94:291|94:291|78:267,2,100,2|2|2,3:2|0:0|0:0,0:0:0:0:
299,186,273545,6,0,P|300:123|277:85,1,100,2|0,0:0|0:0,0:0:0:0:
202,108,273844,2,0,P|204:176|227:214,1,100,2|0,0:0|0:0,0:0:0:0:
339,302,274142,2,0,P|330:233|203:213,2,200,2|2|2,0:0|0:0|0:0,0:0:0:0:
251,368,274889,5,2,0:0:0:0:
39,305,275038,1,2,0:0:0:0:
109,363,275187,5,2,0:0:0:0:
173,313,275336,1,2,0:0:0:0:
299,186,275486,6,0,P|279:131|282:88,2,100,2|2|2,3:2|0:0|0:0,0:0:0:0:
466,255,275933,6,0,P|409:228|361:221,1,100,2|0,0:0|0:0,0:0:0:0:
200,143,276232,2,0,P|143:170|95:177,1,100,2|0,0:0|0:0,0:0:0:0:
358,90,276530,2,0,P|284:183|286:270,2,200,2|2|2,0:0|0:0|0:0,0:0:0:0:
304,22,277277,5,2,0:0:0:0:
217,11,277426,1,2,0:0:0:0:
132,63,277575,1,2,0:0:0:0:
106,176,277725,1,2,0:0:0:0:
283,260,277874,6,0,B|297:250|297:250|390:226,2,100,2|2|2,3:2|0:0|0:0,0:0:0:0:
100,377,278321,6,0,P|71:333|74:278,1,100,2|0,0:0|0:0,0:0:0:0:
146,260,278620,2,0,P|175:304|172:359,1,100,2|0,0:0|0:0,0:0:0:0:
211,164,278918,2,0,P|293:173|318:286,2,200,2|2|2,0:0|0:0|0:0,0:0:0:0:
203,171,279565,1,2,0:0:0:0:
195,178,279615,1,2,0:0:0:0:
188,185,279665,1,2,0:0:0:0:
121,225,279814,1,2,0:0:0:0:
113,218,279864,1,2,0:0:0:0:
106,211,279914,1,2,0:0:0:0:
98,204,279963,2,0,P|77:159|98:109,1,100,2|2,0:0|0:0,0:0:0:0:
262,12,280262,6,0,P|277:55|257:103,2,100,2|2|2,3:2|0:0|0:0,0:0:0:0:
93,113,280709,6,0,P|161:120|193:142,1,100,2|0,0:0|0:0,0:0:0:0:
352,57,281008,2,0,P|420:50|452:28,1,100,2|0,0:0|0:0,0:0:0:0:
445,33,281306,6,0,P|270:52|237:245,1,400,2|0,0:0|0:0,0:0:0:0:
305,286,282053,6,0,P|312:220|236:250,1,175,8|0,0:1|0:0,0:0:0:0:
409,324,282650,6,0,B|250:296|250:296|204:306|204:306|39:277,1,375,4|0,1:2|0:0,0:0:0:0:
40,277,282948,6,0,P|29:240|56:201,1,75.0000028610231,2|0,0:0|0:0,0:0:0:0:
206,15,283098,2,0,P|217:52|190:91,1,75.0000028610231,2|0,0:0|0:0,0:0:0:0:
66,104,283247,6,0,B|32:70|32:70|90:95,1,100,8|0,0:0|0:0,0:0:0:0:
303,146,283396,6,0,B|278:171|278:171|264:244|264:244|267:254|267:254|255:331|255:331|234:364,1,230.000004386902,6|0,1:2|0:0,0:0:0:0:
499,90,283695,6,0,B|462:132|448:190|448:190|360:218|360:218|345:218|345:218|237:254|237:254|211:217|146:191,1,440.000013427735,6|0,1:2|0:0,0:0:0:0:
14,43,284142,5,2,0:0:0:0:
62,0,284216,1,2,0:0:0:0:
111,22,284291,1,2,0:0:0:0:
120,66,284365,1,2,0:0:0:0:
107,91,284441,2,0,B|90:104|90:104|59:203,1,110.000003356934,8|0,0:0|0:0,0:0:0:0:
29,327,284590,6,0,P|64:327|94:291,1,75.0000028610231,2|0,0:0|0:0,0:0:0:0:
63,188,284739,2,0,P|28:188|-2:224,1,75.0000028610231,2|0,0:0|0:0,0:0:0:0:
179,301,284889,6,0,B|196:282|199:257|199:257|428:163|428:163|429:138|449:109,1,345.000006580353,4|0,1:2|0:0,0:0:0:0:
442,0,285187,6,0,P|481:62|369:55,1,230.000004386902,8|0,0:0|0:0,0:0:0:0:
294,1,285411,1,8,0:0:0:0:
304,21,285486,2,0,L|288:81,1,50,0|0,1:0|0:0,0:0:0:0:
275,228,285635,2,0,B|307:257|307:257|288:198,1,100,8|0,0:0|0:0,0:0:0:0:
72,51,285784,6,0,B|52:79|52:79|20:99|20:99|147:127,1,200,6|0,1:2|0:0,0:0:0:0:
430,278,286083,6,0,B|480:162|480:162|127:285,1,500,4|0,1:2|0:0,0:0:0:0:
81,355,286456,1,2,3:0:0:0:
60,339,286530,2,0,P|41:268|102:207,1,150.000005722046,2|0,0:0|0:0,0:0:0:0:
387,208,286829,6,0,B|274:190|274:190|257:196|257:196|157:179,2,230.000004386902,8|2|4,0:0|0:1|3:0,0:0:0:0:
472,111,287277,1,2,3:0:0:0:
210,23,287426,6,0,B|252:48|252:48|278:180|278:180|272:201|272:201|302:334|302:334|339:365,1,375,6|0,1:2|0:0,0:0:0:0:
399,320,287724,6,0,P|434:300|453:296,5,50.0000019073487,2|2|2|2|2|2,0:0|0:0|0:0|0:0|0:0|0:0,0:0:0:0:
491,351,288023,6,0,B|467:333|467:333|377:315,1,100,8|0,0:0|0:0,0:0:0:0:
43,310,288172,2,0,B|87:300|87:300|219:305|219:305|267:295,1,220.000006713867,6|0,1:2|0:0,0:0:0:0:
448,143,288471,6,0,P|479:70|325:112,1,345.000006580353,6|0,1:2|0:0,0:0:0:0:
368,182,288769,6,0,P|374:223|347:254,1,85.0000016212464,2|0,0:0|0:0,0:0:0:0:
332,278,288918,2,0,P|252:272|197:123,1,255.000004863739,2|0,0:0|0:0,0:0:0:0:
242,41,289217,6,0,B|155:117|155:117|41:87,2,220.000006713867,10|2|2,0:0|0:0|0:0,0:0:0:0:
415,340,289665,6,0,B|491:320|491:320|517:238|517:238|421:212|421:212|408:212|408:212|301:185,1,375,4|0,1:2|0:0,0:0:0:0:
252,130,289963,6,0,L|239:18,1,89.9999972534181,2|0,0:0|0:0,0:0:0:0:
451,0,290112,2,0,L|464:112,1,89.9999972534181,2|0,0:0|0:0,0:0:0:0:
245,137,290262,2,0,L|232:25,1,89.9999972534181,2|0,0:0|0:0,0:0:0:0:
501,210,290411,6,0,B|469:246|469:246|491:184,1,100,8|0,0:0|0:0,0:0:0:0:
310,7,290560,2,0,B|319:35|319:35|282:214|282:214|256:238,1,230.000004386902,6|0,1:2|0:0,0:0:0:0:
35,360,290859,6,0,B|-24:333|-8:271|32:252|32:252|96:276|96:276|98:283|98:283|250:338,1,375,6|0,1:2|0:0,0:0:0:0:
311,289,291157,6,0,P|302:240|269:226,1,89.9999972534181,2|0,0:0|0:0,0:0:0:0:
245,137,291306,2,0,P|198:120|169:142,1,89.9999972534181,2|0,0:0|0:0,0:0:0:0:
116,222,291456,2,0,B|112:261|112:261|154:217,1,89.9999972534181,2|0,1:2|0:0,0:0:0:0:
344,47,291605,5,10,0:0:0:0:
335,92,291680,1,8,1:3:0:0:
326,136,291754,1,8,1:3:0:0:
317,181,291829,1,8,1:3:0:0:
296,219,291903,5,4,1:3:0:0:
304,255,291978,1,4,1:3:0:0:
311,289,292052,1,4,1:3:0:0:
318,324,292127,1,4,1:3:0:0:
384,368,292202,6,0,B|287:362|240:293|306:194|231:121|140:118,1,375,6|0,1:2|0:0,0:0:0:0:
61,60,292500,5,2,0:0:0:0:
72,80,292575,2,0,P|141:60|110:10,1,132.009584875621,2|0,0:0|0:0,0:0:0:0:
3,194,292724,1,2,0:0:0:0:
31,216,292799,2,0,B|62:225|62:225|161:189,1,100,8|0,0:0|0:0,0:0:0:0:
315,0,292948,6,0,B|298:13|298:13|288:70|288:70|290:81|290:81|279:164|279:164|261:187,1,200,6|0,1:2|0:0,0:0:0:0:
161,375,293247,6,0,P|20:296|216:280,1,500,6|0,1:2|0:0,0:0:0:0:
330,341,293695,5,2,0:0:0:0:
399,363,293769,1,2,0:0:0:0:
448,332,293844,1,2,0:0:0:0:
462,281,293918,1,2,0:0:0:0:
448,243,293993,2,0,B|428:223|428:223|412:162,1,85.0000016212464,10|0,0:0|0:0,0:0:0:0:
506,49,294142,1,2,0:0:0:0:
456,59,294217,1,2,0:0:0:0:
406,69,294292,1,2,0:0:0:0:
357,79,294366,1,2,0:0:0:0:
307,89,294441,6,0,B|238:131|238:131|222:219|222:219|224:241|224:241|195:339|195:339|125:382,1,359.999989013672,6|0,1:2|0:0,0:0:0:0:
61,286,294739,2,0,B|36:255|36:255|108:283,1,100,8|0,0:0|0:0,0:0:0:0:
242,355,294889,1,8,0:0:0:0:
258,348,294963,2,0,P|277:329|283:248,1,100,0|0,1:0|0:0,0:0:0:0:
215,218,295187,6,0,B|197:204|197:204|176:127,1,100,8|0,0:0|0:0,0:0:0:0:
504,158,295336,2,0,B|341:122|341:122|312:137|268:132,1,230.000004386902,6|0,1:2|0:0,0:0:0:0:
85,69,295635,6,0,B|137:48|137:48|184:10|184:10|115:281,1,375,6|0,1:2|0:0,0:0:0:0:
101,286,295933,6,0,P|55:286|37:254,1,85.0000016212464,2|0,0:0|0:0,0:0:0:0:
215,218,296083,5,4,3:0:0:0:
249,246,296182,1,4,3:0:0:0:
237,289,296282,1,4,3:0:0:0:
204,360,296381,6,0,B|219:322|219:322|171:136,2,220.000006713867,8|2|4,0:0|0:1|1:3,0:0:0:0:
335,209,296829,1,2,3:0:0:0:
209,0,296978,6,0,B|145:71|210:164|275:118|352:194|255:319,1,359.999989013672,6|0,1:2|0:0,0:0:0:0:
204,360,297277,6,0,P|181:368|130:370,2,66.6666666666667,2|2|2,0:0|0:0|0:0,0:0:0:0:
266,306,297426,2,0,P|284:322|312:365,2,66.6666666666667,2|2|2,0:0|0:0|0:0,0:0:0:0:
193,237,297575,6,0,B|153:222|153:222|189:280,1,100,8|0,0:0|0:0,0:0:0:0:
408,337,297724,6,0,B|417:330|438:316|438:316|460:193|460:193|430:178|402:146,1,220.000006713867,6|0,1:2|0:0,0:0:0:0:
209,0,298023,6,0,B|166:17|166:17|102:252|102:252|53:273,1,330.000010070801,6|0,1:2|0:0,0:0:0:0:
44,265,298321,6,0,P|25:238|35:187,1,85.0000016212464,2|0,0:0|0:0,0:0:0:0:
25,174,298471,2,0,P|70:93|229:97,1,255.000004863739,2|0,0:0|0:0,0:0:0:0:
293,148,298769,6,0,B|402:196|402:196|485:109,2,230.000004386902,10|2|2,0:0|0:0|0:0,0:0:0:0:
89,23,299217,6,0,B|106:37|106:37|126:116,1,85.0000016212464,12|0,1:2|0:0,0:0:0:0:
171,169,299366,1,2,3:0:0:0:
166,185,299441,1,2,3:0:0:0:
161,201,299515,2,0,L|86:221,1,64.9999970245363,10|0,1:2|0:0,0:0:0:0:
19,240,299665,1,10,1:2:0:0:
18,288,299739,1,2,0:0:0:0:
46,327,299814,1,2,0:0:0:0:
92,342,299888,1,2,0:0:0:0:
137,327,299963,2,0,P|162:314|204:304,1,64.9999970245363,10|0,1:2|0:0,0:0:0:0:
328,364,300112,2,0,P|297:356|268:341,1,64.9999970245363,10|2,0:0|0:0,0:0:0:0:
264,261,300262,1,8,1:2:0:0:
267,248,300336,1,8,0:0:0:0:
270,235,300411,1,10,0:0:0:0:
273,222,300486,1,8,0:0:0:0:
276,209,300560,6,0,L|482:173,1,194.999991073609,8|0,1:2|0:0,0:0:0:0:
469,69,300859,2,0,B|410:95|410:95|384:158,1,129.999994049073,8|8,1:2|0:0,0:0:0:0:
449,279,301157,5,10,1:2:0:0:
442,280,301232,1,2,0:0:0:0:
436,277,301306,1,2,0:0:0:0:
434,271,301381,1,2,0:0:0:0:
436,265,301456,1,10,1:2:0:0:
441,261,301530,1,2,0:0:0:0:
448,262,301605,1,2,1:2:0:0:
452,267,301680,1,2,0:0:0:0:
453,273,301754,6,0,L|189:320,2,259.999988098145,10|10|10,1:2|1:2|1:2,0:0:0:0:
502,159,302500,1,8,0:0:0:0:
502,159,302575,1,10,0:0:0:0:
502,159,302650,1,8,1:2:0:0:
492,112,302724,1,8,0:0:0:0:
458,79,302799,1,10,0:0:0:0:
410,71,302873,1,8,0:0:0:0:
367,92,302948,6,0,P|332:124|301:132,1,64.9999970245363,8|0,1:2|0:0,0:0:0:0:
252,183,303098,1,2,0:0:0:0:
239,178,303172,1,2,0:0:0:0:
226,173,303247,1,10,1:2:0:0:
197,159,303321,1,2,0:0:0:0:
179,132,303396,1,2,0:0:0:0:
178,100,303470,1,2,0:0:0:0:
194,72,303545,2,0,P|229:64|254:47,1,64.9999970245363,10|0,2:0|0:0,0:0:0:0:
93,139,303695,2,0,P|58:131|33:114,1,64.9999970245363,10|0,2:0|0:0,0:0:0:0:
164,239,303844,2,0,L|154:279,6,32.4999985122681,8|8|8|8|8|8|8,0:0|0:0|0:0|0:0|0:0|0:0|0:0,0:0:0:0:
72,324,304142,6,0,P|114:300|141:291,1,64.9999970245363,12|0,1:2|0:0,0:0:0:0:
239,178,304292,2,0,P|281:202|308:211,1,64.9999970245363,8|0,1:2|0:0,0:0:0:0:
360,262,304441,1,8,1:2:0:0:
407,260,304515,1,8,0:0:0:0:
438,223,304590,1,8,1:2:0:0:
433,176,304664,1,8,0:0:0:0:
395,148,304739,6,0,P|382:109|379:79,1,64.9999970245363,8|0,1:2|0:0,0:0:0:0:
177,9,304889,2,0,P|190:48|193:78,1,64.9999970245363,8|0,1:2|0:0,0:0:0:0:
144,138,305038,1,8,2:2:0:0:
137,148,305112,1,8,0:0:0:0:
129,158,305187,1,8,1:2:0:0:
122,169,305262,1,8,0:0:0:0:
115,179,305336,6,0,P|101:230|100:249,1,64.9999970245363,8|0,1:2|0:0,0:0:0:0:
345,324,305486,2,0,P|359:273|360:254,1,64.9999970245363,8|0,1:2|0:0,0:0:0:0:
228,164,305635,1,8,1:2:0:0:
237,208,305709,1,8,0:0:0:0:
246,252,305784,1,8,1:2:0:0:
255,296,305859,1,8,0:0:0:0:
264,340,305933,6,0,L|193:328,1,64.9999970245363,8|0,1:2|0:0,0:0:0:0:
395,147,306083,2,0,L|466:159,1,64.9999970245363,8|0,1:2|0:0,0:0:0:0:
512,265,306232,5,8,1:2:0:0:
499,268,306306,1,8,0:0:0:0:
486,271,306381,1,8,0:0:0:0:
473,274,306456,1,8,0:0:0:0:
460,277,306530,5,10,1:2:0:0:
422,313,306604,1,10,1:2:0:0:
374,336,306679,1,10,1:2:0:0:
323,346,306753,1,10,1:2:0:0:
270,341,306828,1,10,1:2:0:0:
221,321,306903,1,10,1:2:0:0:
181,286,306977,1,10,1:2:0:0:
150,243,307052,1,10,1:2:0:0:
134,193,307127,1,10,1:2:0:0:
134,140,307201,1,10,1:2:0:0:
148,89,307276,1,10,1:2:0:0:
176,44,307350,1,10,1:2:0:0:
216,10,307426,6,0,L|405:43,1,150,8|0,0:0|0:0,0:0:0:0:
194,27,307724,6,0,L|390:61,1,187.5,8|0,0:0|0:0,0:0:0:0:
176,44,308023,6,0,L|402:84,1,225.000008583069,8|0,0:0|0:0,0:0:0:0:
500,127,308321,5,2,3:0:0:0:
492,139,308396,1,2,3:0:0:0:
494,153,308471,1,2,3:0:0:0:
486,165,308545,1,2,3:0:0:0:
420,255,308620,6,0,L|413:205,1,44.999998626709,8|0,0:1|0:0,0:0:0:0:
397,83,308918,6,0,B|488:37|488:37|423:344,1,405.000001544952,6|0,1:2|0:0,0:0:0:0:
349,369,309217,1,10,1:2:0:0:
303,357,309292,1,2,0:0:0:0:
258,346,309366,1,2,0:0:0:0:
213,335,309441,1,2,0:0:0:0:
168,324,309515,6,0,B|151:295|151:295|131:178,1,115.000002193451,2|0,1:2|0:0,0:0:0:0:
301,83,309665,1,2,0:0:0:0:
270,118,309739,2,0,B|238:134|238:134|145:105,1,119.999996337891,2|8,0:0|1:2,0:0:0:0:
31,30,309889,1,2,3:0:0:0:
58,61,309963,2,0,B|156:94|103:207|219:239,1,239.999992675781,2|0,0:0|1:0,0:0:0:0:
482,162,310262,2,0,B|474:109|474:109|460:90,1,75.0000028610231,2|0,0:0|0:0,0:0:0:0:
398,0,310411,5,10,1:2:0:0:
390,47,310486,1,2,0:0:0:0:
382,94,310560,1,2,0:0:0:0:
374,141,310635,1,2,0:0:0:0:
338,177,310709,5,2,1:2:0:0:
346,224,310784,1,2,0:0:0:0:
354,271,310858,1,2,0:0:0:0:
362,318,310933,1,2,0:0:0:0:
393,358,311008,6,0,L|451:369,1,50,10|0,1:2|0:0,0:0:0:0:
258,243,311157,2,0,L|200:232,1,50,2|0,1:2|0:0,0:0:0:0:
390,47,311306,6,0,P|445:191|319:111,1,375,6|0,1:2|0:0,0:0:0:0:
172,49,311605,1,10,1:2:0:0:
224,26,311679,1,2,0:0:0:0:
277,39,311754,1,2,0:0:0:0:
313,80,311828,1,2,0:0:0:0:
318,135,311903,6,0,B|288:152|288:152|201:362,1,250,2|0,1:2|0:0,0:0:0:0:
57,313,312127,1,2,0:0:0:0:
86,334,312202,2,0,B|123:352|123:352|95:280,1,110.000003356934,8|0,1:2|0:0,0:0:0:0:
3,170,312351,2,0,B|36:91|36:91|57:79,1,110.000003356934,2|0,0:0|0:0,0:0:0:0:
56,79,312500,1,0,1:0:0:0:
307,227,312650,2,0,B|277:238|277:238|227:219|227:219|214:197,1,110.000003356934,2|0,0:0|0:0,0:0:0:0:
413,29,312799,5,10,1:2:0:0:
395,80,312873,1,2,0:0:0:0:
418,129,312948,1,2,0:0:0:0:
468,149,313022,1,2,0:0:0:0:
480,140,313098,5,2,1:2:0:0:
512,184,313172,1,2,0:0:0:0:
505,238,313247,1,2,0:0:0:0:
464,272,313321,1,2,0:0:0:0:
461,288,313396,5,10,1:2:0:0:
440,307,313470,1,2,0:0:0:0:
413,308,313545,1,2,0:0:0:0:
393,291,313619,1,2,0:0:0:0:
389,264,313695,6,0,B|238:243|238:243|221:251|221:251|51:225,1,330.000010070801,6|0,1:2|0:0,0:0:0:0:
13,148,313993,1,10,1:2:0:0:
0,96,314067,1,2,0:0:0:0:
29,51,314142,1,2,0:0:0:0:
82,42,314216,1,2,0:0:0:0:
125,74,314292,6,0,B|171:113|157:186|109:168|84:233|137:287,1,220.000006713867,2|0,1:2|0:0,0:0:0:0:
276,337,314515,1,2,0:0:0:0:
302,304,314590,2,0,P|306:263|254:238,1,100,8|0,1:2|0:0,0:0:0:0:
31,383,314739,2,0,B|62:363|62:363|115:203|115:203|159:182,2,250,2|0|2,0:0|1:0|0:0,0:0:0:0:
29,51,315187,5,10,1:2:0:0:
76,66,315262,1,2,0:0:0:0:
123,81,315336,1,2,0:0:0:0:
170,96,315411,1,2,0:0:0:0:
212,124,315486,5,2,1:2:0:0:
259,109,315561,1,2,0:0:0:0:
306,94,315635,1,2,0:0:0:0:
353,79,315710,1,2,0:0:0:0:
379,41,315784,5,10,1:2:0:0:
440,41,315858,1,2,0:0:0:0:
490,76,315933,1,2,1:2:0:0:
510,135,316007,1,2,0:0:0:0:
492,194,316083,6,0,B|413:219|413:219|381:255,1,104.999996795654,6|0,1:2|0:0,0:0:0:0:
334,327,316232,1,2,0:0:0:0:
321,324,316306,1,2,0:0:0:0:
308,321,316381,2,0,B|325:296|325:296|301:195,1,115.000002193451,10|0,1:2|0:0,0:0:0:0:
76,164,316530,2,0,B|59:189|59:189|83:290,1,115.000002193451,2|0,0:0|0:0,0:0:0:0:
178,380,316680,6,0,L|235:93,1,270.000001029968,6|0,1:2|0:0,0:0:0:0:
157,22,316903,6,0,B|116:123|116:123|302:64,1,300.000011444092,6|0,1:2|0:0,0:0:0:0:
359,13,317127,6,0,B|430:-18|430:-18|383:37,1,150.000005722046,6|0,1:2|0:0,0:0:0:0:
241,254,317277,6,0,B|232:236|232:236|143:212,1,100,0|0,1:0|0:0,0:0:0:0:
77,79,317426,2,0,L|2:103,2,66.6666666666667,2|0|0,1:2|1:0|1:0,0:0:0:0:
157,22,317575,6,0,B|178:45|178:45|158:138,1,115.000002193451,2|0,1:2|0:0,0:0:0:0:
78,271,317724,2,0,L|13:250,2,66.6666666666667,2|0|0,1:2|1:0|1:0,0:0:0:0:
136,333,317874,6,0,B|153:317|153:317|240:294,1,100,0|0,1:0|0:0,0:0:0:0:
450,234,318023,1,0,1:0:0:0:
450,234,318098,1,0,1:0:0:0:
450,234,318172,1,10,1:2:0:0:
389,243,318246,1,10,1:2:0:0:
336,213,318321,1,4,1:3:0:0:
312,156,318395,1,4,1:3:0:0:
328,97,318471,6,0,B|191:75|191:75|140:98|140:98|34:77,1,300,6|0,1:2|0:0,0:0:0:0:
116,21,318769,5,10,1:2:0:0:
126,70,318844,1,2,1:2:0:0:
136,118,318918,2,0,L|116:195,2,66.6666666666667,2|0|0,1:2|1:0|1:0,0:0:0:0:
287,13,319068,6,0,B|237:74|237:74|197:281,1,279.999991455078,6|0,1:2|0:0,0:0:0:0:
416,355,319292,6,0,B|366:294|366:294|326:87,1,279.999991455078,6|0,1:2|0:0,0:0:0:0:
411,59,319515,6,0,B|501:196|501:196|89:57,1,559.999982910157,6|0,1:2|1:0,0:0:0:0:
88,90,319889,1,0,1:0:0:0:
52,111,319963,5,14,1:2:0:0:
44,168,320037,1,2,0:0:0:0:
78,215,320112,1,2,0:0:0:0:
135,226,320186,1,2,0:0:0:0:
184,196,320262,6,0,P|218:160|279:160,1,100,2|0,1:2|0:0,0:0:0:0:
337,308,320411,2,0,P|303:344|242:344,1,100,2|0,0:0|0:0,0:0:0:0:
78,215,320560,1,10,1:2:0:0:
89,176,320635,1,2,0:0:0:0:
100,137,320709,1,2,0:0:0:0:
111,98,320784,1,2,0:0:0:0:
121,59,320859,6,0,B|196:2|293:66|256:135|371:203|450:132,1,359.999989013672,4|0,1:2|0:0,0:0:0:0:
499,84,321157,1,10,1:2:0:0:
493,35,321232,1,2,0:0:0:0:
453,9,321306,2,0,L|381:34,2,66.6666666666667,2|0|0,1:2|1:0|1:0,0:0:0:0:
507,99,321456,6,0,L|226:43,1,270.000001029968,6|0,1:2|0:0,0:0:0:0:
89,176,321680,2,0,B|42:89|42:89|243:143,1,300.000011444092,6|0,1:2|0:0,0:0:0:0:
374,237,321903,2,0,B|269:279|269:279|367:12|367:12|160:93,1,600.000022888185,6|0,1:2|1:0,0:0:0:0:
157,135,322277,1,0,1:0:0:0:
141,177,322351,6,0,B|161:205|161:205|134:301,1,129.999994049073,6|0,1:2|0:0,0:0:0:0:
59,339,322500,2,0,B|7:357|7:357|62:298,1,129.999994049073,0|0,1:0|1:0,0:0:0:0:
149,15,322650,5,8,1:2:0:0:
221,19,322749,5,8,1:2:0:0:
262,79,322849,5,8,1:2:0:0:
267,154,322948,5,8,1:2:0:0:
274,228,323048,5,8,1:2:0:0:
314,291,323147,5,8,1:2:0:0:
385,310,323247,6,0,B|425:261|425:261|335:296,1,139.999995727539,6|0,1:2|0:0,0:0:0:0:
235,354,323396,2,0,B|208:387|208:387|269:364,1,100,2|0,0:0|0:0,0:0:0:0:
501,203,323545,1,8,1:2:0:0:
496,182,323620,1,2,0:0:0:0:
450,159,323695,2,0,B|426:171|426:171|351:150,1,100,2|0,0:0|0:0,0:0:0:0:
149,15,323844,6,0,B|198:42|198:42|278:365,1,375,6|0,1:2|0:0,0:0:0:0:
190,290,324142,6,0,L|209:174,1,115.000002193451,10|0,1:2|0:0,0:0:0:0:
277,36,324292,2,0,B|325:9|325:9|296:65,1,115.000002193451,2|0,0:0|0:0,0:0:0:0:
32,265,324441,6,0,B|206:233|206:233|242:248|242:248|403:219,1,375,6|0,1:2|0:0,0:0:0:0:
462,124,324739,5,10,1:2:0:0:
396,66,324814,1,2,0:0:0:0:
318,87,324889,1,2,1:2:0:0:
287,160,324963,1,2,1:2:0:0:
328,227,325038,1,2,1:2:0:0:
345,295,325112,1,2,0:0:0:0:
307,347,325187,1,2,1:2:0:0:
249,361,325262,1,2,0:0:0:0:
202,344,325336,1,10,1:2:0:0:
173,311,325411,1,2,1:2:0:0:
170,262,325486,1,2,1:2:0:0:
192,234,325560,1,2,1:2:0:0:
224,228,325635,6,0,B|356:195|364:10|445:8,1,320,6|0,1:2|0:0,0:0:0:0:
503,82,326978,1,0,1:0:0:0:
491,120,327053,1,0,1:0:0:0:
479,157,327127,6,0,B|488:177|488:177|498:238,2,79.9999975585938,0|0|0,1:0|1:0|1:0,0:0:0:0:
244,152,327426,6,0,B|455:201|455:201|497:233,2,269.999991760254,0|0|0,1:0|1:0|1:0,0:0:0:0:
26,363,328023,6,0,L|404:275,1,375,6|0,1:2|0:0,0:0:0:0:
434,211,328321,2,0,B|458:165|458:165|394:209,1,110.000003356934,8|0,1:2|0:0,0:0:0:0:
293,352,328471,1,2,0:0:0:0:
293,352,328545,1,2,0:0:0:0:
293,352,328620,2,0,L|273:270,1,85.0000016212464,2|0,0:0|0:0,0:0:0:0:
346,49,328769,6,0,B|355:70|355:70|333:144,1,100,2|0,1:2|0:0,0:0:0:0:
81,246,328918,2,0,B|72:225|72:225|94:151,1,100,10|0,1:2|0:0,0:0:0:0:
155,42,329068,2,0,B|256:2|256:2|195:237,1,345.000006580353,2|0,0:0|0:0,0:0:0:0:
129,317,329366,2,0,B|162:342|162:342|149:282,1,89.9999972534181,0|0,1:0|0:0,0:0:0:0:
9,121,329515,5,10,1:2:0:0:
51,136,329590,1,2,0:0:0:0:
93,151,329665,1,2,0:0:0:0:
135,165,329739,1,2,0:0:0:0:
177,131,329814,5,2,1:2:0:0:
219,116,329889,1,2,0:0:0:0:
261,101,329964,1,2,1:2:0:0:
303,87,330038,1,2,0:0:0:0:
323,71,330112,6,0,L|425:93,1,89.9999972534181,10|2,1:2|0:0,0:0:0:0:
457,356,330262,6,0,B|424:322|424:322|361:93|361:93|313:65,1,330.000010070801,6|0,1:2|0:0,0:0:0:0:
219,4,330560,2,0,B|198:39|198:39|253:11,1,94.9999974632264,2|0,1:2|0:0,0:0:0:0:
485,188,330709,1,10,1:2:0:0:
454,150,330784,1,2,0:0:0:0:
408,164,330859,2,0,B|384:186|384:186|318:209,1,94.9999974632264,2|0,0:0|0:0,0:0:0:0:
146,296,331008,2,0,B|106:216|106:216|267:271,1,250,2|0,0:0|1:0,0:0:0:0:
332,345,331232,1,2,0:0:0:0:
303,379,331306,2,2,B|280:358|280:358|256:263,1,125,10|2,1:2|0:0,0:0:0:0:
321,69,331456,6,0,P|357:15|401:164,1,359.999989013672,2|0,1:2|0:0,0:0:0:0:
325,206,331754,2,0,B|331:175|331:175|426:142,1,119.999996337891,2|0,1:2|0:0,0:0:0:0:
452,369,331903,5,10,1:2:0:0:
392,357,331978,1,2,0:0:0:0:
332,345,332053,1,2,0:0:0:0:
273,333,332127,1,2,0:0:0:0:
213,321,332202,2,0,B|199:247|199:247|173:226,1,100,2|2,1:2|0:0,0:0:0:0:
20,295,332351,2,0,B|34:369|34:369|60:390,1,100,2|2,1:2|0:0,0:0:0:0:
226,171,332500,1,10,1:2:0:0:
243,121,332574,1,2,0:0:0:0:
218,75,332649,1,2,0:0:0:0:
167,63,332723,1,2,0:0:0:0:
125,95,332799,6,0,B|156:121|156:121|448:55|448:55|487:82,1,375,6|0,1:2|0:0,0:0:0:0:
448,191,333098,1,10,1:2:0:0:
393,161,333172,1,2,0:0:0:0:
385,98,333247,2,0,B|402:80|402:80|498:58,1,110.000003356934,2|0,0:0|0:0,0:0:0:0:
431,294,333396,6,0,L|154:243,1,270.000001029968,2|0,0:0|1:0,0:0:0:0:
48,127,333620,1,2,0:0:0:0:
18,163,333695,2,0,B|7:186|7:186|33:261,1,100,8|0,1:2|0:0,0:0:0:0:
157,368,333844,2,0,L|219:69,1,300,2|0,0:0|0:0,0:0:0:0:
161,19,334142,2,0,B|123:0|123:0|149:64,1,100,2|0,1:2|0:0,0:0:0:0:
371,261,334292,5,10,1:2:0:0:
402,224,334366,1,2,0:0:0:0:
400,185,334441,1,2,0:0:0:0:
376,157,334515,1,2,0:0:0:0:
348,149,334590,1,2,0:0:0:0:
319,156,334665,1,2,0:0:0:0:
298,174,334739,1,2,1:2:0:0:
292,187,334814,1,2,0:0:0:0:
290,202,334889,5,10,1:2:0:0:
268,246,334963,1,2,0:0:0:0:
226,273,335038,1,2,1:2:0:0:
176,275,335112,1,2,0:0:0:0:
133,250,335187,1,2,0:0:0:0:
121,239,335262,6,0,B|134:207|134:207|143:96,1,125,0|0,0:0|1:0,0:0:0:0:
16,51,335411,1,2,0:0:0:0:
34,59,335486,1,10,1:2:0:0:
92,37,335560,1,2,0:0:0:0:
151,15,335635,2,0,L|258:39,1,110.000003356934,2|0,0:0|0:0,0:0:0:0:
436,183,335784,6,0,B|476:99|476:99|318:156,1,259.999988098145,2|0,0:0|1:0,0:0:0:0:
167,284,336008,1,2,0:0:0:0:
201,323,336083,2,0,B|230:298|230:298|266:161,1,139.999995727539,8|0,1:2|0:0,0:0:0:0:
151,15,336232,6,0,B|252:8|355:172|227:251|424:353,1,450.000017166138,2|0,1:2|0:0,0:0:0:0:
472,291,336530,2,0,B|505:244|505:244|438:275,1,115.000002193451,2|0,1:2|0:0,0:0:0:0:
276,374,336680,6,0,B|122:326|122:326|91:225|91:225|206:261,1,375,10|0,1:2|0:0,0:0:0:0:
255,199,336978,6,0,B|275:139|275:139|230:70,1,135.000000514984,0|0,1:0|0:0,0:0:0:0:
28,125,337127,2,0,B|8:185|8:185|53:254,1,135.000000514984,0|0,1:0|0:0,0:0:0:0:
167,22,337277,1,8,0:0:0:0:
156,72,337351,1,4,1:3:0:0:
146,123,337426,1,4,1:3:0:0:
137,174,337500,1,4,1:3:0:0:
128,225,337575,6,2,B|142:251|142:251|154:316,1,89.9999972534181,2|0,1:0|0:0,0:1:0:0:
9,319,337874,6,0,L|425:380,1,405.000001544952,14|0,0:0|0:0,0:0:0:0:
475,325,338172,6,0,B|526:250|526:250|352:293,1,270.000001029968,2|0,0:0|1:0,0:0:0:0:
230,371,338396,1,2,0:0:0:0:
254,332,338471,2,0,B|266:303|266:303|237:188,1,119.999996337891,8|0,1:2|0:0,0:0:0:0:
1,194,338620,6,0,B|49:218|49:218|389:137,1,389.999982147218,2|0,0:0|0:0,0:0:0:0:
443,81,338918,2,0,B|465:38|465:38|411:73,1,100,2|0,1:2|0:0,0:0:0:0:
342,242,339068,5,10,1:2:0:0:
293,230,339142,1,2,0:0:0:0:
244,217,339217,1,2,0:0:0:0:
195,205,339292,1,2,0:0:0:0:
170,176,339366,5,2,0:0:0:0:
128,186,339440,1,2,0:0:0:0:
86,197,339515,1,2,1:2:0:0:
45,207,339590,1,2,0:0:0:0:
8,239,339665,6,0,P|12:290|59:303,1,100,10|0,1:2|0:0,0:0:0:0:
302,73,339814,6,0,P|297:27|237:52,1,112.500004291535,8|0,1:3|0:0,0:0:0:0:
242,33,340112,6,0,B|256:58|256:58|235:141,1,100,0|0,1:0|0:0,0:0:0:0:
140,307,340262,1,14,1:2:0:0:
158,261,340336,1,2,0:0:0:0:
196,229,340411,1,2,0:0:0:0:
244,217,340485,1,2,0:0:0:0:
292,229,340560,2,0,B|309:251|309:251|287:322,1,85.0000016212464,2|0,0:0|0:0,0:0:0:0:
24,172,340709,1,0,1:0:0:0:
34,156,340784,1,2,0:0:0:0:
66,131,340859,2,0,B|83:126|83:126|172:147,1,100,10|0,1:2|0:0,0:0:0:0:
292,305,341008,6,0,B|188:367|188:367|263:91,1,389.999982147218,2|0,1:2|0:0,0:0:0:0:
319,54,341306,2,0,B|364:31|364:31|331:96,1,115.000002193451,2|0,1:2|0:0,0:0:0:0:
68,261,341456,5,10,1:2:0:0:
123,249,341530,1,2,0:0:0:0:
179,237,341605,1,2,0:0:0:0:
235,225,341680,1,2,0:0:0:0:
256,202,341754,5,2,1:2:0:0:
311,214,341828,1,2,0:0:0:0:
367,226,341903,1,2,1:2:0:0:
422,238,341978,1,2,0:0:0:0:
451,219,342053,5,10,1:2:0:0:
442,185,342127,1,2,0:0:0:0:
432,151,342202,1,2,0:0:0:0:
423,117,342277,1,2,0:0:0:0:
454,92,342351,6,0,B|480:19|480:19|517:-3,1,115.000002193451,6|0,1:2|0:0,0:0:0:0:
256,202,342500,2,0,B|230:275|230:275|193:297,1,115.000002193451,0|0,1:0|0:0,0:0:0:0:
302,33,342650,6,0,B|319:56|319:56|346:151,1,115.000002193451,8|0,1:2|0:0,0:0:0:0:
463,344,342799,2,0,B|446:321|446:321|419:226,1,115.000002193451,0|0,1:0|0:0,0:0:0:0:
390,18,342948,6,0,L|338:299,2,259.999988098145,0|0|8,1:0|1:0|1:2,0:0:0:0:
343,274,343396,2,0,B|314:292|314:292|207:255,1,129.999994049073,0|0,1:0|0:0,0:0:0:0:
18,74,343545,6,0,B|41:89|41:89|144:63,1,119.999996337891,0|0,1:0|0:0,0:0:0:0:
202,123,343695,2,0,B|225:108|225:108|328:134,1,119.999996337891,0|0,1:0|0:0,0:0:0:0:
390,112,343844,2,0,B|361:92|361:92|123:156,1,270.000001029968,8|0,1:2|1:0,0:0:0:0:
27,361,344142,2,0,B|50:338|50:338|80:251,1,110.000003356934,0|0,1:0|0:0,0:0:0:0:
18,149,344292,1,0,1:0:0:0:
71,159,344366,1,0,1:0:0:0:
124,170,344441,1,8,1:2:0:0:
178,181,344515,1,0,1:0:0:0:
232,191,344590,5,12,1:3:0:0:
256,192,344665,12,8,346829,0:1:0:0:
60,275,347127,6,0,P|39:241|50:174,1,110.000003356934,6|0,1:2|0:0,0:0:0:0:
456,56,347277,6,0,P|281:77|124:28,1,330.000003147125,2|8,0:0|0:0,0:0:0:0:
460,329,347575,2,0,P|285:308|128:357,1,330.000003147125,2|0,0:0|1:0,0:0:0:0:
473,7,347874,2,0,P|311:75|146:72,1,330.000003147125,2|8,0:0|0:0,0:0:0:0:
453,374,348172,2,0,P|297:292|133:281,1,330.000003147125,2|0,0:0|1:0,0:0:0:0:
506,111,348471,2,0,P|332:86|193:-2,1,330.000003147125,2|8,0:0|0:0,0:0:0:0:
500,298,348769,1,2,0:0:0:0:
209,221,348918,6,0,P|188:184|197:99,1,125,2|0,1:2|0:0,0:0:0:0:
303,89,349068,2,0,P|324:126|315:211,1,125,2|0,0:0|0:0,0:0:0:0:
162,316,349217,2,0,P|125:294|91:216,1,125,10|0,0:0|0:0,0:0:0:0:
341,0,349366,2,0,P|378:22|412:100,1,125,2|0,0:0|0:0,0:0:0:0:
230,351,349515,6,0,B|253:314|253:314|277:118|277:118|319:70,2,279.999991455078,2|2|10,1:2|0:0|0:0,0:0:0:0:
62,31,349963,6,0,P|121:226|99:357,1,330.000003147125,2|0,0:0|1:0,0:0:0:0:
467,13,350262,2,0,P|408:208|430:339,1,330.000003147125,2|8,0:0|0:0,0:0:0:0:
16,26,350560,2,0,P|117:203|125:335,1,330.000003147125,2|0,0:0|1:0,0:0:0:0:
512,60,350859,2,0,P|387:221|361:351,1,330.000003147125,2|8,0:0|0:0,0:0:0:0:
117,19,351157,1,2,0:0:0:0:
276,77,351306,5,2,1:2:0:0:
242,113,351381,2,0,B|262:153|262:153|228:247,1,135.000000514984,0|2,1:0|0:0,0:0:0:0:
30,360,351530,5,2,1:2:0:0:
66,326,351605,2,0,B|106:346|106:346|200:312,1,135.000000514984,8|2,1:2|0:0,0:0:0:0:
165,75,351754,2,0,B|125:55|125:55|31:89,1,135.000000514984,2|0,1:2|1:0,0:0:0:0:
0,187,351903,6,0,L|460:267,1,450.000017166138,4|0,1:2|0:0,0:0:0:0:
443,264,352202,6,0,B|461:237|461:237|431:127,1,119.999996337891,2|0,0:1|0:0,0:0:0:0:
308,0,352351,6,0,L|286:112,1,110.000003356934,2|0,0:0|0:0,0:0:0:0:
190,315,352500,2,0,B|219:352|219:352|206:277,1,110.000003356934,8|0,0:0|0:0,0:0:0:0:
40,85,352650,6,0,B|60:113|60:113|230:157,1,200,2|0,0:0|0:0,0:0:0:0:
443,264,352948,2,0,B|426:241|426:241|341:216,1,100,2|0,0:0|0:0,0:0:0:0:
64,334,353097,6,2,B|187:314|266:224|186:136|361:86,1,405.000001544952,2|0,1:1|0:0,0:1:0:0:
409,26,353396,1,2,0:0:0:0:
442,25,353470,1,2,0:0:0:0:
470,43,353545,1,2,0:0:0:0:
482,74,353619,1,2,0:0:0:0:
474,106,353695,5,10,0:0:0:0:
417,119,353769,1,2,0:0:0:0:
359,132,353844,1,2,0:0:0:0:
302,145,353918,1,2,0:0:0:0:
244,158,353993,1,2,0:0:0:0:
186,172,354068,1,2,0:0:0:0:
129,185,354142,1,2,0:0:0:0:
71,198,354217,1,2,0:0:0:0:
14,211,354292,6,0,B|432:296|432:296|480:338,1,479.999985351563,6|0,1:2|0:0,0:0:0:0:
472,331,354739,6,0,B|381:293|381:293|350:298,1,125,2|0,0:0|0:0,0:0:0:0:
71,197,354889,2,0,B|4:291|4:291|383:214,1,500,8|0,0:0|0:0,0:0:0:0:
456,136,355336,6,0,B|477:105|477:105|415:133,1,94.9999974632264,2|0,0:0|0:0,0:0:0:0:
212,354,355486,6,0,B|130:274|219:169|332:154|282:-3,1,389.999982147218,0|0,1:0|0:0,0:0:0:0:
131,10,355784,1,2,0:0:0:0:
124,41,355858,1,2,0:0:0:0:
140,69,355933,1,2,0:0:0:0:
170,80,356007,1,2,0:0:0:0:
200,69,356083,2,0,B|357:7|357:7|216:354|216:354|62:152|62:152|181:192,1,909.999958343508,10|0,0:0|0:0,0:0:0:0:
236,246,356680,5,6,1:2:0:0:
298,230,356754,1,0,1:0:0:0:
361,214,356829,1,0,1:0:0:0:
423,198,356903,1,0,1:0:0:0:
486,182,356978,1,10,0:0:0:0:
43,302,357127,6,0,P|217:282|377:340,1,330.000003147125,2|0,0:0|1:0,0:0:0:0:
47,45,357426,2,0,P|221:65|381:7,1,330.000003147125,2|8,0:0|0:0,0:0:0:0:
13,275,357724,2,0,P|188:289|334:376,1,330.000003147125,2|0,0:0|1:0,0:0:0:0:
0,99,358023,2,0,P|174:79|317:-13,1,330.000003147125,2|8,0:0|0:0,0:0:0:0:
77,352,358321,1,2,0:0:0:0:
300,231,358471,6,0,P|323:193|314:133,1,100,2|0,1:2|0:0,0:0:0:0:
220,122,358620,2,0,P|197:160|206:220,1,100,2|0,0:0|0:0,0:0:0:0:
420,119,358769,6,0,P|409:76|361:40,1,100,10|0,0:0|0:0,0:0:0:0:
104,232,358918,2,0,P|115:275|163:311,1,100,2|0,1:2|0:0,0:0:0:0:
367,41,359068,6,0,B|316:79|316:79|259:328,2,300.000011444092,6|2|10,1:2|1:2|0:0,0:0:0:0:
139,378,359515,6,0,P|118:161|65:46,1,330.000003147125,2|0,0:0|1:0,0:0:0:0:
431,363,359814,2,0,P|452:146|505:31,1,330.000003147125,2|8,0:0|0:0,0:0:0:0:
183,384,360112,2,0,P|86:189|-5:101,1,330.000003147125,2|0,0:0|1:0,0:0:0:0:
409,331,360411,1,2,0:0:0:0:
387,308,360486,2,0,P|442:97|512:-8,1,330.000003147125,0|0,1:0|1:0,0:0:0:0:
510,28,360709,2,0,P|494:76|392:74,1,135.000000514984,0|0,1:0|0:0,0:0:0:0:
116,21,360859,6,0,B|158:40|158:40|248:302,1,300.000011444092,8|0,0:0|0:0,0:0:0:0:
202,380,361083,2,0,P|151:375|250:313,1,300.000011444092,0|0,1:0|1:0,0:0:0:0:
241,302,361306,2,0,B|248:341|248:341|223:380,1,75.0000028610231,0|0,1:0|0:0,0:0:0:0:
0,258,361456,6,0,L|451:178,1,450.000017166138,2|0,1:2|0:0,0:0:0:0:
443,179,361754,6,0,B|460:161|460:161|431:61,1,119.999996337891,2|0,0:1|0:0,0:0:0:0:
320,10,361903,2,0,B|303:28|303:28|332:128,1,119.999996337891,4|0,1:3|0:0,0:0:0:0:
394,313,362053,6,0,B|512:246|512:246|88:143,1,540.000002059937,8|0,0:0|0:0,0:0:0:0:
61,5,362500,6,0,B|43:23|43:23|23:108,1,104.999996795654,8|0,1:3|0:0,0:0:0:0:
157,242,362650,6,0,P|165:59|21:106,1,389.999982147218,2|0,1:2|0:0,0:0:0:0:
0,180,362948,1,2,0:0:0:0:
9,218,363023,1,2,0:0:0:0:
18,255,363097,1,2,0:0:0:0:
27,292,363172,1,2,0:0:0:0:
37,329,363247,5,10,0:0:0:0:
85,335,363321,1,2,0:0:0:0:
134,341,363396,1,2,0:0:0:0:
182,346,363470,1,2,0:0:0:0:
231,352,363545,1,2,0:0:0:0:
279,358,363620,1,2,0:0:0:0:
327,364,363694,1,2,0:0:0:0:
376,370,363769,1,2,0:0:0:0:
424,375,363844,6,0,B|434:362|434:362|459:268|459:268|476:259,1,125,2|0,1:2|0:0,0:0:0:0:
469,263,364292,6,0,B|436:279|436:279|338:252,1,119.999996337891,2|0,0:1|0:0,0:0:0:0:
202,0,364441,6,0,B|226:25|226:25|264:223|264:223|286:248,2,259.999988098145,10|0|0,0:0|1:0|1:0,0:0:0:0:
48,224,364889,6,0,B|100:144|204:178|177:251|263:339|368:254,1,359.999989013672,6|0,1:2|0:0,0:0:0:0:
431,156,365336,2,0,P|437:124|448:75,1,75.0000028610231,10|0,0:0|0:0,0:0:0:0:
391,27,365486,1,2,0:0:0:0:
377,21,365560,1,2,0:0:0:0:
362,16,365635,2,0,P|289:37|206:42,1,150.000005722046,2|0,0:0|1:0,0:0:0:0:
121,6,365933,1,8,0:0:0:0:
79,8,366007,1,0,3:0:0:0:
50,36,366082,1,0,3:0:0:0:
45,76,366156,1,0,3:0:0:0:
68,111,366232,2,0,P|112:156|97:246,1,150.000005722046,0|0,3:0|1:0,0:0:0:0:
39,344,366530,6,0,B|133:235|133:235|280:307,1,300.000011444092,8|0,0:0|0:0,0:0:0:0:
380,362,366978,2,0,P|409:338|406:297,1,75.0000028610231,0|0,1:0|0:0,0:0:0:0:
324,127,367127,1,8,0:0:0:0:
380,213,367277,6,0,P|295:225|257:50,1,300.000011444092,0|0,1:0|1:0,0:0:0:0:
429,12,367724,1,10,0:0:0:0:
499,84,367874,1,2,3:2:0:0:
499,84,367948,1,0,3:0:0:0:
499,84,368023,2,0,P|483:137|462:236,1,150.000005722046,0|0,0:0|1:0,0:0:0:0:
430,361,368321,2,0,P|468:277|364:281,1,225.000008583069,8|0,0:0|0:0,0:0:0:0:
359,289,368620,2,0,P|322:345|237:328,1,150.000005722046,0|0,3:0|1:0,0:0:0:0:
155,203,368918,1,8,0:0:0:0:
159,188,368993,1,2,0:0:0:0:
163,173,369068,1,2,0:0:0:0:
289,238,369217,6,0,P|255:251|203:264,1,75.0000028610231,2|0,1:2|0:0,0:0:0:0:
157,310,369366,2,0,P|123:297|71:284,1,75.0000028610231,2|0,1:2|0:0,0:0:0:0:
0,130,369515,1,10,0:0:0:0:
51,116,369590,1,0,3:0:0:0:
102,102,369665,1,2,3:2:0:0:
152,89,369739,1,0,3:0:0:0:
203,76,369814,6,0,B|253:47|309:95|293:121|337:172|416:156,1,225.000008583069,2|0,1:2|0:0,0:0:0:0:
450,107,370112,2,0,B|459:74|459:74|437:39,1,75.0000028610231,10|0,0:0|0:0,0:0:0:0:
303,165,370262,1,2,3:2:0:0:
296,201,370336,1,0,3:0:0:0:
289,238,370411,1,2,3:2:0:0:
282,275,370486,1,0,3:0:0:0:
275,311,370560,1,0,3:0:0:0:
395,158,370709,1,8,0:0:0:0:
176,236,370859,6,0,L|151:88,1,150.000005722046,2|0,0:0|0:0,0:0:0:0:
151,88,371157,1,0,1:0:0:0:
324,54,371306,2,0,L|279:286,1,225.000008583069,8|8,0:0|0:0,0:0:0:0:
224,332,371605,1,2,0:0:0:0:
181,346,371680,1,8,0:0:0:0:
138,360,371754,1,0,1:0:0:0:
330,185,371903,1,8,0:0:0:0:
45,77,372053,1,0,1:0:0:0:
206,0,372202,6,0,P|223:25|225:70,1,75.0000028610231,4|0,1:2|0:0,0:0:0:0:
245,85,372351,2,0,P|247:115|226:155,1,75.0000028610231,0|0,1:0|0:0,0:0:0:0:
388,40,372500,6,0,P|390:70|369:110,1,75.0000028610231,0|0,1:0|0:0,0:0:0:0:
379,133,372649,2,0,P|366:160|328:184,1,75.0000028610231,0|0,1:0|0:0,0:0:0:0:
498,195,372799,6,0,P|485:222|447:246,1,75.0000028610231,2|0,1:2|0:0,0:0:0:0:
390,298,372948,1,2,1:2:0:0:
360,275,373022,1,2,0:0:0:0:
326,261,373097,1,2,1:2:0:0:
289,256,373171,1,2,0:0:0:0:
251,261,373247,6,0,P|226:278|181:280,1,75.0000028610231,2|0,1:2|0:0,0:0:0:0:
121,341,373396,1,2,1:2:0:0:
84,333,373470,1,2,0:0:0:0:
52,314,373545,1,2,1:2:0:0:
28,285,373619,1,2,0:0:0:0:
14,251,373695,6,0,P|28:209|31:172,1,75.0000028610231,2|0,1:2|0:0,0:0:0:0:
192,20,373844,2,0,P|178:62|175:99,1,75.0000028610231,2|0,1:2|0:0,0:0:0:0:
68,95,373993,6,0,B|244:52|244:52|290:80,2,230.000004386902,2|2|2,1:2|1:2|1:2,0:0:0:0:
286,77,374441,6,0,B|303:51|303:51|391:22,1,115.000002193451,2|0,1:2|0:0,0:0:0:0:
448,136,374590,5,4,1:2:0:0:
479,174,374664,1,0,1:0:0:0:
489,223,374739,1,0,1:0:0:0:
475,271,374813,1,0,1:0:0:0:
441,306,374888,1,0,1:0:0:0:
393,322,374963,1,0,1:0:0:0:
344,314,375037,1,0,1:0:0:0:
305,283,375112,1,0,1:0:0:0:
284,238,375187,1,2,1:0:0:0:
263,193,375261,1,2,1:2:0:0:
223,163,375336,1,2,1:2:0:0:
174,155,375410,1,2,1:2:0:0:
127,170,375485,1,2,1:2:0:0:
92,207,375560,1,2,1:2:0:0:
79,254,375634,1,2,1:2:0:0:
89,303,375709,1,2,1:2:0:0:
121,341,375784,1,12,1:3:0:0:
121,341,376530,6,0,B|131:322|131:322|153:223,1,115.000002193451,2|0,0:0|0:0,0:0:0:0:
109,71,376680,6,0,B|83:55|83:55|103:106,1,75.0000028610231,2|0,0:0|0:0,0:0:0:0:
107,108,376829,6,0,B|162:113|144:140|201:154,1,100,2|0,0:1|0:0,0:0:0:0:
431,333,376978,6,0,B|379:304|379:304|319:59|319:59|243:25,1,375,12|0,1:2|0:0,0:0:0:0:
186,4,377277,6,0,B|124:123|124:123|369:40,1,375,8|0,1:2|0:0,0:0:0:0:
464,10,377575,6,0,P|455:47|447:99,1,89.9999972534181,10|0,1:2|0:0,0:0:0:0:
391,159,377724,1,2,0:0:0:0:
401,203,377799,1,2,0:0:0:0:
411,247,377874,1,10,1:2:0:0:
421,290,377948,1,2,0:0:0:0:
431,333,378023,6,0,P|453:316|513:281,1,89.9999972534181,2|0,0:0|0:0,0:0:0:0:
349,377,378172,1,10,1:2:0:0:
304,383,378246,1,2,0:0:0:0:
260,375,378321,1,2,0:0:0:0:
222,351,378395,1,2,0:0:0:0:
194,317,378471,2,0,B|214:251|214:251|202:219,1,100,10|0,1:2|0:0,0:0:0:0:
128,70,378620,2,0,B|92:43|92:43|121:108,1,100,2|0,0:0|0:0,0:0:0:0:
288,211,378769,6,0,B|163:217|218:298|75:317,2,239.999992675781,10|2|10,1:2|0:0|1:2,0:0:0:0:
451,87,379217,2,0,B|434:68|434:68|321:38,1,119.999996337891,2|0,0:0|0:0,0:0:0:0:
256,2,379366,6,0,B|292:30|292:30|383:373,1,389.999982147218,12|0,1:2|0:0,0:0:0:0:
400,280,379665,6,0,L|412:222,1,50,8|0,1:2|0:0,0:0:0:0:
367,124,379814,2,0,L|355:182,1,50,2|0,3:0|0:0,0:0:0:0:
477,316,379963,6,0,P|445:288|396:280,1,89.9999972534181,10|0,1:2|0:0,0:0:0:0:
288,211,380112,1,2,0:0:0:0:
243,206,380186,1,2,0:0:0:0:
200,218,380261,1,10,1:2:0:0:
165,246,380335,1,2,0:0:0:0:
144,285,380411,2,0,P|164:327|174:371,1,89.9999972534181,2|0,0:0|0:0,0:0:0:0:
48,237,380560,1,10,1:2:0:0:
28,196,380635,1,2,0:0:0:0:
25,151,380709,1,2,0:0:0:0:
39,108,380784,1,2,0:0:0:0:
73,78,380859,2,0,P|103:63|165:67,1,89.9999972534181,10|0,1:2|0:0,0:0:0:0:
357,208,381008,6,0,B|323:230|323:230|222:199,1,125,2|0,0:1|0:0,0:0:0:0:
219,0,381157,6,0,B|261:48|261:48|226:135,1,139.999995727539,8|0,1:3|0:0,0:0:0:0:
61,355,381306,2,0,B|19:307|19:307|54:220,1,139.999995727539,8|0,1:3|0:0,0:0:0:0:
358,61,381456,2,0,L|6:155,1,345.000006580353,4|0,1:3|0:0,0:0:0:0:
73,78,381754,6,0,B|366:160|366:160|407:246,1,389.999982147218,14|0,1:2|0:0,0:0:0:0:
422,235,382053,6,0,L|388:348,1,100,14|0,1:2|0:0,0:0:0:0:
296,354,382202,2,0,B|263:321|263:321|326:349,1,100,2|0,0:0|0:0,0:0:0:0:
501,372,382351,6,0,P|505:321|483:276,1,89.9999972534181,10|0,1:2|0:0,0:0:0:0:
389,109,382500,1,2,0:0:0:0:
347,93,382574,1,2,0:0:0:0:
302,97,382649,1,10,1:2:0:0:
264,120,382723,1,2,0:0:0:0:
238,156,382799,2,0,P|220:198|217:243,1,89.9999972534181,2|0,0:0|0:0,0:0:0:0:
126,352,382948,1,10,1:2:0:0:
82,361,383022,1,2,0:0:0:0:
42,343,383097,1,2,0:0:0:0:
22,304,383171,1,2,0:0:0:0:
29,261,383247,6,0,P|94:250|128:237,1,89.9999972534181,10|0,1:2|0:0,0:0:0:0:
88,80,383396,2,0,P|23:91|-11:104,1,89.9999972534181,2|0,0:0|0:0,0:0:0:0:
197,183,383545,5,8,1:2:0:0:
238,156,383620,2,0,P|277:172|335:197,1,89.9999972534181,0|0,1:0|0:0,0:0:0:0:
389,273,383769,5,0,1:2:0:0:
430,300,383844,2,0,P|469:284|527:259,1,89.9999972534181,8|0,1:2|0:0,0:0:0:0:
471,74,383993,2,0,P|432:90|374:115,1,89.9999972534181,0|0,1:0|0:0,0:0:0:0:
205,320,384142,6,0,B|226:293|226:293|275:116|275:116|315:94,2,250,10|10|10,1:2|1:2|1:2,0:0:0:0:
0,129,384590,2,0,B|51:106|51:106|273:165,1,250,2|8,0:0|1:2,0:0:0:0:
415,296,384889,2,0,B|500:237|500:237|373:277,1,220.000006713867,2|8,0:0|1:2,0:0:0:0:
281,339,385187,1,2,0:0:0:0:
281,339,385262,1,2,0:0:0:0:
281,339,385336,5,10,1:2:0:0:
231,367,385410,1,2,0:0:0:0:
176,353,385485,1,2,0:0:0:0:
149,304,385559,1,2,0:0:0:0:
165,249,385634,1,10,1:2:0:0:
215,223,385709,1,2,0:0:0:0:
269,242,385783,1,2,0:0:0:0:
323,259,385858,1,2,0:0:0:0:
373,233,385933,1,10,1:2:0:0:
389,179,386007,1,2,0:0:0:0:
361,129,386082,1,2,1:2:0:0:
307,114,386157,1,2,1:2:0:0:
258,145,386232,5,8,1:2:0:0:
247,141,386307,1,8,0:0:0:0:
247,130,386382,1,8,0:0:0:0:
258,127,386456,1,8,0:0:0:0:
264,136,386530,2,0,B|222:258|222:258|138:164|138:164|193:23,1,405.000001544952,14|0,1:2|0:0,0:0:0:0:
294,0,386829,2,0,B|335:47|335:47|254:12,1,135.000000514984,8|0,1:2|0:0,0:0:0:0:
41,125,386978,2,0,P|62:78|142:66,1,119.999996337891,2|0,0:0|0:0,0:0:0:0:
323,259,387127,6,0,P|275:239|228:226,1,89.9999972534181,10|0,1:2|0:0,0:0:0:0:
74,293,387277,1,2,0:0:0:0:
54,331,387351,1,2,0:0:0:0:
71,371,387426,1,10,1:2:0:0:
113,384,387500,1,2,0:0:0:0:
149,360,387575,2,0,P|166:304|186:264,1,89.9999972534181,2|0,0:0|0:0,0:0:0:0:
264,136,387724,1,10,1:2:0:0:
307,125,387798,1,2,0:0:0:0:
351,133,387873,1,2,0:0:0:0:
386,160,387947,1,2,0:0:0:0:
407,199,388022,5,10,1:2:0:0:
414,244,388097,2,0,P|401:296|381:341,1,89.9999972534181,8|0,0:0|0:0,0:0:0:0:
444,44,388247,5,0,1:2:0:0:
476,74,388321,2,0,P|492:118|501:166,1,89.9999972534181,8|0,0:0|0:0,0:0:0:0:
288,222,388471,2,0,P|272:178|263:130,1,89.9999972534181,8|0,0:0|0:0,0:0:0:0:
282,51,388620,1,0,1:0:0:0:
512,293,388769,6,0,B|499:273|499:273|389:235,1,115.000002193451,2|0,0:1|0:0,0:0:0:0:
176,149,388918,6,2,L|105:166,5,66.6666666666667,8|2|2|2|2|0,1:2|1:0|1:0|1:0|1:0|1:0,0:1:0:0:
71,257,389217,6,0,B|19:156|19:156|287:238,1,375,12|0,1:2|0:0,0:0:0:0:
340,290,389515,6,0,P|363:255|350:197,1,89.9999972534181,10|0,1:2|0:0,0:0:0:0:
282,51,389665,1,2,0:0:0:0:
237,46,389739,1,2,0:0:0:0:
198,66,389814,1,10,1:2:0:0:
175,104,389888,1,2,0:0:0:0:
176,149,389963,2,0,P|219:136|262:125,1,89.9999972534181,2|0,0:0|0:0,0:0:0:0:
468,302,390112,6,0,B|423:335|423:335|181:282,1,270.000001029968,14|8,1:2|0:0,0:0:0:0:
27,38,390336,2,0,B|72:5|72:5|314:58,1,270.000001029968,14|8,1:2|0:0,0:0:0:0:
400,322,390560,2,0,B|355:355|355:355|113:302,1,270.000001029968,14|8,1:2|0:0,0:0:0:0:
107,36,390784,2,0,B|152:3|152:3|394:56,1,270.000001029968,14|8,1:2|0:0,0:0:0:0:
408,108,391008,6,0,P|432:83|355:62,1,150,2|0,0:0|0:0,0:0:0:0:
267,181,391306,5,0,1:0:0:0:
234,207,391380,1,0,1:0:0:0:
195,222,391455,1,0,1:0:0:0:
153,223,391529,1,0,1:0:0:0:
114,211,391605,2,0,P|85:156|103:54,1,170.000003242493,12|0,1:2|0:0,0:0:0:0:
189,132,391903,5,0,1:0:0:0:
189,132,392053,1,0,1:0:0:0:
27,329,392202,6,0,B|63:302|63:302|357:235,1,345.000006580353,14|0,1:2|0:0,0:0:0:0:
434,182,392500,5,0,1:0:0:0:
476,139,392600,5,0,1:0:0:0:
460,91,392699,5,0,1:0:0:0:
385,17,392799,6,0,B|414:50|414:50|467:256|467:256|458:316,1,306.666672515869,12|0,1:2|1:0,0:0:0:0:
382,373,393097,6,0,B|214:333|274:42|27:16,1,510.000009727478,14|0,1:2|0:0,0:0:0:0:
5,92,393695,5,2,1:2:0:0:
8,99,393769,1,2,0:0:0:0:
11,106,393844,1,2,0:0:0:0:
14,113,393918,1,2,0:0:0:0:
17,120,393993,5,14,1:2:0:0:
44,125,394067,1,0,3:0:0:0:
72,130,394142,1,0,3:0:0:0:
100,135,394216,1,0,3:0:0:0:
128,140,394291,1,0,3:0:0:0:
156,146,394366,1,0,3:0:0:0:
184,151,394441,5,14,1:2:0:0:
153,181,394515,1,0,3:0:0:0:
123,211,394590,1,0,3:0:0:0:
93,241,394664,1,0,3:0:0:0:
63,271,394739,1,0,3:0:0:0:
33,301,394814,1,0,3:0:0:0:
3,331,394889,5,14,1:2:0:0:
58,318,394963,1,0,3:0:0:0:
113,304,395038,1,0,3:0:0:0:
168,291,395112,1,0,3:0:0:0:
223,278,395187,1,0,3:0:0:0:
278,265,395262,1,0,3:0:0:0:
333,252,395336,5,14,1:2:0:0:
300,311,395410,1,2,3:2:0:0:
244,349,395485,1,2,3:2:0:0:
178,360,395559,1,2,3:2:0:0:
113,341,395634,1,2,3:2:0:0:
63,295,395709,1,2,3:2:0:0:
37,233,395783,1,2,3:2:0:0:
40,166,395858,1,2,3:2:0:0:
72,107,395933,1,2,3:2:0:0:
127,67,396007,1,2,3:2:0:0:
193,54,396082,5,4,1:0:0:0:
