osu file format v14

[General]
AudioFilename: audio.mp3
AudioLeadIn: 0
PreviewTime: 156027
Countdown: 0
SampleSet: Normal
StackLeniency: 1
Mode: 1
LetterboxInBreaks: 0
WidescreenStoryboard: 0

[Editor]
Bookmarks: 21047,40343,59640,98237,117529,156122,175419,194715,233308,252605,271901
DistanceSpacing: 1.3
BeatDivisor: 12
GridSize: 32
TimelineZoom: 2.5

[Metadata]
Title:NUCLEAR-STAR
TitleUnicode:NUCLEAR-STAR
Artist:Camellia
ArtistUnicode:かめりあ
Creator:juanilp4evr
Version:Thermonuclear Oni
Source:osu!
Tags:axer sv electronic instrumental fa featured artist cametek かめるかめりあ kamelcamellia c89 comiket 89 ctcd-012 drumstep crystallized
BeatmapID:2026167
BeatmapSetID:968297

[Difficulty]
HPDrainRate:5
CircleSize:2
OverallDifficulty:7
ApproachRate:10
SliderMultiplier:1.4
SliderTickRate:1

[Events]
//Background and Video events
0,0,"bg.jpg",0,-85
//Break Periods
2,285122,289748
//Storyboard Layer 0 (Background)
//Storyboard Layer 1 (Fail)
//Storyboard Layer 2 (Pass)
//Storyboard Layer 3 (Foreground)
//Storyboard Layer 4 (Overlay)
//Storyboard Sound Samples

[TimingPoints]
-756,301.507537688442,4,1,0,5,1,0
449,-1000,4,1,0,5,0,0
4068,-1000,4,1,0,6,0,0
4369,-903.228137362935,4,1,0,7,0,0
4671,-823.52650520057,4,1,0,8,0,0
4972,-756.755938642228,4,1,0,10,0,0
5274,-700.0007000007,4,1,0,11,0,0
5575,-651.164607901231,4,1,0,12,0,0
5877,-608.69459357462,4,1,0,13,0,0
6178,-571.428571428571,4,1,0,14,0,0
6480,-538.46236686518,4,1,0,15,0,0
6781,-509.089798349531,4,1,0,16,0,0
7083,-482.758287752905,4,1,0,18,0,0
7384,-459.016694437177,4,1,0,19,0,0
7686,-437.500820314038,4,1,0,20,0,0
7987,-417.90994876424,4,1,0,21,0,0
8289,-400,4,1,0,22,0,0
8590,-383.562064177605,4,1,0,23,0,0
8892,-368.420470915046,4,1,0,24,0,0
9193,-354.430200288506,4,1,0,26,0,0
9495,-341.463581201747,4,1,0,27,0,0
9796,-329.412229758442,4,1,0,28,0,0
10098,-318.181528925883,4,1,0,29,0,0
10399,-307.692307692308,4,1,0,30,0,0
10701,-297.872593934123,4,1,0,31,0,0
11002,-288.659436709975,4,1,0,32,0,0
11304,-279.999888000045,4,1,0,34,0,0
11605,-271.844765764958,4,1,0,35,0,0
11907,-264.151242435369,4,1,0,36,0,0
12208,-256.880545408774,4,1,0,37,0,0
12510,-250,4,1,0,38,0,0
12811,-243.478430245865,4,1,0,39,0,0
13113,-237.287894283497,4,1,0,40,0,0
13414,-231.404882180204,4,1,0,41,0,0
13716,-225.806524453718,4,1,0,43,0,0
14017,-220.472649265495,4,1,0,44,0,0
14319,-215.384482840318,4,1,0,45,0,0
14620,-210.526315789474,4,1,0,46,0,0
14922,-205.882474048514,4,1,0,47,0,0
15223,-201.438675016971,4,1,0,48,0,0
15525,-197.18304304703,4,1,0,49,0,0
15826,-193.103501545794,4,1,0,51,0,0
16128,-189.189342585953,4,1,0,52,0,0
16429,-185.430365334906,4,1,0,53,0,0
16731,-181.818181818182,4,1,0,54,0,0
17032,-178.34403992053,4,1,0,55,0,0
17334,-174.999868750098,4,1,0,56,0,0
17635,-171.779098949914,4,1,0,57,0,0
17937,-168.674739439696,4,1,0,59,0,0
18238,-165.680591015804,4,1,0,60,0,0
18540,-162.79062195785,4,1,0,61,0,0
18841,-160,4,1,0,62,0,0
19143,-157.303441484693,4,1,0,63,0,0
19445,-154.696030035781,4,1,0,64,0,0
19746,-152.1738799622,4,1,0,65,0,0
20048,-149.73265234923,4,1,0,67,0,0
20349,-147.368514127483,4,1,0,68,0,0
20651,-145.077660071436,4,1,0,69,0,0
20952,-142.857142857143,4,1,0,70,0,0
35424,-142.857142857143,4,1,0,70,0,0
35876,-139.650956399575,4,1,0,71,0,0
36329,-136.585339202861,4,1,0,71,0,0
36479,-135.593220338983,4,1,0,72,0,0
36630,-134.615410502964,4,1,0,72,0,0
37083,-131.76463147409,4,1,0,73,0,0
37535,-129.032258064516,4,1,0,74,0,0
37686,-128.146476548554,4,1,0,74,0,0
37836,-127.272773553736,4,1,0,75,0,0
38289,-124.721559119266,4,1,0,75,0,0
38741,-122.270763715417,4,1,0,76,0,0
39193,-119.91428526889,4,1,0,76,0,0
39645,-117.647058823529,4,1,0,77,0,0
39947,-111.111111111111,4,1,0,78,0,0
40022,-108.108108108108,4,1,0,78,0,0
40098,-105.263157894737,4,1,0,79,0,0
40173,-102.564102564103,4,1,0,79,0,0
40248,-100,4,1,0,80,0,0
47485,-100,4,1,0,70,0,0
47786,-102.941131055383,4,1,0,70,0,0
47937,-104.477596346627,4,1,0,70,0,0
48088,-106.060622130397,4,1,0,70,0,0
48389,-109.374965820323,4,1,0,70,0,0
48691,-112.903262226859,4,1,0,70,0,0
48841,-114.754041924242,4,1,0,70,0,0
48992,-116.666647222225,4,1,0,70,0,0
49294,-120.68971759813,4,1,0,70,0,0
49595,-125,4,1,0,70,0,0
49897,-117.647058823529,4,1,0,70,0,0
50047,-117.001896600744,4,1,0,70,0,0
50198,-116.363636363636,4,1,0,70,0,0
50349,-115.732435866871,4,1,0,70,0,0
50500,-115.107913669065,4,1,0,70,0,0
50650,-114.490095461842,4,1,0,70,0,0
50726,-114.183797090825,4,1,0,70,0,0
50801,-113.879003558719,4,1,0,70,0,0
50952,-113.274400438598,4,1,0,70,0,0
51103,-112.676056338028,4,1,0,70,0,0
51253,-112.084000233135,4,1,0,70,0,0
51329,-111.790424255839,4,1,0,70,0,0
51404,-111.498257839721,4,1,0,70,0,0
51555,-110.918605708759,4,1,0,70,0,0
51706,-110.344827586207,4,1,0,70,0,0
51781,-110.060158882845,4,1,0,70,0,0
51856,-109.77695518246,4,1,0,70,0,0
51932,-109.495325097095,4,1,0,70,0,0
52007,-109.215017064846,4,1,0,70,0,0
52158,-108.658802666922,4,1,0,70,0,0
52309,-108.108108108108,4,1,0,70,0,0
52459,-107.562967361093,4,1,0,70,0,0
52610,-107.023411371237,4,1,0,70,0,0
52761,-106.489241391942,4,1,0,70,0,0
52912,-105.960264900662,4,1,0,70,0,0
53062,-105.436517727042,4,1,0,70,0,0
53138,-105.176691583025,4,1,0,70,0,0
53213,-104.918032786885,4,1,0,70,0,0
53364,-104.404622201434,4,1,0,70,0,0
53515,-103.896103896104,4,1,0,70,0,0
53665,-103.392515209039,4,1,0,70,0,0
53741,-103.14265350979,4,1,0,70,0,0
53816,-102.893890675241,4,1,0,70,0,0
53967,-102.400052428827,4,1,0,70,0,0
54118,-101.910828025478,4,1,0,70,0,0
54193,-101.667964627682,4,1,0,70,0,0
54268,-101.426256012041,4,1,0,70,0,0
54344,-101.185796347395,4,1,0,70,0,0
54419,-100.946372239748,4,1,0,70,0,0
54570,-100.471008085907,4,1,0,70,0,0
54721,-100,4,1,0,70,0,0
54796,-99.3788819875776,4,1,0,70,0,0
54871,-98.7654320987654,4,1,0,70,0,0
54947,-98.159509202454,4,1,0,70,0,0
55022,-97.5609756097561,4,1,0,70,0,0
55098,-96.969696969697,4,1,0,70,0,0
55173,-96.3855421686747,4,1,0,70,0,0
55248,-95.8083832335329,4,1,0,70,0,0
55324,-95.2380952380952,4,1,0,70,0,0
55399,-94.6745562130178,4,1,0,70,0,0
55474,-94.1176470588235,4,1,0,70,0,0
55550,-93.5672514619883,4,1,0,70,0,0
55625,-93.0232558139535,4,1,0,70,0,0
55701,-92.485549132948,4,1,0,70,0,0
55776,-91.9540229885058,4,1,0,70,0,0
55851,-91.4285714285714,4,1,0,70,0,0
55927,-90.9090909090909,4,1,0,70,0,0
56002,-90.3954802259887,4,1,0,70,0,0
56077,-89.8876404494382,4,1,0,70,0,0
56153,-89.3854748603352,4,1,0,70,0,0
56228,-88.8888888888889,4,1,0,70,0,0
56304,-88.3977900552486,4,1,0,70,0,0
56379,-87.9120879120879,4,1,0,70,0,0
56454,-87.431693989071,4,1,0,70,0,0
56530,-86.9565217391304,4,1,0,70,0,0
56580,-86.6425742548522,4,1,0,70,0,0
56630,-86.3309600952403,4,1,0,70,0,0
56681,-86.0215053763441,4,1,0,70,0,0
56756,-85.5614973262032,4,1,0,70,0,0
56831,-85.1063829787234,4,1,0,70,0,0
56882,-84.8056297369244,4,1,0,70,0,0
56932,-84.5070660583285,4,1,0,70,0,0
56982,-84.2105263157895,4,1,0,70,0,0
57032,-83.91606044306,4,1,0,70,0,0
57083,-83.6237166895378,4,1,0,70,0,0
57133,-83.3333333333333,4,1,0,70,0,0
58339,-111.111111111111,4,1,0,70,0,0
58716,-108.614191530265,4,1,0,70,0,0
58791,-106.227141247043,4,1,0,70,0,0
58866,-103.942648604206,4,1,0,70,0,0
58942,-101.754346691305,4,1,0,70,0,0
59093,-97.6430910678053,4,1,0,70,0,0
59243,-93.8511539468633,4,1,0,70,0,0
59394,-90.3426425403628,4,1,0,70,0,0
59545,-87.087076626177,4,1,0,85,0,0
68289,-90.0721568048163,4,1,0,85,0,0
68439,-91.715268115829,4,1,0,85,0,0
68590,-93.4193538743809,4,1,0,85,0,0
68741,-95.1880535185312,4,1,0,85,0,0
68892,-97.0249247329146,4,1,0,85,0,0
68967,-97.9702523125878,4,1,0,85,0,0
69042,-98.9341820567032,4,1,0,85,0,0
69118,-99.9171686671749,4,1,0,85,0,0
69193,-86.9565217391304,4,1,0,85,0,0
74017,-83.3333333333333,4,1,0,85,0,0
76429,-82.5722920416825,4,1,0,85,0,0
76505,-82.196960356406,4,1,0,85,0,0
76580,-81.8250253657579,4,1,0,85,0,0
76655,-81.4564411680854,4,1,0,85,0,0
76731,-81.0911626850906,4,1,0,85,0,0
76806,-80.7291456434517,4,1,0,85,0,0
76882,-80.3703465569344,4,1,0,85,0,0
76957,-80.0147227089785,4,1,0,85,0,0
77032,-79.6622321357444,4,1,0,85,0,0
77108,-79.312896514912,4,1,0,85,0,0
77183,-78.9665489801865,4,1,0,85,0,0
77258,-78.6232131892013,4,1,0,85,0,0
77334,-78.2828500280644,4,1,0,85,0,0
77409,-77.9454210572673,4,1,0,85,0,0
77485,-77.6108884972126,4,1,0,85,0,0
77560,-77.2792152141137,4,1,0,85,0,0
77635,-76.9230769230769,4,1,0,85,0,0
77836,-80.6451612903226,4,1,0,85,0,0
78037,-84.7457627118644,4,1,0,85,0,0
78238,-89.2857142857143,4,1,0,85,0,0
78439,-94.3396226415094,4,1,0,85,0,0
78640,-100,4,1,0,85,0,0
78841,-86.9565217391304,4,1,0,85,0,0
83364,-76.9230769230769,4,1,0,85,0,0
83666,-86.9565217391304,4,1,0,85,0,0
87585,-91.9540229885058,4,1,0,85,0,0
87887,-97.5609756097561,4,1,0,85,0,0
88037,-100.62893081761,4,1,0,85,0,0
88188,-103.896103896104,4,1,0,85,0,0
88339,-107.38255033557,4,1,0,85,0,0
88490,-111.111111111111,4,1,0,85,0,0
88791,-86.9565217391304,4,1,0,85,0,0
92711,-100,4,1,0,85,0,0
92786,-98.159509202454,4,1,0,85,0,0
92861,-96.3855421686747,4,1,0,85,0,0
92937,-94.6745562130178,4,1,0,85,0,0
93012,-93.0232558139535,4,1,0,85,0,0
93163,-89.8876404494382,4,1,0,85,0,0
93314,-86.9565217391304,4,1,0,85,0,0
95726,-86.9565217391304,4,1,0,85,0,0
95952,-86.0954178296723,4,1,0,85,0,0
96178,-85.2512738671598,4,1,0,85,0,0
96329,-84.6975999241109,4,1,0,85,0,0
96555,-83.8804435262332,4,1,0,85,0,0
96781,-83.0789732103543,4,1,0,85,0,0
96932,-82.5530692405613,4,1,0,85,0,0
97158,-81.7766467158908,4,1,0,85,0,0
97309,-81.267050843105,4,1,0,85,0,0
97384,-81.0146271909393,4,1,0,85,0,0
97459,-80.7637667897776,4,1,0,85,0,0
97535,-80.5144551627076,4,1,0,85,0,0
97610,-80.2666780110238,4,1,0,85,0,0
97686,-80.0204212114932,4,1,0,85,0,0
98138,-100,4,1,0,80,0,0
107786,-100,4,1,0,80,0,0
107936,-99.6884735202492,4,1,0,80,0,0
108087,-99.3788819875776,4,1,0,80,0,0
108238,-99.0712074303406,4,1,0,80,0,0
108389,-98.7654320987654,4,1,0,80,0,0
108539,-98.4615384615385,4,1,0,80,0,0
108615,-98.3103401832701,4,1,0,80,0,0
108690,-98.159509202454,4,1,0,80,0,0
108841,-97.8593272171254,4,1,0,80,0,0
108992,-97.5609756097561,4,1,0,80,0,0
109142,-97.2644376899696,4,1,0,80,0,0
109218,-97.1167965441959,4,1,0,80,0,0
109293,-96.969696969697,4,1,0,80,0,0
109444,-96.6767371601208,4,1,0,80,0,0
109595,-96.3855421686747,4,1,0,80,0,0
109670,-96.2406478150486,4,1,0,80,0,0
109745,-96.0960960960961,4,1,0,80,0,0
109821,-95.9519779540736,4,1,0,80,0,0
109896,-95.8083832335329,4,1,0,80,0,0
110047,-95.5223880597015,4,1,0,80,0,0
110198,-95.2380952380952,4,1,0,80,0,0
110348,-94.9554896142433,4,1,0,80,0,0
110499,-94.6745562130178,4,1,0,80,0,0
110650,-94.3952802359882,4,1,0,80,0,0
110801,-94.1176470588235,4,1,0,80,0,0
110951,-93.841642228739,4,1,0,80,0,0
111027,-93.7042020712377,4,1,0,80,0,0
111102,-93.5672514619883,4,1,0,80,0,0
111253,-93.2944606413994,4,1,0,80,0,0
111404,-93.0232558139535,4,1,0,80,0,0
111554,-92.7536231884058,4,1,0,80,0,0
111630,-92.6193492934996,4,1,0,80,0,0
111705,-92.485549132948,4,1,0,80,0,0
111856,-92.2190201729107,4,1,0,80,0,0
112007,-91.9540229885058,4,1,0,80,0,0
112082,-91.8221368480399,4,1,0,80,0,0
112157,-91.6905444126075,4,1,0,80,0,0
112233,-91.5593286137551,4,1,0,80,0,0
112308,-91.4285714285714,4,1,0,80,0,0
112459,-91.1680911680912,4,1,0,80,0,0
112610,-90.9090909090909,4,1,0,80,0,0
112686,-90.6515580736544,4,1,0,80,0,0
112761,-90.3954802259887,4,1,0,80,0,0
112836,-90.1408450704225,4,1,0,80,0,0
112912,-89.8876404494382,4,1,0,80,0,0
112987,-89.6358543417367,4,1,0,80,0,0
113062,-89.3854748603352,4,1,0,80,0,0
113138,-89.1364902506964,4,1,0,80,0,0
113213,-88.8888888888889,4,1,0,80,0,0
113289,-88.6426592797784,4,1,0,80,0,0
113364,-88.3977900552486,4,1,0,80,0,0
113439,-88.1542699724518,4,1,0,80,0,0
113515,-87.9120879120879,4,1,0,80,0,0
113590,-87.6712328767123,4,1,0,80,0,0
113665,-87.431693989071,4,1,0,80,0,0
113741,-87.1934604904632,4,1,0,80,0,0
113816,-86.9565217391304,4,1,0,80,0,0
113892,-86.7208672086721,4,1,0,80,0,0
113967,-86.4864864864865,4,1,0,80,0,0
114042,-86.2533692722372,4,1,0,80,0,0
114118,-86.0215053763441,4,1,0,80,0,0
114193,-85.7908847184987,4,1,0,80,0,0
114268,-85.5614973262032,4,1,0,80,0,0
114344,-85.3333333333333,4,1,0,80,0,0
114419,-85.1063829787234,4,1,0,80,0,0
114495,-84.8806366047745,4,1,0,80,0,0
114570,-84.6560846560847,4,1,0,80,0,0
114645,-84.4327176781003,4,1,0,80,0,0
114721,-84.2105263157895,4,1,0,80,0,0
114796,-83.989501312336,4,1,0,80,0,0
114871,-83.7696335078534,4,1,0,80,0,0
114947,-83.5509138381201,4,1,0,80,0,0
115022,-83.3333333333333,4,1,0,80,0,0
115173,-82.4742268041237,4,1,0,80,0,0
115248,-82.0512820512821,4,1,0,80,0,0
115324,-81.6326530612245,4,1,0,80,0,0
115474,-80.8080808080808,4,1,0,80,0,0
115625,-80,4,1,0,80,0,0
115776,-79.2079207920792,4,1,0,80,0,0
115851,-78.8177339901478,4,1,0,80,0,0
115927,-78.4313725490196,4,1,0,80,0,0
116077,-77.6699029126214,4,1,0,80,0,0
116228,-76.9230769230769,4,1,0,80,0,0
117284,-100,4,1,0,80,0,0
117434,-80,4,1,0,80,0,1
117485,-80.8080808080808,4,1,0,80,0,1
117535,-81.6326530612245,4,1,0,80,0,1
117585,-82.4742268041237,4,1,0,80,0,1
117635,-83.3333333333333,4,1,0,80,0,1
117686,-84.2105263157895,4,1,0,80,0,1
117736,-85.1063829787234,4,1,0,80,0,1
117811,-86.4864864864865,4,1,0,80,0,1
117887,-87.9120879120879,4,1,0,80,0,1
117962,-89.3854748603352,4,1,0,80,0,1
118037,-90.9090909090909,4,1,0,80,0,1
118188,-80,4,1,0,80,0,1
118226,-80.1725955637296,4,1,0,80,0,1
118640,-82.1211566272184,4,1,0,80,0,1
118678,-82.3030364882282,4,1,0,80,0,1
119093,-84.3578595374152,4,1,0,80,0,1
119130,-84.5497934871294,4,1,0,80,0,1
119243,-85.1307267439881,4,1,0,80,0,1
119545,-86.7198143502214,4,1,0,80,0,1
119583,-86.9226596943104,4,1,0,80,0,1
119846,-80,4,1,0,80,0,1
120148,-86.8530533190894,4,1,0,80,0,1
120299,-90.7395728888304,4,1,0,80,0,1
120449,-76.9230769230769,4,1,0,80,0,1
120525,-77.5169161290223,4,1,0,80,0,1
120600,-78.1199344105031,4,1,0,80,0,1
120675,-78.7324702155065,4,1,0,80,0,1
120751,-79.3546247081734,4,1,0,80,0,1
120826,-79.9867541935055,4,1,0,80,0,1
120902,-80.6289704728647,4,1,0,80,0,1
120977,-81.2816490420958,4,1,0,80,0,1
121052,-81.9449133514486,4,1,0,80,0,1
121203,-83.3045238521678,4,1,0,80,0,1
121278,-84.0014246641623,4,1,0,80,0,1
121354,-84.7100122151838,4,1,0,80,0,1
121429,-85.4307289206084,4,1,0,80,0,1
121505,-86.1637404024364,4,1,0,80,0,1
121655,-87.6682353436244,4,1,0,80,0,1
121731,-88.4403978049093,4,1,0,80,0,1
121806,-89.2262035945668,4,1,0,80,0,1
121882,-90.0261796130315,4,1,0,80,0,1
121957,-90.8405475868209,4,1,0,80,0,1
122258,-80,4,1,0,80,0,1
122309,-80.8080808080808,4,1,0,80,0,1
122359,-81.6326530612245,4,1,0,80,0,1
122409,-82.4742268041237,4,1,0,80,0,1
122485,-83.7696335078534,4,1,0,80,0,1
122560,-85.1063829787234,4,1,0,80,0,1
122711,-87.9120879120879,4,1,0,80,0,1
122861,-90.9090909090909,4,1,0,80,0,1
123012,-80,4,1,0,80,0,1
123050,-80.1725955637296,4,1,0,80,0,1
123464,-82.1211566272184,4,1,0,80,0,1
123502,-82.3030364882282,4,1,0,80,0,1
123917,-84.3578595374152,4,1,0,80,0,1
123954,-84.5497934871294,4,1,0,80,0,1
124067,-85.1307267439881,4,1,0,80,0,1
124369,-86.7198143502214,4,1,0,80,0,1
124407,-86.9226596943104,4,1,0,80,0,1
124670,-80,4,1,0,80,0,1
124721,-80.8080808080808,4,1,0,80,0,1
124771,-81.6326530612245,4,1,0,80,0,1
124821,-82.4742268041237,4,1,0,80,0,1
124897,-83.7696335078534,4,1,0,80,0,1
124972,-85.1063829787234,4,1,0,80,0,1
125123,-87.9120879120879,4,1,0,80,0,1
125273,-90.9090909090909,4,1,0,80,0,1
125424,-76.9230769230769,4,1,0,80,0,1
125462,-77.2516937433853,4,1,0,80,0,1
125575,-78.2546091964817,4,1,0,80,0,1
125613,-78.5947262938657,4,1,0,80,0,1
125726,-79.6330509014461,4,1,0,80,0,1
125763,-79.9852827079817,4,1,0,80,0,1
125876,-81.0608596828413,4,1,0,80,0,1
125927,-81.5483088103977,4,1,0,80,0,1
125977,-82.0415885220536,4,1,0,80,0,1
126027,-82.5408721763799,4,1,0,80,0,1
126103,-83.3013317383905,4,1,0,80,0,1
126178,-84.07593402057,4,1,0,80,0,1
126329,-85.6691747745402,4,1,0,80,0,1
126404,-86.4886557154731,4,1,0,80,0,1
126479,-87.323965800442,4,1,0,80,0,1
126781,-100,4,1,0,80,0,1
127083,-80,4,1,0,80,0,1
127133,-80.8080808080808,4,1,0,80,0,1
127183,-81.6326530612245,4,1,0,80,0,1
127233,-82.4742268041237,4,1,0,80,0,1
127284,-83.3333333333333,4,1,0,80,0,1
127334,-84.2105263157895,4,1,0,80,0,1
127384,-85.1063829787234,4,1,0,80,0,1
127459,-86.4864864864865,4,1,0,80,0,1
127535,-87.9120879120879,4,1,0,80,0,1
127610,-89.3854748603352,4,1,0,80,0,1
127686,-90.9090909090909,4,1,0,80,0,1
127836,-80,4,1,0,80,0,1
127874,-80.1725955637296,4,1,0,80,0,1
128289,-82.1211566272184,4,1,0,80,0,1
128326,-82.3030364882282,4,1,0,80,0,1
128741,-84.3578595374152,4,1,0,80,0,1
128778,-84.5497934871294,4,1,0,80,0,1
128892,-85.1307267439881,4,1,0,80,0,1
129193,-86.7198143502214,4,1,0,80,0,1
129231,-86.9226596943104,4,1,0,80,0,1
129495,-80,4,1,0,80,0,1
129545,-81.0811029948927,4,1,0,80,0,1
129595,-82.1917583036279,4,1,0,80,0,1
129645,-83.3333333333333,4,1,0,80,0,1
129796,-86.9565217391304,4,1,0,80,0,1
129947,-90.9090909090909,4,1,0,80,0,1
130098,-76.9230769230769,4,1,0,80,0,1
130173,-77.5193798449612,4,1,0,80,0,1
130248,-78.125,4,1,0,80,0,1
130324,-78.740157480315,4,1,0,80,0,1
130399,-79.3650793650794,4,1,0,80,0,1
130474,-80,4,1,0,80,0,1
130550,-80.6451612903226,4,1,0,80,0,1
130625,-81.3008130081301,4,1,0,80,0,1
130701,-81.9672131147541,4,1,0,80,0,1
130851,-83.3333333333333,4,1,0,80,0,1
130927,-84.0336134453782,4,1,0,80,0,1
131002,-84.7457627118644,4,1,0,80,0,1
131077,-85.4700854700855,4,1,0,80,0,1
131153,-86.2068965517241,4,1,0,80,0,1
131304,-87.719298245614,4,1,0,80,0,1
131379,-88.495575221239,4,1,0,80,0,1
131454,-89.2857142857143,4,1,0,80,0,1
131530,-90.0900900900901,4,1,0,80,0,1
131605,-90.9090909090909,4,1,0,80,0,1
131907,-100,4,1,0,80,0,1
132057,-98.7654320987654,4,1,0,80,0,1
132208,-97.5609756097561,4,1,0,80,0,1
132359,-96.3855421686747,4,1,0,80,0,1
132434,-95.8083832335329,4,1,0,80,0,1
132510,-95.2380952380952,4,1,0,80,0,1
132660,-94.1176470588235,4,1,0,80,0,1
132698,-93.841642228739,4,1,0,80,0,1
132811,-93.0232558139535,4,1,0,80,0,1
133113,-90.9090909090909,4,1,0,80,0,1
133150,-90.6515580736544,4,1,0,80,0,1
133263,-89.8876404494382,4,1,0,80,0,1
133414,-88.8888888888889,4,1,0,80,0,1
133565,-87.9120879120879,4,1,0,80,0,1
133603,-87.6712328767123,4,1,0,80,0,1
133866,-86.0215053763441,4,1,0,80,0,1
134017,-85.1063829787234,4,1,0,80,0,1
134055,-84.8806366047745,4,1,0,80,0,1
134168,-84.2105263157895,4,1,0,80,0,1
134319,-83.3333333333333,4,1,0,80,0,1
134469,-82.4742268041237,4,1,0,80,0,1
134507,-82.2622107969152,4,1,0,80,0,1
134771,-80.8080808080808,4,1,0,80,0,1
134809,-80.6045340050378,4,1,0,80,0,1
134922,-80,4,1,0,80,0,1
135072,-79.2079207920792,4,1,0,80,0,1
135223,-78.4313725490196,4,1,0,80,0,1
135299,-78.0487804878049,4,1,0,80,0,1
135374,-77.6699029126214,4,1,0,80,0,1
135449,-77.2946859903382,4,1,0,80,0,1
135525,-76.9230769230769,4,1,0,80,0,0
136731,-76.9230769230769,4,1,0,80,0,1
136781,-77.6699029126214,4,1,0,80,0,1
136831,-78.4313725490196,4,1,0,80,0,1
136882,-79.2079207920792,4,1,0,80,0,1
136932,-80,4,1,0,80,0,1
136982,-80.8080808080808,4,1,0,80,0,1
137032,-81.6326530612245,4,1,0,80,0,1
137108,-82.9015544041451,4,1,0,80,0,1
137183,-84.2105263157895,4,1,0,80,0,1
137258,-85.5614973262032,4,1,0,80,0,1
137334,-86.9565217391304,4,1,0,80,0,1
137485,-90.9090909090909,4,1,0,80,0,1
137635,-95.2380952380952,4,1,0,80,0,1
137686,-94.4933079839286,4,1,0,80,0,1
137736,-93.7600792085149,4,1,0,80,0,1
137786,-93.0381419166602,4,1,0,80,0,1
137836,-92.3273225168797,4,1,0,80,0,1
137887,-91.62719825102,4,1,0,80,0,1
137937,-90.9376122511151,4,1,0,80,0,1
138012,-89.9224778318612,4,1,0,80,0,1
138088,-88.9297570527967,4,1,0,80,0,1
138163,-87.9587156972004,4,1,0,80,0,1
138238,-87.0087269753156,4,1,0,80,0,1
138389,-85.168864307262,4,1,0,80,0,1
138464,-84.277806619516,4,1,0,80,0,1
138540,-83.3333333333333,4,1,0,80,0,1
138691,-85.4519725733349,4,1,0,80,0,1
138841,-87.6811492543595,4,1,0,80,0,1
138879,-88.2567353127554,4,1,0,80,0,1
138992,-90.0297458280216,4,1,0,80,0,1
139030,-90.6366864677615,4,1,0,80,0,1
139143,-92.5076226281046,4,1,0,80,0,1
139193,-93.3642306694029,4,1,0,80,0,1
139243,-94.2367623264041,4,1,0,80,0,1
139294,-95.2380952380952,4,1,0,80,0,1
139444,-92.3077207100679,4,1,0,80,0,1
139595,-89.5522120739665,4,1,0,80,0,1
139670,-88.2353200692118,4,1,0,80,0,1
139746,-86.9565217391304,4,1,0,80,0,1
140047,-76.9230769230769,4,1,0,80,0,1
140123,-77.5831303241423,4,1,0,80,0,1
140198,-78.2546091964817,4,1,0,80,0,1
140273,-78.9378127910832,4,1,0,80,0,1
140349,-79.6330509014461,4,1,0,80,0,1
140500,-81.0608596828413,4,1,0,80,0,1
140650,-82.5408721763799,4,1,0,80,0,1
140726,-83.3013317383905,4,1,0,80,0,1
140801,-84.07593402057,4,1,0,80,0,1
140952,-85.6691747745402,4,1,0,80,0,1
141002,-86.2137341927118,4,1,0,80,0,1
141052,-86.7652609248309,4,1,0,80,0,1
141103,-87.323965800442,4,1,0,80,0,1
141178,-88.1755681372294,4,1,0,80,0,1
141253,-89.0439440768414,4,1,0,80,0,1
141329,-89.9295132475166,4,1,0,80,0,1
141404,-90.8329563765644,4,1,0,80,0,1
141555,-76.9230769230769,4,1,0,80,0,1
141605,-77.6699029126214,4,1,0,80,0,1
141655,-78.4313725490196,4,1,0,80,0,1
141706,-79.2079207920792,4,1,0,80,0,1
141756,-80,4,1,0,80,0,1
141806,-80.8080808080808,4,1,0,80,0,1
141856,-81.6326530612245,4,1,0,80,0,1
141932,-82.9015544041451,4,1,0,80,0,1
142007,-84.2105263157895,4,1,0,80,0,1
142083,-85.5614973262032,4,1,0,80,0,1
142158,-86.9565217391304,4,1,0,80,0,1
142309,-90.9090909090909,4,1,0,80,0,1
142384,-90.3225689906363,4,1,0,80,0,1
142459,-89.7435667324188,4,1,0,80,0,1
142535,-89.1719404438444,4,1,0,80,0,1
142610,-88.6076285851754,4,1,0,80,0,1
142660,-88.2353200692118,4,1,0,80,0,1
142711,-87.8661271686458,4,1,0,80,0,1
142761,-87.5000109375014,4,1,0,80,0,1
142836,-86.9565217391304,4,1,0,80,0,1
142912,-86.4197424173157,4,1,0,80,0,1
143062,-85.3658224271381,4,1,0,80,0,1
143213,-84.3373697198481,4,1,0,80,0,1
143289,-83.8323453691432,4,1,0,80,0,1
143364,-83.3333333333333,4,1,0,80,0,1
143515,-85.4519725733349,4,1,0,80,0,1
143665,-87.6811492543595,4,1,0,80,0,1
143703,-88.2567353127554,4,1,0,80,0,1
143816,-90.0297458280216,4,1,0,80,0,1
143854,-90.6366864677615,4,1,0,80,0,1
143967,-92.5076226281046,4,1,0,80,0,1
144017,-93.3642306694029,4,1,0,80,0,1
144067,-94.2367623264041,4,1,0,80,0,1
144118,-95.1257562497622,4,1,0,80,0,1
144269,-95.2380952380952,4,1,0,80,0,1
144495,-88.8888888888889,4,1,0,80,0,1
144570,-86.9565217391304,4,1,0,80,0,1
144721,-87.999971840009,4,1,0,80,0,1
144796,-88.531222748983,4,1,0,80,0,1
144947,-89.6130419236694,4,1,0,80,0,1
145022,-90.1639270357437,4,1,0,80,0,1
145173,-91.2862691758219,4,1,0,80,0,1
145324,-92.4369903255446,4,1,0,80,0,1
145399,-93.0232558139535,4,1,0,80,0,1
145550,-94.2183831371707,4,1,0,80,0,1
145625,-94.8276270808737,4,1,0,80,0,1
145701,-95.4447103109875,4,1,0,80,0,1
145776,-96.0698773860155,4,1,0,80,0,1
145927,-97.3451068995291,4,1,0,80,0,1
146002,-97.9955020064579,4,1,0,80,0,1
146077,-98.6547439120158,4,1,0,80,0,1
146153,-99.3228170334658,4,1,0,80,0,1
146228,-100,4,1,0,80,0,1
146379,-76.9230769230769,4,1,0,80,0,1
146429,-78.400012544002,4,1,0,80,0,1
146479,-79.9347732250484,4,1,0,80,0,1
146530,-81.5307562548358,4,1,0,80,0,1
146580,-83.1918378824017,4,1,0,80,0,1
146630,-84.9220118703988,4,1,0,80,0,1
146681,-86.7256806014599,4,1,0,80,0,1
147434,-80,4,1,0,80,0,1
147510,-80.8080808080808,4,1,0,80,0,1
147585,-81.6326530612245,4,1,0,80,0,1
147635,-82.1917583036279,4,1,0,80,0,1
147686,-82.7586435196258,4,1,0,80,0,1
147736,-83.3333333333333,4,1,0,80,0,1
147811,-84.2105263157895,4,1,0,80,0,1
147887,-85.1063829787234,4,1,0,80,0,1
147962,-86.0215053763441,4,1,0,80,0,1
148037,-86.9565217391304,4,1,0,80,0,1
149696,-86.9565217391304,4,1,0,80,0,1
149771,-86.5800865800866,4,1,0,80,0,1
149846,-86.2068965517241,4,1,0,80,0,1
149922,-85.8369098712446,4,1,0,80,0,1
149997,-85.4700854700855,4,1,0,80,0,1
150072,-85.1063829787234,4,1,0,80,0,1
150148,-84.7457627118644,4,1,0,80,0,1
150223,-84.3881856540084,4,1,0,80,0,1
150299,-84.0336134453782,4,1,0,80,0,1
150374,-83.6820083682008,4,1,0,80,0,1
150449,-83.3333333333333,4,1,0,80,0,1
150525,-82.9875518672199,4,1,0,80,0,1
150600,-82.6446280991736,4,1,0,80,0,1
150650,-82.4176050597816,4,1,0,80,0,1
150701,-82.1917583036279,4,1,0,80,0,1
150751,-81.9672131147541,4,1,0,80,0,1
150826,-81.6326530612245,4,1,0,80,0,1
150902,-81.3008130081301,4,1,0,80,0,1
150977,-80.9716599190283,4,1,0,80,0,1
151052,-80.6451612903226,4,1,0,80,0,1
151203,-80,4,1,0,80,0,1
151505,-79.2079207920792,4,1,0,80,0,1
151655,-78.8177339901478,4,1,0,80,0,1
151806,-78.4313725490196,4,1,0,80,0,1
151957,-78.0487804878049,4,1,0,80,0,1
151995,-77.9537453656498,4,1,0,80,0,1
152108,-77.6699029126214,4,1,0,80,0,1
152409,-76.9230769230769,4,1,0,80,0,1
152447,-76.8307618077356,4,1,0,80,0,1
152560,-76.555023923445,4,1,0,80,0,1
152711,-76.1904761904762,4,1,0,80,0,1
152862,-75.8293838862559,4,1,0,80,0,1
152899,-75.7396736528942,4,1,0,80,0,1
153163,-75.1173708920188,4,1,0,80,0,1
153314,-74.7663551401869,4,1,0,80,0,1
153352,-74.6791410703911,4,1,0,80,0,1
153465,-74.4186046511628,4,1,0,80,0,1
153615,-74.0740740740741,4,1,0,80,0,1
153766,-73.7327188940092,4,1,0,80,0,1
153804,-73.6478982362801,4,1,0,80,0,1
154068,-73.0593607305936,4,1,0,80,0,1
154106,-72.9760813595736,4,1,0,80,0,1
154218,-72.7272727272727,4,1,0,80,0,1
154369,-72.3981900452489,4,1,0,80,0,1
154407,-72.3164103290975,4,1,0,80,0,1
154520,-72.0720720720721,4,1,0,80,0,1
154671,-71.7488789237668,4,1,0,80,0,1
154708,-71.6685587166168,4,1,0,80,0,1
154821,-71.4285714285714,4,1,0,80,0,0
155726,-100,4,1,0,80,0,0
155801,-103.896103896104,4,1,0,80,0,0
155876,-108.108108108108,4,1,0,80,0,0
155952,-112.676056338028,4,1,0,80,0,0
156027,-117.647058823529,4,1,0,50,0,0
156329,-118.42041378461,4,1,0,50,0,0
156479,-118.810987164849,4,1,0,50,0,0
156781,-119.599771325237,4,1,0,50,0,0
156932,-119.998176027724,4,1,0,50,0,0
158037,-123.002440368417,4,1,0,50,0,0
158238,-123.564947589927,4,1,0,50,0,0
158439,-124.132623294728,4,1,0,50,0,0
158741,-124.993906547056,4,1,0,50,0,0
158892,-125.429124391826,4,1,0,50,0,0
159193,-126.308556646861,4,1,0,50,0,0
159344,-126.752993905716,4,1,0,50,0,0
160449,-130.10990383577,4,1,0,50,0,0
160650,-130.739462399331,4,1,0,50,0,0
160851,-131.374970440632,4,1,0,50,0,0
161153,-132.340252081712,4,1,0,50,0,0
161304,-132.828055410552,4,1,0,50,0,0
161605,-133.814888512126,4,1,0,50,0,0
161756,-134.313643848569,4,1,0,50,0,0
162861,-138.088932034009,4,1,0,50,0,0
163062,-138.798284453204,4,1,0,50,0,0
163263,-139.51496228213,4,1,0,50,0,0
163565,-140.60386548147,4,1,0,50,0,0
163716,-141.154616532311,4,1,0,50,0,0
164017,-142.269569534963,4,1,0,50,0,0
164168,-142.833473310137,4,1,0,50,0,0
164470,-124.981877627744,4,1,0,50,0,0
165676,-117.647058823529,4,1,0,50,0,0
165977,-118.421114958482,4,1,0,50,0,0
166128,-118.811834133927,4,1,0,50,0,0
166429,-119.601344797521,4,1,0,50,0,0
166580,-120.000048000019,4,1,0,50,0,0
167686,-123.006828109028,4,1,0,50,0,0
167887,-123.569833637933,4,1,0,50,0,0
168088,-124.137862544628,4,1,0,50,0,0
168389,-125,4,1,0,50,0,0
168540,-125.435575034307,4,1,0,50,0,0
168841,-126.315736288111,4,1,0,50,0,0
168992,-126.760545526684,4,1,0,50,0,0
170098,-130.120400406496,4,1,0,50,0,0
170299,-130.750573668142,4,1,0,50,0,0
170500,-131.386880494435,4,1,0,50,0,0
170801,-132.352863321845,4,1,0,50,0,0
170952,-132.841289198143,4,1,0,50,0,0
171253,-133.829036082985,4,1,0,50,0,0
171404,-134.328438405038,4,1,0,50,0,0
172510,-138.107431008433,4,1,0,50,0,0
172711,-138.817552091286,4,1,0,50,0,0
172912,-139.534818821014,4,1,0,50,0,0
173213,-140.62502197266,4,1,0,50,0,0
173364,-141.176537024253,4,1,0,50,0,0
173665,-142.292445124919,4,1,0,50,0,0
173816,-142.857142857143,4,1,0,50,0,0
175324,-117.647058823529,4,1,0,80,0,0
180148,-111.111111111111,4,1,0,80,0,0
180449,-109.090869421502,4,1,0,80,0,0
180751,-107.142895408177,4,1,0,80,0,0
181052,-105.263157894737,4,1,0,80,0,0
181203,-104.347862381865,4,1,0,80,0,0
181354,-103.448240190262,4,1,0,80,0,0
181655,-101.694949727102,4,1,0,80,0,0
181957,-100,4,1,0,80,0,0
182258,-98.3606234883202,4,1,0,80,0,0
182409,-97.5609756097561,4,1,0,80,0,0
182560,-96.774224765879,4,1,0,80,0,0
182861,-95.2380952380952,4,1,0,80,0,0
183163,-93.7499707031342,4,1,0,80,0,0
183464,-92.3077207100679,4,1,0,80,0,0
183766,-90.9090909090909,4,1,0,80,0,0
184972,-100,4,1,0,80,0,0
185122,-99.5333874794961,4,1,0,80,0,0
185273,-99.0712074303406,4,1,0,80,0,0
185424,-98.6132025327815,4,1,0,80,0,0
185575,-98.159509202454,4,1,0,80,0,0
185725,-97.7098759279995,4,1,0,80,0,0
185801,-97.4866955032312,4,1,0,80,0,0
185876,-97.2644376899696,4,1,0,80,0,0
186027,-96.823042334907,4,1,0,80,0,0
186178,-96.3855421686747,4,1,0,80,0,0
186328,-95.9519779540736,4,1,0,80,0,0
186404,-95.7367469227816,4,1,0,80,0,0
186479,-95.5223880597015,4,1,0,80,0,0
186630,-95.0966276833891,4,1,0,80,0,0
186781,-94.6745562130178,4,1,0,80,0,0
186856,-94.4649223403873,4,1,0,80,0,0
186931,-94.2563036259457,4,1,0,80,0,0
187007,-94.0485158673954,4,1,0,80,0,0
187082,-93.841642228739,4,1,0,80,0,0
187233,-93.4307005807652,4,1,0,80,0,0
187384,-93.0232558139535,4,1,0,80,0,0
187534,-92.6193492934996,4,1,0,80,0,0
187685,-92.2190201729107,4,1,0,80,0,0
187836,-91.8221368480399,4,1,0,80,0,0
187987,-91.4285714285714,4,1,0,80,0,0
188137,-91.0383653879418,4,1,0,80,0,0
188213,-90.8445912493039,4,1,0,80,0,0
188288,-90.6515580736544,4,1,0,80,0,0
188439,-90.2680238163154,4,1,0,80,0,0
188590,-89.8876404494382,4,1,0,80,0,0
188740,-89.5104494498688,4,1,0,80,0,0
188816,-89.3231183415198,4,1,0,80,0,0
188891,-89.1364902506964,4,1,0,80,0,0
189042,-88.7656427253893,4,1,0,80,0,0
189193,-88.3977900552486,4,1,0,80,0,0
189268,-88.2150046665737,4,1,0,80,0,0
189343,-88.0330511287158,4,1,0,80,0,0
189419,-87.8517694664147,4,1,0,80,0,0
189494,-87.6712328767123,4,1,0,80,0,0
189645,-87.3124528512755,4,1,0,80,0,0
189796,-86.9565217391304,4,1,0,80,0,0
189871,-86.6035557687928,4,1,0,80,0,0
189947,-86.2533692722372,4,1,0,80,0,0
190022,-85.906077167711,4,1,0,80,0,0
190098,-85.5614973262032,4,1,0,80,0,0
190173,-85.2196707452801,4,1,0,80,0,0
190248,-84.8806366047745,4,1,0,80,0,0
190324,-84.5442893714301,4,1,0,80,0,0
190399,-84.2105263157895,4,1,0,80,0,0
190474,-83.8793881501911,4,1,0,80,0,0
190550,-83.5509138381201,4,1,0,80,0,0
190625,-83.2250021222376,4,1,0,80,0,0
190701,-82.9015544041451,4,1,0,80,0,0
190776,-82.5806110634896,4,1,0,80,0,0
190851,-82.2622107969152,4,1,0,80,0,0
190927,-81.9462563672241,4,1,0,80,0,0
191002,-81.6326530612245,4,1,0,80,0,0
191077,-81.3214408858182,4,1,0,80,0,0
191153,-81.0126582278481,4,1,0,80,0,0
191228,-80.7062116342846,4,1,0,80,0,0
191304,-80.4020100502513,4,1,0,80,0,0
191379,-80.1000930763082,4,1,0,80,0,0
191454,-79.8004987531172,4,1,0,80,0,0
191530,-79.5031371937937,4,1,0,80,0,0
191605,-79.2079207920792,4,1,0,80,0,0
191655,-79.0123456790123,4,1,0,80,0,0
191705,-78.8177339901478,4,1,0,80,0,0
191756,-78.6240786240786,4,1,0,80,0,0
191831,-78.3354039991791,4,1,0,80,0,0
191907,-78.0487804878049,4,1,0,80,0,0
191957,-77.8588807785888,4,1,0,80,0,0
192007,-77.6699029126214,4,1,0,80,0,0
192057,-77.4818401937046,4,1,0,80,0,0
192107,-77.2946859903382,4,1,0,80,0,0
192158,-77.1084337349398,4,1,0,80,0,0
192208,-76.9230769230769,4,1,0,80,0,0
193414,-100,4,1,0,80,0,0
193565,-100,4,1,0,80,0,0
194168,-89.7435667324188,4,1,0,80,0,0
194243,-88.6076285851754,4,1,0,80,0,0
194319,-87.5000109375014,4,1,0,80,0,0
194469,-85.3658224271381,4,1,0,80,0,0
194620,-83.3333333333333,4,1,0,100,0,1
208489,-83.3333333333333,4,1,0,100,0,1
208565,-82.9015544041451,4,1,0,100,0,1
208640,-82.4742268041237,4,1,0,100,0,1
208715,-82.0512820512821,4,1,0,100,0,1
208791,-81.6326530612245,4,1,0,100,0,1
208866,-81.2182741116751,4,1,0,100,0,1
208942,-80.8080808080808,4,1,0,100,0,1
209017,-80.4020100502513,4,1,0,100,0,1
209092,-80,4,1,0,100,0,1
211505,-80,4,1,0,100,0,1
211655,-79.2079207920792,4,1,0,100,0,1
211806,-78.4313725490196,4,1,0,100,0,1
211957,-77.6699029126214,4,1,0,100,0,1
212032,-77.2946859903382,4,1,0,100,0,1
212108,-76.9230769230769,4,1,0,100,0,1
212258,-76.1904761904762,4,1,0,100,0,1
212409,-75.4716981132076,4,1,0,100,0,1
212485,-75.1173708920188,4,1,0,100,0,1
212560,-74.7663551401869,4,1,0,100,0,1
212635,-74.4186046511628,4,1,0,100,0,1
212711,-74.0740740740741,4,1,0,100,0,1
213917,-100,4,1,0,100,0,0
214218,-83.3333333333333,4,1,0,100,0,1
222962,-83.3333333333333,4,1,0,100,0,1
223113,-82.4742268041237,4,1,0,100,0,1
223188,-82.0512820512821,4,1,0,100,0,1
223263,-81.6326530612245,4,1,0,100,0,1
223339,-81.2182741116751,4,1,0,100,0,1
223414,-80.8080808080808,4,1,0,100,0,1
223490,-80.4020100502513,4,1,0,100,0,1
223565,-80,4,1,0,100,0,1
228389,-80,4,1,0,100,0,1
228540,-79.8004987531172,4,1,0,100,0,1
228691,-79.6019900497512,4,1,0,100,0,1
228841,-79.4044665012407,4,1,0,100,0,1
228917,-79.3060404238749,4,1,0,100,0,1
228992,-79.2079207920792,4,1,0,100,0,1
229143,-79.0123456790123,4,1,0,100,0,1
229294,-78.8177339901478,4,1,0,100,0,1
229444,-78.6240786240786,4,1,0,100,0,1
229595,-78.4313725490196,4,1,0,100,0,1
229746,-78.239608801956,4,1,0,100,0,1
229897,-78.0487804878049,4,1,0,100,0,1
230047,-77.8588807785888,4,1,0,100,0,1
230123,-77.7642467988348,4,1,0,100,0,1
230198,-77.6699029126214,4,1,0,100,0,1
230349,-77.4818401937046,4,1,0,100,0,1
230500,-77.2946859903382,4,1,0,100,0,1
230650,-77.1084337349398,4,1,0,100,0,1
230801,-76.9230769230769,4,1,0,100,0,1
230876,-76.555023923445,4,1,0,100,0,1
230952,-76.1904761904762,4,1,0,100,0,1
231027,-75.8293838862559,4,1,0,100,0,1
231103,-75.4716981132076,4,1,0,100,0,1
231178,-75.1173708920188,4,1,0,100,0,1
231253,-74.7663551401869,4,1,0,100,0,1
231329,-74.4186046511628,4,1,0,100,0,1
231404,-74.0740740740741,4,1,0,100,0,1
231479,-73.7327188940092,4,1,0,100,0,1
231555,-73.394495412844,4,1,0,100,0,1
231630,-73.0593607305936,4,1,0,100,0,1
231706,-72.7272727272727,4,1,0,100,0,1
231781,-72.3981900452489,4,1,0,100,0,1
231856,-72.0720720720721,4,1,0,100,0,1
231932,-71.7488789237668,4,1,0,100,0,1
232007,-71.4285714285714,4,1,0,100,0,0
232233,-75.4716981132076,4,1,0,97,0,0
232459,-80,4,1,0,94,0,0
232686,-85.1063829787234,4,1,0,91,0,0
232761,-86.9565217391304,4,1,0,89,0,0
232912,-90.9090909090909,4,1,0,86,0,0
233062,-95.2380952380952,4,1,0,83,0,0
233213,-100,4,1,0,80,0,0
247686,-100,4,1,0,80,0,0
247761,-99.3788819875776,4,1,0,80,0,0
247836,-98.7654320987654,4,1,0,80,0,0
247912,-98.159509202454,4,1,0,80,0,0
247987,-97.5609756097561,4,1,0,80,0,0
248062,-96.969696969697,4,1,0,80,0,0
248138,-96.3855421686747,4,1,0,80,0,0
248213,-95.8083832335329,4,1,0,80,0,0
248289,-95.2380952380952,4,1,0,80,0,0
248364,-94.6745562130178,4,1,0,80,0,0
248439,-94.1176470588235,4,1,0,80,0,0
248515,-93.5672514619883,4,1,0,80,0,0
248590,-93.0232558139535,4,1,0,80,0,0
248665,-92.485549132948,4,1,0,80,0,0
248741,-91.9540229885058,4,1,0,80,0,0
248816,-91.4285714285714,4,1,0,80,0,0
248892,-90.9090909090909,4,1,0,80,0,0
248967,-90.3954802259887,4,1,0,80,0,0
249042,-89.8876404494382,4,1,0,80,0,0
249118,-89.3854748603352,4,1,0,80,0,0
249193,-88.8888888888889,4,1,0,80,0,0
249268,-88.3977900552486,4,1,0,80,0,0
249344,-87.9120879120879,4,1,0,80,0,0
249419,-87.431693989071,4,1,0,80,0,0
249495,-86.9565217391304,4,1,0,80,0,0
249570,-86.4864864864865,4,1,0,80,0,0
249645,-86.0215053763441,4,1,0,80,0,0
249721,-85.5614973262032,4,1,0,80,0,0
249796,-85.1063829787234,4,1,0,80,0,0
249871,-84.6560846560847,4,1,0,80,0,0
249947,-84.2105263157895,4,1,0,80,0,0
250022,-83.7696335078534,4,1,0,80,0,0
250098,-83.3333333333333,4,1,0,80,0,0
250148,-83.0449597107378,4,1,0,80,0,0
250198,-82.7586435196258,4,1,0,80,0,0
250248,-82.4742268041237,4,1,0,80,0,0
250324,-82.0512820512821,4,1,0,80,0,0
250399,-81.6326530612245,4,1,0,80,0,0
250449,-81.3559101407701,4,1,0,80,0,0
250500,-81.0811029948927,4,1,0,80,0,0
250550,-80.8080808080808,4,1,0,80,0,0
250625,-80.4020100502513,4,1,0,80,0,0
250701,-80,4,1,0,80,0,0
250751,-79.7341980772895,4,1,0,80,0,0
250801,-79.4702197272105,4,1,0,80,0,0
250851,-79.2079207920792,4,1,0,80,0,0
250927,-78.8177339901478,4,1,0,80,0,0
251002,-78.4313725490196,4,1,0,80,0,0
251077,-78.0487804878049,4,1,0,80,0,0
251153,-77.6699029126214,4,1,0,80,0,0
251228,-77.2946859903382,4,1,0,80,0,0
251304,-76.9230769230769,4,1,0,80,0,0
252510,-111.111111111111,4,1,0,80,0,0
252962,-111.553607085885,4,1,0,80,0,0
253565,-112.149239235636,4,1,0,80,0,0
253641,-112.224125044609,4,1,0,80,0,0
253716,-112.299110927939,4,1,0,80,0,0
254168,-112.751139068382,4,1,0,80,0,0
254771,-113.359534500408,4,1,0,80,0,0
254847,-113.436045891687,4,1,0,80,0,0
254922,-113.512660634604,4,1,0,80,0,0
255374,-113.974661153332,4,1,0,80,0,0
255927,-114.544257037313,4,1,0,80,0,0
256027,-114.648527740931,4,1,0,80,0,0
256128,-114.752856772369,4,1,0,80,0,0
256580,-115.224895951919,4,1,0,80,0,0
257032,-115.700834665821,4,1,0,80,0,0
257334,-116.020452085294,4,1,0,80,0,0
257786,-116.502999369719,4,1,0,80,0,0
258239,-116.98957739855,4,1,0,80,0,0
258389,-117.152674536983,4,1,0,80,0,0
258540,-117.316227063211,4,1,0,80,0,0
258992,-117.809774912644,4,1,0,80,0,0
259445,-118.307353038606,4,1,0,80,0,0
259595,-118.474147756218,4,1,0,80,0,0
259746,-118.641413446343,4,1,0,80,0,0
260198,-119.14605638468,4,1,0,80,0,0
260651,-119.655010673227,4,1,0,80,0,0
260952,-119.996880081118,4,1,0,80,0,0
262158,-121.383529468886,4,1,0,80,0,0
262610,-121.911969804843,4,1,0,80,0,0
263213,-122.623555494516,4,1,0,80,0,0
263289,-122.713088209849,4,1,0,80,0,0
263364,-122.802751764062,4,1,0,80,0,0
263816,-123.343496837473,4,1,0,80,0,0
264419,-124.072095813435,4,1,0,80,0,0
264495,-124.163757095959,4,1,0,80,0,0
264570,-124.255553912621,4,1,0,80,0,0
265022,-124.809197938651,4,1,0,80,0,0
265575,-125.492558291293,4,1,0,80,0,0
265676,-125.617725163491,4,1,0,80,0,0
265776,-125.742983855858,4,1,0,80,0,0
266228,-126.310152052161,4,1,0,80,0,0
266681,-126.882298904244,4,1,0,80,0,0
266982,-127.26661847504,4,1,0,80,0,0
267434,-127.847483066601,4,1,0,80,0,0
267887,-128.433674281927,4,1,0,80,0,0
268037,-128.63043318871,4,1,0,80,0,0
268188,-128.827629919444,4,1,0,80,0,0
268641,-129.422864619801,4,1,0,80,0,0
269093,-130.023625292716,4,1,0,80,0,0
269244,-130.22512016523,4,1,0,80,0,0
269394,-130.427240511744,4,1,0,80,0,0
269847,-131.037555363367,4,1,0,80,0,0
270299,-131.653435496399,4,1,0,80,0,0
270751,-132.275132275132,4,1,0,80,0,0
271203,-132.902728493016,4,1,0,80,0,0
271505,-133.324445036998,4,1,0,80,0,0
271806,-133.324445036998,4,1,0,70,0,0
279042,-133.333333333333,4,1,0,70,0,0
279494,-136.838216177014,4,1,0,65,0,0
279947,-140.532336490627,4,1,0,60,0,0
280249,-144.431654219065,4,1,0,55,0,0
280851,-148.553313555936,4,1,0,50,0,0
281304,-152.917123506573,4,1,0,45,0,0
281756,-157.545069705816,4,1,0,40,0,0
282208,-162.462146319907,4,1,0,35,0,0
282660,-167.695759645022,4,1,0,30,0,0
283112,-173.277792025063,4,1,0,25,0,0
283565,-179.244234609194,4,1,0,20,0,0
283867,-185.636557035904,4,1,0,15,0,0
284469,-192.501304196336,4,1,0,10,0,0
284922,-199.893257000762,4,1,0,5,0,0
290198,-10000,4,1,0,5,0,0
290274,-200,4,1,0,11,0,0
290349,-200,4,1,0,17,0,0
290424,-200,4,1,0,23,0,0
290500,-200,4,1,0,29,0,0
290575,-200,4,1,0,35,0,0
290651,-200,4,1,0,41,0,0
290726,-200,4,1,0,47,0,0
290801,-200,4,1,0,53,0,0
290877,-200,4,1,0,59,0,0
290952,-200,4,1,0,65,0,0
291027,-200,4,1,0,71,0,0
291103,-200,4,1,0,77,0,0

[HitObjects]
256,192,18540,12,0,20651,0:0:0:0:
256,192,20952,5,8,0:0:0:0:
256,192,21404,1,8,0:0:0:0:
256,192,22007,1,8,0:0:0:0:
256,192,22058,1,8,0:0:0:0:
256,192,22108,1,8,0:0:0:0:
256,192,22158,1,0,0:0:0:0:
256,192,22610,1,0,0:0:0:0:
256,192,23213,1,8,0:0:0:0:
256,192,23264,1,8,0:0:0:0:
256,192,23314,1,0,0:0:0:0:
256,192,23364,1,0,0:0:0:0:
256,192,23816,1,0,0:0:0:0:
256,192,24369,1,0,0:0:0:0:
256,192,24470,1,8,0:0:0:0:
256,192,24570,1,8,0:0:0:0:
256,192,25022,1,8,0:0:0:0:
256,192,25475,1,0,0:0:0:0:
256,192,25776,1,8,0:0:0:0:
256,192,26228,1,8,0:0:0:0:
256,192,26681,1,0,0:0:0:0:
256,192,26831,1,8,0:0:0:0:
256,192,26982,1,0,0:0:0:0:
256,192,27434,1,0,0:0:0:0:
256,192,27887,1,0,0:0:0:0:
256,192,28037,1,8,0:0:0:0:
256,192,28188,1,0,0:0:0:0:
256,192,28640,1,0,0:0:0:0:
256,192,29093,1,0,0:0:0:0:
256,192,29394,1,0,0:0:0:0:
256,192,29545,12,0,30450,0:0:0:0:
256,192,30600,5,8,0:0:0:0:
256,192,31053,1,8,0:0:0:0:
256,192,31656,1,8,0:0:0:0:
256,192,31706,1,8,0:0:0:0:
256,192,31756,1,8,0:0:0:0:
256,192,31806,1,0,0:0:0:0:
256,192,32259,1,0,0:0:0:0:
256,192,32862,1,8,0:0:0:0:
256,192,32912,1,8,0:0:0:0:
256,192,32962,1,0,0:0:0:0:
256,192,33012,1,0,0:0:0:0:
256,192,33465,1,0,0:0:0:0:
256,192,34017,1,0,0:0:0:0:
256,192,34118,1,8,0:0:0:0:
256,192,34218,1,8,0:0:0:0:
256,192,34671,1,8,0:0:0:0:
256,192,35123,1,0,0:0:0:0:
256,192,35424,1,8,0:0:0:0:
256,192,35877,1,8,0:0:0:0:
256,192,36329,1,0,0:0:0:0:
256,192,36480,1,8,0:0:0:0:
256,192,36630,1,0,0:0:0:0:
256,192,37083,1,0,0:0:0:0:
256,192,37535,1,0,0:0:0:0:
256,192,37686,1,8,0:0:0:0:
256,192,37836,1,8,0:0:0:0:
256,192,38289,1,8,0:0:0:0:
256,192,38741,1,8,0:0:0:0:
256,192,39193,1,0,0:0:0:0:
256,192,39646,1,0,0:0:0:0:
256,192,39947,1,0,0:0:0:0:
256,192,40022,1,0,0:0:0:0:
256,192,40098,1,0,0:0:0:0:
256,192,40173,1,0,0:0:0:0:
256,192,40249,1,12,0:0:0:0:
256,192,40550,1,0,0:0:0:0:
256,192,40701,1,8,0:0:0:0:
256,192,40852,1,0,0:0:0:0:
256,192,41153,1,0,0:0:0:0:
256,192,41304,1,8,0:0:0:0:
256,192,41354,1,8,0:0:0:0:
256,192,41404,1,8,0:0:0:0:
256,192,41455,1,0,0:0:0:0:
256,192,41756,1,0,0:0:0:0:
256,192,41907,1,8,0:0:0:0:
256,192,42058,1,0,0:0:0:0:
256,192,42359,1,0,0:0:0:0:
256,192,42510,1,8,0:0:0:0:
256,192,42560,1,8,0:0:0:0:
256,192,42610,1,0,0:0:0:0:
256,192,42661,1,0,0:0:0:0:
256,192,42962,1,0,0:0:0:0:
256,192,43113,1,8,0:0:0:0:
256,192,43264,1,0,0:0:0:0:
256,192,43565,1,0,0:0:0:0:
256,192,43666,1,8,0:0:0:0:
256,192,43766,1,8,0:0:0:0:
256,192,43867,1,0,0:0:0:0:
256,192,44168,1,0,0:0:0:0:
256,192,44319,1,8,0:0:0:0:
256,192,44470,1,0,0:0:0:0:
256,192,44771,1,0,0:0:0:0:
256,192,44922,1,0,0:0:0:0:
256,192,45073,1,8,0:0:0:0:
256,192,45374,1,0,0:0:0:0:
256,192,45525,1,8,0:0:0:0:
256,192,45676,1,0,0:0:0:0:
256,192,45977,1,8,0:0:0:0:
256,192,46128,1,0,0:0:0:0:
256,192,46279,1,8,0:0:0:0:
256,192,46580,1,0,0:0:0:0:
256,192,46731,1,8,0:0:0:0:
256,192,46882,1,0,0:0:0:0:
256,192,47183,1,8,0:0:0:0:
256,192,47334,1,0,0:0:0:0:
256,192,47485,1,8,0:0:0:0:
256,192,47786,1,0,0:0:0:0:
256,192,47937,1,8,0:0:0:0:
256,192,48088,1,0,0:0:0:0:
256,192,48389,1,0,0:0:0:0:
256,192,48691,1,0,0:0:0:0:
256,192,48841,1,8,0:0:0:0:
256,192,48992,1,0,0:0:0:0:
256,192,49294,1,0,0:0:0:0:
256,192,49595,1,0,0:0:0:0:
256,192,49897,1,0,0:0:0:0:
256,192,50048,1,0,0:0:0:0:
256,192,50198,1,8,0:0:0:0:
256,192,50349,1,0,0:0:0:0:
256,192,50500,1,0,0:0:0:0:
256,192,50651,1,0,0:0:0:0:
256,192,50726,1,0,0:0:0:0:
256,192,50801,1,8,0:0:0:0:
256,192,50952,1,0,0:0:0:0:
256,192,51103,1,0,0:0:0:0:
256,192,51254,1,8,0:0:0:0:
256,192,51329,1,0,0:0:0:0:
256,192,51404,1,8,0:0:0:0:
256,192,51555,1,0,0:0:0:0:
256,192,51706,1,0,0:0:0:0:
256,192,51781,1,0,0:0:0:0:
256,192,51857,1,0,0:0:0:0:
256,192,51932,1,0,0:0:0:0:
256,192,52007,1,8,0:0:0:0:
256,192,52158,1,0,0:0:0:0:
256,192,52309,1,0,0:0:0:0:
256,192,52460,1,0,0:0:0:0:
256,192,52610,1,8,0:0:0:0:
256,192,52761,1,0,0:0:0:0:
256,192,52912,1,0,0:0:0:0:
256,192,53063,1,0,0:0:0:0:
256,192,53138,1,0,0:0:0:0:
256,192,53213,1,8,0:0:0:0:
256,192,53364,1,0,0:0:0:0:
256,192,53515,1,0,0:0:0:0:
256,192,53666,1,8,0:0:0:0:
256,192,53741,1,0,0:0:0:0:
256,192,53816,1,8,0:0:0:0:
256,192,53967,1,0,0:0:0:0:
256,192,54118,1,0,0:0:0:0:
256,192,54193,1,8,0:0:0:0:
256,192,54269,1,0,0:0:0:0:
256,192,54344,1,0,0:0:0:0:
256,192,54419,1,8,0:0:0:0:
256,192,54570,1,0,0:0:0:0:
256,192,54721,1,8,0:0:0:0:
256,192,54796,1,0,0:0:0:0:
256,192,54872,1,0,0:0:0:0:
256,192,54947,1,0,0:0:0:0:
256,192,55022,1,8,0:0:0:0:
256,192,55098,1,8,0:0:0:0:
256,192,55173,1,0,0:0:0:0:
256,192,55249,1,0,0:0:0:0:
256,192,55324,1,8,0:0:0:0:
256,192,55399,1,0,0:0:0:0:
256,192,55475,1,8,0:0:0:0:
256,192,55550,1,8,0:0:0:0:
256,192,55625,1,0,0:0:0:0:
256,192,55701,1,8,0:0:0:0:
256,192,55776,1,0,0:0:0:0:
256,192,55852,1,0,0:0:0:0:
256,192,55927,1,8,0:0:0:0:
256,192,56002,1,0,0:0:0:0:
256,192,56078,1,0,0:0:0:0:
256,192,56153,1,0,0:0:0:0:
256,192,56228,1,8,0:0:0:0:
256,192,56304,1,8,0:0:0:0:
256,192,56379,1,0,0:0:0:0:
256,192,56455,1,0,0:0:0:0:
256,192,56530,1,8,0:0:0:0:
256,192,56580,1,0,0:0:0:0:
256,192,56630,1,0,0:0:0:0:
256,192,56681,1,8,0:0:0:0:
256,192,56756,1,0,0:0:0:0:
256,192,56831,1,8,0:0:0:0:
256,192,56882,1,8,0:0:0:0:
256,192,56932,1,8,0:0:0:0:
256,192,56982,1,8,0:0:0:0:
256,192,57032,1,8,0:0:0:0:
256,192,57083,1,8,0:0:0:0:
256,192,57133,1,0,0:0:0:0:
256,192,58640,1,0,0:0:0:0:
256,192,58716,1,0,0:0:0:0:
256,192,58791,1,0,0:0:0:0:
256,192,58867,1,0,0:0:0:0:
256,192,58942,1,0,0:0:0:0:
256,192,59093,1,0,0:0:0:0:
256,192,59243,1,8,0:0:0:0:
256,192,59394,1,8,0:0:0:0:
256,192,59545,1,4,0:0:0:0:
256,192,59696,1,8,0:0:0:0:
256,192,59771,1,8,0:0:0:0:
256,192,59847,1,0,0:0:0:0:
256,192,59997,1,8,0:0:0:0:
256,192,60148,1,0,0:0:0:0:
256,192,60223,1,8,0:0:0:0:
256,192,60299,1,8,0:0:0:0:
256,192,60374,1,8,0:0:0:0:
256,192,60450,1,0,0:0:0:0:
256,192,60525,1,0,0:0:0:0:
256,192,60600,1,8,0:0:0:0:
256,192,60751,1,0,0:0:0:0:
256,192,60902,1,0,0:0:0:0:
256,192,60977,1,0,0:0:0:0:
256,192,61053,1,8,0:0:0:0:
256,192,61203,1,0,0:0:0:0:
256,192,61354,1,0,0:0:0:0:
256,192,61429,1,0,0:0:0:0:
256,192,61505,1,0,0:0:0:0:
256,192,61580,1,0,0:0:0:0:
256,192,61656,1,8,0:0:0:0:
256,192,61806,1,0,0:0:0:0:
256,192,61957,1,0,0:0:0:0:
256,192,62108,1,0,0:0:0:0:
256,192,62259,1,8,0:0:0:0:
256,192,62409,1,8,0:0:0:0:
256,192,62485,1,8,0:0:0:0:
256,192,62560,1,0,0:0:0:0:
256,192,62711,1,0,0:0:0:0:
256,192,62862,1,8,0:0:0:0:
256,192,63012,1,0,0:0:0:0:
256,192,63163,1,0,0:0:0:0:
256,192,63314,1,0,0:0:0:0:
256,192,63389,1,0,0:0:0:0:
256,192,63465,1,8,0:0:0:0:
256,192,63615,1,8,0:0:0:0:
256,192,63766,1,0,0:0:0:0:
256,192,63841,1,0,0:0:0:0:
256,192,63917,1,8,0:0:0:0:
256,192,63992,1,0,0:0:0:0:
256,192,64068,1,8,0:0:0:0:
256,192,64218,1,8,0:0:0:0:
256,192,64369,1,0,0:0:0:0:
256,192,64520,1,0,0:0:0:0:
256,192,64671,1,8,0:0:0:0:
256,192,64821,1,0,0:0:0:0:
256,192,64897,1,0,0:0:0:0:
256,192,64972,1,0,0:0:0:0:
256,192,65123,1,0,0:0:0:0:
256,192,65274,1,8,0:0:0:0:
256,192,65349,1,8,0:0:0:0:
256,192,65424,1,0,0:0:0:0:
256,192,65575,1,0,0:0:0:0:
256,192,65726,1,0,0:0:0:0:
256,192,65801,1,0,0:0:0:0:
256,192,65877,1,8,0:0:0:0:
256,192,65952,1,0,0:0:0:0:
256,192,66027,1,8,0:0:0:0:
256,192,66103,1,8,0:0:0:0:
256,192,66178,1,0,0:0:0:0:
256,192,66329,1,0,0:0:0:0:
256,192,66480,1,8,0:0:0:0:
256,192,66630,1,0,0:0:0:0:
256,192,66781,1,0,0:0:0:0:
256,192,66932,1,8,0:0:0:0:
256,192,67007,1,0,0:0:0:0:
256,192,67083,1,8,0:0:0:0:
256,192,67158,1,8,0:0:0:0:
256,192,67233,1,0,0:0:0:0:
256,192,67384,1,8,0:0:0:0:
256,192,67535,1,8,0:0:0:0:
256,192,67610,1,0,0:0:0:0:
256,192,67686,1,8,0:0:0:0:
256,192,67836,1,8,0:0:0:0:
256,192,67987,1,0,0:0:0:0:
256,192,68289,1,8,0:0:0:0:
256,192,68439,1,0,0:0:0:0:
256,192,68590,1,8,0:0:0:0:
256,192,68741,1,8,0:0:0:0:
256,192,68892,1,0,0:0:0:0:
256,192,68967,1,0,0:0:0:0:
256,192,69042,1,0,0:0:0:0:
256,192,69193,1,8,0:0:0:0:
256,192,69344,1,8,0:0:0:0:
256,192,69419,1,8,0:0:0:0:
256,192,69495,1,0,0:0:0:0:
256,192,69646,1,8,0:0:0:0:
256,192,69796,1,0,0:0:0:0:
256,192,69872,1,8,0:0:0:0:
256,192,69947,1,8,0:0:0:0:
256,192,70022,1,8,0:0:0:0:
256,192,70098,1,0,0:0:0:0:
256,192,70173,1,0,0:0:0:0:
256,192,70249,1,8,0:0:0:0:
256,192,70399,1,0,0:0:0:0:
256,192,70550,1,0,0:0:0:0:
256,192,70701,1,8,0:0:0:0:
256,192,70776,1,8,0:0:0:0:
256,192,70852,1,0,0:0:0:0:
256,192,71002,1,0,0:0:0:0:
256,192,71153,1,0,0:0:0:0:
256,192,71228,1,0,0:0:0:0:
256,192,71304,1,8,0:0:0:0:
256,192,71379,1,8,0:0:0:0:
256,192,71455,1,0,0:0:0:0:
256,192,71605,1,0,0:0:0:0:
256,192,71756,1,0,0:0:0:0:
256,192,71907,1,8,0:0:0:0:
256,192,71982,1,8,0:0:0:0:
256,192,72058,1,0,0:0:0:0:
256,192,72208,1,0,0:0:0:0:
256,192,72359,1,0,0:0:0:0:
256,192,72510,1,8,0:0:0:0:
256,192,72661,1,0,0:0:0:0:
256,192,72736,1,0,0:0:0:0:
256,192,72811,1,0,0:0:0:0:
256,192,72962,1,8,0:0:0:0:
256,192,73037,1,0,0:0:0:0:
256,192,73113,1,8,0:0:0:0:
256,192,73188,1,8,0:0:0:0:
256,192,73264,1,0,0:0:0:0:
256,192,73414,1,0,0:0:0:0:
256,192,73565,1,8,0:0:0:0:
256,192,73640,1,0,0:0:0:0:
256,192,73716,1,8,0:0:0:0:
256,192,73867,1,8,0:0:0:0:
256,192,74017,1,4,0:0:0:0:
256,192,74168,1,0,0:0:0:0:
256,192,74243,1,0,0:0:0:0:
256,192,74319,1,8,0:0:0:0:
256,192,74470,1,0,0:0:0:0:
256,192,74620,1,0,0:0:0:0:
256,192,74771,1,8,0:0:0:0:
256,192,74847,1,0,0:0:0:0:
256,192,74922,1,8,0:0:0:0:
256,192,74997,1,8,0:0:0:0:
256,192,75073,1,0,0:0:0:0:
256,192,75223,1,0,0:0:0:0:
256,192,75374,1,0,0:0:0:0:
256,192,75450,1,0,0:0:0:0:
256,192,75525,1,8,0:0:0:0:
256,192,75600,1,8,0:0:0:0:
256,192,75676,1,0,0:0:0:0:
256,192,75826,1,0,0:0:0:0:
256,192,75977,1,8,0:0:0:0:
256,192,76053,1,0,0:0:0:0:
256,192,76128,1,8,0:0:0:0:
256,192,76203,1,8,0:0:0:0:
256,192,76279,1,0,0:0:0:0:
256,192,76429,1,8,0:0:0:0:
256,192,76505,1,0,0:0:0:0:
256,192,76580,1,0,0:0:0:0:
256,192,76656,1,0,0:0:0:0:
256,192,76731,1,8,0:0:0:0:
256,192,76806,1,8,0:0:0:0:
256,192,76882,1,0,0:0:0:0:
256,192,76957,1,0,0:0:0:0:
256,192,77032,1,8,0:0:0:0:
256,192,77108,1,0,0:0:0:0:
256,192,77183,1,8,0:0:0:0:
256,192,77259,1,8,0:0:0:0:
256,192,77334,1,0,0:0:0:0:
256,192,77409,1,8,0:0:0:0:
256,192,77485,1,8,0:0:0:0:
256,192,77560,1,8,0:0:0:0:
256,192,77635,1,0,0:0:0:0:
256,192,77836,1,8,0:0:0:0:
256,192,78037,1,8,0:0:0:0:
256,192,78238,1,0,0:0:0:0:
256,192,78439,1,8,0:0:0:0:
256,192,78640,1,0,0:0:0:0:
256,192,78841,1,8,0:0:0:0:
256,192,78992,1,0,0:0:0:0:
256,192,79068,1,0,0:0:0:0:
256,192,79143,1,8,0:0:0:0:
256,192,79294,1,0,0:0:0:0:
256,192,79445,1,0,0:0:0:0:
256,192,79595,1,0,0:0:0:0:
256,192,79671,1,0,0:0:0:0:
256,192,79746,1,8,0:0:0:0:
256,192,79821,1,8,0:0:0:0:
256,192,79897,1,0,0:0:0:0:
256,192,80048,1,0,0:0:0:0:
256,192,80198,1,0,0:0:0:0:
256,192,80349,1,8,0:0:0:0:
256,192,80424,1,8,0:0:0:0:
256,192,80500,1,0,0:0:0:0:
256,192,80651,1,0,0:0:0:0:
256,192,80801,1,8,0:0:0:0:
256,192,80877,1,0,0:0:0:0:
256,192,80952,1,8,0:0:0:0:
256,192,81027,1,8,0:0:0:0:
256,192,81103,1,0,0:0:0:0:
256,192,81254,1,0,0:0:0:0:
256,192,81404,1,0,0:0:0:0:
256,192,81480,1,0,0:0:0:0:
256,192,81555,1,8,0:0:0:0:
256,192,81706,1,0,0:0:0:0:
256,192,81857,1,0,0:0:0:0:
256,192,82007,1,0,0:0:0:0:
256,192,82083,1,0,0:0:0:0:
256,192,82158,1,8,0:0:0:0:
256,192,82233,1,8,0:0:0:0:
256,192,82309,1,0,0:0:0:0:
256,192,82460,1,0,0:0:0:0:
256,192,82610,1,0,0:0:0:0:
256,192,82761,1,8,0:0:0:0:
256,192,82912,1,0,0:0:0:0:
256,192,82987,1,0,0:0:0:0:
256,192,83063,1,0,0:0:0:0:
256,192,83213,1,0,0:0:0:0:
256,192,83364,1,8,0:0:0:0:
256,192,83666,1,0,0:0:0:0:
256,192,83816,1,0,0:0:0:0:
256,192,83967,1,8,0:0:0:0:
256,192,84118,1,0,0:0:0:0:
256,192,84193,1,0,0:0:0:0:
256,192,84269,1,0,0:0:0:0:
256,192,84419,1,0,0:0:0:0:
256,192,84570,1,8,0:0:0:0:
256,192,84646,1,8,0:0:0:0:
256,192,84721,1,0,0:0:0:0:
256,192,84872,1,0,0:0:0:0:
256,192,85022,1,0,0:0:0:0:
256,192,85173,1,8,0:0:0:0:
256,192,85324,1,0,0:0:0:0:
256,192,85475,1,0,0:0:0:0:
256,192,85625,1,0,0:0:0:0:
256,192,85701,1,0,0:0:0:0:
256,192,85776,1,8,0:0:0:0:
256,192,85852,1,8,0:0:0:0:
256,192,85927,1,0,0:0:0:0:
256,192,86078,1,0,0:0:0:0:
256,192,86228,1,0,0:0:0:0:
256,192,86304,1,0,0:0:0:0:
256,192,86379,1,8,0:0:0:0:
256,192,86530,1,0,0:0:0:0:
256,192,86681,1,0,0:0:0:0:
256,192,86831,1,8,0:0:0:0:
256,192,86907,1,0,0:0:0:0:
256,192,86982,1,8,0:0:0:0:
256,192,87058,1,8,0:0:0:0:
256,192,87133,1,0,0:0:0:0:
256,192,87208,1,0,0:0:0:0:
256,192,87284,1,8,0:0:0:0:
256,192,87585,1,0,0:0:0:0:
256,192,87887,1,8,0:0:0:0:
256,192,88037,1,8,0:0:0:0:
256,192,88188,1,0,0:0:0:0:
256,192,88339,1,8,0:0:0:0:
256,192,88490,1,0,0:0:0:0:
256,192,88791,1,8,0:0:0:0:
256,192,88942,1,0,0:0:0:0:
256,192,89017,1,0,0:0:0:0:
256,192,89093,1,0,0:0:0:0:
256,192,89243,1,0,0:0:0:0:
256,192,89394,1,8,0:0:0:0:
256,192,89545,1,0,0:0:0:0:
256,192,89620,1,0,0:0:0:0:
256,192,89696,1,8,0:0:0:0:
256,192,89847,1,0,0:0:0:0:
256,192,89922,1,8,0:0:0:0:
256,192,90073,1,0,0:0:0:0:
256,192,90148,1,8,0:0:0:0:
256,192,90223,1,0,0:0:0:0:
256,192,90299,1,0,0:0:0:0:
256,192,90450,1,0,0:0:0:0:
256,192,90600,1,8,0:0:0:0:
256,192,90751,1,0,0:0:0:0:
256,192,90902,1,0,0:0:0:0:
256,192,91053,1,0,0:0:0:0:
256,192,91203,1,8,0:0:0:0:
256,192,91354,1,0,0:0:0:0:
256,192,91429,1,0,0:0:0:0:
256,192,91505,1,0,0:0:0:0:
256,192,91656,1,0,0:0:0:0:
256,192,91806,1,8,0:0:0:0:
256,192,91882,1,8,0:0:0:0:
256,192,91957,1,0,0:0:0:0:
256,192,92108,1,0,0:0:0:0:
256,192,92259,1,0,0:0:0:0:
256,192,92409,1,8,0:0:0:0:
256,192,92711,1,0,0:0:0:0:
256,192,92786,1,0,0:0:0:0:
256,192,92862,1,0,0:0:0:0:
256,192,92937,1,0,0:0:0:0:
256,192,93012,1,8,0:0:0:0:
256,192,93163,1,8,0:0:0:0:
256,192,93314,1,4,0:0:0:0:
256,192,93465,1,0,0:0:0:0:
256,192,93540,1,0,0:0:0:0:
256,192,93615,1,8,0:0:0:0:
256,192,93691,1,8,0:0:0:0:
256,192,93766,1,0,0:0:0:0:
256,192,93917,1,0,0:0:0:0:
256,192,94068,1,8,0:0:0:0:
256,192,94143,1,0,0:0:0:0:
256,192,94218,1,8,0:0:0:0:
256,192,94294,1,8,0:0:0:0:
256,192,94369,1,0,0:0:0:0:
256,192,94520,1,0,0:0:0:0:
256,192,94671,1,0,0:0:0:0:
256,192,94746,1,0,0:0:0:0:
256,192,94821,1,8,0:0:0:0:
256,192,94972,1,0,0:0:0:0:
256,192,95123,1,8,0:0:0:0:
256,192,95274,1,8,0:0:0:0:
256,192,95349,1,0,0:0:0:0:
256,192,95424,1,8,0:0:0:0:
256,192,95575,1,0,0:0:0:0:
256,192,95726,1,0,0:0:0:0:
256,192,95952,1,0,0:0:0:0:
256,192,96178,1,8,0:0:0:0:
256,192,96329,1,0,0:0:0:0:
256,192,96555,1,0,0:0:0:0:
256,192,96781,1,8,0:0:0:0:
256,192,96932,1,0,0:0:0:0:
256,192,97158,1,0,0:0:0:0:
256,192,97309,1,8,0:0:0:0:
256,192,97384,1,0,0:0:0:0:
256,192,97460,1,0,0:0:0:0:
256,192,97535,1,8,0:0:0:0:
256,192,98138,1,0,0:0:0:0:
256,192,98439,1,8,0:0:0:0:
256,192,98741,1,0,0:0:0:0:
256,192,99042,1,8,0:0:0:0:
256,192,99193,1,8,0:0:0:0:
256,192,99243,1,8,0:0:0:0:
256,192,99294,1,8,0:0:0:0:
256,192,99344,1,0,0:0:0:0:
256,192,99646,1,8,0:0:0:0:
256,192,99947,1,0,0:0:0:0:
256,192,100249,1,8,0:0:0:0:
256,192,100399,1,8,0:0:0:0:
256,192,100450,1,8,0:0:0:0:
256,192,100500,1,0,0:0:0:0:
256,192,100550,1,0,0:0:0:0:
256,192,100852,1,8,0:0:0:0:
256,192,101153,1,0,0:0:0:0:
256,192,101455,1,8,0:0:0:0:
256,192,101555,1,0,0:0:0:0:
256,192,101656,1,8,0:0:0:0:
256,192,101756,1,8,0:0:0:0:
256,192,102058,1,8,0:0:0:0:
256,192,102359,1,0,0:0:0:0:
256,192,102661,1,8,0:0:0:0:
256,192,102811,1,0,0:0:0:0:
256,192,102962,1,8,0:0:0:0:
256,192,103264,1,8,0:0:0:0:
256,192,103565,1,0,0:0:0:0:
256,192,103867,1,8,0:0:0:0:
256,192,104017,1,0,0:0:0:0:
256,192,104168,1,0,0:0:0:0:
256,192,104470,1,8,0:0:0:0:
256,192,104771,1,0,0:0:0:0:
256,192,105073,1,8,0:0:0:0:
256,192,105223,1,0,0:0:0:0:
256,192,105374,1,0,0:0:0:0:
256,192,105676,1,8,0:0:0:0:
256,192,105977,1,0,0:0:0:0:
256,192,106279,1,8,0:0:0:0:
256,192,106580,1,0,0:0:0:0:
256,192,106882,1,8,0:0:0:0:
256,192,107183,1,0,0:0:0:0:
256,192,107485,1,8,0:0:0:0:
256,192,107786,1,0,0:0:0:0:
256,192,107937,1,0,0:0:0:0:
256,192,108088,1,8,0:0:0:0:
256,192,108238,1,0,0:0:0:0:
256,192,108389,1,0,0:0:0:0:
256,192,108540,1,0,0:0:0:0:
256,192,108615,1,0,0:0:0:0:
256,192,108691,1,8,0:0:0:0:
256,192,108841,1,0,0:0:0:0:
256,192,108992,1,0,0:0:0:0:
256,192,109143,1,8,0:0:0:0:
256,192,109218,1,0,0:0:0:0:
256,192,109294,1,8,0:0:0:0:
256,192,109445,1,0,0:0:0:0:
256,192,109595,1,0,0:0:0:0:
256,192,109671,1,8,0:0:0:0:
256,192,109746,1,0,0:0:0:0:
256,192,109821,1,0,0:0:0:0:
256,192,109897,1,8,0:0:0:0:
256,192,110048,1,0,0:0:0:0:
256,192,110198,1,0,0:0:0:0:
256,192,110349,1,0,0:0:0:0:
256,192,110500,1,8,0:0:0:0:
256,192,110651,1,0,0:0:0:0:
256,192,110801,1,0,0:0:0:0:
256,192,110952,1,0,0:0:0:0:
256,192,111027,1,0,0:0:0:0:
256,192,111103,1,8,0:0:0:0:
256,192,111254,1,0,0:0:0:0:
256,192,111404,1,0,0:0:0:0:
256,192,111555,1,8,0:0:0:0:
256,192,111630,1,0,0:0:0:0:
256,192,111706,1,8,0:0:0:0:
256,192,111857,1,0,0:0:0:0:
256,192,112007,1,8,0:0:0:0:
256,192,112083,1,8,0:0:0:0:
256,192,112158,1,0,0:0:0:0:
256,192,112233,1,0,0:0:0:0:
256,192,112309,1,8,0:0:0:0:
256,192,112460,1,0,0:0:0:0:
256,192,112610,1,8,0:0:0:0:
256,192,112686,1,0,0:0:0:0:
256,192,112761,1,0,0:0:0:0:
256,192,112836,1,0,0:0:0:0:
256,192,112912,1,8,0:0:0:0:
256,192,112987,1,8,0:0:0:0:
256,192,113063,1,0,0:0:0:0:
256,192,113138,1,0,0:0:0:0:
256,192,113213,1,8,0:0:0:0:
256,192,113289,1,0,0:0:0:0:
256,192,113364,1,8,0:0:0:0:
256,192,113439,1,0,0:0:0:0:
256,192,113515,1,8,0:0:0:0:
256,192,113590,1,8,0:0:0:0:
256,192,113666,1,0,0:0:0:0:
256,192,113741,1,0,0:0:0:0:
256,192,113816,1,8,0:0:0:0:
256,192,113892,1,0,0:0:0:0:
256,192,113967,1,0,0:0:0:0:
256,192,114042,1,0,0:0:0:0:
256,192,114118,1,8,0:0:0:0:
256,192,114193,1,8,0:0:0:0:
256,192,114269,1,0,0:0:0:0:
256,192,114344,1,0,0:0:0:0:
256,192,114419,1,8,0:0:0:0:
256,192,114495,1,0,0:0:0:0:
256,192,114570,1,8,0:0:0:0:
256,192,114646,1,8,0:0:0:0:
256,192,114721,1,0,0:0:0:0:
256,192,114796,1,8,0:0:0:0:
256,192,114872,1,0,0:0:0:0:
256,192,114947,1,0,0:0:0:0:
256,192,115022,1,8,0:0:0:0:
256,192,115173,1,0,0:0:0:0:
256,192,115249,1,0,0:0:0:0:
256,192,115324,1,8,0:0:0:0:
256,192,115475,1,0,0:0:0:0:
256,192,115625,1,8,0:0:0:0:
256,192,115776,1,0,0:0:0:0:
256,192,115852,1,0,0:0:0:0:
256,192,115927,1,8,0:0:0:0:
256,192,116078,1,8,0:0:0:0:
256,192,116228,1,0,0:0:0:0:
256,192,117284,1,8,0:0:0:0:
256,192,117434,1,0,0:0:0:0:
256,192,117485,1,0,0:0:0:0:
256,192,117535,1,0,0:0:0:0:
256,192,117585,1,8,0:0:0:0:
256,192,117635,1,8,0:0:0:0:
256,192,117686,1,8,0:0:0:0:
256,192,117736,1,0,0:0:0:0:
256,192,117811,1,0,0:0:0:0:
256,192,117887,1,8,0:0:0:0:
256,192,117962,1,8,0:0:0:0:
256,192,118037,1,0,0:0:0:0:
256,192,118188,1,8,0:0:0:0:
256,192,118226,1,8,0:0:0:0:
256,192,118339,1,0,0:0:0:0:
256,192,118640,1,8,0:0:0:0:
256,192,118678,1,8,0:0:0:0:
256,192,118942,1,0,0:0:0:0:
256,192,119093,1,8,0:0:0:0:
256,192,119130,1,8,0:0:0:0:
256,192,119243,1,0,0:0:0:0:
256,192,119545,1,8,0:0:0:0:
256,192,119583,1,8,0:0:0:0:
256,192,119847,1,0,0:0:0:0:
256,192,120148,1,0,0:0:0:0:
256,192,120299,1,0,0:0:0:0:
256,192,120450,1,0,0:0:0:0:
256,192,120525,1,8,0:0:0:0:
256,192,120600,1,8,0:0:0:0:
256,192,120676,1,8,0:0:0:0:
256,192,120751,1,0,0:0:0:0:
256,192,120826,1,8,0:0:0:0:
256,192,120902,1,8,0:0:0:0:
256,192,120977,1,8,0:0:0:0:
256,192,121053,1,0,0:0:0:0:
256,192,121203,1,8,0:0:0:0:
256,192,121279,1,8,0:0:0:0:
256,192,121354,1,0,0:0:0:0:
256,192,121429,1,8,0:0:0:0:
256,192,121505,1,8,0:0:0:0:
256,192,121656,1,0,0:0:0:0:
256,192,121731,1,8,0:0:0:0:
256,192,121806,1,8,0:0:0:0:
256,192,121882,1,8,0:0:0:0:
256,192,121957,1,0,0:0:0:0:
256,192,122259,1,0,0:0:0:0:
256,192,122309,1,0,0:0:0:0:
256,192,122359,1,0,0:0:0:0:
256,192,122409,1,8,0:0:0:0:
256,192,122485,1,0,0:0:0:0:
256,192,122560,1,8,0:0:0:0:
256,192,122711,1,0,0:0:0:0:
256,192,122862,1,0,0:0:0:0:
256,192,123012,1,8,0:0:0:0:
256,192,123050,1,8,0:0:0:0:
256,192,123163,1,0,0:0:0:0:
256,192,123465,1,8,0:0:0:0:
256,192,123502,1,8,0:0:0:0:
256,192,123766,1,0,0:0:0:0:
256,192,123917,1,8,0:0:0:0:
256,192,123955,1,8,0:0:0:0:
256,192,124068,1,0,0:0:0:0:
256,192,124369,1,8,0:0:0:0:
256,192,124407,1,8,0:0:0:0:
256,192,124671,1,0,0:0:0:0:
256,192,124721,1,0,0:0:0:0:
256,192,124771,1,0,0:0:0:0:
256,192,124821,1,0,0:0:0:0:
256,192,124897,1,0,0:0:0:0:
256,192,124972,1,8,0:0:0:0:
256,192,125123,1,0,0:0:0:0:
256,192,125274,1,0,0:0:0:0:
256,192,125424,1,8,0:0:0:0:
256,192,125462,1,8,0:0:0:0:
256,192,125575,1,8,0:0:0:0:
256,192,125613,1,8,0:0:0:0:
256,192,125726,1,8,0:0:0:0:
256,192,125764,1,8,0:0:0:0:
256,192,125877,1,0,0:0:0:0:
256,192,125927,1,0,0:0:0:0:
256,192,125977,1,0,0:0:0:0:
256,192,126027,1,8,0:0:0:0:
256,192,126103,1,8,0:0:0:0:
256,192,126178,1,0,0:0:0:0:
256,192,126329,1,0,0:0:0:0:
256,192,126404,1,0,0:0:0:0:
256,192,126480,1,8,0:0:0:0:
256,192,126781,1,0,0:0:0:0:
256,192,127083,1,0,0:0:0:0:
256,192,127133,1,0,0:0:0:0:
256,192,127183,1,0,0:0:0:0:
256,192,127233,1,8,0:0:0:0:
256,192,127284,1,8,0:0:0:0:
256,192,127334,1,8,0:0:0:0:
256,192,127384,1,0,0:0:0:0:
256,192,127460,1,0,0:0:0:0:
256,192,127535,1,8,0:0:0:0:
256,192,127610,1,8,0:0:0:0:
256,192,127686,1,0,0:0:0:0:
256,192,127836,1,8,0:0:0:0:
256,192,127874,1,8,0:0:0:0:
256,192,127987,1,0,0:0:0:0:
256,192,128289,1,8,0:0:0:0:
256,192,128326,1,8,0:0:0:0:
256,192,128590,1,0,0:0:0:0:
256,192,128741,1,8,0:0:0:0:
256,192,128779,1,8,0:0:0:0:
256,192,128892,1,0,0:0:0:0:
256,192,129193,1,8,0:0:0:0:
256,192,129231,1,8,0:0:0:0:
256,192,129495,1,0,0:0:0:0:
256,192,129545,1,0,0:0:0:0:
256,192,129595,1,0,0:0:0:0:
256,192,129646,1,0,0:0:0:0:
256,192,129796,1,0,0:0:0:0:
256,192,129947,1,0,0:0:0:0:
256,192,130098,1,0,0:0:0:0:
256,192,130173,1,8,0:0:0:0:
256,192,130249,1,8,0:0:0:0:
256,192,130324,1,8,0:0:0:0:
256,192,130399,1,0,0:0:0:0:
256,192,130475,1,8,0:0:0:0:
256,192,130550,1,8,0:0:0:0:
256,192,130625,1,8,0:0:0:0:
256,192,130701,1,0,0:0:0:0:
256,192,130852,1,8,0:0:0:0:
256,192,130927,1,8,0:0:0:0:
256,192,131002,1,0,0:0:0:0:
256,192,131078,1,8,0:0:0:0:
256,192,131153,1,8,0:0:0:0:
256,192,131304,1,0,0:0:0:0:
256,192,131379,1,8,0:0:0:0:
256,192,131455,1,8,0:0:0:0:
256,192,131530,1,8,0:0:0:0:
256,192,131605,1,0,0:0:0:0:
256,192,131907,1,0,0:0:0:0:
256,192,132058,1,0,0:0:0:0:
256,192,132208,1,8,0:0:0:0:
256,192,132359,1,0,0:0:0:0:
256,192,132434,1,0,0:0:0:0:
256,192,132510,1,0,0:0:0:0:
256,192,132661,1,8,0:0:0:0:
256,192,132698,1,8,0:0:0:0:
256,192,132811,1,0,0:0:0:0:
256,192,133113,1,8,0:0:0:0:
256,192,133151,1,8,0:0:0:0:
256,192,133264,1,0,0:0:0:0:
256,192,133414,1,0,0:0:0:0:
256,192,133565,1,8,0:0:0:0:
256,192,133603,1,8,0:0:0:0:
256,192,133867,1,0,0:0:0:0:
256,192,134017,1,8,0:0:0:0:
256,192,134055,1,8,0:0:0:0:
256,192,134168,1,0,0:0:0:0:
256,192,134319,1,0,0:0:0:0:
256,192,134470,1,8,0:0:0:0:
256,192,134507,1,8,0:0:0:0:
256,192,134771,1,8,0:0:0:0:
256,192,134809,1,8,0:0:0:0:
256,192,134922,1,0,0:0:0:0:
256,192,135073,1,0,0:0:0:0:
256,192,135223,1,8,0:0:0:0:
256,192,135299,1,8,0:0:0:0:
256,192,135374,1,0,0:0:0:0:
256,192,135450,1,8,0:0:0:0:
256,192,135525,1,0,0:0:0:0:
256,192,136731,1,8,0:0:0:0:
256,192,136781,1,8,0:0:0:0:
256,192,136831,1,8,0:0:0:0:
256,192,136882,1,0,0:0:0:0:
256,192,136932,1,8,0:0:0:0:
256,192,136982,1,8,0:0:0:0:
256,192,137032,1,0,0:0:0:0:
256,192,137108,1,0,0:0:0:0:
256,192,137183,1,0,0:0:0:0:
256,192,137259,1,0,0:0:0:0:
256,192,137334,1,8,0:0:0:0:
256,192,137485,1,8,0:0:0:0:
256,192,137635,1,0,0:0:0:0:
256,192,137686,1,0,0:0:0:0:
256,192,137736,1,0,0:0:0:0:
256,192,137786,1,8,0:0:0:0:
256,192,137836,1,0,0:0:0:0:
256,192,137887,1,0,0:0:0:0:
256,192,137937,1,8,0:0:0:0:
256,192,138012,1,8,0:0:0:0:
256,192,138088,1,0,0:0:0:0:
256,192,138163,1,0,0:0:0:0:
256,192,138238,1,8,0:0:0:0:
256,192,138389,1,0,0:0:0:0:
256,192,138465,1,0,0:0:0:0:
256,192,138540,1,8,0:0:0:0:
256,192,138691,1,0,0:0:0:0:
256,192,138841,1,8,0:0:0:0:
256,192,138879,1,8,0:0:0:0:
256,192,138992,1,8,0:0:0:0:
256,192,139030,1,8,0:0:0:0:
256,192,139143,1,0,0:0:0:0:
256,192,139193,1,0,0:0:0:0:
256,192,139243,1,0,0:0:0:0:
256,192,139294,1,0,0:0:0:0:
256,192,139445,1,8,0:0:0:0:
256,192,139595,1,0,0:0:0:0:
256,192,139671,1,0,0:0:0:0:
256,192,139746,1,8,0:0:0:0:
256,192,139897,1,0,0:0:0:0:
256,192,140048,1,8,0:0:0:0:
256,192,140123,1,0,0:0:0:0:
256,192,140198,1,8,0:0:0:0:
256,192,140274,1,8,0:0:0:0:
256,192,140349,1,8,0:0:0:0:
256,192,140500,1,8,0:0:0:0:
256,192,140651,1,0,0:0:0:0:
256,192,140726,1,8,0:0:0:0:
256,192,140801,1,8,0:0:0:0:
256,192,140952,1,0,0:0:0:0:
256,192,141002,1,0,0:0:0:0:
256,192,141053,1,0,0:0:0:0:
256,192,141103,1,8,0:0:0:0:
256,192,141178,1,0,0:0:0:0:
256,192,141254,1,8,0:0:0:0:
256,192,141329,1,8,0:0:0:0:
256,192,141404,1,0,0:0:0:0:
256,192,141555,1,0,0:0:0:0:
256,192,141605,1,0,0:0:0:0:
256,192,141656,1,0,0:0:0:0:
256,192,141706,1,8,0:0:0:0:
256,192,141756,1,8,0:0:0:0:
256,192,141806,1,8,0:0:0:0:
256,192,141857,1,0,0:0:0:0:
256,192,141932,1,0,0:0:0:0:
256,192,142007,1,0,0:0:0:0:
256,192,142083,1,0,0:0:0:0:
256,192,142158,1,8,0:0:0:0:
256,192,142309,1,8,0:0:0:0:
256,192,142384,1,0,0:0:0:0:
256,192,142460,1,8,0:0:0:0:
256,192,142535,1,8,0:0:0:0:
256,192,142610,1,0,0:0:0:0:
256,192,142661,1,0,0:0:0:0:
256,192,142711,1,0,0:0:0:0:
256,192,142761,1,8,0:0:0:0:
256,192,142836,1,8,0:0:0:0:
256,192,142912,1,0,0:0:0:0:
256,192,143063,1,8,0:0:0:0:
256,192,143213,1,0,0:0:0:0:
256,192,143289,1,0,0:0:0:0:
256,192,143364,1,8,0:0:0:0:
256,192,143515,1,0,0:0:0:0:
256,192,143666,1,8,0:0:0:0:
256,192,143703,1,8,0:0:0:0:
256,192,143816,1,8,0:0:0:0:
256,192,143854,1,8,0:0:0:0:
256,192,143967,1,0,0:0:0:0:
256,192,144017,1,0,0:0:0:0:
256,192,144068,1,0,0:0:0:0:
256,192,144118,1,0,0:0:0:0:
256,192,144269,1,8,0:0:0:0:
256,192,144495,1,0,0:0:0:0:
256,192,144570,1,8,0:0:0:0:
256,192,144721,1,0,0:0:0:0:
256,192,144796,1,8,0:0:0:0:
256,192,144947,1,8,0:0:0:0:
256,192,145022,1,0,0:0:0:0:
256,192,145173,1,8,0:0:0:0:
256,192,145324,1,0,0:0:0:0:
256,192,145399,1,8,0:0:0:0:
256,192,145550,1,8,0:0:0:0:
256,192,145625,1,0,0:0:0:0:
256,192,145701,1,0,0:0:0:0:
256,192,145776,1,8,0:0:0:0:
256,192,145927,1,0,0:0:0:0:
256,192,146002,1,0,0:0:0:0:
256,192,146078,1,8,0:0:0:0:
256,192,146153,1,8,0:0:0:0:
256,192,146228,1,0,0:0:0:0:
256,192,146379,1,0,0:0:0:0:
256,192,146429,1,8,0:0:0:0:
256,192,146480,1,8,0:0:0:0:
256,192,146530,1,0,0:0:0:0:
256,192,146580,1,0,0:0:0:0:
256,192,146630,1,0,0:0:0:0:
256,192,146681,1,8,0:0:0:0:
256,192,146831,1,0,0:0:0:0:
256,192,146907,1,0,0:0:0:0:
256,192,146982,1,0,0:0:0:0:
256,192,147133,1,0,0:0:0:0:
256,192,147284,1,8,0:0:0:0:
256,192,147434,1,8,0:0:0:0:
256,192,147510,1,8,0:0:0:0:
256,192,147585,1,0,0:0:0:0:
256,192,147635,1,0,0:0:0:0:
256,192,147686,1,0,0:0:0:0:
256,192,147736,1,8,0:0:0:0:
256,192,147811,1,0,0:0:0:0:
256,192,147887,1,8,0:0:0:0:
256,192,147962,1,8,0:0:0:0:
256,192,148037,1,0,0:0:0:0:
256,192,148188,1,0,0:0:0:0:
256,192,148264,1,8,0:0:0:0:
256,192,148339,1,0,0:0:0:0:
256,192,148490,1,8,0:0:0:0:
256,192,148640,1,8,0:0:0:0:
256,192,148716,1,8,0:0:0:0:
256,192,148791,1,0,0:0:0:0:
256,192,148841,1,0,0:0:0:0:
256,192,148892,1,0,0:0:0:0:
256,192,148942,1,0,0:0:0:0:
256,192,149093,1,8,0:0:0:0:
256,192,149243,1,8,0:0:0:0:
256,192,149394,1,0,0:0:0:0:
256,192,149470,1,0,0:0:0:0:
256,192,149545,1,8,0:0:0:0:
256,192,149696,1,0,1:0:0:0:
256,192,149771,1,8,0:0:0:0:
256,192,149847,1,8,0:0:0:0:
256,192,149922,1,8,0:0:0:0:
256,192,149997,1,0,0:0:0:0:
256,192,150073,1,8,1:0:0:0:
256,192,150148,1,8,1:0:0:0:
256,192,150223,1,8,1:0:0:0:
256,192,150299,1,0,1:0:0:0:
256,192,150374,1,8,1:0:0:0:
256,192,150450,1,8,1:0:0:0:
256,192,150525,1,8,1:0:0:0:
256,192,150600,1,0,0:0:0:0:
256,192,150651,1,0,0:0:0:0:
256,192,150701,1,0,0:0:0:0:
256,192,150751,1,8,0:0:0:0:
256,192,150826,1,0,0:0:0:0:
256,192,150902,1,8,0:0:0:0:
256,192,150977,1,8,1:0:0:0:
256,192,151053,1,0,0:0:0:0:
256,192,151203,1,8,0:0:0:0:
256,192,151505,1,8,0:0:0:0:
256,192,151656,1,0,0:0:0:0:
256,192,151806,1,0,0:0:0:0:
256,192,151957,1,8,0:0:0:0:
256,192,151995,1,8,0:0:0:0:
256,192,152108,1,0,0:0:0:0:
256,192,152409,1,8,0:0:0:0:
256,192,152447,1,8,0:0:0:0:
256,192,152560,1,0,0:0:0:0:
256,192,152711,1,0,0:0:0:0:
256,192,152862,1,8,0:0:0:0:
256,192,152899,1,8,0:0:0:0:
256,192,153163,1,0,0:0:0:0:
256,192,153314,1,8,0:0:0:0:
256,192,153352,1,8,0:0:0:0:
256,192,153465,1,0,0:0:0:0:
256,192,153615,1,0,0:0:0:0:
256,192,153766,1,8,0:0:0:0:
256,192,153804,1,8,0:0:0:0:
256,192,154068,1,8,0:0:0:0:
256,192,154105,1,8,0:0:0:0:
256,192,154218,1,0,0:0:0:0:
256,192,154369,1,8,0:0:0:0:
256,192,154407,1,8,0:0:0:0:
256,192,154520,1,0,0:0:0:0:
256,192,154671,1,8,0:0:0:0:
256,192,154708,1,8,0:0:0:0:
256,192,154821,1,0,0:0:0:0:
256,192,155726,1,8,0:0:0:0:
256,192,155801,1,8,0:0:0:0:
256,192,155877,1,8,0:0:0:0:
256,192,155952,1,8,0:0:0:0:
256,192,156027,1,4,0:0:0:0:
256,192,156329,1,8,0:0:0:0:
256,192,156480,1,0,0:0:0:0:
256,192,156781,1,8,0:0:0:0:
256,192,156932,1,0,0:0:0:0:
256,192,158037,1,8,0:0:0:0:
256,192,158238,1,8,0:0:0:0:
256,192,158439,1,0,0:0:0:0:
256,192,158741,1,8,0:0:0:0:
256,192,158892,1,0,0:0:0:0:
256,192,159193,1,8,0:0:0:0:
256,192,159344,1,0,0:0:0:0:
256,192,160450,1,0,0:0:0:0:
256,192,160651,1,8,0:0:0:0:
256,192,160852,1,8,0:0:0:0:
256,192,161153,1,8,0:0:0:0:
256,192,161304,1,0,0:0:0:0:
256,192,161605,1,8,0:0:0:0:
256,192,161756,1,0,0:0:0:0:
256,192,162862,1,0,0:0:0:0:
256,192,163063,1,8,0:0:0:0:
256,192,163264,1,0,0:0:0:0:
256,192,163565,1,0,0:0:0:0:
256,192,163716,1,8,0:0:0:0:
256,192,164017,1,0,0:0:0:0:
256,192,164168,1,8,0:0:0:0:
256,192,164470,2,0,L|256:160,14,28.004059426339
256,192,165676,1,0,0:0:0:0:
256,192,165977,1,8,0:0:0:0:
256,192,166128,1,0,0:0:0:0:
256,192,166429,1,8,0:0:0:0:
256,192,166580,1,0,0:0:0:0:
256,192,167686,1,8,0:0:0:0:
256,192,167887,1,0,0:0:0:0:
256,192,168088,1,0,0:0:0:0:
256,192,168389,1,8,0:0:0:0:
256,192,168540,1,0,0:0:0:0:
256,192,168841,1,8,0:0:0:0:
256,192,168992,1,0,0:0:0:0:
256,192,170098,1,0,0:0:0:0:
256,192,170299,1,8,0:0:0:0:
256,192,170500,1,0,0:0:0:0:
256,192,170801,1,8,0:0:0:0:
256,192,170952,1,0,0:0:0:0:
256,192,171254,1,8,0:0:0:0:
256,192,171404,1,0,0:0:0:0:
256,192,172510,1,0,0:0:0:0:
256,192,172711,1,8,0:0:0:0:
256,192,172912,1,0,0:0:0:0:
256,192,173213,1,0,0:0:0:0:
256,192,173364,1,8,0:0:0:0:
256,192,173666,1,0,0:0:0:0:
256,192,173816,1,8,0:0:0:0:
256,192,174118,12,0,175173,0:0:0:0:
256,192,175324,5,4,0:0:0:0:
256,192,175625,1,0,0:0:0:0:
256,192,175927,1,0,0:0:0:0:
256,192,176228,1,0,0:0:0:0:
256,192,176379,1,8,0:0:0:0:
256,192,176429,1,8,0:0:0:0:
256,192,176480,1,8,0:0:0:0:
256,192,176530,1,0,0:0:0:0:
256,192,176831,1,0,0:0:0:0:
256,192,177133,1,0,0:0:0:0:
256,192,177434,1,0,0:0:0:0:
256,192,177585,1,8,0:0:0:0:
256,192,177635,1,8,0:0:0:0:
256,192,177686,1,0,0:0:0:0:
256,192,177736,1,0,0:0:0:0:
256,192,178037,1,0,0:0:0:0:
256,192,178339,1,0,0:0:0:0:
256,192,178640,1,0,0:0:0:0:
256,192,178741,1,0,0:0:0:0:
256,192,178841,1,8,0:0:0:0:
256,192,178942,1,8,0:0:0:0:
256,192,179243,1,0,0:0:0:0:
256,192,179545,1,0,0:0:0:0:
256,192,179847,1,0,0:0:0:0:
256,192,180148,1,8,0:0:0:0:
256,192,180450,1,0,0:0:0:0:
256,192,180751,1,0,0:0:0:0:
256,192,181053,1,0,0:0:0:0:
256,192,181203,1,0,0:0:0:0:
256,192,181354,1,8,0:0:0:0:
256,192,181656,1,0,0:0:0:0:
256,192,181957,1,0,0:0:0:0:
256,192,182259,1,0,0:0:0:0:
256,192,182409,1,0,0:0:0:0:
256,192,182560,1,8,0:0:0:0:
256,192,182862,1,0,0:0:0:0:
256,192,183163,1,0,0:0:0:0:
256,192,183465,1,0,0:0:0:0:
256,192,183766,1,0,0:0:0:0:
256,192,183917,12,0,184821,0:0:0:0:
256,192,184972,5,0,0:0:0:0:
256,192,185123,1,0,0:0:0:0:
256,192,185274,1,8,0:0:0:0:
256,192,185424,1,0,0:0:0:0:
256,192,185575,1,0,0:0:0:0:
256,192,185726,1,0,0:0:0:0:
256,192,185801,1,0,0:0:0:0:
256,192,185877,1,8,0:0:0:0:
256,192,186027,1,0,0:0:0:0:
256,192,186178,1,0,0:0:0:0:
256,192,186329,1,8,0:0:0:0:
256,192,186404,1,0,0:0:0:0:
256,192,186480,1,8,0:0:0:0:
256,192,186630,1,0,0:0:0:0:
256,192,186781,1,0,0:0:0:0:
256,192,186857,1,0,0:0:0:0:
256,192,186932,1,0,0:0:0:0:
256,192,187007,1,0,0:0:0:0:
256,192,187083,1,8,0:0:0:0:
256,192,187233,1,0,0:0:0:0:
256,192,187384,1,0,0:0:0:0:
256,192,187535,1,0,0:0:0:0:
256,192,187686,1,8,0:0:0:0:
256,192,187836,1,0,0:0:0:0:
256,192,187987,1,0,0:0:0:0:
256,192,188138,1,0,0:0:0:0:
256,192,188213,1,0,0:0:0:0:
256,192,188289,1,8,0:0:0:0:
256,192,188439,1,0,0:0:0:0:
256,192,188590,1,0,0:0:0:0:
256,192,188741,1,8,0:0:0:0:
256,192,188816,1,0,0:0:0:0:
256,192,188892,1,8,0:0:0:0:
256,192,189042,1,0,0:0:0:0:
256,192,189193,1,8,0:0:0:0:
256,192,189269,1,8,0:0:0:0:
256,192,189344,1,0,0:0:0:0:
256,192,189419,1,0,0:0:0:0:
256,192,189495,1,8,0:0:0:0:
256,192,189646,1,0,0:0:0:0:
256,192,189796,1,8,0:0:0:0:
256,192,189872,1,0,0:0:0:0:
256,192,189947,1,0,0:0:0:0:
256,192,190022,1,0,0:0:0:0:
256,192,190098,1,8,0:0:0:0:
256,192,190173,1,8,0:0:0:0:
256,192,190249,1,0,0:0:0:0:
256,192,190324,1,0,0:0:0:0:
256,192,190399,1,8,0:0:0:0:
256,192,190475,1,0,0:0:0:0:
256,192,190550,1,8,0:0:0:0:
256,192,190625,1,0,0:0:0:0:
256,192,190701,1,8,0:0:0:0:
256,192,190776,1,8,0:0:0:0:
256,192,190852,1,0,0:0:0:0:
256,192,190927,1,0,0:0:0:0:
256,192,191002,1,8,0:0:0:0:
256,192,191078,1,0,0:0:0:0:
256,192,191153,1,0,0:0:0:0:
256,192,191228,1,0,0:0:0:0:
256,192,191304,1,8,0:0:0:0:
256,192,191379,1,8,0:0:0:0:
256,192,191455,1,0,0:0:0:0:
256,192,191530,1,0,0:0:0:0:
256,192,191605,1,8,0:0:0:0:
256,192,191656,1,0,0:0:0:0:
256,192,191706,1,0,0:0:0:0:
256,192,191756,1,8,0:0:0:0:
256,192,191831,1,0,0:0:0:0:
256,192,191907,1,8,0:0:0:0:
256,192,191957,1,8,0:0:0:0:
256,192,192007,1,8,0:0:0:0:
256,192,192058,1,8,0:0:0:0:
256,192,192108,1,8,0:0:0:0:
256,192,192158,1,8,0:0:0:0:
256,192,192208,1,0,0:0:0:0:
256,192,192359,12,0,193414,0:0:0:0:
256,192,193565,6,0,L|256:128,6,35
256,192,194168,5,0,0:0:0:0:
256,192,194243,1,0,0:0:0:0:
256,192,194319,1,8,0:0:0:0:
256,192,194470,1,8,0:0:0:0:
256,192,194620,1,4,0:0:0:0:
256,192,194771,1,8,0:0:0:0:
256,192,194847,1,8,0:0:0:0:
256,192,194922,1,0,0:0:0:0:
256,192,194997,1,0,0:0:0:0:
256,192,195073,1,8,0:0:0:0:
256,192,195223,1,0,0:0:0:0:
256,192,195374,1,8,0:0:0:0:
256,192,195450,1,0,0:0:0:0:
256,192,195525,1,0,0:0:0:0:
256,192,195600,1,0,0:0:0:0:
256,192,195676,1,8,0:0:0:0:
256,192,195751,1,8,0:0:0:0:
256,192,195826,1,0,0:0:0:0:
256,192,195977,1,8,0:0:0:0:
256,192,196053,1,0,0:0:0:0:
256,192,196128,1,8,0:0:0:0:
256,192,196203,1,0,0:0:0:0:
256,192,196279,1,8,0:0:0:0:
256,192,196354,1,8,0:0:0:0:
256,192,196429,1,0,0:0:0:0:
256,192,196580,1,8,0:0:0:0:
256,192,196656,1,0,0:0:0:0:
256,192,196806,1,8,0:0:0:0:
256,192,196882,1,0,0:0:0:0:
256,192,196957,1,0,0:0:0:0:
256,192,197032,1,8,0:0:0:0:
256,192,197183,1,8,0:0:0:0:
256,192,197259,1,0,0:0:0:0:
256,192,197334,1,8,0:0:0:0:
256,192,197409,1,8,0:0:0:0:
256,192,197485,1,0,0:0:0:0:
256,192,197560,1,0,0:0:0:0:
256,192,197635,1,8,0:0:0:0:
256,192,197786,1,0,0:0:0:0:
256,192,197937,1,8,0:0:0:0:
256,192,198012,1,0,0:0:0:0:
256,192,198088,1,8,0:0:0:0:
256,192,198163,1,8,0:0:0:0:
256,192,198238,1,0,0:0:0:0:
256,192,198389,1,8,0:0:0:0:
256,192,198465,1,0,0:0:0:0:
256,192,198615,1,8,0:0:0:0:
256,192,198691,1,0,0:0:0:0:
256,192,198766,1,0,0:0:0:0:
256,192,198841,1,8,0:0:0:0:
256,192,198917,1,0,0:0:0:0:
256,192,198992,1,8,0:0:0:0:
256,192,199068,1,0,0:0:0:0:
256,192,199143,1,8,0:0:0:0:
256,192,199218,1,8,0:0:0:0:
256,192,199294,1,0,0:0:0:0:
256,192,199369,1,0,0:0:0:0:
256,192,199445,1,8,0:0:0:0:
256,192,199595,1,8,0:0:0:0:
256,192,199671,1,8,0:0:0:0:
256,192,199746,1,0,0:0:0:0:
256,192,199821,1,0,0:0:0:0:
256,192,199897,1,8,0:0:0:0:
256,192,200048,1,0,0:0:0:0:
256,192,200123,1,0,0:0:0:0:
256,192,200198,1,8,0:0:0:0:
256,192,200274,1,0,0:0:0:0:
256,192,200349,1,8,0:0:0:0:
256,192,200424,1,8,0:0:0:0:
256,192,200500,1,0,0:0:0:0:
256,192,200651,1,0,0:0:0:0:
256,192,200801,1,8,0:0:0:0:
256,192,200877,1,0,0:0:0:0:
256,192,200952,1,8,0:0:0:0:
256,192,201027,1,8,0:0:0:0:
256,192,201103,1,0,0:0:0:0:
256,192,201178,1,8,0:0:0:0:
256,192,201254,1,0,0:0:0:0:
256,192,201404,1,8,0:0:0:0:
256,192,201480,1,0,0:0:0:0:
256,192,201630,1,8,0:0:0:0:
256,192,201706,1,0,0:0:0:0:
256,192,201781,1,0,0:0:0:0:
256,192,201857,1,8,0:0:0:0:
256,192,202007,1,0,0:0:0:0:
256,192,202083,1,0,0:0:0:0:
256,192,202158,1,8,0:0:0:0:
256,192,202233,1,8,0:0:0:0:
256,192,202309,1,0,0:0:0:0:
256,192,202384,1,0,0:0:0:0:
256,192,202460,1,8,0:0:0:0:
256,192,202535,1,0,0:0:0:0:
256,192,202610,1,8,0:0:0:0:
256,192,202686,1,8,0:0:0:0:
256,192,202761,1,0,0:0:0:0:
256,192,202912,1,8,0:0:0:0:
256,192,203063,1,0,0:0:0:0:
256,192,203213,1,0,0:0:0:0:
256,192,203289,1,0,0:0:0:0:
256,192,203364,1,8,0:0:0:0:
256,192,203515,1,0,0:0:0:0:
256,192,203666,1,0,0:0:0:0:
256,192,203741,1,0,0:0:0:0:
256,192,203816,1,0,0:0:0:0:
256,192,203892,1,0,0:0:0:0:
256,192,203967,1,8,0:0:0:0:
256,192,204118,1,8,0:0:0:0:
256,192,204269,1,8,0:0:0:0:
256,192,204419,1,0,0:0:0:0:
256,192,204495,1,0,0:0:0:0:
256,192,204570,1,8,0:0:0:0:
256,192,204646,1,0,0:0:0:0:
256,192,204721,1,8,0:0:0:0:
256,192,204872,1,8,0:0:0:0:
256,192,205022,1,0,0:0:0:0:
256,192,205098,1,0,0:0:0:0:
256,192,205173,1,8,0:0:0:0:
256,192,205324,1,8,0:0:0:0:
256,192,205399,1,0,0:0:0:0:
256,192,205475,1,8,0:0:0:0:
256,192,205625,1,8,0:0:0:0:
256,192,205701,1,0,0:0:0:0:
256,192,205776,1,8,0:0:0:0:
256,192,205852,1,8,0:0:0:0:
256,192,205927,1,0,0:0:0:0:
256,192,206002,1,0,0:0:0:0:
256,192,206078,1,8,0:0:0:0:
256,192,206228,1,8,0:0:0:0:
256,192,206304,1,0,0:0:0:0:
256,192,206455,1,8,0:0:0:0:
256,192,206530,1,0,0:0:0:0:
256,192,206605,1,0,0:0:0:0:
256,192,206681,1,8,0:0:0:0:
256,192,206831,1,8,0:0:0:0:
256,192,206907,1,0,0:0:0:0:
256,192,206982,1,8,0:0:0:0:
256,192,207058,1,8,0:0:0:0:
256,192,207133,1,0,0:0:0:0:
256,192,207208,1,0,0:0:0:0:
256,192,207284,1,8,0:0:0:0:
256,192,207434,1,0,0:0:0:0:
256,192,207585,1,8,0:0:0:0:
256,192,207736,1,8,0:0:0:0:
256,192,207811,1,0,0:0:0:0:
256,192,207887,1,8,0:0:0:0:
256,192,208037,1,8,0:0:0:0:
256,192,208113,1,0,0:0:0:0:
256,192,208264,1,8,0:0:0:0:
256,192,208339,1,0,0:0:0:0:
256,192,208414,1,0,0:0:0:0:
256,192,208490,1,8,0:0:0:0:
256,192,208565,1,0,0:0:0:0:
256,192,208640,1,8,0:0:0:0:
256,192,208716,1,0,0:0:0:0:
256,192,208791,1,8,0:0:0:0:
256,192,208867,1,8,0:0:0:0:
256,192,208942,1,0,0:0:0:0:
256,192,209017,1,0,0:0:0:0:
256,192,209093,1,8,0:0:0:0:
256,192,209243,1,8,0:0:0:0:
256,192,209319,1,0,0:0:0:0:
256,192,209394,1,8,0:0:0:0:
256,192,209470,1,8,0:0:0:0:
256,192,209545,1,0,0:0:0:0:
256,192,209696,1,0,0:0:0:0:
256,192,209771,1,0,0:0:0:0:
256,192,209847,1,8,0:0:0:0:
256,192,209922,1,8,0:0:0:0:
256,192,209997,1,0,0:0:0:0:
256,192,210073,1,0,0:0:0:0:
256,192,210148,1,8,0:0:0:0:
256,192,210299,1,0,0:0:0:0:
256,192,210450,1,8,0:0:0:0:
256,192,210525,1,0,0:0:0:0:
256,192,210600,1,0,0:0:0:0:
256,192,210676,1,0,0:0:0:0:
256,192,210751,1,8,0:0:0:0:
256,192,210902,1,8,0:0:0:0:
256,192,210977,1,8,0:0:0:0:
256,192,211053,1,8,0:0:0:0:
256,192,211203,1,8,0:0:0:0:
256,192,211354,1,0,0:0:0:0:
256,192,211429,1,0,0:0:0:0:
256,192,211505,1,8,0:0:0:0:
256,192,211656,1,0,0:0:0:0:
256,192,211806,1,8,0:0:0:0:
256,192,211957,1,0,0:0:0:0:
256,192,212032,1,0,0:0:0:0:
256,192,212108,1,8,0:0:0:0:
256,192,212259,1,0,0:0:0:0:
256,192,212409,1,8,0:0:0:0:
256,192,212485,1,8,0:0:0:0:
256,192,212560,1,0,0:0:0:0:
256,192,212635,1,0,0:0:0:0:
256,192,212711,1,8,0:0:0:0:
256,192,212862,12,0,213766,0:0:0:0:
256,192,213917,5,0,0:0:0:0:
256,192,214218,1,12,0:0:0:0:
256,192,214369,1,0,0:0:0:0:
256,192,214445,1,0,0:0:0:0:
256,192,214520,1,8,0:0:0:0:
256,192,214671,1,8,0:0:0:0:
256,192,214746,1,0,0:0:0:0:
256,192,214821,1,0,0:0:0:0:
256,192,214897,1,0,0:0:0:0:
256,192,214972,1,8,0:0:0:0:
256,192,215048,1,8,0:0:0:0:
256,192,215123,1,0,0:0:0:0:
256,192,215274,1,8,0:0:0:0:
256,192,215349,1,0,0:0:0:0:
256,192,215424,1,8,0:0:0:0:
256,192,215500,1,8,0:0:0:0:
256,192,215575,1,0,0:0:0:0:
256,192,215651,1,8,0:0:0:0:
256,192,215726,1,0,0:0:0:0:
256,192,215877,1,8,0:0:0:0:
256,192,215952,1,0,0:0:0:0:
256,192,216103,1,8,0:0:0:0:
256,192,216178,1,0,0:0:0:0:
256,192,216254,1,0,0:0:0:0:
256,192,216329,1,8,0:0:0:0:
256,192,216480,1,8,0:0:0:0:
256,192,216555,1,0,0:0:0:0:
256,192,216630,1,8,0:0:0:0:
256,192,216706,1,8,0:0:0:0:
256,192,216781,1,0,0:0:0:0:
256,192,216857,1,0,0:0:0:0:
256,192,216932,1,8,0:0:0:0:
256,192,217083,1,0,0:0:0:0:
256,192,217233,1,8,0:0:0:0:
256,192,217309,1,0,0:0:0:0:
256,192,217384,1,8,0:0:0:0:
256,192,217460,1,8,0:0:0:0:
256,192,217535,1,0,0:0:0:0:
256,192,217686,1,8,0:0:0:0:
256,192,217761,1,0,0:0:0:0:
256,192,217912,1,8,0:0:0:0:
256,192,217987,1,0,0:0:0:0:
256,192,218063,1,0,0:0:0:0:
256,192,218138,1,8,0:0:0:0:
256,192,218213,1,0,0:0:0:0:
256,192,218289,1,8,0:0:0:0:
256,192,218364,1,8,0:0:0:0:
256,192,218439,1,0,0:0:0:0:
256,192,218515,1,8,0:0:0:0:
256,192,218590,1,0,0:0:0:0:
256,192,218666,1,0,0:0:0:0:
256,192,218741,1,8,0:0:0:0:
256,192,218892,1,8,0:0:0:0:
256,192,218967,1,8,0:0:0:0:
256,192,219042,1,0,0:0:0:0:
256,192,219118,1,0,0:0:0:0:
256,192,219193,1,8,0:0:0:0:
256,192,219344,1,0,0:0:0:0:
256,192,219419,1,0,0:0:0:0:
256,192,219495,1,8,0:0:0:0:
256,192,219570,1,0,0:0:0:0:
256,192,219646,1,8,0:0:0:0:
256,192,219721,1,8,0:0:0:0:
256,192,219796,1,0,0:0:0:0:
256,192,219947,1,0,0:0:0:0:
256,192,220098,1,8,0:0:0:0:
256,192,220173,1,0,0:0:0:0:
256,192,220249,1,0,0:0:0:0:
256,192,220324,1,0,0:0:0:0:
256,192,220399,1,8,0:0:0:0:
256,192,220475,1,8,0:0:0:0:
256,192,220550,1,0,0:0:0:0:
256,192,220701,1,8,0:0:0:0:
256,192,220776,1,0,0:0:0:0:
256,192,220927,1,8,0:0:0:0:
256,192,221002,1,0,0:0:0:0:
256,192,221078,1,0,0:0:0:0:
256,192,221153,1,8,0:0:0:0:
256,192,221304,1,8,0:0:0:0:
256,192,221379,1,0,0:0:0:0:
256,192,221455,1,8,0:0:0:0:
256,192,221530,1,8,0:0:0:0:
256,192,221605,1,0,0:0:0:0:
256,192,221681,1,0,0:0:0:0:
256,192,221756,1,8,0:0:0:0:
256,192,221831,1,0,0:0:0:0:
256,192,221907,1,8,0:0:0:0:
256,192,221982,1,8,0:0:0:0:
256,192,222058,1,0,0:0:0:0:
256,192,222208,1,8,0:0:0:0:
256,192,222359,1,0,0:0:0:0:
256,192,222510,1,8,0:0:0:0:
256,192,222585,1,0,0:0:0:0:
256,192,222661,1,8,0:0:0:0:
256,192,222736,1,8,0:0:0:0:
256,192,222811,1,0,0:0:0:0:
256,192,222962,1,0,0:0:0:0:
256,192,223113,1,8,0:0:0:0:
256,192,223188,1,8,0:0:0:0:
256,192,223264,1,8,0:0:0:0:
256,192,223339,1,8,0:0:0:0:
256,192,223414,1,8,0:0:0:0:
256,192,223490,1,8,0:0:0:0:
256,192,223565,1,0,0:0:0:0:
256,192,223716,1,8,0:0:0:0:
256,192,223791,1,8,0:0:0:0:
256,192,223867,1,0,0:0:0:0:
256,192,224017,1,8,0:0:0:0:
256,192,224168,1,0,0:0:0:0:
256,192,224243,1,0,0:0:0:0:
256,192,224319,1,8,0:0:0:0:
256,192,224394,1,8,0:0:0:0:
256,192,224470,1,0,0:0:0:0:
256,192,224620,1,8,0:0:0:0:
256,192,224771,1,0,0:0:0:0:
256,192,224922,1,0,0:0:0:0:
256,192,224997,1,0,0:0:0:0:
256,192,225073,1,8,0:0:0:0:
256,192,225148,1,0,0:0:0:0:
256,192,225223,1,8,0:0:0:0:
256,192,225299,1,8,0:0:0:0:
256,192,225374,1,0,0:0:0:0:
256,192,225525,1,8,0:0:0:0:
256,192,225600,1,0,0:0:0:0:
256,192,225751,1,8,0:0:0:0:
256,192,225826,1,0,0:0:0:0:
256,192,225902,1,0,0:0:0:0:
256,192,225977,1,8,0:0:0:0:
256,192,226128,1,8,0:0:0:0:
256,192,226203,1,8,0:0:0:0:
256,192,226279,1,0,0:0:0:0:
256,192,226429,1,8,0:0:0:0:
256,192,226580,1,0,0:0:0:0:
256,192,226656,1,0,0:0:0:0:
256,192,226731,1,8,0:0:0:0:
256,192,226806,1,8,0:0:0:0:
256,192,226882,1,0,0:0:0:0:
256,192,227032,1,8,0:0:0:0:
256,192,227183,1,0,0:0:0:0:
256,192,227334,1,8,0:0:0:0:
256,192,227409,1,0,0:0:0:0:
256,192,227485,1,8,0:0:0:0:
256,192,227560,1,0,0:0:0:0:
256,192,227635,1,8,0:0:0:0:
256,192,227711,1,8,0:0:0:0:
256,192,227786,1,0,0:0:0:0:
256,192,227862,1,0,0:0:0:0:
256,192,227937,1,8,0:0:0:0:
256,192,228012,1,0,0:0:0:0:
256,192,228088,1,8,0:0:0:0:
256,192,228163,1,8,0:0:0:0:
256,192,228238,1,0,0:0:0:0:
256,192,228314,1,8,0:0:0:0:
256,192,228389,1,0,0:0:0:0:
256,192,228540,1,0,0:0:0:0:
256,192,228691,1,8,0:0:0:0:
256,192,228841,1,0,0:0:0:0:
256,192,228917,1,0,0:0:0:0:
256,192,228992,1,0,0:0:0:0:
256,192,229143,1,0,0:0:0:0:
256,192,229294,1,8,0:0:0:0:
256,192,229445,1,0,0:0:0:0:
256,192,229595,1,0,0:0:0:0:
256,192,229746,1,0,0:0:0:0:
256,192,229897,1,8,0:0:0:0:
256,192,230048,1,0,0:0:0:0:
256,192,230123,1,0,0:0:0:0:
256,192,230198,1,0,0:0:0:0:
256,192,230349,1,0,0:0:0:0:
256,192,230500,1,8,0:0:0:0:
256,192,230651,1,0,0:0:0:0:
256,192,230801,1,8,0:0:0:0:
256,192,230877,1,0,0:0:0:0:
256,192,230952,1,0,0:0:0:0:
256,192,231027,1,0,0:0:0:0:
256,192,231103,1,8,0:0:0:0:
256,192,231178,1,8,0:0:0:0:
256,192,231254,1,0,0:0:0:0:
256,192,231329,1,0,0:0:0:0:
256,192,231404,1,8,0:0:0:0:
256,192,231480,1,0,0:0:0:0:
256,192,231555,1,8,0:0:0:0:
256,192,231630,1,8,0:0:0:0:
256,192,231706,1,0,0:0:0:0:
256,192,231781,1,8,0:0:0:0:
256,192,231857,1,0,0:0:0:0:
256,192,231932,1,0,0:0:0:0:
256,192,232007,1,8,0:0:0:0:
256,192,232233,1,8,0:0:0:0:
256,192,232460,1,0,0:0:0:0:
256,192,232686,1,0,0:0:0:0:
256,192,232761,1,0,0:0:0:0:
256,192,232912,1,8,0:0:0:0:
256,192,233063,1,8,0:0:0:0:
256,192,233213,1,4,0:0:0:0:
256,192,233364,1,0,0:0:0:0:
256,192,233515,1,8,0:0:0:0:
256,192,233590,1,8,0:0:0:0:
256,192,233666,1,0,0:0:0:0:
256,192,233741,1,8,0:0:0:0:
256,192,233816,1,0,0:0:0:0:
256,192,233967,1,0,0:0:0:0:
256,192,234118,1,8,0:0:0:0:
256,192,234269,1,8,0:0:0:0:
256,192,234344,1,8,0:0:0:0:
256,192,234419,1,0,0:0:0:0:
256,192,234570,1,0,0:0:0:0:
256,192,234721,1,8,0:0:0:0:
256,192,234872,1,0,0:0:0:0:
256,192,235022,1,0,0:0:0:0:
256,192,235098,1,0,0:0:0:0:
256,192,235173,1,0,0:0:0:0:
256,192,235249,1,0,0:0:0:0:
256,192,235324,1,8,0:0:0:0:
256,192,235475,1,8,0:0:0:0:
256,192,235625,1,0,0:0:0:0:
256,192,235776,1,0,0:0:0:0:
256,192,235852,1,0,0:0:0:0:
256,192,235927,1,8,0:0:0:0:
256,192,236002,1,8,0:0:0:0:
256,192,236078,1,0,0:0:0:0:
256,192,236228,1,0,0:0:0:0:
256,192,236379,1,0,0:0:0:0:
256,192,236530,1,8,0:0:0:0:
256,192,236681,1,0,0:0:0:0:
256,192,236756,1,0,0:0:0:0:
256,192,236831,1,0,0:0:0:0:
256,192,236982,1,0,0:0:0:0:
256,192,237133,1,8,0:0:0:0:
256,192,237284,1,0,0:0:0:0:
256,192,237359,1,0,0:0:0:0:
256,192,237434,1,8,0:0:0:0:
256,192,237510,1,8,0:0:0:0:
256,192,237585,1,0,0:0:0:0:
256,192,237736,1,8,0:0:0:0:
256,192,237887,1,0,0:0:0:0:
256,192,238037,1,0,0:0:0:0:
256,192,238188,1,0,0:0:0:0:
256,192,238264,1,0,0:0:0:0:
256,192,238339,1,8,0:0:0:0:
256,192,238490,1,0,0:0:0:0:
256,192,238640,1,0,0:0:0:0:
256,192,238791,1,8,0:0:0:0:
256,192,238867,1,0,0:0:0:0:
256,192,238942,1,8,0:0:0:0:
256,192,239017,1,8,0:0:0:0:
256,192,239093,1,0,0:0:0:0:
256,192,239243,1,0,0:0:0:0:
256,192,239394,1,0,0:0:0:0:
256,192,239470,1,0,0:0:0:0:
256,192,239545,1,8,0:0:0:0:
256,192,239696,1,0,0:0:0:0:
256,192,239847,1,0,0:0:0:0:
256,192,239997,1,0,0:0:0:0:
256,192,240073,1,0,0:0:0:0:
256,192,240148,1,8,0:0:0:0:
256,192,240223,1,8,0:0:0:0:
256,192,240299,1,0,0:0:0:0:
256,192,240450,1,0,0:0:0:0:
256,192,240600,1,8,0:0:0:0:
256,192,240751,1,0,0:0:0:0:
256,192,240826,1,0,0:0:0:0:
256,192,240902,1,8,0:0:0:0:
256,192,241053,1,0,0:0:0:0:
256,192,241203,1,0,0:0:0:0:
256,192,241354,1,8,0:0:0:0:
256,192,241656,1,8,0:0:0:0:
256,192,241957,1,8,0:0:0:0:
256,192,242108,1,8,0:0:0:0:
256,192,242259,1,0,0:0:0:0:
256,192,242409,1,0,0:0:0:0:
256,192,242560,1,8,0:0:0:0:
256,192,242635,1,0,0:0:0:0:
256,192,242711,1,0,0:0:0:0:
256,192,242862,1,4,0:0:0:0:
256,192,243012,1,0,0:0:0:0:
256,192,243163,1,8,0:0:0:0:
256,192,243314,1,0,0:0:0:0:
256,192,243389,1,0,0:0:0:0:
256,192,243465,1,0,0:0:0:0:
256,192,243615,1,0,0:0:0:0:
256,192,243766,1,8,0:0:0:0:
256,192,243841,1,8,0:0:0:0:
256,192,243917,1,0,0:0:0:0:
256,192,244068,1,0,0:0:0:0:
256,192,244218,1,0,0:0:0:0:
256,192,244294,1,0,0:0:0:0:
256,192,244369,1,8,0:0:0:0:
256,192,244445,1,8,0:0:0:0:
256,192,244520,1,0,0:0:0:0:
256,192,244671,1,0,0:0:0:0:
256,192,244821,1,0,0:0:0:0:
256,192,244972,1,8,0:0:0:0:
256,192,245048,1,8,0:0:0:0:
256,192,245123,1,0,0:0:0:0:
256,192,245274,1,0,0:0:0:0:
256,192,245424,1,0,0:0:0:0:
256,192,245575,1,8,0:0:0:0:
256,192,245726,1,0,0:0:0:0:
256,192,245801,1,0,0:0:0:0:
256,192,245877,1,0,0:0:0:0:
256,192,246027,1,0,0:0:0:0:
256,192,246178,1,8,0:0:0:0:
256,192,246329,1,0,0:0:0:0:
256,192,246480,1,0,0:0:0:0:
256,192,246630,1,0,0:0:0:0:
256,192,246706,1,0,0:0:0:0:
256,192,246781,1,8,0:0:0:0:
256,192,246932,1,0,0:0:0:0:
256,192,247083,1,8,0:0:0:0:
256,192,247158,1,8,0:0:0:0:
256,192,247233,1,0,0:0:0:0:
256,192,247309,1,0,0:0:0:0:
256,192,247384,1,8,0:0:0:0:
256,192,247535,1,0,0:0:0:0:
256,192,247686,1,8,0:0:0:0:
256,192,247761,1,0,0:0:0:0:
256,192,247836,1,8,0:0:0:0:
256,192,247912,1,8,0:0:0:0:
256,192,247987,1,0,0:0:0:0:
256,192,248063,1,0,0:0:0:0:
256,192,248138,1,8,0:0:0:0:
256,192,248213,1,0,0:0:0:0:
256,192,248289,1,8,0:0:0:0:
256,192,248364,1,8,0:0:0:0:
256,192,248439,1,0,0:0:0:0:
256,192,248515,1,8,0:0:0:0:
256,192,248590,1,0,0:0:0:0:
256,192,248666,1,0,0:0:0:0:
256,192,248741,1,8,0:0:0:0:
256,192,248816,1,0,0:0:0:0:
256,192,248892,1,8,0:0:0:0:
256,192,248967,1,0,0:0:0:0:
256,192,249042,1,8,0:0:0:0:
256,192,249118,1,8,0:0:0:0:
256,192,249193,1,0,0:0:0:0:
256,192,249269,1,0,0:0:0:0:
256,192,249344,1,8,0:0:0:0:
256,192,249419,1,0,0:0:0:0:
256,192,249495,1,8,0:0:0:0:
256,192,249570,1,8,0:0:0:0:
256,192,249646,1,0,0:0:0:0:
256,192,249721,1,8,0:0:0:0:
256,192,249796,1,0,0:0:0:0:
256,192,249872,1,0,0:0:0:0:
256,192,249947,1,8,0:0:0:0:
256,192,250022,1,8,0:0:0:0:
256,192,250098,1,0,0:0:0:0:
256,192,250148,1,0,0:0:0:0:
256,192,250198,1,0,0:0:0:0:
256,192,250249,1,8,0:0:0:0:
256,192,250324,1,0,0:0:0:0:
256,192,250399,1,8,0:0:0:0:
256,192,250450,1,8,0:0:0:0:
256,192,250500,1,8,0:0:0:0:
256,192,250550,1,0,0:0:0:0:
256,192,250625,1,0,0:0:0:0:
256,192,250701,1,8,0:0:0:0:
256,192,250751,1,0,0:0:0:0:
256,192,250801,1,0,0:0:0:0:
256,192,250852,1,8,0:0:0:0:
256,192,250927,1,8,0:0:0:0:
256,192,251002,1,0,0:0:0:0:
256,192,251078,1,0,0:0:0:0:
256,192,251153,1,0,0:0:0:0:
256,192,251228,1,0,0:0:0:0:
256,192,251304,1,8,0:0:0:0:
256,192,252510,1,8,0:0:0:0:
256,192,252962,1,8,0:0:0:0:
256,192,253565,1,8,0:0:0:0:
256,192,253615,1,8,0:0:0:0:
256,192,253666,1,8,0:0:0:0:
256,192,253716,1,0,0:0:0:0:
256,192,254168,1,0,0:0:0:0:
256,192,254771,1,8,0:0:0:0:
256,192,254821,1,8,0:0:0:0:
256,192,254872,1,0,0:0:0:0:
256,192,254922,1,0,0:0:0:0:
256,192,255374,1,0,0:0:0:0:
256,192,255927,1,0,0:0:0:0:
256,192,256027,1,8,0:0:0:0:
256,192,256128,1,8,0:0:0:0:
256,192,256580,1,8,0:0:0:0:
256,192,257032,1,0,0:0:0:0:
256,192,257334,1,8,0:0:0:0:
256,192,257786,1,8,0:0:0:0:
256,192,258238,1,0,0:0:0:0:
256,192,258389,1,8,0:0:0:0:
256,192,258540,1,0,0:0:0:0:
256,192,258992,1,0,0:0:0:0:
256,192,259445,1,0,0:0:0:0:
256,192,259595,1,8,0:0:0:0:
256,192,259746,1,0,0:0:0:0:
256,192,260198,1,0,0:0:0:0:
256,192,260651,1,0,0:0:0:0:
256,192,260952,1,0,0:0:0:0:
256,192,262158,1,8,0:0:0:0:
256,192,262610,1,8,0:0:0:0:
256,192,263213,1,8,0:0:0:0:
256,192,263264,1,8,0:0:0:0:
256,192,263314,1,8,0:0:0:0:
256,192,263364,1,0,0:0:0:0:
256,192,263816,1,0,0:0:0:0:
256,192,264419,1,8,0:0:0:0:
256,192,264470,1,8,0:0:0:0:
256,192,264520,1,0,0:0:0:0:
256,192,264570,1,0,0:0:0:0:
256,192,265022,1,0,0:0:0:0:
256,192,265575,1,0,0:0:0:0:
256,192,265676,1,8,0:0:0:0:
256,192,265776,1,8,0:0:0:0:
256,192,266228,1,8,0:0:0:0:
256,192,266681,1,0,0:0:0:0:
256,192,266982,1,8,0:0:0:0:
256,192,267434,1,8,0:0:0:0:
256,192,267887,1,0,0:0:0:0:
256,192,268037,1,8,0:0:0:0:
256,192,268188,1,0,0:0:0:0:
256,192,268640,1,0,0:0:0:0:
256,192,269093,1,0,0:0:0:0:
256,192,269243,1,8,0:0:0:0:
256,192,269394,1,8,0:0:0:0:
256,192,269847,1,8,0:0:0:0:
256,192,270299,1,8,0:0:0:0:
256,192,270751,1,0,0:0:0:0:
256,192,271203,1,0,0:0:0:0:
256,192,271505,1,8,0:0:0:0:
256,192,271806,1,8,0:0:0:0:
256,192,272259,1,8,0:0:0:0:
256,192,272862,1,8,0:0:0:0:
256,192,272912,1,8,0:0:0:0:
256,192,272962,1,8,0:0:0:0:
256,192,273012,1,0,0:0:0:0:
256,192,273465,1,0,0:0:0:0:
256,192,274068,1,8,0:0:0:0:
256,192,274118,1,8,0:0:0:0:
256,192,274168,1,0,0:0:0:0:
256,192,274218,1,0,0:0:0:0:
256,192,274671,1,0,0:0:0:0:
256,192,275223,1,0,0:0:0:0:
256,192,275324,1,8,0:0:0:0:
256,192,275424,1,8,0:0:0:0:
256,192,275877,1,8,0:0:0:0:
256,192,276329,1,0,0:0:0:0:
256,192,276630,1,8,0:0:0:0:
256,192,277083,1,8,0:0:0:0:
256,192,277535,1,0,0:0:0:0:
256,192,277686,1,8,0:0:0:0:
256,192,277836,1,0,0:0:0:0:
256,192,278289,1,0,0:0:0:0:
256,192,278741,1,0,0:0:0:0:
256,192,278892,1,8,0:0:0:0:
256,192,279042,1,0,0:0:0:0:
256,192,279495,1,0,0:0:0:0:
256,192,279947,1,0,0:0:0:0:
256,192,280399,1,0,0:0:0:0:
256,192,280852,1,0,0:0:0:0:
256,192,281304,1,0,0:0:0:0:
256,192,281756,1,0,0:0:0:0:
256,192,282208,1,0,0:0:0:0:
256,192,282661,1,0,0:0:0:0:
256,192,283113,1,0,0:0:0:0:
256,192,283565,1,0,0:0:0:0:
256,192,284017,1,0,0:0:0:0:
256,192,284470,1,0,0:0:0:0:
256,192,284922,1,0,0:0:0:0:
256,192,290198,12,0,291103,0:0:0:0:
