osu file format v14

[General]
AudioFilename: audio.mp3
AudioLeadIn: 0
PreviewTime: 194290
Countdown: 0
SampleSet: None
StackLeniency: 0.2
Mode: 2
LetterboxInBreaks: 0
WidescreenStoryboard: 1

[Editor]
Bookmarks: 20999,40295,49944,57180,74064,78888,88537,98185,107833,116275,127130,135572,146426,156074,175371,185019,192255,204316,212758,223612,232054,242909,252557,271853,291150
DistanceSpacing: 1.7
BeatDivisor: 4
GridSize: 16
TimelineZoom: 3.099999

[Metadata]
Title:NUCLEAR-STAR
TitleUnicode:NUCLEAR-STAR
Artist:Camellia
ArtistUnicode:かめりあ
Creator:Zyzyx
Version:STAR-GAZER
Source:
Tags:crystallized cametek dubstep melodic drumstep kamel artcore
BeatmapID:1867267
BeatmapSetID:875936

[Difficulty]
HPDrainRate:6
CircleSize:4
OverallDifficulty:9.6
ApproachRate:9.6
SliderMultiplier:1.91999990463257
SliderTickRate:2

[Events]
//Background and Video events
0,0,"Nuc.jpg",0,0
//Break Periods
2,156274,174862
//Storyboard Layer 0 (Background)
//Storyboard Layer 1 (Fail)
//Storyboard Layer 2 (Pass)
//Storyboard Layer 3 (Foreground)
//Storyboard Sound Samples

[TimingPoints]
497,301.507537688442,4,1,1,100,1,0
20999,-75.187969924812,4,2,1,80,0,0
40295,-100,4,2,1,80,0,0
54768,-74.6268656716418,4,3,1,70,0,0
59290,-74.6268656716418,4,3,1,50,0,0
59441,-74.6268656716418,4,3,1,50,0,0
59592,-74.6268656716418,4,3,1,70,0,1
59667,-74.6268656716418,4,3,1,70,0,0
66979,-42.7350427350427,4,3,1,70,0,0
67130,-74.6268656716418,4,3,1,70,0,0
67280,-42.7350427350427,4,3,1,70,0,0
67431,-74.6268656716418,4,3,1,70,0,0
68185,-42.7350427350427,4,3,1,70,0,0
68336,-74.6268656716418,4,3,1,70,0,0
73160,-42.7350427350427,4,3,1,70,0,0
73311,-74.6268656716418,4,3,1,70,0,0
97582,-74.6268656716418,4,3,1,60,0,0
98185,-74.6268656716418,4,3,1,70,0,0
103009,-75.187969924812,4,3,1,70,0,0
107833,-74.6268656716418,4,3,1,70,0,0
117481,-74.6268656716418,4,3,1,70,0,1
119912,-74.6268656716418,4,3,1,30,0,1
120195,-74.6268656716418,4,3,1,70,0,1
122023,-74.6268656716418,4,3,1,20,0,1
122306,-74.6268656716418,4,3,1,70,0,1
125019,-42.9184549356223,4,3,1,70,0,1
125321,-74.6268656716418,4,3,1,70,0,1
125942,-74.6268656716418,4,3,1,40,0,1
126225,-74.6268656716418,4,3,1,70,0,1
126828,-74.6268656716418,4,3,1,60,0,1
127130,-74.6268656716418,4,3,1,70,0,1
131671,-74.6268656716418,4,3,1,20,0,1
131954,-74.6268656716418,4,3,1,70,0,1
135572,-74.6268656716418,4,3,1,70,0,0
136778,-74.6268656716418,4,3,1,70,0,1
140999,-42.9184549356223,4,3,1,70,0,1
141301,-74.6268656716418,4,3,1,70,0,1
143128,-74.6268656716418,4,3,1,20,0,1
143411,-74.6268656716418,4,3,1,70,0,1
147953,-74.6268656716418,4,3,1,20,0,1
148235,-74.6268656716418,4,3,1,70,0,1
154868,-74.6268656716418,4,3,1,70,0,0
155019,-74.6268656716418,4,3,1,20,0,0
155471,-74.6268656716418,4,3,1,60,0,0
156074,-74.6268656716418,4,3,1,70,0,0
175371,-100,4,3,1,70,0,0
185019,-74.6268656716418,4,3,1,70,0,0
189843,-74.6268656716418,4,3,1,70,0,0
194366,-74.6268656716418,4,3,1,50,0,0
194517,-74.6268656716418,4,3,1,50,0,0
194667,-74.6268656716418,4,3,1,70,0,1
212758,-42.7350427350427,4,3,1,70,0,1
213436,-74.6268656716418,4,3,1,70,0,1
213964,-74.6268656716418,4,3,1,70,0,0
214265,-74.6268656716418,4,3,1,70,0,1
233260,-74.6268656716418,4,3,1,70,0,0
233562,-74.6268656716418,4,3,1,70,0,1
236426,-42.7350427350427,4,3,1,70,0,1
236577,-74.6268656716418,4,3,1,70,0,1
238838,-42.7350427350427,4,3,1,70,0,1
238989,-74.6268656716418,4,3,1,70,0,1
240647,-42.7350427350427,4,3,1,70,0,1
240798,-74.6268656716418,4,3,1,70,0,1
240949,-42.7350427350427,4,3,1,70,0,1
241100,-74.6268656716418,4,3,1,70,0,1
241703,-74.6268656716418,4,3,1,60,0,1
242004,-74.6268656716418,4,3,1,70,0,1
242306,-74.6268656716418,4,3,1,40,0,1
242607,-74.6268656716418,4,3,1,60,0,1
242909,-74.6268656716418,4,3,1,70,0,1
246074,-42.7350427350427,4,3,1,70,0,1
246225,-74.6268656716418,4,3,1,70,0,1
252557,-75.187969924812,4,3,1,70,0,0
271853,-75.187969924812,4,3,1,50,0,0
274265,-75.187969924812,4,3,1,40,0,0
275471,-75.187969924812,4,3,1,30,0,0

[Colours]
Combo1 : 192,192,192
Combo2 : 69,228,221
Combo3 : 43,255,255
Combo4 : 255,255,255

[HitObjects]
480,352,59592,6,0,L|288:352,1,192.959981288133,12|0,1:3|1:3,1:3:0:0:
128,288,59893,2,0,L|256:288,1,128.639987525422,2|0,1:3|1:3,1:3:0:0:
384,256,60195,1,8,1:3:0:0:
128,256,60346,1,0,1:3:0:0:
480,256,60496,2,0,L|352:256,1,128.639987525422,2|0,1:3|1:3,1:3:0:0:
128,256,60798,5,8,1:3:0:0:
384,256,60949,1,0,1:3:0:0:
128,256,61100,2,0,B|32:256|32:256|128:256,1,192.959981288133,2|0,1:3|1:3,1:3:0:0:
208,256,61401,2,0,B|304:256|304:256|208:256,1,192.959981288133,8|0,1:3|1:3,1:3:0:0:
128,224,61703,2,0,L|192:224,1,64.3199937627109,2|0,1:3|1:3,1:3:0:0:
272,192,61853,2,0,L|208:192,1,64.3199937627109,0|0,1:3|1:3,1:3:0:0:
48,64,62004,6,0,L|32:192,1,128.639987525422,8|0,1:3|1:3,1:3:0:0:
256,224,62306,2,0,L|128:224,1,128.639987525422,2|0,1:3|1:3,1:3:0:0:
352,224,62607,2,0,L|368:352,1,128.639987525422,8|0,1:3|1:3,1:3:0:0:
128,352,62909,2,0,L|256:352,1,128.639987525422,2|0,1:3|1:3,1:3:0:0:
480,352,63210,5,8,1:3:0:0:
256,352,63361,1,0,1:3:0:0:
480,320,63512,2,0,L|288:320,1,192.959981288133,2|0,1:3|1:3,1:3:0:0:
128,320,63813,1,8,1:3:0:0:
256,320,63964,2,0,L|192:320,1,64.3199937627109,0|0,1:3|1:3,1:3:0:0:
32,256,64115,2,0,P|64:208|144:176,1,128.639987525422,2|0,1:3|1:3,1:3:0:0:
384,160,64416,5,8,1:3:0:0:
256,160,64567,1,0,1:3:0:0:
480,192,64718,2,0,L|288:192,1,192.959981288133,2|0,1:3|1:3,1:3:0:0:
208,224,65019,2,0,L|400:224,1,192.959981288133,8|0,1:3|1:3,1:3:0:0:
480,224,65321,1,2,1:3:0:0:
256,256,65471,1,0,1:3:0:0:
480,256,65622,6,0,L|352:256,1,128.639987525422,8|0,1:3|1:3,1:3:0:0:
128,256,65924,2,0,P|160:208|240:176,1,128.639987525422,2|0,1:3|1:3,1:3:0:0:
368,176,66225,2,0,P|336:128|256:96,1,128.639987525422,8|0,1:3|1:3,1:3:0:0:
64,96,66527,1,2,1:3:0:0:
320,96,66677,1,0,1:3:0:0:
112,160,66828,5,8,1:3:0:0:
32,192,66979,2,0,L|273:192,1,224.639989698944,0|2,1:3|1:3,1:3:0:0:
112,224,67280,2,0,L|352:224,1,224.639989698944,0|8,1:3|1:3,1:3:0:0:
112,224,67582,1,0,1:3:0:0:
336,224,67733,2,0,B|432:224|432:224|336:224,1,192.959981288133,2|0,1:3|1:3,1:3:0:0:
256,224,68034,5,8,1:3:0:0:
384,256,68185,2,0,L|160:256,1,224.639989698944,0|2,1:3|1:3,1:3:0:0:
288,256,68486,1,8,1:3:0:0:
80,256,68637,2,0,L|16:256,1,64.3199937627109,2|0,1:3|1:3,1:3:0:0:
160,224,68788,2,0,B|257:224|257:224|161:224,1,192.959981288133,2|0,1:3|1:3,1:3:0:0:
80,224,69089,1,2,1:3:0:0:
288,192,69240,6,0,B|384:192|384:192|288:192,1,192.959981288133,12|0,1:3|1:3,1:3:0:0:
144,160,69542,2,0,B|48:160|48:160|144:160,1,192.959981288133,2|0,1:3|1:3,1:3:0:0:
336,224,69843,2,0,L|128:224,1,192.959981288133,8|0,1:3|1:3,1:3:0:0:
64,256,70145,2,0,L|256:256,1,192.959981288133,2|0,1:3|1:3,1:3:0:0:
400,304,70446,5,8,1:3:0:0:
272,304,70597,1,0,1:3:0:0:
48,304,70748,2,0,P|64:192|144:192,1,192.959981288133,2|0,1:3|1:3,1:3:0:0:
208,224,71049,2,0,L|80:224,1,128.639987525422,8|0,1:3|1:3,1:3:0:0:
304,224,71351,2,0,B|400:224|400:224|304:224,1,192.959981288133,2|0,1:3|1:3,1:3:0:0:
224,224,71652,6,0,B|128:224|128:224|224:224,1,192.959981288133,8|0,1:3|1:3,1:3:0:0:
400,224,71954,2,0,P|384:112|304:112,1,192.959981288133,2|0,1:3|1:3,1:3:0:0:
240,144,72255,1,8,1:3:0:0:
368,144,72405,1,0,1:3:0:0:
144,144,72557,2,0,P|80:176|48:240,1,128.639987525422,2|0,1:3|1:3,1:3:0:0:
192,240,72858,5,8,1:3:0:0:
64,240,73009,1,0,1:3:0:0:
288,288,73160,2,0,L|64:288,1,224.639989698944,2|0,1:3|1:3,1:3:0:0:
288,288,73461,1,8,1:3:0:0:
160,256,73612,2,0,L|224:256,1,64.3199937627109,0|0,1:3|1:3,1:3:0:0:
384,240,73763,2,0,P|347:187|289:161,1,128.639987525422,2|0,1:3|1:3,1:3:0:0:
80,64,74064,6,0,L|64:192,1,128.639987525422,14|0,1:3|1:3,1:3:0:0:
288,224,74367,1,10,1:3:0:0:
159,223,74517,1,0,1:3:0:0:
384,224,74667,2,0,L|400:352,1,128.639987525422,10|0,1:3|1:3,1:3:0:0:
176,352,74969,2,0,L|48:352,1,128.639987525422,10|0,1:3|1:3,1:3:0:0:
271,351,75270,6,0,L|415:351,1,128.639987525422,10|0,1:3|1:3,1:3:0:0:
176,352,75572,2,0,L|160:224,1,128.639987525422,10|0,1:3|1:3,1:3:0:0:
384,224,75873,1,8,1:3:0:0:
255,223,76023,1,8,1:3:0:0:
480,224,76175,1,2,1:3:0:0:
256,224,76326,1,8,1:3:0:0:
480,224,76476,6,0,L|464:288,1,64.3199937627109,8|0,1:3|1:3,1:3:0:0:
384,288,76627,2,0,L|320:288,1,64.3199937627109,0|0,1:3|1:3,1:3:0:0:
240,256,76778,2,0,L|304:256,1,64.3199937627109,2|0,1:3|1:3,1:3:0:0:
384,256,76929,2,0,L|448:256,1,64.3199937627109,0|0,1:3|1:3,1:3:0:0:
368,224,77079,6,0,L|432:224,1,64.3199937627109,8|0,1:3|1:3,1:3:0:0:
352,224,77230,2,0,L|288:224,1,64.3199937627109,8|0,1:3|1:3,1:3:0:0:
208,192,77381,2,0,L|272:192,1,64.3199937627109,2|0,1:3|1:3,1:3:0:0:
416,192,77532,2,0,L|352:192,1,64.3199937627109,8|0,1:3|1:3,1:3:0:0:
160,144,77682,5,8,1:3:0:0:
336,144,77883,1,0,1:3:0:0:
48,144,78084,1,0,1:3:0:0:
336,144,78285,1,0,1:3:0:0:
48,144,78486,2,0,L|32:240,1,85.7599916836146,0|0,1:3|1:3,1:3:0:0:
128,240,78687,2,0,L|144:336,1,85.7599916836146,0|0,1:3|1:3,1:3:0:0:
320,336,78888,6,0,B|416:336|416:336|320:336,1,192.959981288133,12|0,1:3|1:3,1:3:0:0:
240,304,79190,2,0,L|432:304,1,192.959981288133,2|0,1:3|1:3,1:3:0:0:
288,272,79491,2,0,B|192:272|192:272|288:272,1,192.959981288133,8|0,1:3|1:3,1:3:0:0:
368,240,79793,2,0,L|240:240,1,128.639987525422,2|0,1:3|1:3,1:3:0:0:
160,240,80019,1,0,1:3:0:0:
304,208,80094,6,0,B|400:208|400:208|304:208,1,192.959981288133,8|0,1:3|1:3,1:3:0:0:
224,208,80396,1,2,1:3:0:0:
432,176,80547,2,0,L|304:176,2,128.639987525422,0|8|0,1:3|1:3|1:3,1:3:0:0:
304,176,80999,2,0,P|240:208|224:272,1,128.639987525422,2|0,1:3|1:3,1:3:0:0:
304,288,81225,1,0,1:3:0:0:
448,352,81301,6,0,L|256:352,1,192.959981288133,8|0,1:3|1:3,1:3:0:0:
176,352,81602,1,2,1:3:0:0:
304,320,81753,2,0,P|368:288|384:224,1,128.639987525422,0|8,1:3|1:3,1:3:0:0:
256,224,82054,1,0,1:3:0:0:
384,224,82205,1,2,1:3:0:0:
224,224,82356,2,0,L|288:224,1,64.3199937627109,0|0,1:3|1:3,1:3:0:0:
144,224,82507,6,0,B|48:224|48:224|144:224,1,192.959981288133,8|0,1:3|1:3,1:3:0:0:
336,224,82808,1,2,1:3:0:0:
208,224,82959,2,0,P|144:256|128:320,1,128.639987525422,0|8,1:3|1:3,1:3:0:0:
256,336,83260,1,8,1:3:0:0:
32,336,83411,2,0,L|96:336,3,64.3199937627109,2|0|0|0,1:3|1:3|1:3|1:3,1:3:0:0:
256,304,83713,6,0,P|320:272|336:208,2,128.639987525422,8|0|2,1:3|1:3|1:3,1:3:0:0:
416,224,84165,2,0,P|387:158|324:139,2,128.639987525422,0|8|0,1:3|1:3|1:3,1:3:0:0:
272,224,84617,1,2,1:3:0:0:
480,224,84768,1,0,1:3:0:0:
256,304,84919,6,0,P|192:272|176:208,2,128.639987525422,8|0|2,1:3|1:3|1:3,1:3:0:0:
96,224,85371,2,0,P|125:158|188:139,2,128.639987525422,0|8|0,1:3|1:3|1:3,1:3:0:0:
240,224,85823,1,2,1:3:0:0:
32,224,85974,1,0,1:3:0:0:
256,304,86125,6,0,P|320:272|336:208,2,128.639987525422,8|0|2,1:3|1:3|1:3,1:3:0:0:
112,272,86577,2,0,P|48:240|32:176,2,128.639987525422,0|8|0,1:3|1:3|1:3,1:3:0:0:
256,304,87029,2,0,L|176:304,1,64.3199937627109,2|0,1:3|1:3,1:3:0:0:
112,304,87180,2,0,L|48:304,1,64.3199937627109,0|0,1:3|1:3,1:3:0:0:
192,272,87331,6,0,L|384:272,1,192.959981288133,8|0,1:3|1:3,1:3:0:0:
464,240,87632,2,0,L|272:240,1,192.959981288133,0|0,1:3|1:3,1:3:0:0:
192,208,87934,2,0,L|256:208,1,64.3199937627109,0|0,1:3|1:3,1:3:0:0:
336,208,88084,2,0,L|272:208,1,64.3199937627109,0|0,1:3|1:3,1:3:0:0:
192,176,88235,2,0,L|128:176,1,64.3199937627109,0|0,1:3|1:3,1:3:0:0:
272,176,88386,2,0,L|352:176,1,64.3199937627109,0|0,1:3|1:3,1:3:0:0:
128,48,88537,6,0,B|32:48|32:48|128:48,1,192.959981288133,8|0,1:3|1:3,1:3:0:0:
288,128,88838,2,0,L|160:128,1,128.639987525422,2|0,1:3|1:3,1:3:0:0:
384,160,89140,1,8,1:3:0:0:
160,160,89290,1,0,1:3:0:0:
384,192,89441,2,0,B|480:192|480:192|384:192,1,192.959981288133,2|0,1:3|1:3,1:3:0:0:
240,192,89743,6,0,B|144:192|144:192|240:192,1,192.959981288133,8|0,1:3|1:3,1:3:0:0:
320,192,90044,1,10,1:3:0:0:
112,192,90195,1,8,1:3:0:0:
320,240,90346,1,0,1:3:0:0:
192,240,90496,1,0,1:3:0:0:
400,192,90647,1,2,1:3:0:0:
272,192,90798,2,0,P|240:208|224:240,1,64.3199937627109,0|0,1:3|1:3,1:3:0:0:
384,336,90949,6,0,B|480:336|480:336|384:336,1,192.959981288133,8|0,1:3|1:3,1:3:0:0:
224,256,91250,2,0,L|352:256,1,128.639987525422,2|0,1:3|1:3,1:3:0:0:
128,224,91552,1,8,1:3:0:0:
352,224,91702,1,0,1:3:0:0:
128,192,91853,2,0,B|32:192|32:192|128:192,1,192.959981288133,2|0,1:3|1:3,1:3:0:0:
272,192,92155,6,0,B|368:192|368:192|272:192,1,192.959981288133,8|0,1:3|1:3,1:3:0:0:
128,224,92456,2,0,L|320:224,1,192.959981288133,2|0,1:3|1:3,1:3:0:0:
256,256,92758,2,0,L|320:256,1,64.3199937627109,8|0,1:3|1:3,1:3:0:0:
256,288,92909,2,0,L|320:288,1,64.3199937627109,0|0,1:3|1:3,1:3:0:0:
480,288,93059,1,2,1:3:0:0:
352,288,93210,1,8,1:3:0:0:
128,288,93361,6,0,L|112:160,1,128.639987525422,10|0,1:3|1:3,1:3:0:0:
384,96,93662,2,0,L|400:224,1,128.639987525422,10|0,1:3|1:3,1:3:0:0:
128,288,93964,1,10,1:3:0:0:
399,223,94115,1,0,1:3:0:0:
128,288,94265,2,0,L|112:160,1,128.639987525422,10|0,1:3|1:3,1:3:0:0:
390,159,94567,6,0,L|406:271,1,64.3199937627109,10|0,1:3|1:3,1:3:0:0:
128,288,94793,2,0,L|112:176,1,64.3199937627109,0|10,1:3|1:3,1:3:0:0:
399,222,95019,1,8,1:3:0:0:
128,288,95170,1,10,1:3:0:0:
399,222,95321,2,0,L|390:159,1,64.3199937627109,8|0,1:3|1:3,1:3:0:0:
192,160,95471,1,2,1:3:0:0:
320,160,95622,1,8,1:3:0:0:
48,112,95773,6,0,L|32:240,1,128.639987525422,8|0,1:3|1:3,1:3:0:0:
112,224,95999,2,0,L|96:352,1,128.639987525422,8|0,1:3|1:3,1:3:0:0:
176,352,96225,1,2,1:3:0:0:
464,112,96376,6,0,L|480:240,1,128.639987525422,8|0,1:3|1:3,1:3:0:0:
400,224,96602,2,0,L|416:352,1,128.639987525422,8|0,1:3|1:3,1:3:0:0:
336,352,96828,1,2,1:3:0:0:
128,304,96979,6,0,L|256:304,1,128.639987525422,8|0,1:3|1:3,1:3:0:0:
336,272,97205,2,0,L|208:272,1,128.639987525422,2|2,1:3|1:3,1:3:0:0:
128,272,97431,1,8,1:3:0:0:
207,272,97507,1,8,1:3:0:0:
48,272,97582,6,0,L|16:272,14,32.1599968813555,10|0|0|0|0|0|0|0|0|0|0|0|0|0|0,1:3|1:3|1:3|1:3|1:3|1:3|1:3|1:3|1:3|1:3|1:3|1:3|1:3|1:3|1:3,1:3:0:0:
240,272,98185,6,0,P|326:189|237:128,1,257.279975050844,8|2,1:3|1:3,1:3:0:0:
464,128,98637,2,0,L|336:128,2,128.639987525422,0|8|0,1:3|1:3|1:3,1:3:0:0:
255,127,99089,1,2,1:3:0:0:
384,160,99240,2,0,L|448:160,1,64.3199937627109,0|0,1:3|1:3,1:3:0:0:
272,48,99391,6,0,P|186:131|275:192,1,257.279975050844,8|2,1:3|1:3,1:3:0:0:
48,192,99843,2,0,L|176:192,2,128.639987525422,0|8|0,1:3|1:3|1:3,1:3:0:0:
257,193,100295,1,2,1:3:0:0:
128,160,100446,2,0,L|64:160,1,64.3199937627109,0|0,1:3|1:3,1:3:0:0:
224,160,100597,6,0,B|352:160|352:160|208:160,1,257.279975050844,8|2,1:3|1:3,1:3:0:0:
352,160,101049,2,0,L|480:160,2,128.639987525422,0|8|0,1:3|1:3|1:3,1:3:0:0:
224,160,101502,1,2,1:3:0:0:
368,160,101652,2,0,L|448:160,1,64.3199937627109,0|0,1:3|1:3,1:3:0:0:
288,288,101803,6,0,B|160:288|160:288|304:288,1,257.279975050844,8|2,1:3|1:3,1:3:0:0:
160,288,102255,2,0,L|32:288,2,128.639987525422,0|8|0,1:3|1:3|1:3,1:3:0:0:
288,256,102708,2,0,L|160:256,1,128.639987525422,2|0,1:3|1:3,1:3:0:0:
384,192,103009,6,0,L|128:192,1,255.359976795625,8|2,1:3|1:3,1:3:0:0:
352,192,103461,2,0,L|480:192,2,127.679988397812,0|8|0,1:3|1:3|1:3,1:3:0:0:
128,192,103914,1,2,1:3:0:0:
352,192,104064,1,0,1:3:0:0:
128,288,104215,6,0,L|384:288,1,255.359976795625,8|2,1:3|1:3,1:3:0:0:
160,288,104667,2,0,L|32:288,2,127.679988397812,0|8|0,1:3|1:3|1:3,1:3:0:0:
384,288,105120,1,2,1:3:0:0:
160,288,105270,1,0,1:3:0:0:
384,192,105421,6,0,L|128:192,1,255.359976795625,8|2,1:3|1:3,1:3:0:0:
352,160,105873,2,0,L|496:160,2,127.679988397812,0|8|0,1:3|1:3|1:3,1:3:0:0:
128,160,106326,2,0,L|256:160,1,127.679988397812,2|0,1:3|1:3,1:3:0:0:
32,160,106627,6,0,L|16:288,1,127.679988397812,8|0,1:3|1:3,1:3:0:0:
160,288,106929,2,0,L|288:288,1,127.679988397812,2|0,1:3|1:3,1:3:0:0:
144,256,107230,2,0,L|224:256,2,63.8399941989062,8|0|0,1:3|1:3|1:3,1:3:0:0:
368,256,107532,2,0,B|464:256|464:256|368:256,1,191.519982596719,2|0,1:3|1:3,1:3:0:0:
224,192,107833,5,8,1:3:0:0:
336,192,107984,1,8,1:3:0:0:
128,192,108135,1,8,1:3:0:0:
16,192,108285,1,8,1:3:0:0:
224,256,108436,1,8,1:3:0:0:
336,256,108587,1,8,1:3:0:0:
128,256,108738,1,8,1:3:0:0:
16,256,108889,1,8,1:3:0:0:
288,160,109039,5,8,1:3:0:0:
176,160,109190,1,8,1:3:0:0:
384,160,109341,1,8,1:3:0:0:
496,160,109491,1,8,1:3:0:0:
288,224,109642,1,8,1:3:0:0:
176,224,109793,1,8,1:3:0:0:
384,224,109944,1,8,1:3:0:0:
496,224,110095,1,8,1:3:0:0:
256,160,110245,5,8,1:3:0:0:
144,160,110396,1,8,1:3:0:0:
352,160,110547,1,8,1:3:0:0:
368,272,110698,1,8,1:3:0:0:
160,272,110848,1,8,1:3:0:0:
272,272,110999,1,8,1:3:0:0:
64,272,111150,1,8,1:3:0:0:
48,160,111301,1,8,1:3:0:0:
256,160,111451,5,8,1:3:0:0:
368,160,111602,1,8,1:3:0:0:
160,160,111753,1,8,1:3:0:0:
144,272,111904,1,8,1:3:0:0:
352,272,112054,1,8,1:3:0:0:
240,272,112205,1,8,1:3:0:0:
448,272,112356,1,8,1:3:0:0:
464,160,112507,1,8,1:3:0:0:
192,352,112657,6,0,P|192:320|208:288,1,64.3199937627109,8|0,1:3|1:3,1:3:0:0:
288,288,112808,2,0,P|288:256|272:224,1,64.3199937627109,0|0,1:3|1:3,1:3:0:0:
128,224,112959,2,0,L|48:224,1,64.3199937627109,8|0,1:3|1:3,1:3:0:0:
32,224,113110,2,0,L|96:224,1,64.3199937627109,0|0,1:3|1:3,1:3:0:0:
240,224,113260,6,0,L|304:224,1,64.3199937627109,8|0,1:3|1:3,1:3:0:0:
160,224,113411,2,0,L|144:160,1,64.3199937627109,0|0,1:3|1:3,1:3:0:0:
224,144,113562,2,0,L|288:144,1,64.3199937627109,8|0,1:3|1:3,1:3:0:0:
224,144,113713,2,0,L|160:144,1,64.3199937627109,0|0,1:3|1:3,1:3:0:0:
320,32,113863,6,0,P|320:64|304:96,1,64.3199937627109,8|0,1:3|1:3,1:3:0:0:
224,96,114014,2,0,P|224:128|240:160,1,64.3199937627109,0|0,1:3|1:3,1:3:0:0:
384,160,114165,2,0,L|464:160,1,64.3199937627109,8|0,1:3|1:3,1:3:0:0:
480,160,114316,2,0,L|416:160,1,64.3199937627109,0|0,1:3|1:3,1:3:0:0:
272,160,114466,6,0,L|208:160,1,64.3199937627109,8|0,1:3|1:3,1:3:0:0:
352,160,114617,2,0,L|368:224,1,64.3199937627109,0|0,1:3|1:3,1:3:0:0:
288,240,114768,2,0,L|224:240,1,64.3199937627109,8|0,1:3|1:3,1:3:0:0:
288,240,114919,2,0,L|352:240,1,64.3199937627109,0|0,1:3|1:3,1:3:0:0:
128,128,115069,5,2,1:3:0:0:
112,256,115219,1,8,1:3:0:0:
384,128,115371,1,2,1:3:0:0:
400,256,115521,1,8,1:3:0:0:
192,256,115672,1,2,1:3:0:0:
320,256,115823,1,8,1:3:0:0:
112,208,115974,1,2,1:3:0:0:
240,208,116125,1,8,1:3:0:0:
32,160,116275,1,12,1:3:0:0:
224,160,117331,6,0,L|288:160,1,64.3199937627109,2|0,1:3|1:3,1:3:0:0:
144,160,117481,6,0,L|112:160,6,32.1599968813555,12|0|0|0|0|0|0,1:3|1:3|1:3|1:3|1:3|1:3|1:3,1:3:0:0:
224,160,117783,2,0,B|320:160|320:160|224:160,1,192.959981288133,0|0,1:3|1:3,1:3:0:0:
80,160,118084,5,2,1:3:0:0:
304,192,118235,2,0,L|176:192,1,128.639987525422,0|8,1:3|1:3,1:3:0:0:
32,224,118687,2,0,L|160:224,1,128.639987525422,8|0,1:3|1:3,1:3:0:0:
336,224,119140,2,0,L|272:224,1,64.3199937627109,8|0,1:3|1:3,1:3:0:0:
128,256,119290,2,0,B|32:256|32:256|128:256,1,192.959981288133,2|0,1:3|1:3,1:3:0:0:
208,224,119592,2,0,L|80:224,1,128.639987525422,8|0,1:3|1:3,1:3:0:0:
304,160,119893,5,12,1:3:0:0:
192,160,120044,2,0,L|256:160,1,64.3199937627109,0|0,1:3|1:3,1:3:0:0:
400,160,120195,2,0,L|416:224,1,64.3199937627109,8|0,1:3|1:3,1:3:0:0:
336,224,120346,2,0,L|352:288,1,64.3199937627109,0|0,1:3|1:3,1:3:0:0:
208,288,120496,6,0,P|192:256|192:224,1,64.3199937627109,2|0,1:3|1:3,1:3:0:0:
272,224,120647,2,0,P|256:192|256:160,1,64.3199937627109,0|0,1:3|1:3,1:3:0:0:
336,160,120798,2,0,P|320:128|320:96,1,64.3199937627109,0|0,1:3|1:3,1:3:0:0:
400,96,120949,2,0,P|384:64|384:32,1,64.3199937627109,0|0,1:3|1:3,1:3:0:0:
464,32,121100,1,8,1:3:0:0:
336,32,121250,6,0,L|400:32,1,64.3199937627109,0|0,1:3|1:3,1:3:0:0:
416,64,121401,1,8,1:3:0:0:
336,64,121476,1,0,1:3:0:0:
416,64,121552,1,0,1:3:0:0:
192,64,121703,6,0,L|128:64,1,64.3199937627109,2|0,1:3|1:3,1:3:0:0:
208,96,121853,2,0,L|272:96,1,64.3199937627109,0|0,1:3|1:3,1:3:0:0:
128,96,122004,2,0,B|32:96|32:96|128:96,1,192.959981288133,8|0,1:3|1:3,1:3:0:0:
272,96,122306,6,0,L|304:96,6,32.1599968813555,4|0|0|0|0|0|0,1:3|1:3|1:3|1:3|1:3|1:3|1:3,1:3:0:0:
128,128,122607,1,0,1:3:0:0:
96,132,122644,1,0,1:3:0:0:
72,153,122682,1,0,1:3:0:0:
63,183,122720,1,0,1:3:0:0:
72,213,122757,1,0,1:3:0:0:
96,234,122795,1,0,1:3:0:0:
127,239,122833,1,0,1:3:0:0:
272,240,122909,5,2,1:3:0:0:
480,240,123059,2,0,L|352:240,1,128.639987525422,0|8,1:3|1:3,1:3:0:0:
128,240,123512,2,0,L|256:240,1,128.639987525422,0|0,1:3|1:3,1:3:0:0:
64,208,123964,2,0,L|128:208,1,64.3199937627109,8|0,1:3|1:3,1:3:0:0:
272,256,124115,2,0,B|368:256|368:256|272:256,1,192.959981288133,2|0,1:3|1:3,1:3:0:0:
192,256,124416,2,0,B|128:256|128:256|192:256,1,128.639987525422,8|0,1:3|1:3,1:3:0:0:
416,208,124718,6,0,L|448:208,6,32.1599968813555,8|0|0|0|0|0|0,1:3|1:3|1:3|1:3|1:3|1:3|1:3,1:3:0:0:
256,208,125019,2,0,B|32:208|32:208|256:208,1,447.35999569809,8|2,1:3|1:3,1:3:0:0:
400,256,125471,2,0,L|320:256,1,64.3199937627109,0|0,1:3|1:3,1:3:0:0:
192,256,125622,2,0,L|256:256,1,64.3199937627109,0|0,1:3|1:3,1:3:0:0:
400,224,125773,2,0,L|336:224,1,64.3199937627109,0|0,1:3|1:3,1:3:0:0:
192,224,125924,5,8,1:3:0:0:
160,219,125961,1,0,1:3:0:0:
136,198,125999,1,0,1:3:0:0:
127,168,126037,1,0,1:3:0:0:
136,137,126074,1,0,1:3:0:0:
159,116,126112,1,0,1:3:0:0:
191,111,126150,1,0,1:3:0:0:
336,128,126225,2,0,L|336:192,1,64.3199937627109,8|0,1:3|1:3,1:3:0:0:
192,224,126376,2,0,L|256:224,1,64.3199937627109,8|0,1:3|1:3,1:3:0:0:
400,224,126527,6,0,P|416:144|320:80,1,192.959981288133,10|0,1:3|1:3,1:3:0:0:
256,80,126828,1,8,1:3:0:0:
225,88,126865,1,0,1:3:0:0:
198,106,126903,1,0,1:3:0:0:
181,132,126941,1,0,1:3:0:0:
173,164,126978,1,0,1:3:0:0:
177,195,127016,1,0,1:3:0:0:
193,224,127054,1,0,1:3:0:0:
368,224,127130,6,0,L|400:224,6,32.1599968813555,12|0|0|0|0|0|0,1:3|1:3|1:3|1:3|1:3|1:3|1:3,1:3:0:0:
288,224,127432,2,0,B|192:224|192:224|288:224,1,192.959981288133,0|0,1:3|1:3,1:3:0:0:
432,224,127733,5,2,1:3:0:0:
208,192,127884,2,0,L|336:192,1,128.639987525422,0|8,1:3|1:3,1:3:0:0:
480,160,128336,2,0,L|352:160,1,128.639987525422,8|0,1:3|1:3,1:3:0:0:
176,160,128789,2,0,L|240:160,1,64.3199937627109,8|0,1:3|1:3,1:3:0:0:
384,128,128939,2,0,B|480:128|480:128|384:128,1,192.959981288133,2|0,1:3|1:3,1:3:0:0:
304,160,129241,2,0,L|432:160,1,128.639987525422,8|0,1:3|1:3,1:3:0:0:
208,224,129542,5,8,1:3:0:0:
320,224,129693,2,0,L|256:224,1,64.3199937627109,0|0,1:3|1:3,1:3:0:0:
112,224,129844,2,0,L|96:160,1,64.3199937627109,8|0,1:3|1:3,1:3:0:0:
176,160,129995,2,0,L|160:96,1,64.3199937627109,0|0,1:3|1:3,1:3:0:0:
304,96,130145,6,0,P|320:128|320:160,1,64.3199937627109,2|0,1:3|1:3,1:3:0:0:
240,160,130296,2,0,P|256:192|256:224,1,64.3199937627109,0|0,1:3|1:3,1:3:0:0:
176,224,130447,2,0,P|192:256|192:288,1,64.3199937627109,0|0,1:3|1:3,1:3:0:0:
112,288,130597,2,0,P|128:320|128:352,1,64.3199937627109,0|0,1:3|1:3,1:3:0:0:
48,352,130749,1,8,1:3:0:0:
176,352,130899,6,0,L|112:352,1,64.3199937627109,0|0,1:3|1:3,1:3:0:0:
96,320,131050,1,8,1:3:0:0:
176,320,131125,1,0,1:3:0:0:
96,320,131201,1,0,1:3:0:0:
320,320,131352,6,0,L|384:320,1,64.3199937627109,2|0,1:3|1:3,1:3:0:0:
304,288,131502,2,0,L|240:288,1,64.3199937627109,0|0,1:3|1:3,1:3:0:0:
384,288,131653,2,0,B|480:288|480:288|384:288,1,192.959981288133,8|0,1:3|1:3,1:3:0:0:
192,160,131954,6,0,P|160:176|144:208,1,64.3199937627109,8|0,1:3|1:3,1:3:0:0:
320,160,132105,2,0,P|352:176|368:208,1,64.3199937627109,0|0,1:3|1:3,1:3:0:0:
176,208,132255,2,0,P|144:224|128:256,1,64.3199937627109,2|0,1:3|1:3,1:3:0:0:
336,208,132406,2,0,P|368:224|384:256,1,64.3199937627109,0|0,1:3|1:3,1:3:0:0:
224,288,132557,5,8,1:3:0:0:
64,288,132708,2,0,L|192:288,2,128.639987525422,0|2|0,1:3|1:3|1:3,1:3:0:0:
272,224,133160,2,0,L|144:224,2,128.639987525422,8|0|2,1:3|1:3|1:3,1:3:0:0:
480,224,133612,2,0,L|336:224,1,128.639987525422,0|8,1:3|1:3,1:3:0:0:
416,192,133838,2,0,L|480:192,2,64.3199937627109,0|0|0,1:3|1:3|1:3,1:3:0:0:
240,192,134064,2,0,B|144:192|144:192|240:192,1,192.959981288133,2|0,1:3|1:3,1:3:0:0:
480,144,134366,6,0,L|496:272,1,128.639987525422,8|0,1:3|1:3,1:3:0:0:
256,192,134667,2,0,L|256:320,1,128.639987525422,2|8,1:3|1:3,1:3:0:0:
32,144,134969,2,0,L|16:272,1,128.639987525422,2|8,1:3|1:3,1:3:0:0:
256,192,135270,2,0,L|320:192,1,64.3199937627109,2|2,1:3|1:3,1:3:0:0:
464,192,135421,2,0,L|400:192,1,64.3199937627109,8|8,1:3|1:3,1:3:0:0:
256,272,135572,5,12,1:3:0:0:
400,272,135798,1,8,1:3:0:0:
208,192,136175,2,0,P|144:160|112:96,1,128.639987525422,8|8,1:3|1:3,1:3:0:0:
304,128,136476,2,0,P|368:96|400:32,1,128.639987525422,8|8,1:3|1:3,1:3:0:0:
160,192,136778,6,0,L|128:192,2,32.1599968813555,12|0|0,1:3|1:3|1:3,1:3:0:0:
208,192,136891,1,0,1:3:0:0:
256,192,136929,1,0,1:3:0:0:
287,197,136966,1,0,1:3:0:0:
311,218,137004,1,0,1:3:0:0:
319,248,137042,1,0,1:3:0:0:
310,279,137079,1,0,1:3:0:0:
286,299,137117,1,0,1:3:0:0:
255,304,137155,1,0,1:3:0:0:
160,304,137230,1,0,1:3:0:0:
352,304,137306,5,8,1:3:0:0:
384,272,137381,1,2,1:3:0:0:
160,240,137532,1,0,1:3:0:0:
288,240,137682,2,0,B|384:240|384:240|288:240,1,192.959981288133,8|0,1:3|1:3,1:3:0:0:
144,192,137984,1,8,1:3:0:0:
111,192,138021,1,0,1:3:0:0:
79,192,138059,1,0,1:3:0:0:
46,192,138135,2,0,L|110:192,1,64.3199937627109,0|0,1:3|1:3,1:3:0:0:
192,224,138285,2,0,L|64:224,1,128.639987525422,8|0,1:3|1:3,1:3:0:0:
288,256,138587,5,2,1:3:0:0:
176,256,138738,1,8,1:3:0:0:
288,256,138888,2,0,L|272:192,1,64.3199937627109,8|0,1:3|1:3,1:3:0:0:
192,192,139039,2,0,L|208:128,1,64.3199937627109,8|0,1:3|1:3,1:3:0:0:
368,80,139190,6,0,L|400:80,6,32.1599968813555,8|0|0|0|0|0|0,1:3|1:3|1:3|1:3|1:3|1:3|1:3,1:3:0:0:
224,80,139491,1,8,1:3:0:0:
336,80,139642,2,0,L|352:144,1,64.3199937627109,0|0,1:3|1:3,1:3:0:0:
176,192,139793,1,2,1:3:0:0:
160,304,139944,1,8,1:3:0:0:
368,304,140094,5,8,1:3:0:0:
256,304,140245,1,8,1:3:0:0:
464,288,140396,1,8,1:3:0:0:
256,208,140547,1,8,1:3:0:0:
464,288,140698,1,8,1:3:0:0:
256,208,140849,1,8,1:3:0:0:
384,208,140999,6,0,B|160:208|160:208|384:208,1,447.35999569809,2|8,1:3|1:3,1:3:0:0:
256,208,141451,1,0,1:3:0:0:
48,208,141602,5,8,1:3:0:0:
40,239,141639,1,0,1:3:0:0:
32,270,141677,1,0,1:3:0:0:
80,256,141715,1,0,1:3:0:0:
72,287,141752,1,0,1:3:0:0:
64,318,141790,1,0,1:3:0:0:
112,352,141828,1,0,1:3:0:0:
256,352,141904,5,8,1:3:0:0:
264,321,141941,1,0,1:3:0:0:
272,290,141979,1,0,1:3:0:0:
224,304,142017,1,0,1:3:0:0:
232,273,142054,1,0,1:3:0:0:
240,242,142092,1,0,1:3:0:0:
112,192,142130,5,8,1:3:0:0:
96,144,142205,1,2,1:3:0:0:
304,144,142356,1,0,1:3:0:0:
176,192,142507,2,0,L|368:192,1,192.959981288133,8|0,1:3|1:3,1:3:0:0:
224,224,142808,5,8,1:3:0:0:
191,224,142845,1,0,1:3:0:0:
159,224,142883,1,0,1:3:0:0:
240,224,142959,2,0,L|304:224,1,64.3199937627109,0|0,1:3|1:3,1:3:0:0:
384,256,143110,2,0,L|256:256,1,128.639987525422,8|0,1:3|1:3,1:3:0:0:
32,256,143411,1,2,1:3:0:0:
255,256,143562,1,8,1:3:0:0:
368,192,143713,2,0,L|304:192,1,64.3199937627109,8|0,1:3|1:3,1:3:0:0:
224,192,143863,2,0,L|288:192,1,64.3199937627109,0|0,1:3|1:3,1:3:0:0:
448,192,144014,5,12,1:3:0:0:
454,223,144051,1,0,1:3:0:0:
449,255,144089,1,0,1:3:0:0:
435,283,144127,1,0,1:3:0:0:
412,305,144164,1,0,1:3:0:0:
383,319,144202,1,0,1:3:0:0:
351,322,144240,1,0,1:3:0:0:
64,192,144316,2,0,P|80:288|176:320,1,192.959981288133,8|0,1:3|1:3,1:3:0:0:
352,320,144617,6,0,P|416:288|432:224,1,128.639987525422,2|0,1:3|1:3,1:3:0:0:
256,224,144843,2,0,L|192:224,2,64.3199937627109,0|8|0,1:3|1:3|1:3,1:3:0:0:
400,224,145069,2,0,L|336:224,1,64.3199937627109,0|0,1:3|1:3,1:3:0:0:
160,320,145220,6,0,P|96:288|80:224,1,128.639987525422,8|0,1:3|1:3,1:3:0:0:
256,224,145446,2,0,L|320:224,2,64.3199937627109,0|8|0,1:3|1:3|1:3,1:3:0:0:
112,224,145672,2,0,L|48:224,1,64.3199937627109,0|0,1:3|1:3,1:3:0:0:
192,192,145823,2,0,B|288:192|288:192|192:192,1,192.959981288133,2|0,1:3|1:3,1:3:0:0:
96,192,146125,2,0,P|128:288|208:320,1,192.959981288133,0|0,1:3|1:3,1:3:0:0:
352,192,146426,6,0,L|384:192,2,32.1599968813555,12|0|0,1:3|1:3|1:3,1:3:0:0:
304,192,146539,1,0,1:3:0:0:
256,192,146577,1,0,1:3:0:0:
225,187,146614,1,0,1:3:0:0:
201,166,146652,1,0,1:3:0:0:
193,136,146690,1,0,1:3:0:0:
202,105,146727,1,2,1:3:0:0:
226,85,146765,1,0,1:3:0:0:
257,80,146803,1,0,1:3:0:0:
352,80,146878,1,0,1:3:0:0:
160,80,146954,5,0,1:3:0:0:
128,112,147029,1,0,1:3:0:0:
352,144,147180,1,8,1:3:0:0:
224,144,147330,2,0,B|128:144|128:144|224:144,1,192.959981288133,2|0,1:3|1:3,1:3:0:0:
368,192,147632,1,8,1:3:0:0:
401,192,147669,1,0,1:3:0:0:
433,192,147707,1,0,1:3:0:0:
466,192,147783,2,0,L|402:192,1,64.3199937627109,0|0,1:3|1:3,1:3:0:0:
320,160,147933,2,0,L|448:160,1,128.639987525422,2|0,1:3|1:3,1:3:0:0:
224,128,148235,5,0,1:3:0:0:
336,128,148386,2,0,L|304:192,1,64.3199937627109,8|0,1:3|1:3,1:3:0:0:
224,128,148536,2,0,L|240:192,1,64.3199937627109,2|0,1:3|1:3,1:3:0:0:
320,192,148687,2,0,L|304:256,1,64.3199937627109,0|0,1:3|1:3,1:3:0:0:
144,304,148838,6,0,L|112:304,6,32.1599968813555,8|0|0|0|0|0|0,1:3|1:3|1:3|1:3|1:3|1:3|1:3,1:3:0:0:
288,304,149139,1,2,1:3:0:0:
176,304,149290,2,0,L|160:240,1,64.3199937627109,0|0,1:3|1:3,1:3:0:0:
336,192,149441,1,0,1:3:0:0:
352,80,149592,1,8,1:3:0:0:
144,80,149742,5,2,1:3:0:0:
256,80,149893,1,0,1:3:0:0:
48,96,150044,1,8,1:3:0:0:
256,176,150195,1,0,1:3:0:0:
48,96,150346,1,2,1:3:0:0:
256,176,150497,1,0,1:3:0:0:
48,192,150647,5,8,1:3:0:0:
80,192,150684,1,0,1:3:0:0:
112,192,150722,1,0,1:3:0:0:
48,192,150798,1,0,1:3:0:0:
256,272,150949,2,0,L|128:272,1,128.639987525422,8|0,1:3|1:3,1:3:0:0:
352,272,151250,6,0,L|368:144,1,128.639987525422,6|0,1:3|1:3,1:3:0:0:
128,144,151552,2,0,L|256:144,1,128.639987525422,8|0,1:3|1:3,1:3:0:0:
480,192,151853,1,2,1:3:0:0:
256,192,152004,2,0,L|400:192,2,128.639987525422,0|8|0,1:3|1:3|1:3,1:3:0:0:
32,160,152456,6,0,L|16:288,2,128.639987525422,2|0|8,1:3|1:3|1:3,1:3:0:0:
256,160,152909,1,0,1:3:0:0:
128,112,153059,1,2,1:3:0:0:
120,175,153134,1,0,1:3:0:0:
112,239,153209,1,0,1:3:0:0:
336,256,153361,2,0,L|208:256,1,128.639987525422,2|0,1:3|1:3,1:3:0:0:
32,144,153662,6,0,L|16:272,1,128.639987525422,10|0,1:3|1:3,1:3:0:0:
256,224,153964,2,0,L|256:352,1,128.639987525422,2|0,1:3|1:3,1:3:0:0:
480,144,154265,2,0,L|496:272,1,128.639987525422,2|0,1:3|1:3,1:3:0:0:
192,192,154567,1,2,1:3:0:0:
256,192,154642,1,0,1:3:0:0:
320,192,154717,1,0,1:3:0:0:
64,192,154868,5,12,1:3:0:0:
176,192,155019,1,0,1:3:0:0:
183,223,155056,1,0,1:3:0:0:
191,254,155094,1,0,1:3:0:0:
112,272,155170,6,0,L|101:329,7,32.1599968813555,0|0|0|0|0|0|0|0,1:3|1:3|1:3|1:3|1:3|1:3|1:3|1:3,1:3:0:0:
144,304,155471,6,0,L|133:361,7,32.1599968813555,0|0|0|0|0|0|0|0,1:3|1:3|1:3|1:3|1:3|1:3|1:3|1:3,1:3:0:0:
176,320,155773,6,0,L|165:377,6,32.1599968813555,0|0|0|0|0|0|0,1:3|1:3|1:3|1:3|1:3|1:3|1:3,1:3:0:0:
320,320,156074,1,4,1:3:0:0:
384,192,175371,6,0,L|480:192,1,95.9999952316285,8|0,3:3|1:3,1:3:0:0:
352,192,175672,2,0,L|256:192,1,95.9999952316285,0|0,3:3|1:3,1:3:0:0:
384,224,175974,2,0,L|480:224,1,95.9999952316285,0|0,3:3|1:3,1:3:0:0:
352,224,176275,2,0,L|256:224,1,95.9999952316285,0|0,3:3|1:3,1:3:0:0:
208,224,176502,1,0,1:3:0:0:
32,160,176577,6,0,L|128:160,1,95.9999952316285,8|0,3:3|1:3,1:3:0:0:
256,160,176878,2,0,L|160:160,1,95.9999952316285,0|0,3:3|1:3,1:3:0:0:
32,192,177180,2,0,L|128:192,1,95.9999952316285,0|0,3:3|1:3,1:3:0:0:
256,192,177481,2,0,L|160:192,1,95.9999952316285,0|0,3:3|1:3,1:3:0:0:
112,192,177708,1,0,1:3:0:0:
256,256,177783,6,0,L|352:256,1,95.9999952316285,8|0,3:3|1:3,1:3:0:0:
224,288,178084,2,0,L|320:288,1,95.9999952316285,0|0,3:3|1:3,1:3:0:0:
192,320,178386,2,0,L|288:320,1,95.9999952316285,0|0,3:3|1:3,1:3:0:0:
160,352,178687,1,0,3:3:0:0:
208,352,178788,1,0,1:3:0:0:
256,352,178888,1,0,1:3:0:0:
432,352,178989,6,0,L|336:352,1,95.9999952316285,8|0,3:3|1:3,1:3:0:0:
208,352,179290,2,0,L|112:352,1,95.9999952316285,0|0,3:3|1:3,1:3:0:0:
240,272,179592,2,0,L|336:272,1,95.9999952316285,0|0,3:3|1:3,1:3:0:0:
128,272,179893,2,0,L|32:272,1,95.9999952316285,0|0,3:3|1:3,1:3:0:0:
256,240,180195,6,0,L|272:144,1,95.9999952316285,8|0,3:3|1:3,1:3:0:0:
144,144,180496,2,0,L|128:48,1,95.9999952316285,0|0,3:3|1:3,1:3:0:0:
368,144,180798,2,0,L|384:48,1,95.9999952316285,0|0,3:3|1:3,1:3:0:0:
256,48,181099,2,0,L|352:48,1,95.9999952316285,0|0,3:3|1:3,1:3:0:0:
128,48,181401,6,0,L|112:144,1,95.9999952316285,8|0,3:3|1:3,1:3:0:0:
240,160,181703,2,0,L|256:256,1,95.9999952316285,0|0,3:3|1:3,1:3:0:0:
48,256,182004,2,0,L|32:352,1,95.9999952316285,0|0,3:3|1:3,1:3:0:0:
160,352,182306,2,0,L|64:352,1,95.9999952316285,0|0,3:3|1:3,1:3:0:0:
320,272,182607,6,0,L|416:272,1,95.9999952316285,8|0,3:3|1:3,1:3:0:0:
192,272,182909,2,0,L|96:272,1,95.9999952316285,0|0,3:3|1:3,1:3:0:0:
320,272,183210,2,0,L|336:160,1,95.9999952316285,0|0,3:3|1:3,1:3:0:0:
96,240,183512,2,0,L|80:128,1,95.9999952316285,0|0,3:3|1:3,1:3:0:0:
336,160,183813,1,8,3:3:0:0:
256,192,183888,12,0,184868,1:3:0:0:
224,80,185019,5,8,1:3:0:0:
112,80,185170,1,8,1:3:0:0:
320,160,185321,1,8,1:3:0:0:
432,160,185471,1,8,1:3:0:0:
208,240,185622,1,8,1:3:0:0:
320,240,185773,1,8,1:3:0:0:
96,320,185924,1,8,1:3:0:0:
48,240,186075,1,8,1:3:0:0:
288,304,186225,5,8,1:3:0:0:
400,304,186376,1,8,1:3:0:0:
192,224,186527,1,8,1:3:0:0:
80,224,186677,1,8,1:3:0:0:
304,144,186828,1,8,1:3:0:0:
192,144,186979,1,8,1:3:0:0:
416,64,187130,1,8,1:3:0:0:
464,144,187281,1,8,1:3:0:0:
256,160,187431,5,8,1:3:0:0:
368,160,187582,1,8,1:3:0:0:
160,160,187733,1,8,1:3:0:0:
144,256,187883,1,8,1:3:0:0:
368,256,188034,1,8,1:3:0:0:
256,256,188185,1,8,1:3:0:0:
32,256,188336,1,8,1:3:0:0:
48,160,188487,1,8,1:3:0:0:
256,224,188637,5,8,1:3:0:0:
144,224,188788,1,8,1:3:0:0:
352,224,188939,1,8,1:3:0:0:
368,128,189089,1,8,1:3:0:0:
144,128,189240,1,8,1:3:0:0:
256,128,189391,1,8,1:3:0:0:
480,128,189542,1,8,1:3:0:0:
464,224,189693,1,8,1:3:0:0:
256,224,189843,6,0,L|320:224,1,64.3199937627109,8|0,1:3|1:3,1:3:0:0:
352,224,189994,2,0,L|368:288,1,64.3199937627109,0|0,1:3|1:3,1:3:0:0:
192,288,190145,2,0,L|128:288,1,64.3199937627109,8|0,1:3|1:3,1:3:0:0:
96,320,190296,2,0,L|160:320,1,64.3199937627109,0|0,1:3|1:3,1:3:0:0:
304,320,190446,6,0,L|288:256,1,64.3199937627109,8|0,1:3|1:3,1:3:0:0:
208,256,190597,2,0,L|144:256,1,64.3199937627109,0|0,1:3|1:3,1:3:0:0:
224,224,190748,2,0,L|208:160,1,64.3199937627109,8|0,1:3|1:3,1:3:0:0:
128,160,190899,2,0,L|64:160,1,64.3199937627109,0|0,1:3|1:3,1:3:0:0:
256,160,191049,6,0,L|192:160,1,64.3199937627109,8|0,1:3|1:3,1:3:0:0:
160,160,191200,2,0,L|144:96,1,64.3199937627109,0|0,1:3|1:3,1:3:0:0:
320,96,191351,2,0,L|384:96,1,64.3199937627109,8|0,1:3|1:3,1:3:0:0:
416,64,191502,2,0,L|352:64,1,64.3199937627109,0|0,1:3|1:3,1:3:0:0:
208,64,191652,6,0,L|224:128,1,64.3199937627109,0|0,1:3|1:3,1:3:0:0:
304,128,191803,2,0,L|368:128,1,64.3199937627109,0|0,1:3|1:3,1:3:0:0:
288,160,191954,2,0,L|304:224,1,64.3199937627109,0|0,1:3|1:3,1:3:0:0:
384,224,192105,2,0,L|448:224,1,64.3199937627109,0|0,1:3|1:3,1:3:0:0:
96,128,192255,5,0,1:3:0:0:
92,159,192292,1,0,1:3:0:0:
95,191,192330,1,0,1:3:0:0:
105,222,192368,1,0,1:3:0:0:
120,250,192405,1,0,1:3:0:0:
140,275,192443,1,0,1:3:0:0:
165,295,192481,1,0,1:3:0:0:
194,310,192518,1,0,1:3:0:0:
225,320,192556,1,0,1:3:0:0:
257,322,192594,1,0,1:3:0:0:
288,319,192631,5,0,1:3:0:0:
319,309,192669,1,0,1:3:0:0:
347,294,192707,1,0,1:3:0:0:
372,273,192744,1,0,1:3:0:0:
392,248,192782,1,0,1:3:0:0:
407,220,192820,1,0,1:3:0:0:
416,189,192858,1,0,1:3:0:0:
418,157,192895,1,0,1:3:0:0:
414,125,192933,1,0,1:3:0:0:
208,112,193009,6,0,B|112:112|112:112|208:112,1,192.959981288133,0|0,1:3|1:3,1:3:0:0:
304,112,193311,2,0,P|368:144|384:208,1,128.639987525422,0|0,1:3|1:3,1:3:0:0:
256,192,193612,1,0,1:3:0:0:
193,196,193687,1,0,1:3:0:0:
150,241,193762,1,0,1:3:0:0:
149,304,193838,1,0,1:3:0:0:
192,351,193913,1,0,1:3:0:0:
254,356,193988,1,0,1:3:0:0:
336,352,194064,2,0,P|298:300|240:273,1,128.639987525422,0|8,1:3|1:3,1:3:0:0:
128,272,194366,1,10,1:3:0:0:
464,288,194517,1,10,1:3:0:0:
256,352,194667,6,0,L|240:288,1,64.3199937627109,12|0,1:3|1:3,1:3:0:0:
160,288,194818,2,0,L|144:224,1,64.3199937627109,0|0,1:3|1:3,1:3:0:0:
320,256,194969,2,0,L|256:256,1,64.3199937627109,2|0,1:3|1:3,1:3:0:0:
176,256,195120,2,0,L|96:256,1,64.3199937627109,0|0,1:3|1:3,1:3:0:0:
256,224,195270,6,0,B|352:224|352:224|256:224,1,192.959981288133,8|0,1:3|1:3,1:3:0:0:
112,224,195572,1,2,1:3:0:0:
240,224,195723,1,0,1:3:0:0:
32,192,195873,6,0,L|96:192,3,64.3199937627109,8|0|0|0,1:3|1:3|1:3|1:3,1:3:0:0:
256,192,196175,2,0,L|272:256,1,64.3199937627109,2|0,1:3|1:3,1:3:0:0:
192,256,196326,2,0,L|256:256,1,64.3199937627109,0|0,1:3|1:3,1:3:0:0:
400,256,196476,5,8,1:3:0:0:
480,256,196552,2,0,L|352:256,1,128.639987525422,0|0,1:3|1:3,1:3:0:0:
208,304,196778,1,2,1:3:0:0:
336,304,196929,2,0,L|272:304,1,64.3199937627109,0|0,1:3|1:3,1:3:0:0:
128,304,197079,6,0,L|112:240,1,64.3199937627109,8|0,1:3|1:3,1:3:0:0:
256,240,197230,2,0,L|272:176,1,64.3199937627109,0|0,1:3|1:3,1:3:0:0:
128,160,197381,2,0,L|64:160,1,64.3199937627109,2|0,1:3|1:3,1:3:0:0:
208,160,197532,2,0,L|272:160,1,64.3199937627109,0|0,1:3|1:3,1:3:0:0:
128,192,197682,6,0,L|48:192,1,64.3199937627109,8|0,1:3|1:3,1:3:0:0:
32,192,197833,2,0,L|96:192,1,64.3199937627109,0|0,1:3|1:3,1:3:0:0:
256,192,197984,2,0,L|240:256,1,64.3199937627109,2|0,1:3|1:3,1:3:0:0:
160,288,198135,2,0,L|80:288,1,64.3199937627109,0|0,1:3|1:3,1:3:0:0:
240,288,198285,6,0,L|256:224,3,64.3199937627109,8|0|0|8,1:3|1:3|1:3|1:3,1:3:0:0:
96,288,198587,1,0,1:3:0:0:
96,224,198662,1,0,1:3:0:0:
135,174,198737,1,8,1:3:0:0:
196,158,198813,1,0,1:3:0:0:
336,160,198888,6,0,L|272:160,3,64.3199937627109,8|0|0|0,1:3|1:3|1:3|1:3,1:3:0:0:
128,192,199190,1,2,1:3:0:0:
272,192,199265,1,0,1:3:0:0:
416,192,199341,2,0,L|432:256,1,64.3199937627109,0|0,1:3|1:3,1:3:0:0:
256,352,199491,6,0,L|272:288,1,64.3199937627109,12|0,1:3|1:3,1:3:0:0:
352,288,199642,2,0,L|368:224,1,64.3199937627109,0|0,1:3|1:3,1:3:0:0:
192,256,199793,2,0,L|256:256,1,64.3199937627109,2|0,1:3|1:3,1:3:0:0:
336,256,199944,2,0,L|416:256,1,64.3199937627109,0|0,1:3|1:3,1:3:0:0:
256,224,200094,5,8,1:3:0:0:
176,192,200170,2,0,L|304:192,1,128.639987525422,0|0,1:3|1:3,1:3:0:0:
384,192,200396,1,2,1:3:0:0:
256,192,200547,1,0,1:3:0:0:
464,192,200697,6,0,L|400:192,3,64.3199937627109,8|0|0|0,1:3|1:3|1:3|1:3,1:3:0:0:
256,192,200999,2,0,L|240:256,1,64.3199937627109,2|0,1:3|1:3,1:3:0:0:
320,256,201150,2,0,L|256:256,1,64.3199937627109,0|0,1:3|1:3,1:3:0:0:
112,256,201300,5,8,1:3:0:0:
32,256,201376,2,0,L|160:256,1,128.639987525422,0|0,1:3|1:3,1:3:0:0:
304,304,201602,1,2,1:3:0:0:
176,304,201753,2,0,L|240:304,1,64.3199937627109,0|0,1:3|1:3,1:3:0:0:
384,304,201903,6,0,L|400:240,1,64.3199937627109,12|0,1:3|1:3,1:3:0:0:
256,240,202054,2,0,L|240:176,1,64.3199937627109,0|0,1:3|1:3,1:3:0:0:
384,160,202205,2,0,L|448:160,1,64.3199937627109,2|0,1:3|1:3,1:3:0:0:
304,160,202356,2,0,L|240:160,1,64.3199937627109,0|0,1:3|1:3,1:3:0:0:
384,192,202506,6,0,L|464:192,1,64.3199937627109,8|0,1:3|1:3,1:3:0:0:
480,192,202657,2,0,L|416:192,1,64.3199937627109,0|0,1:3|1:3,1:3:0:0:
256,192,202808,2,0,L|272:256,1,64.3199937627109,2|0,1:3|1:3,1:3:0:0:
352,288,202959,1,0,1:3:0:0:
385,288,202996,1,0,1:3:0:0:
417,288,203034,1,0,1:3:0:0:
224,288,203110,6,0,B|128:288|128:288|224:288,1,192.959981288133,8|0,1:3|1:3,1:3:0:0:
368,240,203411,2,0,B|464:240|464:240|368:240,1,192.959981288133,2|0,1:3|1:3,1:3:0:0:
288,208,203713,2,0,L|432:208,1,128.639987525422,8|0,1:3|1:3,1:3:0:0:
208,208,204014,1,2,1:3:0:0:
417,208,204165,1,8,1:3:0:0:
176,48,204316,6,0,B|80:48|80:48|176:48,1,192.959981288133,12|0,1:3|1:3,1:3:0:0:
320,48,204617,2,0,L|352:48,1,32.1599968813555,2|0,1:3|1:3,1:3:0:0:
176,48,204768,2,0,L|144:48,1,32.1599968813555,0|0,1:3|1:3,1:3:0:0:
384,48,204919,6,0,B|480:48|480:48|384:48,1,192.959981288133,8|0,1:3|1:3,1:3:0:0:
240,80,205220,2,0,L|208:80,1,32.1599968813555,2|0,1:3|1:3,1:3:0:0:
384,80,205371,2,0,L|416:80,1,32.1599968813555,0|0,1:3|1:3,1:3:0:0:
224,112,205522,2,0,L|192:112,1,32.1599968813555,8|0,1:3|1:3,1:3:0:0:
368,112,205673,2,0,L|400:112,1,32.1599968813555,0|0,1:3|1:3,1:3:0:0:
208,144,205823,6,0,B|112:144|112:144|208:144,1,192.959981288133,2|0,1:3|1:3,1:3:0:0:
352,144,206125,2,0,B|448:144|448:144|352:144,1,192.959981288133,8|8,1:3|1:3,1:3:0:0:
272,144,206426,1,0,1:3:0:0:
64,144,206577,1,8,1:3:0:0:
336,272,206728,6,0,B|432:272|432:272|336:272,1,192.959981288133,8|0,1:3|1:3,1:3:0:0:
192,272,207029,2,0,L|160:272,1,32.1599968813555,2|0,1:3|1:3,1:3:0:0:
336,272,207180,2,0,L|368:272,1,32.1599968813555,0|0,1:3|1:3,1:3:0:0:
128,272,207331,6,0,B|32:272|32:272|128:272,1,192.959981288133,8|0,1:3|1:3,1:3:0:0:
272,240,207632,2,0,L|304:240,1,32.1599968813555,2|0,1:3|1:3,1:3:0:0:
128,240,207783,2,0,L|96:240,1,32.1599968813555,0|0,1:3|1:3,1:3:0:0:
288,208,207934,2,0,L|320:208,1,32.1599968813555,8|0,1:3|1:3,1:3:0:0:
144,208,208085,2,0,L|112:208,1,32.1599968813555,0|0,1:3|1:3,1:3:0:0:
304,176,208235,6,0,B|400:176|400:176|304:176,1,192.959981288133,2|0,1:3|1:3,1:3:0:0:
112,176,208537,1,8,1:3:0:0:
121,238,208612,1,0,1:3:0:0:
163,286,208687,1,0,1:3:0:0:
224,303,208763,1,0,1:3:0:0:
368,304,208838,1,2,1:3:0:0:
224,303,208914,1,0,1:3:0:0:
144,304,208989,2,0,L|128:240,1,64.3199937627109,0|0,1:3|1:3,1:3:0:0:
272,192,209140,6,0,L|336:192,1,64.3199937627109,8|0,1:3|1:3,1:3:0:0:
480,192,209290,2,0,L|416:192,1,64.3199937627109,0|0,1:3|1:3,1:3:0:0:
272,160,209441,2,0,L|208:160,1,64.3199937627109,2|0,1:3|1:3,1:3:0:0:
352,160,209592,2,0,L|352:96,1,64.3199937627109,0|0,1:3|1:3,1:3:0:0:
144,96,209743,1,8,1:3:0:0:
352,95,209893,1,0,1:3:0:0:
144,96,210044,1,2,1:3:0:0:
352,95,210195,1,0,1:3:0:0:
144,96,210346,6,0,L|128:160,1,64.3199937627109,8|0,1:3|1:3,1:3:0:0:
272,176,210496,2,0,L|288:240,1,64.3199937627109,0|0,1:3|1:3,1:3:0:0:
432,240,210647,1,2,1:3:0:0:
423,178,210722,1,0,1:3:0:0:
381,130,210797,1,0,1:3:0:0:
320,113,210873,1,0,1:3:0:0:
176,80,210949,6,0,L|240:80,2,64.3199937627109,8|8|8,1:3|1:3|1:3,1:3:0:0:
400,80,211250,1,2,1:3:0:0:
288,80,211401,1,0,1:3:0:0:
32,192,211552,5,8,1:3:0:0:
256,192,211703,1,0,1:3:0:0:
144,192,211853,1,8,1:3:0:0:
368,192,212004,1,0,1:3:0:0:
144,192,212155,1,8,1:3:0:0:
256,192,212306,1,0,1:3:0:0:
32,192,212456,1,2,1:3:0:0:
256,192,212607,1,2,1:3:0:0:
32,192,212758,6,0,L|256:192,1,224.639989698944,14|0,1:3|1:3,1:3:0:0:
384,224,213210,2,0,L|160:224,1,224.639989698944,0|0,1:3|1:3,1:3:0:0:
80,256,213436,2,0,L|208:256,1,128.639987525422,0|0,1:3|1:3,1:3:0:0:
288,256,213662,1,2,1:3:0:0:
160,256,213813,1,8,1:3:0:0:
384,256,213964,6,0,B|480:256|480:256|384:256,1,192.959981288133,12|0,1:3|1:3,1:3:0:0:
240,256,214265,2,0,L|304:256,1,64.3199937627109,2|0,1:3|1:3,1:3:0:0:
384,256,214416,2,0,L|384:320,1,64.3199937627109,0|0,1:3|1:3,1:3:0:0:
240,320,214567,2,0,B|144:320|144:320|240:320,1,192.959981288133,8|0,1:3|1:3,1:3:0:0:
384,320,214868,2,0,L|320:320,1,64.3199937627109,2|0,1:3|1:3,1:3:0:0:
240,288,215019,2,0,L|304:288,1,64.3199937627109,0|0,1:3|1:3,1:3:0:0:
448,272,215170,6,0,L|464:208,1,64.3199937627109,8|0,1:3|1:3,1:3:0:0:
384,208,215321,2,0,L|320:208,1,64.3199937627109,0|0,1:3|1:3,1:3:0:0:
400,176,215471,2,0,L|336:176,1,64.3199937627109,2|0,1:3|1:3,1:3:0:0:
256,176,215622,2,0,L|320:176,1,64.3199937627109,0|0,1:3|1:3,1:3:0:0:
480,144,215773,5,8,1:3:0:0:
400,144,215848,2,0,L|272:144,1,128.639987525422,0|0,1:3|1:3,1:3:0:0:
128,176,216074,2,0,L|208:176,1,64.3199937627109,2|0,1:3|1:3,1:3:0:0:
272,176,216225,2,0,L|256:240,1,64.3199937627109,0|0,1:3|1:3,1:3:0:0:
112,272,216376,6,0,L|48:272,1,64.3199937627109,8|0,1:3|1:3,1:3:0:0:
192,272,216527,2,0,L|256:272,1,64.3199937627109,0|0,1:3|1:3,1:3:0:0:
400,272,216677,2,0,L|336:272,1,64.3199937627109,2|0,1:3|1:3,1:3:0:0:
256,240,216828,2,0,L|320:240,1,64.3199937627109,0|0,1:3|1:3,1:3:0:0:
464,240,216979,5,8,1:3:0:0:
455,178,217054,1,0,1:3:0:0:
413,130,217129,1,0,1:3:0:0:
352,113,217205,1,0,1:3:0:0:
208,113,217280,2,0,L|272:113,1,64.3199937627109,2|0,1:3|1:3,1:3:0:0:
352,113,217431,2,0,L|368:177,1,64.3199937627109,0|0,1:3|1:3,1:3:0:0:
224,224,217582,6,0,L|160:224,1,64.3199937627109,8|0,1:3|1:3,1:3:0:0:
240,224,217733,2,0,L|240:288,1,64.3199937627109,0|0,1:3|1:3,1:3:0:0:
384,288,217883,2,0,L|320:288,1,64.3199937627109,0|0,1:3|1:3,1:3:0:0:
240,288,218034,2,0,L|240:224,1,64.3199937627109,8|0,1:3|1:3,1:3:0:0:
384,192,218185,6,0,L|448:192,1,64.3199937627109,8|0,1:3|1:3,1:3:0:0:
304,192,218336,1,0,1:3:0:0:
160,192,218411,1,0,1:3:0:0:
304,192,218486,1,2,1:3:0:0:
449,192,218562,1,0,1:3:0:0:
304,192,218637,2,0,L|240:192,1,64.3199937627109,0|0,1:3|1:3,1:3:0:0:
96,240,218788,6,0,L|32:240,1,64.3199937627109,12|0,1:3|1:3,1:3:0:0:
176,240,218939,2,0,L|240:240,1,64.3199937627109,0|0,1:3|1:3,1:3:0:0:
384,240,219089,2,0,L|368:304,1,64.3199937627109,2|0,1:3|1:3,1:3:0:0:
288,320,219240,2,0,L|224:320,1,64.3199937627109,0|0,1:3|1:3,1:3:0:0:
368,320,219391,5,8,1:3:0:0:
448,320,219467,2,0,P|448:272|368:240,1,128.639987525422,0|0,1:3|1:3,1:3:0:0:
304,256,219692,2,0,L|368:256,1,64.3199937627109,2|0,1:3|1:3,1:3:0:0:
448,235,219843,2,0,L|384:235,1,64.3199937627109,0|0,1:3|1:3,1:3:0:0:
240,240,219994,6,0,L|224:176,1,64.3199937627109,8|0,1:3|1:3,1:3:0:0:
304,176,220145,2,0,L|368:176,1,64.3199937627109,0|0,1:3|1:3,1:3:0:0:
288,144,220295,2,0,L|352:144,1,64.3199937627109,2|0,1:3|1:3,1:3:0:0:
432,144,220446,2,0,L|368:144,1,64.3199937627109,0|0,1:3|1:3,1:3:0:0:
224,144,220597,5,8,1:3:0:0:
144,144,220672,2,0,B|80:144|80:144|144:144,1,128.639987525422,0|0,1:3|1:3,1:3:0:0:
288,144,220898,2,0,L|352:144,1,64.3199937627109,2|0,1:3|1:3,1:3:0:0:
384,144,221049,2,0,L|320:144,1,64.3199937627109,0|0,1:3|1:3,1:3:0:0:
128,80,221200,6,0,L|112:144,1,64.3199937627109,12|0,1:3|1:3,1:3:0:0:
256,144,221351,2,0,L|272:208,1,64.3199937627109,0|0,1:3|1:3,1:3:0:0:
128,224,221502,2,0,L|64:224,1,64.3199937627109,2|0,1:3|1:3,1:3:0:0:
208,224,221653,2,0,L|272:224,1,64.3199937627109,0|0,1:3|1:3,1:3:0:0:
128,192,221803,6,0,L|48:192,1,64.3199937627109,8|0,1:3|1:3,1:3:0:0:
32,192,221954,2,0,L|96:192,1,64.3199937627109,0|0,1:3|1:3,1:3:0:0:
256,192,222105,2,0,L|240:128,1,64.3199937627109,2|0,1:3|1:3,1:3:0:0:
160,128,222255,2,0,L|224:128,1,64.3199937627109,0|0,1:3|1:3,1:3:0:0:
368,128,222406,6,0,L|384:192,1,64.3199937627109,8|0,1:3|1:3,1:3:0:0:
304,224,222557,2,0,L|240:224,1,64.3199937627109,0|0,1:3|1:3,1:3:0:0:
384,288,222708,2,0,B|480:288|480:288|384:288,1,192.959981288133,2|0,1:3|1:3,1:3:0:0:
240,288,223009,1,8,1:3:0:0:
96,288,223160,2,0,L|160:288,1,64.3199937627109,0|0,1:3|1:3,1:3:0:0:
240,288,223311,2,0,L|256:224,1,64.3199937627109,0|0,1:3|1:3,1:3:0:0:
176,208,223461,2,0,L|240:208,1,64.3199937627109,0|0,1:3|1:3,1:3:0:0:
400,112,223612,6,0,L|416:240,1,128.639987525422,14|0,1:3|1:3,1:3:0:0:
112,192,223914,2,0,L|96:320,1,128.639987525422,10|0,1:3|1:3,1:3:0:0:
256,320,224215,2,0,L|384:320,1,128.639987525422,10|0,1:3|1:3,1:3:0:0:
160,288,224517,1,10,1:3:0:0:
288,288,224667,1,0,1:3:0:0:
48,288,224818,6,0,L|32:160,1,128.639987525422,10|0,1:3|1:3,1:3:0:0:
256,224,225120,2,0,L|256:96,1,128.639987525422,10|0,1:3|1:3,1:3:0:0:
464,288,225421,2,0,L|480:160,1,128.639987525422,10|0,1:3|1:3,1:3:0:0:
192,160,225723,1,10,1:3:0:0:
320,160,225873,1,0,1:3:0:0:
112,112,226024,6,0,L|96:240,1,128.639987525422,10|0,1:3|1:3,1:3:0:0:
400,192,226326,2,0,L|416:320,1,128.639987525422,10|0,1:3|1:3,1:3:0:0:
256,320,226627,2,0,L|128:320,1,128.639987525422,10|0,1:3|1:3,1:3:0:0:
352,288,226929,1,10,1:3:0:0:
224,288,227079,1,0,1:3:0:0:
464,288,227230,6,0,L|480:160,1,128.639987525422,10|0,1:3|1:3,1:3:0:0:
256,224,227532,2,0,L|256:96,1,128.639987525422,10|0,1:3|1:3,1:3:0:0:
48,288,227833,2,0,L|32:160,1,128.639987525422,10|0,1:3|1:3,1:3:0:0:
320,160,228135,1,10,1:3:0:0:
256,160,228210,1,0,1:3:0:0:
192,160,228285,1,0,1:3:0:0:
448,224,228436,5,8,1:3:0:0:
320,224,228587,1,0,1:3:0:0:
448,224,228738,1,2,1:3:0:0:
192,304,228888,5,0,1:3:0:0:
320,304,229039,1,8,1:3:0:0:
192,304,229190,1,0,1:3:0:0:
448,304,229341,1,2,1:3:0:0:
320,304,229491,1,0,1:3:0:0:
64,240,229642,5,8,1:3:0:0:
192,240,229793,1,8,1:3:0:0:
64,240,229944,1,2,1:3:0:0:
320,160,230094,5,0,1:3:0:0:
192,160,230245,1,8,1:3:0:0:
320,160,230396,1,0,1:3:0:0:
64,160,230547,1,2,1:3:0:0:
80,160,230622,1,0,1:3:0:0:
128,160,230697,1,0,1:3:0:0:
192,160,230773,1,0,1:3:0:0:
416,160,230848,6,0,L|480:160,2,64.3199937627109,8|0|0,1:3|1:3|1:3,1:3:0:0:
272,160,231074,2,0,L|192:160,2,64.3199937627109,0|2|0,1:3|1:3|1:3,1:3:0:0:
416,160,231301,2,0,L|432:224,1,64.3199937627109,0|0,1:3|1:3,1:3:0:0:
352,240,231451,1,8,1:3:0:0:
208,240,231527,1,0,1:3:0:0:
64,240,231602,2,0,L|48:176,1,64.3199937627109,0|0,1:3|1:3,1:3:0:0:
192,160,231753,2,0,L|256:160,1,64.3199937627109,2|0,1:3|1:3,1:3:0:0:
400,160,231904,2,0,L|336:160,1,64.3199937627109,0|0,1:3|1:3,1:3:0:0:
192,160,232054,6,0,P|96:176|48:256,2,192.959981288133,12|0|0,1:3|1:3|1:3,1:3:0:0:
320,240,232657,1,0,1:3:0:0:
192,240,232808,1,8,1:3:0:0:
400,240,232959,1,10,1:3:0:0:
192,240,233110,1,10,1:3:0:0:
400,240,233260,6,0,B|496:240|496:240|400:240,1,192.959981288133,8|0,1:3|1:3,1:3:0:0:
256,240,233562,2,0,L|192:240,2,64.3199937627109,10|0|0,1:3|1:3|1:3,1:3:0:0:
400,240,233863,2,0,L|416:304,2,64.3199937627109,8|0|0,1:3|1:3|1:3,1:3:0:0:
176,240,234165,2,0,P|112:208|96:144,1,128.639987525422,10|0,1:3|1:3,1:3:0:0:
240,144,234466,2,0,L|304:144,1,64.3199937627109,8|0,1:3|1:3,1:3:0:0:
160,144,234617,2,0,L|32:144,2,128.639987525422,0|10|0,1:3|1:3|1:3,1:3:0:0:
368,192,235069,2,0,L|176:192,1,192.959981288133,8|0,1:3|1:3,1:3:0:0:
96,192,235371,1,10,1:3:0:0:
224,192,235522,1,0,1:3:0:0:
480,224,235672,6,0,L|352:224,1,128.639987525422,8|0,1:3|1:3,1:3:0:0:
128,224,235974,1,10,1:3:0:0:
193,224,236049,1,0,1:3:0:0:
257,224,236124,1,0,1:3:0:0:
128,224,236275,1,8,1:3:0:0:
32,256,236426,2,0,L|256:256,1,224.639989698944,0|10,1:3|1:3,1:3:0:0:
128,224,236728,1,0,1:3:0:0:
336,256,236878,6,0,L|416:256,1,64.3199937627109,8|0,1:3|1:3,1:3:0:0:
257,256,237029,2,0,L|113:256,2,128.639987525422,0|10|0,1:3|1:3|1:3,1:3:0:0:
480,192,237481,2,0,L|288:192,1,192.959981288133,8|0,1:3|1:3,1:3:0:0:
208,192,237783,1,10,1:3:0:0:
336,192,237934,1,0,1:3:0:0:
128,192,238084,6,0,B|32:192|32:192|128:192,1,192.959981288133,8|0,1:3|1:3,1:3:0:0:
304,192,238386,1,10,1:3:0:0:
256,192,238461,1,0,1:3:0:0:
176,192,238537,1,0,1:3:0:0:
384,192,238687,1,8,1:3:0:0:
480,240,238838,2,0,L|256:240,1,224.639989698944,0|10,1:3|1:3,1:3:0:0:
384,192,239140,1,0,1:3:0:0:
176,192,239290,6,0,L|112:192,1,64.3199937627109,8|0,1:3|1:3,1:3:0:0:
256,192,239441,2,0,L|384:192,2,128.639987525422,0|10|0,1:3|1:3|1:3,1:3:0:0:
32,272,239893,2,0,L|224:272,1,192.959981288133,8|0,1:3|1:3,1:3:0:0:
304,272,240195,1,10,1:3:0:0:
176,272,240346,1,0,1:3:0:0:
384,272,240496,5,8,1:3:0:0:
480,240,240647,2,0,L|256:240,1,224.639989698944,0|10,1:3|1:3,1:3:0:0:
384,208,240949,2,0,L|160:208,1,224.639989698944,0|8,1:3|1:3,1:3:0:0:
288,176,241250,1,0,1:3:0:0:
80,176,241401,2,0,P|96:272|192:304,1,192.959981288133,10|0,1:3|1:3,1:3:0:0:
432,176,241703,5,8,1:3:0:0:
439,207,241740,1,0,1:3:0:0:
434,239,241778,1,0,1:3:0:0:
420,267,241816,1,0,1:3:0:0:
397,289,241853,1,0,1:3:0:0:
368,303,241891,1,0,1:3:0:0:
336,306,241929,1,0,1:3:0:0:
144,304,242004,2,0,L|64:304,1,64.3199937627109,10|0,1:3|1:3,1:3:0:0:
224,304,242155,2,0,L|240:240,1,64.3199937627109,0|0,1:3|1:3,1:3:0:0:
384,192,242306,6,0,B|480:192|480:192|384:192,1,192.959981288133,8|0,1:3|1:3,1:3:0:0:
240,192,242607,2,0,L|176:192,1,64.3199937627109,2|0,1:3|1:3,1:3:0:0:
256,160,242758,2,0,L|272:96,1,64.3199937627109,0|0,1:3|1:3,1:3:0:0:
112,80,242909,6,0,B|16:80|16:80|112:80,1,192.959981288133,8|0,1:3|1:3,1:3:0:0:
256,80,243211,2,0,L|320:80,2,64.3199937627109,10|0|0,1:3|1:3|1:3,1:3:0:0:
112,80,243512,2,0,L|96:16,2,64.3199937627109,8|0|0,1:3|1:3|1:3,1:3:0:0:
336,80,243814,2,0,P|400:112|416:176,1,128.639987525422,10|0,1:3|1:3,1:3:0:0:
272,176,244115,2,0,L|208:176,1,64.3199937627109,8|0,1:3|1:3,1:3:0:0:
352,176,244266,2,0,L|480:176,2,128.639987525422,0|10|0,1:3|1:3|1:3,1:3:0:0:
144,128,244718,2,0,L|336:128,1,192.959981288133,8|0,1:3|1:3,1:3:0:0:
416,128,245020,1,10,1:3:0:0:
288,128,245171,1,0,1:3:0:0:
32,96,245321,6,0,L|160:96,1,128.639987525422,8|0,1:3|1:3,1:3:0:0:
384,96,245623,1,10,1:3:0:0:
319,96,245698,1,0,1:3:0:0:
255,96,245773,1,0,1:3:0:0:
384,96,245924,1,8,1:3:0:0:
480,64,246075,2,0,L|256:64,1,224.639989698944,0|10,1:3|1:3,1:3:0:0:
384,96,246377,1,0,1:3:0:0:
176,64,246527,6,0,L|96:64,1,64.3199937627109,8|0,1:3|1:3,1:3:0:0:
255,64,246678,2,0,L|399:64,2,128.639987525422,0|10|0,1:3|1:3|1:3,1:3:0:0:
32,128,247130,2,0,L|224:128,1,192.959981288133,8|0,1:3|1:3,1:3:0:0:
304,128,247432,1,10,1:3:0:0:
176,128,247583,1,0,1:3:0:0:
384,128,247733,6,0,L|448:128,1,64.3199937627109,8|0,1:3|1:3,1:3:0:0:
368,128,247883,2,0,L|352:192,1,64.3199937627109,0|0,1:3|1:3,1:3:0:0:
272,192,248034,2,0,L|208:192,1,64.3199937627109,0|0,1:3|1:3,1:3:0:0:
288,224,248185,2,0,L|224:224,1,64.3199937627109,0|0,1:3|1:3,1:3:0:0:
144,224,248336,6,0,L|128:288,1,64.3199937627109,0|0,1:3|1:3,1:3:0:0:
208,288,248486,2,0,L|272:288,1,64.3199937627109,0|0,1:3|1:3,1:3:0:0:
416,288,248637,2,0,L|432:224,1,64.3199937627109,0|0,1:3|1:3,1:3:0:0:
352,208,248788,2,0,L|288:208,1,64.3199937627109,0|0,1:3|1:3,1:3:0:0:
432,208,248939,6,0,L|464:144,1,64.3199937627109,0|0,1:3|1:3,1:3:0:0:
320,128,249089,2,0,L|320:64,1,64.3199937627109,0|0,1:3|1:3,1:3:0:0:
239,63,249240,2,0,L|207:127,1,64.3199937627109,0|0,1:3|1:3,1:3:0:0:
288,144,249391,2,0,L|288:224,1,64.3199937627109,0|0,1:3|1:3,1:3:0:0:
432,224,249542,6,0,L|448:288,2,64.3199937627109,0|0|0,1:3|1:3|1:3,1:3:0:0:
336,224,249768,2,0,L|320:288,2,64.3199937627109,0|0|0,1:3|1:3|1:3,1:3:0:0:
432,192,249994,2,0,L|416:128,1,64.3199937627109,0|0,1:3|1:3,1:3:0:0:
208,272,250145,6,0,L|144:272,1,64.3199937627109,8|0,1:3|1:3,1:3:0:0:
224,272,250295,2,0,L|288:272,1,64.3199937627109,0|0,1:3|1:3,1:3:0:0:
368,240,250446,2,0,L|304:240,1,64.3199937627109,0|0,1:3|1:3,1:3:0:0:
224,240,250597,2,0,L|160:240,1,64.3199937627109,0|0,1:3|1:3,1:3:0:0:
240,208,250748,2,0,L|320:208,1,64.3199937627109,0|0,1:3|1:3,1:3:0:0:
384,176,250899,2,0,L|320:176,1,64.3199937627109,0|0,1:3|1:3,1:3:0:0:
176,176,251049,6,0,L|256:176,1,64.3199937627109,8|8,1:3|1:3,1:3:0:0:
384,176,251200,2,0,L|320:176,1,64.3199937627109,8|8,1:3|1:3,1:3:0:0:
176,176,251351,5,8,1:3:0:0:
256,192,251502,12,0,252406,1:3:0:0:
