osu file format v14

[General]
AudioFilename: audio.mp3
AudioLeadIn: 0
PreviewTime: 194612
Countdown: 1
SampleSet: Normal
StackLeniency: 0.7
Mode: 1
LetterboxInBreaks: 0
WidescreenStoryboard: 0

[Editor]
DistanceSpacing: 0.8
BeatDivisor: 4
GridSize: 4
TimelineZoom: 1.9

[Metadata]
Title:NUCLEAR-STAR
TitleUnicode:NUCLEAR-STAR
Artist:Camellia
ArtistUnicode:かめりあ
Creator:Y O U T A
Version:YOUTAIKO
Source:crystallized
Tags:youtaees
BeatmapID:995064
BeatmapSetID:464762

[Difficulty]
HPDrainRate:5
CircleSize:5
OverallDifficulty:5
ApproachRate:5
SliderMultiplier:1.4
SliderTickRate:1

[Events]
//Background and Video events
0,0,"20140715111303220.jpg",0,0
//Break Periods
//Storyboard Layer 0 (Background)
//Storyboard Layer 1 (Fail)
//Storyboard Layer 2 (Pass)
//Storyboard Layer 3 (Foreground)
//Storyboard Sound Samples

[TimingPoints]
19738,301.507537688442,4,1,0,100,1,0
49888,-90.9090909090909,4,1,0,100,0,0
54712,-83.3333333333333,4,1,0,100,0,0
57426,-100,4,1,0,100,0,0
59536,-90.9090909090909,4,1,0,100,0,0
98129,-100,4,1,0,100,0,0
107778,-90.9090909090909,4,1,0,100,0,0
112602,-83.3333333333333,4,1,0,100,0,0
156923,-100,4,1,0,100,0,0
185114,-90.9090909090909,4,1,0,100,0,0
189788,-83.3333333333333,4,1,0,100,0,0
192501,-100,4,1,0,100,0,0
194612,-83.3333333333333,4,1,0,100,0,1
212702,-83.3333333333333,4,1,0,100,0,0
212853,-100,4,1,0,100,0,0
214210,-83.3333333333333,4,1,0,100,0,1
233205,-83.3333333333333,4,1,0,100,0,0
233356,-90.9090909090909,4,1,0,100,0,0
252501,-100,4,1,0,100,0,0

[HitObjects]
176,172,20944,5,0,0:0:0:0:
216,184,21396,1,8,0:0:0:0:
200,192,21999,1,8,0:0:0:0:
200,192,22074,1,8,0:0:0:0:
196,192,22150,1,0,0:0:0:0:
184,176,22602,1,0,0:0:0:0:
244,192,23205,1,8,0:0:0:0:
244,192,23280,1,0,0:0:0:0:
244,192,23356,1,0,0:0:0:0:
236,204,23808,1,0,0:0:0:0:
116,200,24361,1,0,0:0:0:0:
116,200,24461,1,0,0:0:0:0:
200,192,24562,1,8,0:0:0:0:
176,228,25014,1,8,0:0:0:0:
192,192,25466,1,0,0:0:0:0:
200,136,25768,1,8,0:0:0:0:
200,136,26220,1,8,0:0:0:0:
200,136,26672,1,0,0:0:0:0:
200,144,26823,1,8,0:0:0:0:
200,148,26974,1,0,0:0:0:0:
200,148,27426,1,8,0:0:0:0:
200,148,27878,1,0,0:0:0:0:
200,160,28029,1,8,0:0:0:0:
196,168,28180,1,8,0:0:0:0:
196,176,28632,1,8,0:0:0:0:
256,176,29084,1,8,0:0:0:0:
208,220,29235,1,8,0:0:0:0:
224,156,29386,1,8,0:0:0:0:
200,248,29989,1,0,0:0:0:0:
200,248,30064,1,0,0:0:0:0:
200,248,30140,1,8,0:0:0:0:
200,248,30215,1,0,0:0:0:0:
200,248,30290,1,8,0:0:0:0:
200,248,30366,1,8,0:0:0:0:
200,248,30441,1,0,0:0:0:0:
200,248,30516,1,8,0:0:0:0:
200,248,30592,1,0,0:0:0:0:
184,192,31044,1,8,0:0:0:0:
200,212,31647,1,8,0:0:0:0:
200,212,31722,1,8,0:0:0:0:
200,212,31798,1,0,0:0:0:0:
200,212,32250,1,0,0:0:0:0:
192,216,32853,1,8,0:0:0:0:
192,216,32928,1,0,0:0:0:0:
192,216,33004,1,0,0:0:0:0:
192,220,33456,1,0,0:0:0:0:
276,188,34009,1,0,0:0:0:0:
280,188,34109,1,0,0:0:0:0:
276,188,34210,1,8,0:0:0:0:
288,188,34511,1,0,0:0:0:0:
288,188,34662,1,8,0:0:0:0:
280,196,34813,1,0,0:0:0:0:
280,196,34964,1,0,0:0:0:0:
280,204,35114,1,8,0:0:0:0:
280,208,35265,1,0,0:0:0:0:
280,212,35416,1,0,0:0:0:0:
268,220,35567,1,0,0:0:0:0:
268,220,35717,1,0,0:0:0:0:
268,220,35868,1,0,0:0:0:0:
268,220,36019,1,0,0:0:0:0:
264,216,36170,1,0,0:0:0:0:
264,216,36320,1,0,0:0:0:0:
272,216,36471,1,0,0:0:0:0:
272,216,36622,1,8,0:0:0:0:
272,220,36773,1,0,0:0:0:0:
272,228,36923,1,0,0:0:0:0:
272,232,37074,1,0,0:0:0:0:
272,232,37225,1,8,0:0:0:0:
272,232,37376,1,0,0:0:0:0:
264,240,37526,1,8,0:0:0:0:
268,236,37677,1,0,0:0:0:0:
236,248,37828,1,0,0:0:0:0:
236,248,37979,1,0,0:0:0:0:
232,256,38129,1,8,0:0:0:0:
236,248,38280,1,0,0:0:0:0:
236,248,38431,1,0,0:0:0:0:
232,260,38582,1,0,0:0:0:0:
220,280,38732,1,8,0:0:0:0:
224,272,38883,1,0,0:0:0:0:
256,248,39034,1,0,0:0:0:0:
304,192,39939,1,8,0:0:0:0:
296,188,39989,1,8,0:0:0:0:
420,112,40039,1,8,0:0:0:0:
220,176,40089,1,8,0:0:0:0:
220,176,40165,1,8,0:0:0:0:
220,176,40240,1,0,0:0:0:0:
220,176,40542,1,0,0:0:0:0:
220,176,40843,1,0,0:0:0:0:
220,176,41145,1,0,0:0:0:0:
220,176,41295,1,8,0:0:0:0:
200,188,41371,1,8,0:0:0:0:
220,176,41446,1,0,0:0:0:0:
204,184,41748,1,0,0:0:0:0:
204,188,42049,1,0,0:0:0:0:
200,188,42351,1,0,0:0:0:0:
204,188,42501,1,8,0:0:0:0:
188,200,42577,1,0,0:0:0:0:
192,200,42652,1,0,0:0:0:0:
192,208,42954,1,0,0:0:0:0:
200,152,43255,1,0,0:0:0:0:
188,180,43557,1,0,0:0:0:0:
236,168,43657,1,0,0:0:0:0:
236,168,43758,1,0,0:0:0:0:
236,168,43858,1,8,0:0:0:0:
284,212,44160,1,0,0:0:0:0:
284,212,44461,1,0,0:0:0:0:
284,212,44763,1,0,0:0:0:0:
284,212,44913,1,8,0:0:0:0:
284,212,44989,1,0,0:0:0:0:
284,212,45064,1,8,0:0:0:0:
276,216,45366,1,0,0:0:0:0:
276,216,45667,1,0,0:0:0:0:
276,212,45969,1,0,0:0:0:0:
184,212,46270,1,0,0:0:0:0:
184,212,46421,1,0,0:0:0:0:
184,212,46572,1,8,0:0:0:0:
176,220,46722,1,0,0:0:0:0:
176,224,46873,1,0,0:0:0:0:
176,228,47024,1,0,0:0:0:0:
176,228,47175,1,8,0:0:0:0:
180,232,47325,1,0,0:0:0:0:
160,228,47476,1,0,0:0:0:0:
160,228,47552,1,0,0:0:0:0:
160,228,47627,1,0,0:0:0:0:
160,224,47778,1,8,0:0:0:0:
160,224,47928,1,0,0:0:0:0:
152,224,48079,1,8,0:0:0:0:
152,224,48230,1,0,0:0:0:0:
152,224,48305,1,0,0:0:0:0:
140,224,48381,1,8,0:0:0:0:
140,224,48531,1,8,0:0:0:0:
140,228,48682,1,0,0:0:0:0:
136,228,48833,1,0,0:0:0:0:
140,224,48984,1,8,0:0:0:0:
172,244,49059,1,8,0:0:0:0:
176,240,49134,1,0,0:0:0:0:
252,236,49285,1,0,0:0:0:0:
252,236,49436,1,0,0:0:0:0:
252,236,49587,1,8,0:0:0:0:
252,236,49737,1,0,0:0:0:0:
200,192,49888,1,8,0:0:0:0:
204,196,50039,1,0,0:0:0:0:
204,196,50190,1,0,0:0:0:0:
204,200,50341,1,0,0:0:0:0:
204,204,50491,1,8,0:0:0:0:
224,220,50642,1,0,0:0:0:0:
224,220,50793,1,0,0:0:0:0:
228,216,50944,1,0,0:0:0:0:
200,176,51094,1,8,0:0:0:0:
200,176,51245,1,0,0:0:0:0:
196,184,51396,1,0,0:0:0:0:
196,184,51547,1,0,0:0:0:0:
196,192,51697,1,8,0:0:0:0:
196,188,51848,1,0,0:0:0:0:
196,188,51999,1,8,0:0:0:0:
192,192,52150,1,0,0:0:0:0:
272,200,52300,1,8,0:0:0:0:
272,200,52451,1,0,0:0:0:0:
272,200,52602,1,0,0:0:0:0:
272,200,52753,1,0,0:0:0:0:
272,200,52903,1,8,0:0:0:0:
272,200,53054,1,0,0:0:0:0:
272,200,53205,1,0,0:0:0:0:
216,108,53356,1,0,0:0:0:0:
284,216,53506,1,8,0:0:0:0:
272,216,53657,1,0,0:0:0:0:
272,208,53808,1,0,0:0:0:0:
272,208,53959,1,0,0:0:0:0:
264,216,54109,1,8,0:0:0:0:
264,224,54260,1,0,0:0:0:0:
264,220,54335,1,0,0:0:0:0:
264,220,54411,1,8,0:0:0:0:
264,224,54562,1,0,0:0:0:0:
208,184,54712,1,8,0:0:0:0:
208,184,54788,1,0,0:0:0:0:
208,184,54863,1,0,0:0:0:0:
208,184,54939,1,0,0:0:0:0:
208,184,55014,1,0,0:0:0:0:
204,188,55089,1,0,0:0:0:0:
204,188,55165,1,0,0:0:0:0:
204,188,55240,1,0,0:0:0:0:
204,188,55315,1,0,0:0:0:0:
200,192,55391,1,0,0:0:0:0:
200,192,55466,1,0,0:0:0:0:
200,192,55542,1,0,0:0:0:0:
200,192,55617,1,0,0:0:0:0:
208,184,55692,1,0,0:0:0:0:
208,184,55768,1,0,0:0:0:0:
204,192,55843,1,0,0:0:0:0:
208,192,55918,1,0,0:0:0:0:
200,200,55994,1,0,0:0:0:0:
196,204,56069,1,0,0:0:0:0:
196,204,56145,1,0,0:0:0:0:
196,200,56220,1,0,0:0:0:0:
200,200,56295,1,0,0:0:0:0:
200,196,56371,1,0,0:0:0:0:
128,236,56446,1,0,0:0:0:0:
128,236,56521,1,8,0:0:0:0:
252,172,56572,1,0,0:0:0:0:
252,172,56622,1,0,0:0:0:0:
252,172,56672,1,0,0:0:0:0:
252,172,56722,1,0,0:0:0:0:
252,172,56773,1,0,0:0:0:0:
252,172,56823,1,0,0:0:0:0:
248,176,56873,1,0,0:0:0:0:
248,176,56923,1,0,0:0:0:0:
248,184,56974,1,0,0:0:0:0:
248,184,57024,1,0,0:0:0:0:
248,184,57074,1,0,0:0:0:0:
248,184,57124,1,8,0:0:0:0:
372,160,57426,1,8,0:0:0:0:
296,208,57501,1,8,0:0:0:0:
296,208,57577,1,8,0:0:0:0:
296,208,57652,1,8,0:0:0:0:
296,208,57727,1,0,0:0:0:0:
296,208,57878,1,0,0:0:0:0:
296,208,57954,1,0,0:0:0:0:
296,208,58029,1,0,0:0:0:0:
288,208,58180,1,0,0:0:0:0:
288,208,58330,1,8,0:0:0:0:
284,208,58481,1,0,0:0:0:0:
284,208,58557,1,0,0:0:0:0:
272,216,58632,1,8,0:0:0:0:
268,216,58707,1,8,0:0:0:0:
268,212,58783,1,8,0:0:0:0:
268,212,58858,1,8,0:0:0:0:
268,212,58933,1,0,0:0:0:0:
264,212,59084,1,0,0:0:0:0:
260,216,59235,1,8,0:0:0:0:
260,216,59310,1,0,0:0:0:0:
256,216,59386,1,8,0:0:0:0:
236,236,59536,1,4,0:0:0:0:
236,236,59687,1,8,0:0:0:0:
236,236,59763,1,8,0:0:0:0:
236,236,59838,1,0,0:0:0:0:
236,236,59989,1,8,0:0:0:0:
236,236,60140,1,0,0:0:0:0:
236,236,60290,1,8,0:0:0:0:
232,240,60366,1,0,0:0:0:0:
232,240,60441,1,0,0:0:0:0:
228,240,60592,1,8,0:0:0:0:
228,240,60743,1,0,0:0:0:0:
224,240,60893,1,8,0:0:0:0:
224,240,60969,1,8,0:0:0:0:
224,240,61044,1,0,0:0:0:0:
224,240,61195,1,8,0:0:0:0:
224,240,61270,1,0,0:0:0:0:
220,240,61346,1,0,0:0:0:0:
220,240,61496,1,8,0:0:0:0:
220,240,61647,1,0,0:0:0:0:
220,240,61722,1,0,0:0:0:0:
224,240,61798,1,8,0:0:0:0:
128,196,61949,1,0,0:0:0:0:
136,188,62099,1,0,0:0:0:0:
136,188,62175,1,0,0:0:0:0:
132,188,62250,1,8,0:0:0:0:
128,192,62325,1,0,0:0:0:0:
128,196,62401,1,8,0:0:0:0:
124,192,62476,1,8,0:0:0:0:
120,192,62552,1,0,0:0:0:0:
116,196,62702,1,0,0:0:0:0:
108,200,62853,1,8,0:0:0:0:
100,204,62928,1,0,0:0:0:0:
96,204,63004,1,8,0:0:0:0:
96,204,63079,1,8,0:0:0:0:
92,204,63155,1,0,0:0:0:0:
88,208,63305,1,0,0:0:0:0:
88,208,63456,1,8,0:0:0:0:
88,208,63531,1,0,0:0:0:0:
84,208,63607,1,8,0:0:0:0:
84,208,63682,1,8,0:0:0:0:
80,216,63758,1,0,0:0:0:0:
80,216,63833,1,0,0:0:0:0:
80,216,63908,1,8,0:0:0:0:
80,216,63984,1,0,0:0:0:0:
80,216,64059,1,8,0:0:0:0:
80,212,64210,1,0,0:0:0:0:
256,228,64361,1,0,0:0:0:0:
248,232,64511,1,0,0:0:0:0:
248,232,64587,1,0,0:0:0:0:
240,232,64662,1,8,0:0:0:0:
236,228,64813,1,0,0:0:0:0:
236,232,64964,1,8,0:0:0:0:
232,240,65114,1,0,0:0:0:0:
232,240,65190,1,0,0:0:0:0:
224,244,65265,1,8,0:0:0:0:
224,240,65416,1,0,0:0:0:0:
224,240,65567,1,8,0:0:0:0:
224,240,65642,1,0,0:0:0:0:
220,240,65717,1,0,0:0:0:0:
212,240,65793,1,0,0:0:0:0:
212,240,65868,1,8,0:0:0:0:
212,236,66019,1,0,0:0:0:0:
216,252,66170,1,8,0:0:0:0:
224,256,66320,1,0,0:0:0:0:
224,256,66396,1,0,0:0:0:0:
224,256,66471,1,8,0:0:0:0:
220,248,66622,1,0,0:0:0:0:
176,160,66773,1,0,0:0:0:0:
180,172,66923,1,8,0:0:0:0:
180,172,66999,1,8,0:0:0:0:
184,172,67074,1,0,0:0:0:0:
184,184,67225,1,8,0:0:0:0:
184,184,67300,1,8,0:0:0:0:
180,192,67376,1,8,0:0:0:0:
184,184,67526,1,8,0:0:0:0:
160,192,67677,1,8,0:0:0:0:
156,192,67753,1,0,0:0:0:0:
152,192,67828,1,8,0:0:0:0:
152,192,67903,1,0,0:0:0:0:
144,192,67979,1,8,0:0:0:0:
140,196,68129,1,0,0:0:0:0:
140,196,68205,1,0,0:0:0:0:
132,200,68280,1,0,0:0:0:0:
128,196,68431,1,0,0:0:0:0:
128,196,68582,1,8,0:0:0:0:
100,208,68883,1,0,0:0:0:0:
92,208,69034,1,8,0:0:0:0:
88,208,69185,1,4,0:0:0:0:
84,208,69335,1,8,0:0:0:0:
84,208,69411,1,8,0:0:0:0:
84,208,69486,1,0,0:0:0:0:
80,204,69637,1,8,0:0:0:0:
80,204,69788,1,0,0:0:0:0:
76,200,69939,1,8,0:0:0:0:
76,200,70014,1,0,0:0:0:0:
80,200,70089,1,0,0:0:0:0:
80,200,70165,1,0,0:0:0:0:
72,196,70240,1,8,0:0:0:0:
148,144,70391,1,0,0:0:0:0:
132,156,70542,1,8,0:0:0:0:
136,156,70617,1,8,0:0:0:0:
132,152,70692,1,0,0:0:0:0:
132,152,70768,1,0,0:0:0:0:
128,152,70843,1,8,0:0:0:0:
116,148,70994,1,0,0:0:0:0:
116,152,71145,1,0,0:0:0:0:
112,152,71220,1,0,0:0:0:0:
112,152,71295,1,8,0:0:0:0:
112,144,71446,1,8,0:0:0:0:
156,204,71597,1,0,0:0:0:0:
156,204,71748,1,0,0:0:0:0:
156,204,71823,1,0,0:0:0:0:
156,204,71898,1,8,0:0:0:0:
156,204,71974,1,0,0:0:0:0:
156,204,72049,1,8,0:0:0:0:
156,204,72124,1,8,0:0:0:0:
148,204,72200,1,0,0:0:0:0:
144,204,72351,1,0,0:0:0:0:
140,212,72501,1,8,0:0:0:0:
140,212,72577,1,0,0:0:0:0:
140,212,72652,1,8,0:0:0:0:
140,212,72727,1,0,0:0:0:0:
136,208,72803,1,0,0:0:0:0:
112,224,72954,1,0,0:0:0:0:
112,224,73104,1,8,0:0:0:0:
112,224,73180,1,0,0:0:0:0:
112,224,73255,1,8,0:0:0:0:
112,224,73330,1,8,0:0:0:0:
112,224,73406,1,0,0:0:0:0:
112,224,73481,1,0,0:0:0:0:
112,224,73557,1,8,0:0:0:0:
112,224,73632,1,0,0:0:0:0:
112,224,73707,1,8,0:0:0:0:
112,228,73858,1,0,0:0:0:0:
132,240,74009,1,0,0:0:0:0:
132,240,74160,1,0,0:0:0:0:
132,240,74235,1,0,0:0:0:0:
132,240,74310,1,8,0:0:0:0:
128,244,74461,1,0,0:0:0:0:
124,252,74612,1,8,0:0:0:0:
120,256,74687,1,0,0:0:0:0:
120,256,74763,1,0,0:0:0:0:
120,248,74838,1,0,0:0:0:0:
120,248,74913,1,8,0:0:0:0:
116,240,75064,1,0,0:0:0:0:
116,244,75140,1,0,0:0:0:0:
116,244,75215,1,8,0:0:0:0:
104,252,75366,1,0,0:0:0:0:
104,252,75516,1,8,0:0:0:0:
100,256,75667,1,0,0:0:0:0:
100,256,75818,1,8,0:0:0:0:
100,252,75893,1,0,0:0:0:0:
100,252,75969,1,0,0:0:0:0:
100,252,76044,1,0,0:0:0:0:
100,256,76119,1,8,0:0:0:0:
100,256,76195,1,8,0:0:0:0:
100,256,76270,1,0,0:0:0:0:
92,188,76421,1,4,0:0:0:0:
72,180,76722,1,8,0:0:0:0:
72,180,76798,1,8,0:0:0:0:
72,180,76873,1,8,0:0:0:0:
72,180,76949,1,8,0:0:0:0:
68,184,77024,1,8,0:0:0:0:
68,184,77099,1,8,0:0:0:0:
68,184,77175,1,8,0:0:0:0:
68,184,77250,1,8,0:0:0:0:
204,176,77325,1,8,0:0:0:0:
204,176,77401,1,8,0:0:0:0:
200,180,77476,1,8,0:0:0:0:
200,180,77552,1,8,0:0:0:0:
200,180,77627,1,0,0:0:0:0:
232,148,77828,1,8,0:0:0:0:
244,148,78029,1,0,0:0:0:0:
232,152,78230,1,8,0:0:0:0:
232,152,78431,1,0,0:0:0:0:
212,160,78632,1,8,0:0:0:0:
168,176,78833,1,4,0:0:0:0:
156,180,78984,1,0,0:0:0:0:
156,180,79059,1,0,0:0:0:0:
152,184,79134,1,8,0:0:0:0:
152,184,79285,1,8,0:0:0:0:
152,184,79436,1,0,0:0:0:0:
152,184,79587,1,8,0:0:0:0:
276,140,79662,1,0,0:0:0:0:
152,184,79737,1,0,0:0:0:0:
144,184,79888,1,8,0:0:0:0:
144,184,79964,1,8,0:0:0:0:
144,188,80039,1,0,0:0:0:0:
300,136,80190,1,0,0:0:0:0:
320,192,80341,1,8,0:0:0:0:
320,192,80491,1,0,0:0:0:0:
320,192,80567,1,0,0:0:0:0:
320,192,80642,1,8,0:0:0:0:
320,192,80793,1,0,0:0:0:0:
316,196,80944,1,8,0:0:0:0:
316,200,81094,1,8,0:0:0:0:
316,200,81170,1,0,0:0:0:0:
316,204,81245,1,0,0:0:0:0:
316,204,81396,1,0,0:0:0:0:
312,208,81547,1,8,0:0:0:0:
264,200,81697,1,0,0:0:0:0:
260,204,81773,1,0,0:0:0:0:
260,204,81848,1,8,0:0:0:0:
260,208,81999,1,0,0:0:0:0:
240,176,82150,1,8,0:0:0:0:
240,184,82225,1,0,0:0:0:0:
240,184,82300,1,0,0:0:0:0:
240,184,82376,1,0,0:0:0:0:
240,184,82451,1,8,0:0:0:0:
176,176,82602,1,0,0:0:0:0:
176,176,82753,1,8,0:0:0:0:
168,176,82828,1,0,0:0:0:0:
168,176,82903,1,8,0:0:0:0:
172,172,82979,1,8,0:0:0:0:
168,172,83054,1,0,0:0:0:0:
168,172,83129,1,0,0:0:0:0:
168,172,83205,1,8,0:0:0:0:
168,172,83280,1,0,0:0:0:0:
168,172,83356,1,8,0:0:0:0:
132,184,83657,1,0,0:0:0:0:
132,184,83808,1,0,0:0:0:0:
136,176,83883,1,0,0:0:0:0:
136,176,83959,1,8,0:0:0:0:
128,184,84109,1,0,0:0:0:0:
120,192,84260,1,8,0:0:0:0:
116,196,84411,1,0,0:0:0:0:
120,192,84486,1,0,0:0:0:0:
116,192,84562,1,8,0:0:0:0:
112,192,84712,1,8,0:0:0:0:
112,192,84788,1,8,0:0:0:0:
112,188,84863,1,0,0:0:0:0:
200,172,85014,1,0,0:0:0:0:
188,184,85165,1,8,0:0:0:0:
184,184,85315,1,0,0:0:0:0:
180,184,85391,1,0,0:0:0:0:
180,180,85466,1,8,0:0:0:0:
176,184,85617,1,0,0:0:0:0:
176,184,85768,1,8,0:0:0:0:
172,192,85918,1,8,0:0:0:0:
168,192,85994,1,0,0:0:0:0:
168,192,86069,1,0,0:0:0:0:
160,188,86220,1,0,0:0:0:0:
160,188,86371,1,8,0:0:0:0:
152,200,86521,1,0,0:0:0:0:
148,200,86597,1,0,0:0:0:0:
148,192,86672,1,8,0:0:0:0:
184,144,86823,1,0,0:0:0:0:
184,148,86974,1,8,0:0:0:0:
176,156,87049,1,8,0:0:0:0:
176,152,87124,1,0,0:0:0:0:
176,152,87200,1,0,0:0:0:0:
176,152,87275,1,8,0:0:0:0:
176,132,87577,1,8,0:0:0:0:
84,172,87878,1,0,0:0:0:0:
84,172,87954,1,0,0:0:0:0:
84,172,88029,1,8,0:0:0:0:
84,172,88104,1,0,0:0:0:0:
84,172,88180,1,8,0:0:0:0:
88,172,88255,1,8,0:0:0:0:
88,184,88330,1,0,0:0:0:0:
92,184,88406,1,8,0:0:0:0:
252,136,88481,1,0,0:0:0:0:
216,144,88783,1,4,0:0:0:0:
204,140,88933,1,0,0:0:0:0:
204,140,89084,1,8,0:0:0:0:
168,152,89235,1,8,0:0:0:0:
168,152,89310,1,0,0:0:0:0:
168,152,89386,1,8,0:0:0:0:
168,152,89461,1,8,0:0:0:0:
168,152,89536,1,0,0:0:0:0:
196,128,89687,1,0,0:0:0:0:
176,132,89838,1,0,0:0:0:0:
176,132,89913,1,8,0:0:0:0:
176,132,89989,1,0,0:0:0:0:
140,160,90140,1,8,0:0:0:0:
136,152,90290,1,0,0:0:0:0:
136,152,90366,1,0,0:0:0:0:
132,152,90441,1,8,0:0:0:0:
128,152,90516,1,0,0:0:0:0:
100,140,90592,1,8,0:0:0:0:
176,176,90743,1,0,0:0:0:0:
176,176,90818,1,0,0:0:0:0:
176,176,90893,1,8,0:0:0:0:
176,176,91044,1,0,0:0:0:0:
168,172,91195,1,8,0:0:0:0:
148,168,91346,1,0,0:0:0:0:
148,168,91496,1,8,0:0:0:0:
152,132,91572,1,0,0:0:0:0:
152,132,91647,1,8,0:0:0:0:
152,132,91722,1,8,0:0:0:0:
152,132,91798,1,0,0:0:0:0:
144,132,91949,1,0,0:0:0:0:
144,132,92099,1,0,0:0:0:0:
144,132,92250,1,8,0:0:0:0:
144,132,92325,1,0,0:0:0:0:
144,132,92401,1,8,0:0:0:0:
136,136,92552,1,8,0:0:0:0:
128,144,92702,1,0,0:0:0:0:
128,144,92778,1,0,0:0:0:0:
128,144,92853,1,0,0:0:0:0:
124,140,92928,1,0,0:0:0:0:
120,132,93004,1,8,0:0:0:0:
104,132,93155,1,0,0:0:0:0:
100,132,93305,1,0,0:0:0:0:
100,132,93456,1,0,0:0:0:0:
100,132,93531,1,0,0:0:0:0:
100,132,93607,1,8,0:0:0:0:
88,120,93758,1,0,0:0:0:0:
88,120,93908,1,8,0:0:0:0:
88,128,93984,1,0,0:0:0:0:
84,128,94059,1,8,0:0:0:0:
80,128,94134,1,8,0:0:0:0:
80,128,94210,1,0,0:0:0:0:
172,164,94361,1,0,0:0:0:0:
172,164,94511,1,8,0:0:0:0:
164,172,94662,1,0,0:0:0:0:
160,172,94737,1,8,0:0:0:0:
156,180,94813,1,0,0:0:0:0:
156,180,94964,1,8,0:0:0:0:
80,220,95114,1,0,0:0:0:0:
80,220,95190,1,0,0:0:0:0:
80,220,95265,1,8,0:0:0:0:
80,220,95341,1,8,0:0:0:0:
80,224,95416,1,0,0:0:0:0:
72,236,95567,1,8,0:0:0:0:
160,232,95717,1,0,0:0:0:0:
160,232,95868,1,8,0:0:0:0:
160,232,95944,1,0,0:0:0:0:
128,304,96170,1,8,0:0:0:0:
104,316,96320,1,0,0:0:0:0:
104,316,96471,1,8,0:0:0:0:
104,316,96547,1,0,0:0:0:0:
104,316,96773,1,8,0:0:0:0:
76,332,96923,1,0,0:0:0:0:
76,332,97074,1,8,0:0:0:0:
76,332,97150,1,0,0:0:0:0:
76,332,97300,1,8,0:0:0:0:
76,332,97376,1,0,0:0:0:0:
76,332,97451,1,0,0:0:0:0:
68,336,97526,1,8,0:0:0:0:
232,200,97828,1,8,0:0:0:0:
232,200,97979,1,0,0:0:0:0:
232,200,98129,1,4,0:0:0:0:
232,200,98431,1,8,0:0:0:0:
224,200,98732,1,0,0:0:0:0:
224,200,99034,1,8,0:0:0:0:
224,204,99335,1,0,0:0:0:0:
224,204,99637,1,8,0:0:0:0:
224,204,99939,1,0,0:0:0:0:
224,204,100089,1,0,0:0:0:0:
224,208,100240,1,8,0:0:0:0:
88,296,100542,1,0,0:0:0:0:
88,296,100843,1,8,0:0:0:0:
88,296,101145,1,0,0:0:0:0:
88,296,101446,1,8,0:0:0:0:
88,296,101748,1,0,0:0:0:0:
272,188,102049,1,8,0:0:0:0:
236,240,102351,1,0,0:0:0:0:
236,240,102501,1,0,0:0:0:0:
232,244,102652,1,8,0:0:0:0:
216,248,102954,1,0,0:0:0:0:
188,164,103255,1,8,0:0:0:0:
184,176,103557,1,0,0:0:0:0:
184,176,103858,1,8,0:0:0:0:
184,172,104160,1,0,0:0:0:0:
184,176,104461,1,8,0:0:0:0:
184,176,104763,1,0,0:0:0:0:
176,200,104913,1,0,0:0:0:0:
184,172,105064,1,8,0:0:0:0:
240,180,105366,1,0,0:0:0:0:
240,180,105667,1,8,0:0:0:0:
240,228,105818,1,8,0:0:0:0:
240,228,105969,1,0,0:0:0:0:
240,228,106119,1,8,0:0:0:0:
248,224,106270,1,0,0:0:0:0:
248,224,106421,1,0,0:0:0:0:
248,224,106572,1,8,0:0:0:0:
152,112,106873,1,8,0:0:0:0:
152,112,107175,1,0,0:0:0:0:
152,112,107325,1,0,0:0:0:0:
152,120,107476,1,8,0:0:0:0:
152,120,107627,1,8,0:0:0:0:
152,112,107778,1,0,0:0:0:0:
152,112,107928,1,0,0:0:0:0:
152,112,108079,1,0,0:0:0:0:
144,112,108230,1,0,0:0:0:0:
144,112,108381,1,0,0:0:0:0:
144,120,108531,1,0,0:0:0:0:
156,176,108682,1,0,0:0:0:0:
156,176,108833,1,0,0:0:0:0:
140,176,108984,1,8,0:0:0:0:
128,180,109134,1,0,0:0:0:0:
132,184,109285,1,0,0:0:0:0:
132,184,109436,1,0,0:0:0:0:
132,184,109587,1,8,0:0:0:0:
132,184,109737,1,0,0:0:0:0:
132,184,109888,1,8,0:0:0:0:
128,192,110039,1,0,0:0:0:0:
192,108,110190,1,8,0:0:0:0:
192,108,110341,1,0,0:0:0:0:
188,120,110491,1,0,0:0:0:0:
188,120,110642,1,0,0:0:0:0:
184,128,110793,1,8,0:0:0:0:
184,128,110944,1,0,0:0:0:0:
184,144,111094,1,8,0:0:0:0:
176,152,111245,1,0,0:0:0:0:
172,152,111396,1,8,0:0:0:0:
164,144,111547,1,0,0:0:0:0:
164,144,111622,1,0,0:0:0:0:
164,144,111697,1,0,0:0:0:0:
160,148,111848,1,0,0:0:0:0:
164,144,111999,1,8,0:0:0:0:
164,144,112150,1,0,0:0:0:0:
160,156,112225,1,0,0:0:0:0:
160,156,112300,1,8,0:0:0:0:
156,164,112451,1,0,0:0:0:0:
132,168,112602,1,8,0:0:0:0:
132,168,112677,1,0,0:0:0:0:
132,168,112753,1,0,0:0:0:0:
132,168,112828,1,0,0:0:0:0:
96,168,112903,1,8,0:0:0:0:
132,168,112979,1,0,0:0:0:0:
132,168,113054,1,0,0:0:0:0:
132,168,113129,1,0,0:0:0:0:
96,168,113205,1,8,0:0:0:0:
132,168,113280,1,0,0:0:0:0:
132,168,113356,1,0,0:0:0:0:
128,168,113431,1,0,0:0:0:0:
96,184,113506,1,8,0:0:0:0:
124,172,113582,1,0,0:0:0:0:
120,172,113657,1,0,0:0:0:0:
120,172,113732,1,0,0:0:0:0:
240,208,113808,1,8,0:0:0:0:
212,224,113883,1,8,0:0:0:0:
240,200,113959,1,0,0:0:0:0:
240,204,114034,1,0,0:0:0:0:
240,208,114109,1,8,0:0:0:0:
212,224,114185,1,8,0:0:0:0:
240,208,114260,1,0,0:0:0:0:
240,208,114335,1,0,0:0:0:0:
168,248,114411,1,8,0:0:0:0:
168,256,114486,1,0,0:0:0:0:
168,256,114562,1,0,0:0:0:0:
168,256,114637,1,0,0:0:0:0:
168,256,114712,1,8,0:0:0:0:
168,256,114788,1,0,0:0:0:0:
168,252,114863,1,0,0:0:0:0:
168,248,114939,1,0,0:0:0:0:
116,248,115014,1,8,0:0:0:0:
112,252,115165,1,0,0:0:0:0:
112,252,115240,1,0,0:0:0:0:
112,252,115315,1,8,0:0:0:0:
116,264,115466,1,0,0:0:0:0:
112,264,115542,1,0,0:0:0:0:
116,260,115617,1,8,0:0:0:0:
108,268,115768,1,0,0:0:0:0:
108,268,115843,1,0,0:0:0:0:
112,268,115918,1,8,0:0:0:0:
88,272,116069,1,0,0:0:0:0:
88,272,116220,1,4,0:0:0:0:
136,268,117124,1,0,0:0:0:0:
144,264,117275,1,8,0:0:0:0:
128,272,117426,1,4,0:0:0:0:
168,176,117577,1,0,0:0:0:0:
168,176,117652,1,0,0:0:0:0:
168,176,117727,1,8,0:0:0:0:
168,176,117803,1,8,0:0:0:0:
168,176,117878,1,0,0:0:0:0:
168,176,118029,1,0,0:0:0:0:
300,164,118180,1,8,0:0:0:0:
296,168,118230,1,8,0:0:0:0:
300,164,118280,1,8,0:0:0:0:
300,164,118330,1,8,0:0:0:0:
300,164,118481,1,0,0:0:0:0:
300,164,118632,1,8,0:0:0:0:
300,164,118682,1,8,0:0:0:0:
300,164,118732,1,8,0:0:0:0:
300,164,118783,1,8,0:0:0:0:
296,164,118933,1,0,0:0:0:0:
296,164,119084,1,8,0:0:0:0:
296,164,119134,1,8,0:0:0:0:
296,164,119185,1,8,0:0:0:0:
296,160,119235,1,8,0:0:0:0:
300,164,119386,1,0,0:0:0:0:
232,132,119461,1,0,0:0:0:0:
284,156,119536,1,8,0:0:0:0:
284,152,119587,1,8,0:0:0:0:
288,152,119637,1,8,0:0:0:0:
288,152,119687,1,8,0:0:0:0:
120,192,119838,1,8,0:0:0:0:
120,192,119913,1,0,0:0:0:0:
120,192,119989,1,8,0:0:0:0:
116,200,120064,1,8,0:0:0:0:
120,200,120140,1,0,0:0:0:0:
128,184,120290,1,8,0:0:0:0:
200,200,120441,1,0,0:0:0:0:
200,200,120516,1,8,0:0:0:0:
200,200,120592,1,8,0:0:0:0:
200,200,120667,1,8,0:0:0:0:
200,200,120743,1,8,0:0:0:0:
212,196,120818,1,8,0:0:0:0:
212,196,120893,1,8,0:0:0:0:
208,196,120969,1,8,0:0:0:0:
208,192,121044,1,8,0:0:0:0:
208,192,121195,1,8,0:0:0:0:
204,192,121270,1,8,0:0:0:0:
204,192,121346,1,0,0:0:0:0:
204,192,121421,1,8,0:0:0:0:
208,188,121496,1,8,0:0:0:0:
240,228,121647,1,8,0:0:0:0:
240,228,121722,1,8,0:0:0:0:
240,228,121798,1,8,0:0:0:0:
240,228,121873,1,8,0:0:0:0:
316,136,121949,1,0,0:0:0:0:
352,152,121999,1,0,0:0:0:0:
352,152,122049,1,0,0:0:0:0:
352,152,122099,1,0,0:0:0:0:
352,152,122150,1,0,0:0:0:0:
352,152,122200,1,0,0:0:0:0:
352,152,122250,1,8,0:0:0:0:
204,192,122401,1,0,0:0:0:0:
208,192,122476,1,0,0:0:0:0:
208,208,122552,1,8,0:0:0:0:
208,208,122627,1,8,0:0:0:0:
208,208,122702,1,0,0:0:0:0:
212,208,122853,1,0,0:0:0:0:
272,176,123004,1,8,0:0:0:0:
272,176,123054,1,8,0:0:0:0:
272,176,123104,1,8,0:0:0:0:
272,176,123155,1,8,0:0:0:0:
272,176,123305,1,0,0:0:0:0:
272,176,123456,1,8,0:0:0:0:
272,176,123506,1,8,0:0:0:0:
272,176,123557,1,8,0:0:0:0:
272,176,123607,1,8,0:0:0:0:
280,212,123758,1,0,0:0:0:0:
280,212,123908,1,8,0:0:0:0:
284,204,123959,1,8,0:0:0:0:
284,204,124009,1,8,0:0:0:0:
284,204,124059,1,8,0:0:0:0:
280,204,124210,1,0,0:0:0:0:
320,164,124285,1,0,0:0:0:0:
292,212,124361,1,8,0:0:0:0:
292,212,124411,1,8,0:0:0:0:
292,212,124461,1,8,0:0:0:0:
296,212,124511,1,8,0:0:0:0:
252,200,124587,1,8,0:0:0:0:
252,200,124662,1,0,0:0:0:0:
260,192,124813,1,0,0:0:0:0:
236,184,124964,1,8,0:0:0:0:
236,184,125014,1,8,0:0:0:0:
236,184,125064,1,8,0:0:0:0:
236,184,125114,1,8,0:0:0:0:
236,184,125265,1,0,0:0:0:0:
236,184,125416,1,8,0:0:0:0:
236,184,125466,1,0,0:0:0:0:
236,184,125567,1,8,0:0:0:0:
236,184,125617,1,0,0:0:0:0:
236,184,125717,1,8,0:0:0:0:
196,140,125768,1,0,0:0:0:0:
204,164,125868,1,0,0:0:0:0:
204,164,125944,1,0,0:0:0:0:
204,164,126019,1,0,0:0:0:0:
204,164,126094,1,0,0:0:0:0:
204,164,126170,1,8,0:0:0:0:
216,160,126245,1,0,0:0:0:0:
216,160,126320,1,8,0:0:0:0:
216,160,126471,1,0,0:0:0:0:
216,160,126547,1,0,0:0:0:0:
216,160,126622,1,0,0:0:0:0:
212,160,126697,1,0,0:0:0:0:
212,160,126773,1,8,0:0:0:0:
212,160,126848,1,8,0:0:0:0:
212,160,126923,1,0,0:0:0:0:
212,160,126999,1,0,0:0:0:0:
212,160,127074,1,0,0:0:0:0:
216,160,127225,1,0,0:0:0:0:
216,160,127300,1,0,0:0:0:0:
224,160,127376,1,8,0:0:0:0:
224,160,127451,1,8,0:0:0:0:
224,160,127526,1,0,0:0:0:0:
224,160,127677,1,0,0:0:0:0:
292,168,127828,1,8,0:0:0:0:
292,168,127878,1,8,0:0:0:0:
292,168,127928,1,8,0:0:0:0:
292,168,127979,1,8,0:0:0:0:
292,168,128129,1,0,0:0:0:0:
292,168,128280,1,8,0:0:0:0:
292,168,128330,1,8,0:0:0:0:
292,168,128381,1,8,0:0:0:0:
292,168,128431,1,8,0:0:0:0:
292,168,128582,1,0,0:0:0:0:
292,168,128732,1,8,0:0:0:0:
292,168,128783,1,8,0:0:0:0:
292,168,128833,1,8,0:0:0:0:
292,168,128883,1,8,0:0:0:0:
256,216,129034,1,0,0:0:0:0:
256,216,129109,1,0,0:0:0:0:
304,160,129185,1,8,0:0:0:0:
304,160,129235,1,8,0:0:0:0:
304,160,129285,1,8,0:0:0:0:
304,160,129335,1,8,0:0:0:0:
140,208,129486,1,0,0:0:0:0:
140,208,129562,1,0,0:0:0:0:
140,208,129637,1,0,0:0:0:0:
140,208,129712,1,0,0:0:0:0:
140,208,129788,1,8,0:0:0:0:
140,208,129863,1,8,0:0:0:0:
140,208,129939,1,0,0:0:0:0:
148,196,130089,1,0,0:0:0:0:
148,196,130165,1,8,0:0:0:0:
148,196,130240,1,8,0:0:0:0:
148,200,130315,1,8,0:0:0:0:
148,200,130391,1,8,0:0:0:0:
148,200,130466,1,8,0:0:0:0:
148,200,130542,1,8,0:0:0:0:
148,200,130617,1,8,0:0:0:0:
148,200,130692,1,8,0:0:0:0:
68,188,130843,1,8,0:0:0:0:
68,188,130918,1,8,0:0:0:0:
68,188,130994,1,0,0:0:0:0:
68,188,131069,1,8,0:0:0:0:
68,188,131145,1,8,0:0:0:0:
64,192,131295,1,0,0:0:0:0:
64,192,131371,1,8,0:0:0:0:
64,192,131446,1,8,0:0:0:0:
64,192,131521,1,8,0:0:0:0:
232,160,131597,1,0,0:0:0:0:
232,160,131647,1,0,0:0:0:0:
232,160,131697,1,0,0:0:0:0:
232,160,131748,1,0,0:0:0:0:
232,160,131798,1,0,0:0:0:0:
232,160,131848,1,0,0:0:0:0:
232,160,131898,1,8,0:0:0:0:
244,212,132049,1,0,0:0:0:0:
244,212,132200,1,8,0:0:0:0:
184,176,132351,1,0,0:0:0:0:
184,176,132426,1,0,0:0:0:0:
184,176,132501,1,0,0:0:0:0:
184,176,132652,1,8,0:0:0:0:
184,180,132727,1,8,0:0:0:0:
184,184,132803,1,0,0:0:0:0:
184,184,132954,1,8,0:0:0:0:
184,184,133104,1,8,0:0:0:0:
184,184,133180,1,8,0:0:0:0:
184,184,133255,1,0,0:0:0:0:
184,184,133406,1,8,0:0:0:0:
184,188,133557,1,8,0:0:0:0:
184,188,133632,1,8,0:0:0:0:
184,188,133707,1,0,0:0:0:0:
184,184,133783,1,0,0:0:0:0:
184,184,133858,1,0,0:0:0:0:
184,188,134009,1,8,0:0:0:0:
176,184,134084,1,8,0:0:0:0:
176,184,134160,1,8,0:0:0:0:
164,184,134310,1,0,0:0:0:0:
164,184,134461,1,8,0:0:0:0:
164,184,134536,1,8,0:0:0:0:
164,184,134612,1,0,0:0:0:0:
164,184,134763,1,8,0:0:0:0:
164,184,134838,1,8,0:0:0:0:
164,184,134913,1,0,0:0:0:0:
168,184,134989,1,0,0:0:0:0:
168,184,135064,1,8,0:0:0:0:
152,208,135215,1,8,0:0:0:0:
156,212,135290,1,8,0:0:0:0:
156,212,135366,1,0,0:0:0:0:
156,212,135441,1,0,0:0:0:0:
156,212,135516,1,0,0:0:0:0:
156,212,136270,1,0,0:0:0:0:
156,212,136346,1,8,0:0:0:0:
156,212,136421,1,0,0:0:0:0:
156,212,136572,1,8,0:0:0:0:
220,192,136722,1,0,0:0:0:0:
220,192,136798,1,0,0:0:0:0:
220,192,136873,1,0,0:0:0:0:
220,192,136949,1,0,0:0:0:0:
220,192,137024,1,8,0:0:0:0:
220,192,137099,1,0,0:0:0:0:
220,192,137175,1,0,0:0:0:0:
220,192,137250,1,0,0:0:0:0:
220,192,137325,1,0,0:0:0:0:
224,196,137476,1,8,0:0:0:0:
224,196,137552,1,0,0:0:0:0:
224,196,137627,1,8,0:0:0:0:
224,196,137702,1,8,0:0:0:0:
224,196,137778,1,0,0:0:0:0:
224,200,137928,1,8,0:0:0:0:
224,200,138004,1,0,0:0:0:0:
224,200,138079,1,0,0:0:0:0:
220,200,138155,1,0,0:0:0:0:
220,200,138230,1,8,0:0:0:0:
220,200,138305,1,8,0:0:0:0:
224,196,138381,1,0,0:0:0:0:
280,172,138531,1,0,0:0:0:0:
280,172,138582,1,0,0:0:0:0:
280,172,138682,1,8,0:0:0:0:
280,172,138732,1,0,0:0:0:0:
280,172,138833,1,8,0:0:0:0:
280,172,138883,1,0,0:0:0:0:
280,172,138984,1,8,0:0:0:0:
280,172,139034,1,0,0:0:0:0:
256,208,139134,1,8,0:0:0:0:
256,208,139210,1,0,0:0:0:0:
256,208,139285,1,0,0:0:0:0:
256,208,139361,1,0,0:0:0:0:
256,208,139436,1,8,0:0:0:0:
256,208,139511,1,8,0:0:0:0:
256,208,139587,1,0,0:0:0:0:
256,208,139662,1,0,0:0:0:0:
256,208,139737,1,8,0:0:0:0:
188,236,139888,1,8,0:0:0:0:
188,236,139964,1,0,0:0:0:0:
188,236,140039,1,8,0:0:0:0:
188,236,140114,1,8,0:0:0:0:
188,236,140190,1,0,0:0:0:0:
188,236,140265,1,8,0:0:0:0:
208,212,140341,1,0,0:0:0:0:
192,228,140391,1,8,0:0:0:0:
192,228,140491,1,8,0:0:0:0:
192,228,140542,1,8,0:0:0:0:
192,228,140642,1,8,0:0:0:0:
192,228,140692,1,8,0:0:0:0:
192,228,140793,1,8,0:0:0:0:
192,228,140843,1,8,0:0:0:0:
84,208,140944,1,0,0:0:0:0:
84,208,141019,1,8,0:0:0:0:
84,208,141094,1,8,0:0:0:0:
84,208,141170,1,8,0:0:0:0:
84,208,141245,1,0,0:0:0:0:
84,208,141320,1,0,0:0:0:0:
84,208,141396,1,8,0:0:0:0:
172,176,141547,1,0,0:0:0:0:
172,176,141622,1,0,0:0:0:0:
172,176,141697,1,0,0:0:0:0:
172,176,141773,1,0,0:0:0:0:
172,176,141848,1,8,0:0:0:0:
176,176,141923,1,8,0:0:0:0:
176,176,141999,1,0,0:0:0:0:
176,176,142074,1,0,0:0:0:0:
176,180,142150,1,0,0:0:0:0:
168,188,142300,1,8,0:0:0:0:
172,184,142376,1,0,0:0:0:0:
156,192,142451,1,8,0:0:0:0:
160,188,142526,1,8,0:0:0:0:
160,192,142602,1,0,0:0:0:0:
160,192,142677,1,0,0:0:0:0:
160,192,142753,1,0,0:0:0:0:
152,192,142903,1,0,0:0:0:0:
152,192,142979,1,0,0:0:0:0:
152,192,143054,1,8,0:0:0:0:
152,192,143129,1,8,0:0:0:0:
152,192,143205,1,0,0:0:0:0:
152,192,143280,1,0,0:0:0:0:
152,196,143356,1,8,0:0:0:0:
152,196,143431,1,0,0:0:0:0:
152,196,143506,1,0,0:0:0:0:
152,200,143582,1,0,0:0:0:0:
152,200,143657,1,8,0:0:0:0:
152,200,143732,1,8,0:0:0:0:
152,200,143808,1,0,0:0:0:0:
280,212,143959,1,8,0:0:0:0:
280,212,144034,1,0,0:0:0:0:
280,212,144109,1,0,0:0:0:0:
280,212,144185,1,0,0:0:0:0:
260,192,144260,1,8,0:0:0:0:
260,192,144310,1,8,0:0:0:0:
260,192,144361,1,8,0:0:0:0:
260,192,144411,1,0,0:0:0:0:
172,184,144486,1,0,0:0:0:0:
172,184,144562,1,8,0:0:0:0:
196,172,144712,1,0,0:0:0:0:
88,248,144788,1,8,0:0:0:0:
88,248,144939,1,0,0:0:0:0:
112,200,145014,1,8,0:0:0:0:
112,200,145165,1,8,0:0:0:0:
112,200,145315,1,0,0:0:0:0:
112,200,145391,1,8,0:0:0:0:
112,200,145466,1,0,0:0:0:0:
112,200,145542,1,0,0:0:0:0:
112,200,145617,1,8,0:0:0:0:
140,224,145768,1,0,0:0:0:0:
140,224,145843,1,0,0:0:0:0:
140,224,145918,1,0,0:0:0:0:
140,224,145994,1,0,0:0:0:0:
140,224,146069,1,8,0:0:0:0:
140,224,146145,1,0,0:0:0:0:
140,224,146220,1,0,0:0:0:0:
140,224,146295,1,0,0:0:0:0:
140,224,146371,1,0,0:0:0:0:
132,228,146521,1,0,0:0:0:0:
128,232,146597,1,0,0:0:0:0:
128,232,146672,1,8,0:0:0:0:
128,232,146748,1,8,0:0:0:0:
128,232,146823,1,0,0:0:0:0:
148,140,146974,1,0,0:0:0:0:
176,208,147124,1,0,0:0:0:0:
180,212,147200,1,0,0:0:0:0:
180,212,147275,1,8,0:0:0:0:
180,212,147351,1,8,0:0:0:0:
180,212,147426,1,0,0:0:0:0:
180,212,147501,1,8,0:0:0:0:
164,168,147577,1,0,0:0:0:0:
224,216,147727,1,0,0:0:0:0:
224,216,147803,1,0,0:0:0:0:
224,216,147878,1,8,0:0:0:0:
224,216,148029,1,0,0:0:0:0:
304,148,148180,1,8,0:0:0:0:
288,160,148230,1,0,0:0:0:0:
288,160,148330,1,8,0:0:0:0:
288,160,148381,1,0,0:0:0:0:
212,152,148481,1,8,0:0:0:0:
212,152,148557,1,8,0:0:0:0:
212,152,148632,1,0,0:0:0:0:
212,152,148707,1,0,0:0:0:0:
212,152,148783,1,0,0:0:0:0:
192,200,148933,1,0,0:0:0:0:
192,200,149009,1,0,0:0:0:0:
192,200,149084,1,8,0:0:0:0:
192,200,149160,1,8,0:0:0:0:
192,200,149235,1,0,0:0:0:0:
208,204,149386,1,0,0:0:0:0:
208,204,149461,1,0,0:0:0:0:
208,208,149536,1,8,0:0:0:0:
204,208,149612,1,0,0:0:0:0:
200,208,149687,1,8,0:0:0:0:
200,208,149763,1,8,0:0:0:0:
200,208,149838,1,0,0:0:0:0:
176,196,149913,1,0,0:0:0:0:
252,168,149989,1,8,0:0:0:0:
240,172,150039,1,0,0:0:0:0:
240,176,150140,1,8,0:0:0:0:
240,176,150190,1,0,0:0:0:0:
240,180,150290,1,8,0:0:0:0:
240,184,150341,1,8,0:0:0:0:
240,184,150441,1,8,0:0:0:0:
240,184,150491,1,8,0:0:0:0:
212,168,150592,1,0,0:0:0:0:
204,172,150667,1,0,0:0:0:0:
208,172,150743,1,0,0:0:0:0:
208,172,150818,1,0,0:0:0:0:
200,176,150893,1,8,0:0:0:0:
200,176,150969,1,8,0:0:0:0:
200,176,151044,1,0,0:0:0:0:
240,176,151195,1,0,0:0:0:0:
236,176,151346,1,0,0:0:0:0:
232,176,151421,1,0,0:0:0:0:
232,176,151496,1,8,0:0:0:0:
232,176,151647,1,0,0:0:0:0:
232,176,151798,1,8,0:0:0:0:
232,180,151949,1,0,0:0:0:0:
232,180,152024,1,0,0:0:0:0:
232,180,152099,1,8,0:0:0:0:
232,184,152250,1,0,0:0:0:0:
236,184,152401,1,8,0:0:0:0:
236,184,152552,1,0,0:0:0:0:
236,184,152627,1,0,0:0:0:0:
236,184,152702,1,8,0:0:0:0:
236,184,152778,1,8,0:0:0:0:
232,188,152853,1,0,0:0:0:0:
212,164,153004,1,8,0:0:0:0:
212,168,153155,1,0,0:0:0:0:
212,168,153230,1,0,0:0:0:0:
212,168,153305,1,8,0:0:0:0:
212,168,153381,1,8,0:0:0:0:
212,168,153456,1,8,0:0:0:0:
184,148,153607,1,8,0:0:0:0:
184,148,153758,1,0,0:0:0:0:
184,148,153833,1,0,0:0:0:0:
184,152,153908,1,8,0:0:0:0:
184,152,154059,1,0,0:0:0:0:
184,152,154134,1,0,0:0:0:0:
184,152,154210,1,8,0:0:0:0:
184,152,154361,1,0,0:0:0:0:
184,152,154436,1,0,0:0:0:0:
184,152,154511,1,8,0:0:0:0:
184,156,154587,1,8,0:0:0:0:
184,156,154662,1,8,0:0:0:0:
184,156,154737,1,8,0:0:0:0:
184,156,154813,1,0,0:0:0:0:
244,184,155114,1,0,0:0:0:0:
244,184,155165,1,0,0:0:0:0:
244,184,155215,1,0,0:0:0:0:
244,184,155265,1,0,0:0:0:0:
244,184,155315,1,0,0:0:0:0:
244,184,155366,1,0,0:0:0:0:
224,184,155416,1,8,0:0:0:0:
232,208,155491,1,0,0:0:0:0:
232,208,155567,1,0,0:0:0:0:
236,208,155642,1,0,0:0:0:0:
164,216,155717,1,0,0:0:0:0:
164,216,155768,1,0,0:0:0:0:
164,216,155818,1,0,0:0:0:0:
164,216,155868,1,0,0:0:0:0:
164,216,155918,1,0,0:0:0:0:
164,216,155969,1,0,0:0:0:0:
164,216,156019,1,8,0:0:0:0:
228,200,156923,1,0,0:0:0:0:
228,200,158431,1,8,0:0:0:0:
228,200,159335,1,0,0:0:0:0:
228,200,160843,1,8,0:0:0:0:
208,224,161748,1,0,0:0:0:0:
208,224,163255,1,0,0:0:0:0:
160,216,164160,1,0,0:0:0:0:
272,216,165064,1,0,0:0:0:0:
272,216,165140,1,0,0:0:0:0:
272,216,165215,1,8,0:0:0:0:
272,216,165290,1,0,0:0:0:0:
272,216,165366,1,8,0:0:0:0:
272,216,165441,1,8,0:0:0:0:
272,216,165516,1,8,0:0:0:0:
272,216,165592,1,8,0:0:0:0:
272,216,165667,1,0,0:0:0:0:
160,216,166572,1,8,0:0:0:0:
180,204,168079,1,0,0:0:0:0:
180,204,168984,1,0,0:0:0:0:
180,204,170491,1,8,0:0:0:0:
164,192,171396,1,0,0:0:0:0:
164,192,172903,1,0,0:0:0:0:
164,192,173808,1,8,0:0:0:0:
164,192,174712,1,0,0:0:0:0:
164,192,174788,1,0,0:0:0:0:
164,192,174863,1,8,0:0:0:0:
164,192,174939,1,8,0:0:0:0:
164,192,175014,1,0,0:0:0:0:
164,192,175089,1,8,0:0:0:0:
164,192,175165,1,8,0:0:0:0:
164,192,175240,1,8,0:0:0:0:
164,192,175315,1,0,0:0:0:0:
164,192,175617,1,0,0:0:0:0:
164,192,175918,1,0,0:0:0:0:
164,192,176220,1,0,0:0:0:0:
224,152,176371,1,8,0:0:0:0:
224,152,176446,1,8,0:0:0:0:
164,192,176521,1,0,0:0:0:0:
164,192,176823,1,0,0:0:0:0:
164,200,177124,1,0,0:0:0:0:
164,192,177426,1,0,0:0:0:0:
164,192,177577,1,8,0:0:0:0:
224,152,177652,1,0,0:0:0:0:
168,196,177727,1,0,0:0:0:0:
164,200,178029,1,0,0:0:0:0:
168,200,178330,1,0,0:0:0:0:
176,136,178632,1,0,0:0:0:0:
152,200,178732,1,0,0:0:0:0:
152,200,178833,1,0,0:0:0:0:
224,152,178933,1,8,0:0:0:0:
176,144,179235,1,0,0:0:0:0:
176,144,179536,1,0,0:0:0:0:
176,148,179838,1,0,0:0:0:0:
176,148,179989,1,8,0:0:0:0:
200,144,180140,1,0,0:0:0:0:
196,136,180441,1,0,0:0:0:0:
184,152,180743,1,0,0:0:0:0:
188,156,181044,1,0,0:0:0:0:
240,156,181195,1,8,0:0:0:0:
188,156,181346,1,0,0:0:0:0:
188,156,181647,1,0,0:0:0:0:
188,156,181949,1,0,0:0:0:0:
188,156,182250,1,0,0:0:0:0:
188,156,182401,1,8,0:0:0:0:
188,156,182552,1,0,0:0:0:0:
188,156,182853,1,0,0:0:0:0:
188,156,183155,1,0,0:0:0:0:
184,160,183456,1,0,0:0:0:0:
184,160,183758,1,0,0:0:0:0:
208,152,184059,1,0,0:0:0:0:
208,152,184134,1,8,0:0:0:0:
208,152,184210,1,0,0:0:0:0:
208,152,184285,1,0,0:0:0:0:
208,152,184361,1,8,0:0:0:0:
208,152,184511,1,8,0:0:0:0:
208,152,184587,1,8,0:0:0:0:
200,152,184662,1,0,0:0:0:0:
200,152,184737,1,8,0:0:0:0:
200,152,184813,1,0,0:0:0:0:
200,152,184888,1,0,0:0:0:0:
200,152,184964,1,8,0:0:0:0:
240,184,185114,1,0,0:0:0:0:
248,188,185265,1,0,0:0:0:0:
248,188,185416,1,0,0:0:0:0:
244,192,185567,1,0,0:0:0:0:
244,192,185717,1,0,0:0:0:0:
240,192,185868,1,0,0:0:0:0:
236,196,186019,1,0,0:0:0:0:
236,200,186170,1,8,0:0:0:0:
236,200,186320,1,0,0:0:0:0:
232,204,186471,1,0,0:0:0:0:
232,204,186622,1,0,0:0:0:0:
232,204,186773,1,0,0:0:0:0:
232,208,186923,1,0,0:0:0:0:
232,208,187074,1,0,0:0:0:0:
232,208,187225,1,0,0:0:0:0:
232,204,187376,1,8,0:0:0:0:
228,208,187526,1,0,0:0:0:0:
224,212,187677,1,0,0:0:0:0:
224,212,187828,1,0,0:0:0:0:
224,212,187979,1,0,0:0:0:0:
220,220,188129,1,0,0:0:0:0:
220,220,188280,1,0,0:0:0:0:
192,184,188431,1,0,0:0:0:0:
192,184,188582,1,8,0:0:0:0:
192,184,188732,1,0,0:0:0:0:
192,184,188883,1,0,0:0:0:0:
192,184,189034,1,0,0:0:0:0:
192,184,189185,1,8,0:0:0:0:
180,188,189335,1,0,0:0:0:0:
156,192,189486,1,8,0:0:0:0:
156,188,189637,1,0,0:0:0:0:
156,188,189788,1,8,0:0:0:0:
156,192,189863,1,0,0:0:0:0:
156,192,189939,1,0,0:0:0:0:
156,192,190014,1,0,0:0:0:0:
156,192,190089,1,0,0:0:0:0:
156,192,190165,1,0,0:0:0:0:
156,192,190240,1,0,0:0:0:0:
156,192,190315,1,0,0:0:0:0:
120,120,190391,1,0,0:0:0:0:
120,120,190466,1,0,0:0:0:0:
120,120,190542,1,0,0:0:0:0:
120,120,190617,1,0,0:0:0:0:
120,120,190692,1,0,0:0:0:0:
120,120,190768,1,0,0:0:0:0:
120,120,190843,1,0,0:0:0:0:
120,120,190918,1,0,0:0:0:0:
120,120,190994,1,0,0:0:0:0:
120,120,191069,1,0,0:0:0:0:
120,120,191145,1,0,0:0:0:0:
112,124,191220,1,0,0:0:0:0:
112,124,191295,1,0,0:0:0:0:
112,124,191371,1,0,0:0:0:0:
112,124,191446,1,0,0:0:0:0:
112,124,191521,1,0,0:0:0:0:
248,168,191597,1,8,0:0:0:0:
244,160,191647,1,0,0:0:0:0:
244,160,191697,1,0,0:0:0:0:
244,160,191748,1,0,0:0:0:0:
244,160,191798,1,0,0:0:0:0:
248,164,191848,1,0,0:0:0:0:
248,164,191898,1,0,0:0:0:0:
248,168,191949,1,0,0:0:0:0:
248,168,191999,1,0,0:0:0:0:
248,176,192049,1,0,0:0:0:0:
248,176,192099,1,0,0:0:0:0:
256,176,192150,1,0,0:0:0:0:
256,176,192200,1,8,0:0:0:0:
176,164,192501,1,0,0:0:0:0:
176,164,192577,1,0,0:0:0:0:
176,164,192652,1,0,0:0:0:0:
176,164,192727,1,0,0:0:0:0:
168,164,192803,1,0,0:0:0:0:
160,172,192954,1,0,0:0:0:0:
176,164,193029,1,0,0:0:0:0:
160,168,193104,1,8,0:0:0:0:
160,168,193255,1,0,0:0:0:0:
152,172,193406,1,0,0:0:0:0:
152,172,193481,1,0,0:0:0:0:
152,172,193557,1,0,0:0:0:0:
152,172,193632,1,0,0:0:0:0:
152,172,193707,1,8,0:0:0:0:
152,172,193783,1,0,0:0:0:0:
152,172,193858,1,0,0:0:0:0:
152,172,193933,1,0,0:0:0:0:
152,172,194009,1,8,0:0:0:0:
144,176,194160,1,0,0:0:0:0:
144,176,194310,1,8,0:0:0:0:
140,176,194386,1,0,0:0:0:0:
140,176,194461,1,8,0:0:0:0:
164,192,194612,1,4,0:0:0:0:
160,192,194763,1,0,0:0:0:0:
160,192,194838,1,0,0:0:0:0:
160,192,194913,1,8,0:0:0:0:
160,192,194989,1,8,0:0:0:0:
160,192,195064,1,0,0:0:0:0:
160,192,195140,1,8,0:0:0:0:
160,192,195215,1,0,0:0:0:0:
164,192,195366,1,0,0:0:0:0:
164,192,195441,1,0,0:0:0:0:
160,192,195516,1,8,0:0:0:0:
160,192,195592,1,0,0:0:0:0:
160,192,195667,1,8,0:0:0:0:
140,200,195818,1,0,0:0:0:0:
140,200,195969,1,8,0:0:0:0:
140,200,196044,1,8,0:0:0:0:
140,200,196119,1,0,0:0:0:0:
140,200,196195,1,8,0:0:0:0:
140,200,196270,1,0,0:0:0:0:
136,200,196346,1,0,0:0:0:0:
136,200,196421,1,8,0:0:0:0:
144,200,196572,1,8,0:0:0:0:
144,200,196647,1,0,0:0:0:0:
144,200,196722,1,8,0:0:0:0:
144,200,196798,1,8,0:0:0:0:
144,200,196873,1,0,0:0:0:0:
148,200,196949,1,8,0:0:0:0:
148,200,197024,1,0,0:0:0:0:
132,188,197175,1,0,0:0:0:0:
128,188,197250,1,0,0:0:0:0:
128,188,197325,1,8,0:0:0:0:
132,184,197401,1,8,0:0:0:0:
132,188,197476,1,8,0:0:0:0:
132,188,197552,1,0,0:0:0:0:
132,188,197627,1,0,0:0:0:0:
132,184,197778,1,8,0:0:0:0:
132,184,197853,1,8,0:0:0:0:
132,184,197928,1,0,0:0:0:0:
132,184,198004,1,8,0:0:0:0:
132,184,198079,1,0,0:0:0:0:
132,184,198155,1,0,0:0:0:0:
128,184,198230,1,8,0:0:0:0:
124,184,198381,1,0,0:0:0:0:
124,184,198456,1,8,0:0:0:0:
124,184,198531,1,0,0:0:0:0:
124,184,198607,1,0,0:0:0:0:
124,184,198682,1,8,0:0:0:0:
112,184,198833,1,0,0:0:0:0:
112,184,198908,1,0,0:0:0:0:
112,184,198984,1,8,0:0:0:0:
112,184,199059,1,0,0:0:0:0:
112,184,199134,1,8,0:0:0:0:
112,184,199210,1,8,0:0:0:0:
112,184,199285,1,8,0:0:0:0:
112,184,199361,1,0,0:0:0:0:
124,184,199436,1,8,0:0:0:0:
156,160,199587,1,8,0:0:0:0:
152,160,199662,1,8,0:0:0:0:
152,160,199737,1,0,0:0:0:0:
152,160,199813,1,8,0:0:0:0:
152,160,199888,1,0,0:0:0:0:
152,160,199964,1,0,0:0:0:0:
144,164,200039,1,8,0:0:0:0:
144,164,200190,1,0,0:0:0:0:
144,164,200265,1,8,0:0:0:0:
144,164,200341,1,0,0:0:0:0:
144,164,200416,1,0,0:0:0:0:
144,164,200491,1,8,0:0:0:0:
144,164,200567,1,8,0:0:0:0:
144,164,200642,1,0,0:0:0:0:
144,164,200793,1,0,0:0:0:0:
144,164,200868,1,8,0:0:0:0:
144,164,200944,1,0,0:0:0:0:
144,164,201019,1,8,0:0:0:0:
144,164,201094,1,8,0:0:0:0:
132,144,201170,1,0,0:0:0:0:
140,188,201245,1,0,0:0:0:0:
140,188,201320,1,8,0:0:0:0:
132,144,201471,1,8,0:0:0:0:
132,144,201546,1,0,0:0:0:0:
132,144,201622,1,0,0:0:0:0:
132,144,201697,1,8,0:0:0:0:
132,144,201772,1,0,0:0:0:0:
132,144,201848,1,8,0:0:0:0:
152,164,201923,1,0,0:0:0:0:
156,164,201999,1,0,0:0:0:0:
160,164,202074,1,0,0:0:0:0:
164,152,202150,1,8,0:0:0:0:
164,152,202225,1,8,0:0:0:0:
164,152,202300,1,0,0:0:0:0:
164,152,202376,1,8,0:0:0:0:
164,152,202451,1,0,0:0:0:0:
164,152,202526,1,0,0:0:0:0:
164,152,202602,1,8,0:0:0:0:
164,152,202677,1,0,0:0:0:0:
164,152,202753,1,8,0:0:0:0:
164,152,202828,1,8,0:0:0:0:
164,152,202903,1,8,0:0:0:0:
164,152,202979,1,0,0:0:0:0:
164,152,203054,1,8,0:0:0:0:
124,160,203205,1,8,0:0:0:0:
124,160,203280,1,0,0:0:0:0:
124,160,203356,1,8,0:0:0:0:
124,160,203431,1,8,0:0:0:0:
124,160,203506,1,0,0:0:0:0:
124,160,203582,1,0,0:0:0:0:
124,160,203657,1,8,0:0:0:0:
124,160,203732,1,0,0:0:0:0:
124,160,203808,1,0,0:0:0:0:
124,160,203883,1,0,0:0:0:0:
124,160,203959,1,8,0:0:0:0:
124,160,204034,1,8,0:0:0:0:
124,160,204109,1,0,0:0:0:0:
112,172,204260,1,4,0:0:0:0:
96,152,204411,1,0,0:0:0:0:
96,152,204486,1,0,0:0:0:0:
96,152,204562,1,8,0:0:0:0:
96,156,204637,1,0,0:0:0:0:
96,156,204712,1,8,0:0:0:0:
96,156,204788,1,8,0:0:0:0:
96,156,204863,1,0,0:0:0:0:
96,156,204939,1,8,0:0:0:0:
92,160,205089,1,8,0:0:0:0:
92,160,205165,1,0,0:0:0:0:
92,160,205240,1,0,0:0:0:0:
92,160,205315,1,8,0:0:0:0:
92,160,205391,1,0,0:0:0:0:
92,160,205466,1,8,0:0:0:0:
168,144,205617,1,8,0:0:0:0:
168,144,205692,1,0,0:0:0:0:
168,144,205768,1,8,0:0:0:0:
168,144,205843,1,8,0:0:0:0:
168,144,205918,1,0,0:0:0:0:
168,144,205994,1,0,0:0:0:0:
168,144,206069,1,8,0:0:0:0:
168,144,206145,1,0,0:0:0:0:
168,144,206220,1,0,0:0:0:0:
168,144,206295,1,0,0:0:0:0:
168,148,206371,1,8,0:0:0:0:
168,148,206446,1,8,0:0:0:0:
168,152,206521,1,8,0:0:0:0:
168,152,206597,1,0,0:0:0:0:
168,152,206672,1,8,0:0:0:0:
168,152,206823,1,8,0:0:0:0:
168,152,206898,1,0,0:0:0:0:
168,152,206974,1,8,0:0:0:0:
168,152,207049,1,8,0:0:0:0:
164,152,207124,1,0,0:0:0:0:
164,152,207200,1,0,0:0:0:0:
164,152,207275,1,8,0:0:0:0:
160,152,207426,1,0,0:0:0:0:
160,152,207501,1,8,0:0:0:0:
160,152,207577,1,0,0:0:0:0:
160,156,207652,1,0,0:0:0:0:
152,160,207727,1,0,0:0:0:0:
152,160,207803,1,8,0:0:0:0:
152,160,207878,1,0,0:0:0:0:
156,160,208029,1,8,0:0:0:0:
156,136,208104,1,0,0:0:0:0:
156,136,208180,1,8,0:0:0:0:
156,136,208255,1,0,0:0:0:0:
156,136,208330,1,0,0:0:0:0:
156,136,208406,1,0,0:0:0:0:
156,136,208481,1,8,0:0:0:0:
156,136,208557,1,8,0:0:0:0:
156,140,208632,1,0,0:0:0:0:
156,140,208707,1,0,0:0:0:0:
160,140,208783,1,8,0:0:0:0:
160,144,208858,1,0,0:0:0:0:
160,144,208933,1,8,0:0:0:0:
164,144,209009,1,8,0:0:0:0:
168,144,209084,1,0,0:0:0:0:
112,200,209235,1,0,0:0:0:0:
120,204,209310,1,0,0:0:0:0:
120,204,209386,1,8,0:0:0:0:
120,204,209461,1,0,0:0:0:0:
120,204,209536,1,8,0:0:0:0:
120,204,209612,1,8,0:0:0:0:
120,204,209687,1,0,0:0:0:0:
120,204,209763,1,0,0:0:0:0:
120,204,209838,1,8,0:0:0:0:
120,204,209913,1,0,0:0:0:0:
120,208,209989,1,8,0:0:0:0:
124,208,210140,1,0,0:0:0:0:
128,204,210215,1,0,0:0:0:0:
128,204,210290,1,8,0:0:0:0:
108,196,210366,1,8,0:0:0:0:
104,192,210441,1,8,0:0:0:0:
104,192,210516,1,0,0:0:0:0:
104,192,210592,1,8,0:0:0:0:
96,188,210667,1,8,0:0:0:0:
96,188,210743,1,0,0:0:0:0:
96,188,210818,1,0,0:0:0:0:
96,188,210893,1,8,0:0:0:0:
96,188,210969,1,8,0:0:0:0:
96,188,211044,1,8,0:0:0:0:
96,188,211119,1,0,0:0:0:0:
96,188,211195,1,8,0:0:0:0:
64,156,211270,1,8,0:0:0:0:
64,156,211346,1,0,0:0:0:0:
64,156,211421,1,0,0:0:0:0:
64,156,211496,1,8,0:0:0:0:
64,156,211647,1,0,0:0:0:0:
64,156,211798,1,8,0:0:0:0:
60,160,211949,1,0,0:0:0:0:
60,160,212099,1,8,0:0:0:0:
60,160,212250,1,0,0:0:0:0:
60,160,212325,1,0,0:0:0:0:
60,160,212401,1,8,0:0:0:0:
60,160,212552,1,0,0:0:0:0:
208,180,212702,1,4,0:0:0:0:
192,176,212853,1,0,0:0:0:0:
192,176,212928,1,0,0:0:0:0:
192,176,213004,1,8,0:0:0:0:
220,208,213079,1,0,0:0:0:0:
192,176,213155,1,8,0:0:0:0:
192,176,213305,1,8,0:0:0:0:
192,176,213381,1,8,0:0:0:0:
192,188,213531,1,0,0:0:0:0:
192,188,213607,1,8,0:0:0:0:
88,216,213682,1,8,0:0:0:0:
96,216,213758,1,8,0:0:0:0:
96,216,213833,1,0,0:0:0:0:
96,216,213908,1,8,0:0:0:0:
88,216,214210,1,4,0:0:0:0:
220,176,214361,1,0,0:0:0:0:
220,176,214436,1,0,0:0:0:0:
220,176,214511,1,8,0:0:0:0:
224,172,214587,1,0,0:0:0:0:
220,176,214662,1,8,0:0:0:0:
220,176,214737,1,8,0:0:0:0:
220,176,214813,1,0,0:0:0:0:
220,176,214888,1,8,0:0:0:0:
220,176,214964,1,0,0:0:0:0:
200,184,215114,1,0,0:0:0:0:
200,184,215265,1,8,0:0:0:0:
200,184,215341,1,8,0:0:0:0:
188,184,215416,1,0,0:0:0:0:
188,184,215491,1,8,0:0:0:0:
188,184,215567,1,0,0:0:0:0:
192,180,215717,1,0,0:0:0:0:
192,180,215793,1,8,0:0:0:0:
188,180,215944,1,8,0:0:0:0:
240,200,216019,1,0,0:0:0:0:
240,200,216094,1,0,0:0:0:0:
240,200,216170,1,8,0:0:0:0:
240,200,216245,1,0,0:0:0:0:
240,200,216320,1,8,0:0:0:0:
312,188,216471,1,8,0:0:0:0:
312,188,216547,1,8,0:0:0:0:
312,188,216622,1,0,0:0:0:0:
312,188,216697,1,8,0:0:0:0:
308,184,216773,1,0,0:0:0:0:
304,184,216848,1,0,0:0:0:0:
312,188,216923,1,8,0:0:0:0:
312,188,216999,1,0,0:0:0:0:
312,188,217150,1,8,0:0:0:0:
308,184,217225,1,0,0:0:0:0:
308,184,217300,1,0,0:0:0:0:
304,184,217376,1,8,0:0:0:0:
304,184,217451,1,8,0:0:0:0:
304,184,217526,1,0,0:0:0:0:
280,204,217677,1,8,0:0:0:0:
272,204,217753,1,0,0:0:0:0:
272,204,217828,1,8,0:0:0:0:
268,208,217903,1,8,0:0:0:0:
264,208,217979,1,0,0:0:0:0:
260,208,218054,1,8,0:0:0:0:
260,208,218129,1,0,0:0:0:0:
240,204,218205,1,0,0:0:0:0:
240,204,218280,1,8,0:0:0:0:
236,204,218356,1,0,0:0:0:0:
232,204,218431,1,8,0:0:0:0:
232,204,218506,1,8,0:0:0:0:
232,204,218582,1,8,0:0:0:0:
232,204,218657,1,0,0:0:0:0:
232,204,218732,1,8,0:0:0:0:
148,200,218883,1,8,0:0:0:0:
144,204,218959,1,8,0:0:0:0:
144,204,219034,1,0,0:0:0:0:
140,208,219109,1,8,0:0:0:0:
140,208,219185,1,0,0:0:0:0:
140,208,219260,1,0,0:0:0:0:
140,208,219335,1,8,0:0:0:0:
136,208,219486,1,8,0:0:0:0:
136,208,219562,1,0,0:0:0:0:
136,208,219637,1,8,0:0:0:0:
136,208,219712,1,8,0:0:0:0:
136,212,219788,1,0,0:0:0:0:
136,216,219863,1,0,0:0:0:0:
136,216,219939,1,8,0:0:0:0:
136,216,220089,1,0,0:0:0:0:
136,216,220165,1,8,0:0:0:0:
136,216,220240,1,0,0:0:0:0:
132,216,220315,1,0,0:0:0:0:
128,216,220391,1,8,0:0:0:0:
128,216,220466,1,8,0:0:0:0:
128,216,220542,1,0,0:0:0:0:
128,216,220617,1,8,0:0:0:0:
124,224,220768,1,8,0:0:0:0:
124,224,220843,1,0,0:0:0:0:
128,232,220918,1,0,0:0:0:0:
128,232,220994,1,8,0:0:0:0:
128,232,221069,1,0,0:0:0:0:
128,232,221145,1,8,0:0:0:0:
136,180,221295,1,8,0:0:0:0:
136,180,221371,1,0,0:0:0:0:
136,180,221446,1,8,0:0:0:0:
136,180,221521,1,8,0:0:0:0:
136,184,221597,1,0,0:0:0:0:
132,184,221672,1,0,0:0:0:0:
132,192,221748,1,8,0:0:0:0:
132,192,221823,1,0,0:0:0:0:
132,192,221898,1,0,0:0:0:0:
132,192,221974,1,0,0:0:0:0:
132,192,222049,1,8,0:0:0:0:
132,192,222124,1,8,0:0:0:0:
132,192,222200,1,8,0:0:0:0:
132,192,222275,1,0,0:0:0:0:
132,192,222351,1,8,0:0:0:0:
124,192,222426,1,0,0:0:0:0:
124,192,222501,1,0,0:0:0:0:
124,196,222577,1,0,0:0:0:0:
120,200,222652,1,8,0:0:0:0:
120,200,222727,1,0,0:0:0:0:
120,204,222803,1,0,0:0:0:0:
120,204,222878,1,0,0:0:0:0:
120,204,222954,1,8,0:0:0:0:
120,204,223029,1,0,0:0:0:0:
116,204,223104,1,8,0:0:0:0:
112,208,223180,1,8,0:0:0:0:
112,208,223255,1,8,0:0:0:0:
108,212,223330,1,8,0:0:0:0:
108,212,223406,1,8,0:0:0:0:
108,212,223481,1,8,0:0:0:0:
108,212,223557,1,0,0:0:0:0:
224,216,223707,1,0,0:0:0:0:
216,216,223783,1,0,0:0:0:0:
216,216,223858,1,8,0:0:0:0:
216,216,223933,1,0,0:0:0:0:
216,216,224009,1,8,0:0:0:0:
216,216,224084,1,8,0:0:0:0:
216,216,224160,1,0,0:0:0:0:
212,220,224235,1,8,0:0:0:0:
212,220,224386,1,8,0:0:0:0:
184,212,224461,1,0,0:0:0:0:
184,212,224536,1,0,0:0:0:0:
184,212,224612,1,8,0:0:0:0:
184,212,224687,1,0,0:0:0:0:
184,212,224763,1,8,0:0:0:0:
252,152,224913,1,8,0:0:0:0:
248,160,224989,1,0,0:0:0:0:
248,160,225064,1,0,0:0:0:0:
248,160,225140,1,0,0:0:0:0:
252,176,225215,1,8,0:0:0:0:
252,176,225290,1,8,0:0:0:0:
252,180,225366,1,0,0:0:0:0:
252,180,225441,1,8,0:0:0:0:
252,180,225592,1,0,0:0:0:0:
252,180,225667,1,8,0:0:0:0:
252,180,225743,1,8,0:0:0:0:
252,180,225818,1,8,0:0:0:0:
252,180,225893,1,0,0:0:0:0:
252,180,225969,1,8,0:0:0:0:
180,208,226119,1,8,0:0:0:0:
180,208,226195,1,8,0:0:0:0:
184,204,226270,1,0,0:0:0:0:
184,204,226346,1,0,0:0:0:0:
184,204,226421,1,8,0:0:0:0:
184,204,226496,1,0,0:0:0:0:
184,204,226572,1,8,0:0:0:0:
184,204,226647,1,8,0:0:0:0:
184,204,226722,1,8,0:0:0:0:
184,204,226798,1,8,0:0:0:0:
184,204,226873,1,0,0:0:0:0:
184,204,226949,1,0,0:0:0:0:
184,204,227024,1,8,0:0:0:0:
184,204,227099,1,0,0:0:0:0:
184,208,227175,1,8,0:0:0:0:
176,212,227325,1,8,0:0:0:0:
176,212,227401,1,8,0:0:0:0:
176,208,227476,1,0,0:0:0:0:
176,208,227552,1,8,0:0:0:0:
176,208,227627,1,0,0:0:0:0:
176,208,227778,1,0,0:0:0:0:
176,208,227853,1,0,0:0:0:0:
176,208,227928,1,8,0:0:0:0:
172,208,228004,1,0,0:0:0:0:
172,208,228079,1,8,0:0:0:0:
176,212,228155,1,8,0:0:0:0:
176,212,228230,1,8,0:0:0:0:
176,212,228305,1,8,0:0:0:0:
176,212,228381,1,0,0:0:0:0:
176,212,228531,1,0,0:0:0:0:
176,212,228682,1,0,0:0:0:0:
176,212,228833,1,0,0:0:0:0:
176,212,228984,1,0,0:0:0:0:
176,212,229134,1,0,0:0:0:0:
176,212,229285,1,0,0:0:0:0:
156,216,229361,1,0,0:0:0:0:
156,216,229436,1,8,0:0:0:0:
156,216,229511,1,8,0:0:0:0:
156,216,229587,1,0,0:0:0:0:
156,216,229737,1,0,0:0:0:0:
156,216,229888,1,0,0:0:0:0:
152,216,230039,1,0,0:0:0:0:
152,216,230190,1,0,0:0:0:0:
124,208,230341,1,0,0:0:0:0:
124,208,230491,1,0,0:0:0:0:
124,208,230642,1,0,0:0:0:0:
124,208,230793,1,8,0:0:0:0:
124,208,230868,1,0,0:0:0:0:
100,196,230944,1,0,0:0:0:0:
100,196,231019,1,0,0:0:0:0:
100,196,231094,1,8,0:0:0:0:
100,196,231170,1,0,0:0:0:0:
92,200,231245,1,0,0:0:0:0:
92,200,231320,1,0,0:0:0:0:
92,200,231396,1,8,0:0:0:0:
92,200,231471,1,0,0:0:0:0:
92,200,231547,1,0,0:0:0:0:
92,200,231622,1,0,0:0:0:0:
92,200,231697,1,8,0:0:0:0:
92,200,231773,1,8,0:0:0:0:
92,200,231848,1,0,0:0:0:0:
92,200,231923,1,0,0:0:0:0:
92,200,231999,1,8,0:0:0:0:
268,168,232225,1,8,0:0:0:0:
268,168,232451,1,8,0:0:0:0:
268,168,232677,1,8,0:0:0:0:
268,168,232753,1,0,0:0:0:0:
268,168,232828,1,0,0:0:0:0:
268,168,232903,1,8,0:0:0:0:
252,132,233054,1,8,0:0:0:0:
248,168,233205,1,4,0:0:0:0:
248,168,233356,1,0,0:0:0:0:
244,160,233431,1,0,0:0:0:0:
244,160,233506,1,8,0:0:0:0:
244,160,233582,1,8,0:0:0:0:
244,160,233657,1,0,0:0:0:0:
244,160,233732,1,8,0:0:0:0:
244,160,233808,1,8,0:0:0:0:
244,164,233959,1,8,0:0:0:0:
244,164,234034,1,8,0:0:0:0:
244,164,234109,1,0,0:0:0:0:
244,164,234185,1,0,0:0:0:0:
244,164,234260,1,8,0:0:0:0:
220,152,234411,1,8,0:0:0:0:
220,152,234562,1,8,0:0:0:0:
220,152,234637,1,8,0:0:0:0:
220,152,234712,1,0,0:0:0:0:
196,152,234863,1,8,0:0:0:0:
196,152,235014,1,0,0:0:0:0:
196,152,235089,1,0,0:0:0:0:
196,152,235165,1,8,0:0:0:0:
196,152,235240,1,0,0:0:0:0:
196,152,235315,1,8,0:0:0:0:
196,152,235391,1,8,0:0:0:0:
184,168,235466,1,0,0:0:0:0:
180,168,235617,1,0,0:0:0:0:
180,168,235768,1,0,0:0:0:0:
180,168,235843,1,0,0:0:0:0:
180,168,235918,1,8,0:0:0:0:
180,168,235994,1,0,0:0:0:0:
180,168,236069,1,8,0:0:0:0:
180,168,236145,1,8,0:0:0:0:
180,168,236220,1,8,0:0:0:0:
168,176,236371,1,8,0:0:0:0:
168,176,236446,1,8,0:0:0:0:
168,176,236521,1,0,0:0:0:0:
168,176,236672,1,8,0:0:0:0:
196,172,236823,1,8,0:0:0:0:
196,172,236898,1,8,0:0:0:0:
196,172,236974,1,8,0:0:0:0:
196,172,237049,1,8,0:0:0:0:
196,172,237124,1,0,0:0:0:0:
196,172,237200,1,0,0:0:0:0:
196,172,237275,1,8,0:0:0:0:
184,184,237426,1,0,0:0:0:0:
184,184,237501,1,8,0:0:0:0:
184,184,237577,1,8,0:0:0:0:
184,184,237652,1,0,0:0:0:0:
184,184,237727,1,8,0:0:0:0:
184,184,237803,1,8,0:0:0:0:
184,184,237878,1,0,0:0:0:0:
184,184,237954,1,0,0:0:0:0:
184,184,238029,1,8,0:0:0:0:
248,232,238180,1,0,0:0:0:0:
248,232,238255,1,0,0:0:0:0:
248,232,238330,1,8,0:0:0:0:
248,232,238406,1,8,0:0:0:0:
248,232,238481,1,0,0:0:0:0:
248,232,238557,1,8,0:0:0:0:
240,232,238632,1,8,0:0:0:0:
236,236,238783,1,8,0:0:0:0:
236,236,238858,1,8,0:0:0:0:
240,236,238933,1,0,0:0:0:0:
240,236,239009,1,0,0:0:0:0:
240,236,239084,1,8,0:0:0:0:
228,240,239235,1,8,0:0:0:0:
228,240,239310,1,0,0:0:0:0:
232,240,239386,1,8,0:0:0:0:
232,240,239461,1,8,0:0:0:0:
232,240,239536,1,0,0:0:0:0:
232,240,239612,1,0,0:0:0:0:
232,240,239687,1,8,0:0:0:0:
232,240,239838,1,0,0:0:0:0:
232,240,239913,1,0,0:0:0:0:
232,240,239989,1,8,0:0:0:0:
232,240,240064,1,0,0:0:0:0:
228,240,240140,1,8,0:0:0:0:
228,240,240215,1,8,0:0:0:0:
228,240,240290,1,0,0:0:0:0:
232,240,240366,1,0,0:0:0:0:
232,240,240441,1,8,0:0:0:0:
236,204,240592,1,0,0:0:0:0:
236,204,240667,1,0,0:0:0:0:
236,204,240743,1,8,0:0:0:0:
236,204,240818,1,8,0:0:0:0:
236,204,240893,1,8,0:0:0:0:
236,204,241044,1,8,0:0:0:0:
224,204,241195,1,8,0:0:0:0:
224,204,241270,1,8,0:0:0:0:
224,204,241346,1,0,0:0:0:0:
224,204,241421,1,0,0:0:0:0:
224,204,241496,1,8,0:0:0:0:
212,200,241647,1,8,0:0:0:0:
212,200,241722,1,8,0:0:0:0:
212,200,241798,1,8,0:0:0:0:
212,200,241873,1,0,0:0:0:0:
212,200,241949,1,8,0:0:0:0:
212,200,242024,1,8,0:0:0:0:
212,200,242099,1,8,0:0:0:0:
208,200,242175,1,0,0:0:0:0:
208,200,242250,1,8,0:0:0:0:
208,200,242325,1,0,0:0:0:0:
208,200,242401,1,0,0:0:0:0:
208,200,242476,1,0,0:0:0:0:
200,208,242552,1,8,0:0:0:0:
200,208,242627,1,8,0:0:0:0:
188,204,242702,1,0,0:0:0:0:
232,204,242853,1,4,0:0:0:0:
232,204,243004,1,0,0:0:0:0:
232,204,243079,1,0,0:0:0:0:
232,204,243155,1,8,0:0:0:0:
232,204,243230,1,8,0:0:0:0:
232,204,243305,1,0,0:0:0:0:
232,204,243381,1,8,0:0:0:0:
232,204,243456,1,8,0:0:0:0:
232,204,243607,1,8,0:0:0:0:
232,204,243682,1,8,0:0:0:0:
232,204,243758,1,0,0:0:0:0:
232,204,243833,1,0,0:0:0:0:
232,204,243908,1,8,0:0:0:0:
232,204,244059,1,8,0:0:0:0:
232,204,244134,1,0,0:0:0:0:
232,204,244210,1,8,0:0:0:0:
232,204,244285,1,8,0:0:0:0:
232,204,244361,1,0,0:0:0:0:
232,204,244436,1,0,0:0:0:0:
232,204,244511,1,8,0:0:0:0:
232,204,244662,1,0,0:0:0:0:
232,204,244737,1,8,0:0:0:0:
232,204,244813,1,8,0:0:0:0:
232,204,244888,1,0,0:0:0:0:
232,204,244964,1,8,0:0:0:0:
232,204,245039,1,0,0:0:0:0:
232,204,245114,1,0,0:0:0:0:
224,204,245190,1,0,0:0:0:0:
224,204,245265,1,8,0:0:0:0:
224,204,245416,1,0,0:0:0:0:
224,204,245491,1,0,0:0:0:0:
224,204,245567,1,8,0:0:0:0:
224,204,245642,1,0,0:0:0:0:
224,204,245717,1,8,0:0:0:0:
224,204,245793,1,8,0:0:0:0:
224,204,245868,1,8,0:0:0:0:
232,204,246019,1,8,0:0:0:0:
224,204,246094,1,8,0:0:0:0:
232,204,246170,1,0,0:0:0:0:
232,204,246245,1,0,0:0:0:0:
232,204,246320,1,8,0:0:0:0:
248,208,246471,1,8,0:0:0:0:
248,208,246547,1,0,0:0:0:0:
248,208,246622,1,8,0:0:0:0:
248,208,246697,1,8,0:0:0:0:
248,208,246773,1,0,0:0:0:0:
248,208,246848,1,0,0:0:0:0:
252,208,246923,1,8,0:0:0:0:
284,160,247074,1,0,0:0:0:0:
284,160,247150,1,0,0:0:0:0:
284,160,247225,1,8,0:0:0:0:
284,160,247300,1,0,0:0:0:0:
284,160,247376,1,8,0:0:0:0:
292,164,247451,1,8,0:0:0:0:
292,164,247526,1,0,0:0:0:0:
296,172,247602,1,0,0:0:0:0:
296,172,247677,1,8,0:0:0:0:
260,168,247753,1,0,0:0:0:0:
260,168,247828,1,0,0:0:0:0:
260,168,247903,1,0,0:0:0:0:
260,168,247979,1,0,0:0:0:0:
260,168,248054,1,0,0:0:0:0:
260,168,248129,1,0,0:0:0:0:
256,176,248205,1,0,0:0:0:0:
256,176,248280,1,0,0:0:0:0:
252,196,248356,1,0,0:0:0:0:
252,192,248431,1,0,0:0:0:0:
252,192,248506,1,0,0:0:0:0:
252,192,248582,1,0,0:0:0:0:
252,192,248657,1,0,0:0:0:0:
252,192,248732,1,0,0:0:0:0:
252,192,248808,1,0,0:0:0:0:
252,192,248883,1,8,0:0:0:0:
252,192,248959,1,0,0:0:0:0:
252,192,249034,1,0,0:0:0:0:
252,192,249109,1,0,0:0:0:0:
256,192,249185,1,0,0:0:0:0:
256,192,249260,1,0,0:0:0:0:
256,192,249335,1,0,0:0:0:0:
256,192,249411,1,0,0:0:0:0:
256,192,249486,1,0,0:0:0:0:
256,192,249562,1,0,0:0:0:0:
256,192,249637,1,0,0:0:0:0:
260,192,249712,1,0,0:0:0:0:
260,192,249788,1,0,0:0:0:0:
264,196,249863,1,0,0:0:0:0:
264,200,249939,1,0,0:0:0:0:
268,200,250014,1,0,0:0:0:0:
256,224,250089,1,8,0:0:0:0:
256,224,250140,1,0,0:0:0:0:
256,224,250190,1,0,0:0:0:0:
256,224,250240,1,0,0:0:0:0:
256,224,250290,1,0,0:0:0:0:
264,224,250341,1,0,0:0:0:0:
268,224,250391,1,0,0:0:0:0:
268,224,250441,1,0,0:0:0:0:
272,228,250491,1,0,0:0:0:0:
272,228,250542,1,0,0:0:0:0:
272,228,250592,1,0,0:0:0:0:
272,228,250642,1,0,0:0:0:0:
272,228,250692,1,0,0:0:0:0:
272,228,250743,1,0,0:0:0:0:
272,228,250793,1,0,0:0:0:0:
272,228,250843,1,0,0:0:0:0:
272,228,250893,1,0,0:0:0:0:
224,224,250944,1,0,0:0:0:0:
232,216,250994,1,0,0:0:0:0:
232,216,251069,1,0,0:0:0:0:
232,216,251145,1,0,0:0:0:0:
232,216,251220,1,0,0:0:0:0:
232,216,251295,1,8,0:0:0:0:
232,216,252501,1,4,0:0:0:0:
196,128,252954,1,0,0:0:0:0:
196,128,253557,1,8,0:0:0:0:
196,128,253632,1,8,0:0:0:0:
196,128,253707,1,0,0:0:0:0:
196,128,254160,1,0,0:0:0:0:
244,128,254763,1,8,0:0:0:0:
244,128,254838,1,0,0:0:0:0:
248,120,254913,1,0,0:0:0:0:
248,120,255366,1,0,0:0:0:0:
180,120,255918,1,0,0:0:0:0:
180,120,256019,1,0,0:0:0:0:
180,120,256119,1,8,0:0:0:0:
276,232,256572,1,8,0:0:0:0:
276,232,257024,1,0,0:0:0:0:
276,232,257325,1,8,0:0:0:0:
276,232,257778,1,8,0:0:0:0:
276,232,258230,1,0,0:0:0:0:
276,232,258381,1,8,0:0:0:0:
276,232,258531,1,0,0:0:0:0:
120,200,258984,1,0,0:0:0:0:
224,208,259436,1,0,0:0:0:0:
224,208,259587,1,8,0:0:0:0:
224,208,259737,1,0,0:0:0:0:
224,208,260190,1,0,0:0:0:0:
224,208,260642,1,0,0:0:0:0:
216,208,260944,1,0,0:0:0:0:
216,208,262150,1,8,0:0:0:0:
216,208,262602,1,8,0:0:0:0:
216,208,263205,1,8,0:0:0:0:
216,208,263280,1,8,0:0:0:0:
216,208,263356,1,0,0:0:0:0:
216,208,263808,1,0,0:0:0:0:
216,208,264411,1,8,0:0:0:0:
164,112,264486,1,0,0:0:0:0:
160,108,264562,1,0,0:0:0:0:
164,124,265014,1,0,0:0:0:0:
240,172,265567,1,0,0:0:0:0:
240,172,265667,1,0,0:0:0:0:
240,172,265768,1,8,0:0:0:0:
272,196,266220,1,8,0:0:0:0:
272,196,266672,1,0,0:0:0:0:
272,196,266974,1,8,0:0:0:0:
272,196,267426,1,8,0:0:0:0:
272,196,267878,1,0,0:0:0:0:
272,196,268029,1,8,0:0:0:0:
272,196,268180,1,0,0:0:0:0:
248,240,268632,1,0,0:0:0:0:
252,248,269084,1,0,0:0:0:0:
252,248,269235,1,8,0:0:0:0:
252,248,269386,1,0,0:0:0:0:
188,204,269838,1,8,0:0:0:0:
188,204,270290,1,8,0:0:0:0:
188,204,270743,1,8,0:0:0:0:
216,240,271195,1,0,0:0:0:0:
216,244,271496,1,8,0:0:0:0:
188,204,271798,1,0,0:0:0:0:
