osu file format v14

[General]
AudioFilename: audio.mp3
AudioLeadIn: 0
PreviewTime: 194667
Countdown: 0
SampleSet: None
StackLeniency: 0.2
Mode: 0
LetterboxInBreaks: 0
WidescreenStoryboard: 1

[Editor]
Bookmarks: 20999
DistanceSpacing: 0.6
BeatDivisor: 4
GridSize: 32
TimelineZoom: 2.6

[Metadata]
Title:NUCLEAR-STAR
TitleUnicode:NUCLEAR-STAR
Artist:Camellia
ArtistUnicode:かめりあ
Creator:PoNo
Version:Space Fission
Source:
Tags:crystallized cametek dubstep melodic drumstep kamel artcore
BeatmapID:1361581
BeatmapSetID:642212

[Difficulty]
HPDrainRate:4
CircleSize:4.2
OverallDifficulty:9
ApproachRate:9.7
SliderMultiplier:2.3
SliderTickRate:1

[Events]
//Background and Video events
0,0,"BG.jpg",0,0
//Break Periods
2,156274,163795
//Storyboard Layer 0 (Background)
//Storyboard Layer 1 (Fail)
//Storyboard Layer 2 (Pass)
//Storyboard Layer 3 (Foreground)
//Storyboard Sound Samples

[TimingPoints]
497,301.507537688442,4,1,1,100,1,0
20999,-400,4,3,1,80,0,0
25823,-200,4,3,1,80,0,0
29140,-150.01500150015,4,3,1,100,0,0
29441,-400,4,3,1,80,0,0
35471,-200,4,3,1,70,0,0
37883,-125,4,3,1,70,0,0
40295,-100,4,3,1,70,0,0
44818,-125,4,3,1,70,0,0
45120,-100,4,3,1,70,0,0
49944,-111.111111111111,4,3,1,70,0,0
51150,-90.9090909090909,4,3,1,70,0,0
52356,-76.9230769230769,4,3,1,70,0,0
53562,-66.6666666666667,4,3,1,70,0,0
57180,-100,4,3,1,15,0,0
58687,-83.3333333333333,4,3,1,15,0,0
58989,-66.6666666666667,4,3,1,70,0,0
59592,-55.5555555555556,4,3,1,70,0,0
64115,-33.3333333333333,4,3,1,70,0,0
64416,-55.5555555555556,4,3,1,70,0,0
66979,-200,4,3,1,70,0,0
67431,-55.5555555555556,4,3,1,70,0,0
68336,-50,4,3,1,70,0,0
68939,-200,4,3,1,70,0,0
69240,-55.5555555555556,4,3,1,70,0,0
73763,-33.3333333333333,4,3,1,70,0,0
74064,-55.5555555555556,4,3,1,70,0,0
77682,-200,4,3,1,70,0,0
78587,-83.3333333333333,4,3,1,70,0,0
78888,-55.5555555555556,4,3,1,70,0,0
83411,-200,4,3,1,70,0,0
83713,-55.5555555555556,4,3,1,70,0,0
87029,-200,4,3,1,70,0,0
87331,-50,4,3,1,70,0,0
87632,-200,4,3,1,70,0,0
87934,-400,4,3,1,70,0,0
88235,-100,4,3,1,70,0,0
88537,-200,4,3,1,70,0,0
88838,-50,4,3,1,70,0,0
92456,-200,4,3,1,70,0,0
92758,-33.3333333333333,4,3,1,70,0,0
93059,-55.5555555555556,4,3,1,70,0,0
93361,-50,4,3,1,70,0,0
95773,-55.5555555555556,4,3,1,70,0,0
96225,-50,4,3,1,70,0,0
96376,-55.5555555555556,4,3,1,70,0,0
96828,-50,4,3,1,70,0,0
96979,-55.5555555555556,4,3,1,70,0,0
97582,-200,4,3,1,20,0,0
98185,-100,4,3,1,70,0,0
106627,-200,4,3,1,70,0,0
106929,-100,4,3,1,70,0,0
107230,-200,4,3,1,70,0,0
107532,-100,4,3,1,70,0,0
108436,-95.2380952380952,4,3,1,70,0,0
109039,-90.9090909090909,4,3,1,70,0,0
109642,-86.9565217391304,4,3,1,70,0,0
110245,-83.3333333333333,4,3,1,70,0,0
110848,-80,4,3,1,70,0,0
111451,-76.9230769230769,4,3,1,70,0,0
112054,-74.0740740740741,4,3,1,70,0,0
112657,-71.4285714285714,4,3,1,70,0,0
115069,-50,4,3,1,70,0,0
115220,-200,4,3,1,70,0,0
115371,-50,4,3,1,70,0,0
115522,-200,4,3,1,70,0,0
115672,-50,4,3,1,70,0,0
115823,-200,4,3,1,70,0,0
115974,-50,4,3,1,70,0,0
116125,-200,4,3,1,70,0,0
116275,-400,4,3,1,70,0,0
117331,-50,4,3,1,70,0,0
118386,-400,4,3,1,70,0,0
118687,-66.6666666666667,4,3,1,70,0,0
118838,-400,4,3,1,70,0,0
119140,-66.6666666666667,4,3,1,70,0,0
119290,-50,4,3,1,70,0,0
119592,-400,4,3,1,70,0,0
119893,-100,4,3,1,70,0,0
119912,-100,4,3,1,30,0,0
120195,-50,4,3,1,70,0,0
122004,-100,4,3,1,70,0,0
122023,-100,4,3,1,20,0,0
122306,-50,4,3,1,70,0,0
123210,-400,4,3,1,70,0,0
123512,-66.6666666666667,4,3,1,70,0,0
123662,-400,4,3,1,70,0,0
123964,-66.6666666666667,4,3,1,70,0,0
124115,-50,4,3,1,70,0,0
124416,-400,4,3,1,70,0,0
124718,-100,4,3,1,70,0,0
124736,-100,4,3,1,20,0,0
125019,-50,4,3,1,70,0,0
125321,-55.5555555555556,4,3,1,70,0,0
125924,-100,4,3,1,70,0,0
125942,-100,4,3,1,40,0,0
126225,-50,4,3,1,70,0,0
126527,-100,4,3,1,70,0,0
126828,-100,4,3,1,20,0,0
127130,-50,4,3,1,70,0,0
128034,-400,4,3,1,70,0,0
128336,-66.6666666666667,4,3,1,70,0,0
128486,-400,4,3,1,70,0,0
128788,-66.6666666666667,4,3,1,70,0,0
128939,-50,4,3,1,70,0,0
129240,-400,4,3,1,70,0,0
129542,-100,4,3,1,70,0,0
129843,-50,4,3,1,70,0,0
131652,-100,4,3,1,70,0,0
131671,-100,4,3,1,20,0,0
131954,-66.6666666666667,4,3,1,70,0,0
134667,-62.5,4,3,1,70,0,0
134969,-58.8235294117647,4,3,1,70,0,0
135270,-55.5555555555556,4,3,1,70,0,0
135572,-303.030303030303,4,3,1,70,0,0
136326,-66.6666666666667,4,3,1,70,0,0
136476,-58.8235294117647,4,3,1,70,0,0
136627,-52.6315789473684,4,3,1,70,0,0
139190,-200,4,3,1,70,0,0
139491,-52.6315789473684,4,3,1,70,0,0
141301,-66.6666666666667,4,3,1,70,0,0
141602,-52.6315789473684,4,3,1,70,0,0
143110,-52.6315789473684,4,3,1,70,0,0
143128,-52.6315789473684,4,3,1,20,0,0
143411,-52.6315789473684,4,3,1,70,0,0
144014,-200,4,3,1,70,0,0
144316,-52.6315789473684,4,3,1,70,0,0
144617,-66.6666666666667,4,3,1,70,0,0
145823,-303.030303030303,4,3,1,70,0,0
146426,-52.6315789473684,4,3,1,70,0,0
147953,-52.6315789473684,4,3,1,20,0,0
148235,-52.6315789473684,4,3,1,70,0,0
148838,-303.030303030303,4,3,1,70,0,0
149140,-52.6315789473684,4,3,1,70,0,0
151250,-66.6666666666667,4,3,1,70,0,0
153662,-62.5,4,3,1,70,0,0
153964,-58.8235294117647,4,3,1,70,0,0
154265,-55.5555555555556,4,3,1,70,0,0
154567,-52.6315789473684,4,3,1,70,0,0
154887,-52.6315789473684,4,3,1,20,0,0
155471,-52.6315789473684,4,3,1,60,0,0
156074,-200,4,3,1,70,0,0
175371,-100,4,3,1,70,0,0
182607,-100,4,3,1,70,0,0
186225,-83.3333333333333,4,3,1,70,0,0
187431,-71.4285714285714,4,3,1,70,0,0
188637,-62.5,4,3,1,70,0,0
193461,-100,4,3,1,70,0,0
193763,-80,4,3,1,70,0,0
194064,-66.6666666666667,4,3,1,70,0,0
194667,-50,4,3,1,70,0,1
202808,-66.6666666666667,4,3,1,70,0,1
203110,-50,4,3,1,70,0,1
203713,-33.3333333333333,4,3,1,70,0,1
204316,-50,4,3,1,70,0,1
208537,-200,4,3,1,70,0,1
208838,-33.3333333333333,4,3,1,70,0,1
209140,-50,4,3,1,70,0,1
212758,-50,4,3,1,70,0,0
213964,-200,4,3,1,70,0,0
214265,-50,4,3,1,70,0,1
222105,-200,4,3,1,70,0,1
222406,-50,4,3,1,70,0,1
226024,-47.6190476190476,4,3,1,70,0,1
227230,-45.4545454545455,4,3,1,70,0,1
228436,-43.4782608695652,4,3,1,70,0,1
229642,-41.6666666666667,4,3,1,70,0,1
230848,-40,4,3,1,70,0,1
233260,-55.5555555555556,4,3,1,70,0,0
234014,-200,4,3,1,70,0,0
234316,-55.5555555555556,4,3,1,70,0,0
236426,-200,4,3,1,70,0,0
236728,-55.5555555555556,4,3,1,70,0,0
238838,-200,4,3,1,70,0,0
239140,-55.5555555555556,4,3,1,70,0,0
241703,-55.5555555555556,4,3,1,10,0,0
242004,-55.5555555555556,4,3,1,70,0,0
242306,-55.5555555555556,4,3,1,40,0,0
242607,-55.5555555555556,4,3,1,10,0,0
242909,-55.5555555555556,4,3,1,70,0,0
243662,-200,4,3,1,70,0,0
243964,-55.5555555555556,4,3,1,70,0,0
246073,-200,4,3,1,70,0,0
246376,-55.5555555555556,4,3,1,70,0,0
251351,-1000,4,3,1,70,0,0
252557,-200,4,3,1,70,0,0
252557,-100,4,3,1,70,0,0

[Colours]
Combo1 : 192,192,192
Combo2 : 255,43,255
Combo3 : 43,255,255
Combo4 : 255,255,255

[HitObjects]
65,67,20999,38,0,L|72:125,1,57.5
74,55,21451,2,0,L|84:144,1,86.25
183,192,22054,2,0,L|184:201,2,9.58333333333333
192,181,22205,6,0,L|199:239,1,57.5
201,169,22657,2,0,L|211:258,1,86.25
319,294,23260,2,0,L|320:303,2,9.58333333333333
328,283,23411,38,0,L|335:341,1,57.5
337,271,23863,2,0,L|347:360,1,86.25
407,213,24416,1,0,0:0:0:0:
415,157,24517,1,0,0:0:0:0:
424,104,24617,6,0,L|434:43,1,57.5
329,12,25069,2,0,L|338:68,1,57.5
234,104,25522,2,0,L|242:52,1,43.125
139,12,25823,38,0,L|161:146,1,115
338,68,26275,2,0,L|319:181,1,115
175,238,26728,1,0,0:0:0:0:
175,238,26878,1,0,0:0:0:0:
139,12,27029,6,0,L|161:146,1,115
338,68,27481,2,0,L|319:181,1,115
175,238,27934,1,0,0:0:0:0:
175,238,28084,1,0,0:0:0:0:
139,12,28235,38,0,L|161:146,1,115
338,68,28687,2,0,L|319:181,1,115
139,12,29140,6,0,L|161:146,1,114.988501617728
157,125,29441,1,0,0:0:0:0:
256,192,29517,12,0,30496,0:0:0:0:
405,51,30647,38,0,L|347:58,1,57.5
417,60,31099,2,0,L|327:70,1,86.25
280,169,31702,2,0,L|270:170,2,9.58333333333333
291,178,31853,6,0,L|233:185,1,57.5
303,187,32305,2,0,L|213:197,1,86.25
178,305,32908,2,0,L|168:306,2,9.58333333333333
189,314,33059,38,0,L|131:321,1,57.5
201,323,33511,2,0,L|111:333,1,86.25
64,199,34065,1,0,0:0:0:0:
118,207,34165,1,0,0:0:0:0:
173,216,34265,6,0,L|234:226,1,57.5
199,129,34718,2,0,L|142:138,1,57.5
113,47,35170,2,0,L|162:55,1,43.125
330,61,35471,38,0,P|302:90|313:177,1,115
408,190,35924,2,0,P|436:161|425:74,1,115
369,126,36376,1,0,0:0:0:0:
369,126,36527,1,0,0:0:0:0:
330,61,36677,6,0,P|302:90|313:177,1,115
408,190,37130,2,0,P|436:161|425:74,1,115
369,126,37582,1,0,0:0:0:0:
369,126,37733,1,0,0:0:0:0:
193,173,37883,38,0,P|273:167|331:281,1,184
192,167,38336,2,0,P|293:177|333:247,1,184
305,367,38788,1,0,0:0:0:0:
305,367,39240,1,0,0:0:0:0:
305,367,39692,1,0,0:0:0:0:
305,367,39994,2,0,L|312:332,6,23
292,360,40295,6,0,B|187:333|233:402|125:370,1,172.5,8|0,0:0|0:0,0:0:0:0:
179,283,40596,2,0,P|207:243|201:178,1,115
58,150,40898,2,0,P|29:189|35:254,1,115
126,370,41199,1,0,0:0:0:0:
341,283,41350,1,0,0:0:0:0:
344,272,41400,1,0,0:0:0:0:
347,261,41451,1,0,0:0:0:0:
350,251,41502,38,0,B|277:213|277:213|294:381,1,230,8|0,0:0|0:0,0:0:0:0:
450,289,41954,2,0,B|455:227|455:227|426:155,1,115
338,55,42255,2,0,B|333:117|333:117|362:189,1,115
493,123,42556,1,0,0:0:0:0:
488,112,42606,1,0,0:0:0:0:
483,101,42657,1,0,0:0:0:0:
477,90,42707,6,0,B|478:54|494:29|494:29|411:2|417:79|337:54,1,230,8|0,0:0|0:0,0:0:0:0:
152,48,43159,2,0,P|203:29|251:73,1,115
95,143,43461,2,0,P|44:162|-4:118,1,115
247,62,43712,38,0,L|255:158,1,76.6666666666667
236,159,43914,6,0,B|300:151|300:151|344:175|344:175|441:162,1,172.5,8|0,0:0|0:0,0:0:0:0:
233,252,44214,2,0,B|118:237,2,115
347,266,44667,1,0,0:0:0:0:
440,108,44817,2,0,P|470:153|441:228,1,115
347,266,45120,38,0,B|383:255|411:269|411:269|406:347|337:360|279:311,1,230,8|0,0:0|0:0,0:0:0:0:
101,339,45571,2,0,P|152:315|233:359,1,115
206,329,45873,1,0,0:0:0:0:
231,217,46024,1,0,0:0:0:0:
228,230,46175,1,0,0:0:0:0:
183,161,46326,6,0,B|223:129|282:144|301:194|301:194|360:172|361:85,1,230,8|0,0:0|0:0,0:0:0:0:
172,60,46777,2,0,P|153:112|182:160,1,115
269,63,47079,1,0,0:0:0:0:
228,230,47230,1,0,0:0:0:0:
231,217,47381,1,0,0:0:0:0:
114,316,47532,38,0,L|265:306,1,115,8|0,0:0|0:0,0:0:0:0:
343,300,47833,2,0,L|228:307,1,115
114,316,48135,6,0,L|265:306,1,115
343,300,48436,2,0,L|228:307,1,115
116,209,48738,38,0,L|230:216,1,115,8|0,0:0|0:0,0:0:0:0:
434,230,49039,2,0,L|319:222,1,115
116,209,49341,6,0,L|230:216,1,115
434,230,49642,2,0,L|319:222,1,115
221,127,49944,5,8,0:0:0:0:
434,230,50094,1,0,0:0:0:0:
207,166,50245,1,0,0:0:0:0:
434,230,50395,1,0,0:0:0:0:
199,207,50547,1,0,0:0:0:0:
434,230,50697,1,0,0:0:0:0:
199,248,50848,1,0,0:0:0:0:
434,230,50998,1,0,0:0:0:0:
182,295,51150,5,8,0:0:0:0:
434,230,51300,1,0,0:0:0:0:
174,251,51451,1,0,0:0:0:0:
434,230,51601,1,0,0:0:0:0:
175,204,51753,1,0,0:0:0:0:
434,230,51903,1,0,0:0:0:0:
184,160,52054,1,0,0:0:0:0:
434,230,52204,1,0,0:0:0:0:
176,107,52356,37,8,0:0:0:0:
434,230,52506,1,0,0:0:0:0:
158,153,52657,1,0,0:0:0:0:
434,230,52807,1,0,0:0:0:0:
148,203,52959,1,0,0:0:0:0:
434,230,53109,1,0,0:0:0:0:
149,253,53260,1,0,0:0:0:0:
434,230,53410,1,0,0:0:0:0:
130,310,53562,5,8,0:0:0:0:
434,230,53712,1,0,0:0:0:0:
120,256,53863,1,0,0:0:0:0:
434,230,54013,1,0,0:0:0:0:
121,200,54165,1,0,0:0:0:0:
434,230,54315,1,0,0:0:0:0:
132,147,54466,1,0,0:0:0:0:
434,230,54616,1,0,0:0:0:0:
405,30,54768,5,8,0:0:0:0:
416,71,54843,1,0,0:0:0:0:
404,111,54918,1,0,0:0:0:0:
372,140,54994,1,0,0:0:0:0:
330,148,55069,1,8,0:0:0:0:
290,133,55144,1,0,0:0:0:0:
264,99,55220,1,0,0:0:0:0:
237,65,55296,1,0,0:0:0:0:
198,50,55371,5,8,0:0:0:0:
156,58,55446,1,0,0:0:0:0:
124,86,55522,1,0,0:0:0:0:
112,127,55597,1,0,0:0:0:0:
123,168,55672,5,8,0:0:0:0:
160,204,55748,1,0,0:0:0:0:
198,259,55823,1,0,0:0:0:0:
188,325,55898,1,0,0:0:0:0:
136,367,55974,1,8,0:0:0:0:
69,362,56049,1,0,0:0:0:0:
23,312,56124,1,0,0:0:0:0:
13,246,56201,1,0,0:0:0:0:
53,189,56276,5,8,0:0:0:0:
123,168,56352,1,0,0:0:0:0:
201,191,56427,1,0,0:0:0:0:
253,264,56502,1,0,0:0:0:0:
347,297,56577,38,0,P|298:335|286:336,1,43.1250016450883,8|0,0:0|0:0,0:0:0:0:
368,261,56652,2,0,P|360:312|350:326,1,43.1250016450883
378,223,56728,2,0,P|382:274|379:282,1,43.1250016450883
376,192,56803,2,0,P|389:241|388:250,1,43.1250016450883
344,151,56878,6,0,P|331:209|331:224,1,43.1250016450883
356,120,56954,2,0,P|328:169|323:181,1,43.1250016450883
368,103,57029,2,0,P|331:148|326:159,1,43.1250016450883
383,98,57105,2,0,P|341:120|336:129,1,43.1250016450883
476,116,57180,6,0,L|468:166,30,28.75,4|0|0|0|0|0|0|0|0|0|0|0|0|0|0|0|0|0|0|0|0|0|0|0|0|0|0|0|0|0|0,0:0|0:0|0:0|0:0|0:0|0:0|0:0|0:0|0:0|0:0|0:0|0:0|0:0|0:0|0:0|0:0|0:0|0:0|0:0|0:0|0:0|0:0|0:0|0:0|0:0|0:0|0:0|0:0|0:0|0:0|0:0,0:0:0:0:
499,227,58386,6,0,P|470:231|423:216,3,57.5
385,103,58687,38,0,P|389:132|374:179,3,68.9999978942872
315,233,58989,2,0,L|186:218,1,86.2500032901765
143,213,59140,2,0,L|228:222,1,86.2500032901765
251,61,59290,6,0,L|236:189,1,86.2500032901765
213,384,59441,2,0,L|222:298,1,86.2500032901765
125,134,59592,6,0,B|75:96|75:96|26:194|91:268,1,206.999993682861,12|0,0:0|0:0,0:0:0:0:
140,330,59818,1,0,0:0:0:0:
143,335,59893,2,0,B|108:312|72:325|72:325|149:258|205:334|205:334|242:359|330:327,1,310.499990524292,2|0,0:0|0:0,0:0:0:0:
378,226,60195,2,0,B|396:192|377:156|377:156|295:196|376:338,1,206.999993682861,8|0,0:0|0:0,0:0:0:0:
464,360,60421,1,0,0:0:0:0:
469,366,60496,2,0,P|488:299|470:233,1,103.499996841431,2|0,0:0|0:0,0:0:0:0:
281,153,60647,2,0,P|262:220|280:286,1,103.499996841431
489,132,60798,6,0,B|477:83|422:64|422:64|374:96|376:155,1,206.999993682861,8|0,0:0|0:0,0:0:0:0:
199,214,61024,1,0,0:0:0:0:
193,200,61100,2,0,B|155:84|258:34|310:83|310:83|274:111|281:157,1,310.499990524292,2|0,0:0|0:0,0:0:0:0:
483,36,61401,2,0,P|468:84|488:131,1,103.499996841431,8|0,0:0|0:0,0:0:0:0:
376,155,61552,2,0,P|399:199|446:218,1,103.499996841431
512,309,61703,2,0,L|377:324,1,103.499996841431,2|0,0:0|0:0,0:0:0:0:
210,335,61853,2,0,P|257:316|281:271,1,103.499996841431
224,109,62004,38,0,B|189:89|189:89|215:322,1,206.999993682861,12|0,0:0|0:0,0:0:0:0:
331,344,62230,1,0,0:0:0:0:
334,347,62306,2,0,B|270:382|210:335|210:335|154:295|96:313|96:313|138:380,1,310.499990524292,2|0,0:0|0:0,0:0:0:0:
414,376,62607,2,0,B|424:302|424:302|430:291|430:291|426:278|426:278|443:162|443:162|343:229,1,310.499990524292,8|0,0:0|0:0,0:0:0:0:
207,254,62909,2,0,L|331:276,1,103.499996841431,2|0,0:0|0:0,0:0:0:0:
348,111,63059,2,0,L|366:212,1,103.499996841431
141,291,63210,6,0,P|182:182|266:207,1,206.999993682861,8|0,0:0|0:0,0:0:0:0:
424,96,63436,1,0,0:0:0:0:
426,93,63512,2,0,B|392:7|294:16|262:100|262:100|316:80|382:133,1,310.499990524292,2|0,0:0|0:0,0:0:0:0:
457,287,63813,1,8,0:0:0:0:
456,184,63964,2,0,B|459:232|459:232|455:245|455:245|457:288,1,103.499996841431
244,304,64115,38,0,P|312:265|355:331,1,172.500006580353,2|0,0:0|0:0,0:0:0:0:
355,330,64265,2,0,P|287:369|245:303,1,172.500006580353
141,163,64416,6,0,B|71:100|167:10|336:159|-13:215|201:353,1,310.499990524292,12|0,0:0|0:0,0:0:0:0:
335,214,64718,2,0,L|191:223,1,103.499996841431,2|0,0:0|0:0,0:0:0:0:
13,199,64868,1,0,0:0:0:0:
25,241,64944,1,0,0:0:0:0:
37,283,65019,38,0,L|181:292,1,103.499996841431,8|0,0:0|0:0,0:0:0:0:
355,330,65170,2,0,L|251:323,1,103.499996841431
319,139,65321,2,0,B|370:108|419:151|419:151|445:265|305:217|370:384,1,310.499990524292,2|0,0:0|0:0,0:0:0:0:
492,229,65622,6,0,B|532:148|514:55|419:40|419:40|470:68|483:123,1,310.499990524292,8|0,0:0|0:0,0:0:0:0:
224,75,65924,2,0,P|278:2|293:66,1,206.999993682861,2|0,0:0|0:0,0:0:0:0:
225,188,66150,1,0,0:0:0:0:
216,198,66225,2,0,L|113:187,1,103.499996841431,8|0,0:0|0:0,0:0:0:0:
389,218,66376,2,0,L|491:228,1,103.499996841431
207,208,66527,2,0,L|104:197,1,103.499996841431,2|0,0:0|0:0,0:0:0:0:
380,228,66677,2,0,L|482:238,1,103.499996841431
251,323,66828,37,12,0:0:0:0:
278,150,66979,2,0,L|287:74,1,57.5,0|2,0:0|0:0,0:0:0:0:
444,0,67280,5,0,0:0:0:0:
449,84,67356,1,0,0:0:0:0:
455,167,67431,38,0,P|412:151|373:80,1,103.499996841431,8|0,0:0|0:0,0:0:0:0:
217,226,67582,2,0,P|233:183|304:144,1,103.499996841431
445,321,67733,2,0,L|326:303,1,103.499996841431,2|0,0:0|0:0,0:0:0:0:
148,307,67883,2,0,L|250:322,1,103.499996841431
223,90,68034,6,0,B|198:38|132:35|132:35|156:132|156:132|168:187|116:261,1,310.499990524292,8|0,0:0|0:0,0:0:0:0:
20,376,68336,2,0,L|36:220,1,115,2|0,0:0|0:0,0:0:0:0:
54,16,68486,1,8,0:0:0:0:
342,305,68637,38,0,B|454:288|481:154|481:154|456:227|408:252,1,345,8|0,0:0|0:0,0:0:0:0:
330,58,68939,2,0,P|317:112|327:152,1,86.25,10|0,0:0|0:0,0:0:0:0:
322,141,69240,6,0,B|250:100|173:127|173:127|222:197,1,206.999993682861,12|0,0:0|0:0,0:0:0:0:
327,345,69466,1,0,0:0:0:0:
330,348,69542,2,0,B|361:275|361:275|219:241|268:366|79:285,1,310.499990524292,2|0,0:0|0:0,0:0:0:0:
8,182,69843,2,0,B|-3:119|45:82|45:82|92:107|101:160|101:160|47:212|89:339,1,310.499990524292,8|0,0:0|0:0,0:0:0:0:
234,336,70145,2,0,P|193:310|123:310,1,103.499996841431,2|0,0:0|0:0,0:0:0:0:
329,219,70295,2,0,P|280:218|221:255,1,103.499996841431
352,71,70446,38,0,P|309:94|403:248,1,206.999993682861,8|0,0:0|0:0,0:0:0:0:
157,111,70672,1,0,0:0:0:0:
146,120,70748,2,0,B|175:101|215:111|215:111|200:-6|18:36|83:181,1,310.499990524292,2|0,0:0|0:0,0:0:0:0:
138,305,71049,2,0,P|153:255|145:205,1,103.499996841431,8|0,0:0|0:0,0:0:0:0:
310,132,71200,2,0,P|301:183|316:232,1,103.499996841431
300,136,71351,2,0,P|291:186|306:235,1,103.499996841431,2|0,0:0|0:0,0:0:0:0:
148,308,71502,2,0,P|163:258|155:208,1,103.499996841431
455,328,71652,6,0,B|322:320|322:320|311:326|311:326|301:319|301:319|122:305,1,310.499990524292,12|0,0:0|0:0,0:0:0:0:
5,135,71954,2,0,B|16:77|125:85|102:205|20:269|20:269|45:147,1,310.499990524292,2|0,0:0|0:0,0:0:0:0:
220,133,72255,2,0,P|241:91|183:137,1,206.999993682861,8|0,0:0|0:0,0:0:0:0:
289,261,72481,1,0,0:0:0:0:
292,263,72557,2,0,P|314:212|318:130,1,103.499996841431,2|0,0:0|0:0,0:0:0:0:
375,33,72708,2,0,P|397:84|401:166,1,103.499996841431
456,253,72858,38,0,B|466:225|468:189|468:189|520:302|454:372|454:372|374:348,1,310.499990524292,8|0,0:0|0:0,0:0:0:0:
212,297,73160,2,0,B|182:260|208:205|208:205|322:182|341:336|271:401,1,310.499990524292,2|0,0:0|0:0,0:0:0:0:
304,347,73461,1,8,0:0:0:0:
6,289,73612,2,0,L|155:272,1,103.499996841431
270,146,73763,6,0,P|202:107|159:173,1,172.500006580353,2|0,0:0|0:0,0:0:0:0:
159,172,73913,2,0,P|227:211|269:145,1,172.500006580353
413,103,74064,38,0,B|446:53|446:53|324:64|324:64|374:269,1,310.499990524292,12|0,0:0|0:0,0:0:0:0:
395,355,74366,2,0,B|453:365|453:365|396:257|396:257|303:346,1,310.499990524292,2|0,0:0|0:0,0:0:0:0:
163,365,74667,2,0,L|253:281,1,103.499996841431,8|0,0:0|0:0,0:0:0:0:
151,366,74818,2,0,L|241:282,1,103.499996841431
3,238,74969,2,0,L|101:268,1,103.499996841431,2|0,0:0|0:0,0:0:0:0:
9,247,75120,2,0,L|107:277,1,103.499996841431
39,46,75270,6,0,B|61:143|61:143|177:100|177:100|155:-12,1,310.499990524292,8|0,0:0|0:0,0:0:0:0:
359,50,75572,2,0,B|247:29|247:29|293:248,1,310.499990524292,2|0,0:0|0:0,0:0:0:0:
312,361,75873,38,0,L|493:332,1,103.499996841431,8|0,0:0|0:0,0:0:0:0:
185,204,76024,2,0,L|287:220,1,103.499996841431,8|0,0:0|0:0,0:0:0:0:
209,377,76175,2,0,L|390:348,1,103.499996841431,2|0,0:0|0:0,0:0:0:0:
82,187,76326,2,0,L|184:203,1,103.499996841431,8|0,0:0|0:0,0:0:0:0:
389,236,76476,5,8,0:0:0:0:
417,194,76551,1,0,0:0:0:0:
415,143,76626,1,0,0:0:0:0:
384,103,76702,1,0,0:0:0:0:
332,90,76777,1,2,0:0:0:0:
283,114,76852,1,0,0:0:0:0:
260,164,76928,1,0,0:0:0:0:
266,220,77004,1,0,0:0:0:0:
295,277,77079,37,8,0:0:0:0:
273,333,77154,1,0,0:0:0:0:
215,377,77229,1,8,0:0:0:0:
137,372,77305,1,0,0:0:0:0:
90,290,77381,6,0,L|79:157,1,103.499996841431,2|0,0:0|0:0,0:0:0:0:
74,109,77532,2,0,L|63:-24,1,103.499996841431,8|0,0:0|0:0,0:0:0:0:
335,51,77682,38,0,L|330:102,1,38.3333333333333,12|0,0:0|0:0,0:0:0:0:
196,89,77883,2,0,L|191:140,1,38.3333333333333
338,51,78084,2,0,L|333:102,1,38.3333333333333
193,89,78285,2,0,L|188:140,1,38.3333333333333
325,245,78486,1,0,0:0:0:0:
297,177,78587,6,0,P|329:171|368:185,1,68.9999978942872,8|0,0:0|0:0,0:0:0:0:
253,227,78738,2,0,P|268:196|297:176,1,68.9999978942872,8|0,0:0|0:0,0:0:0:0:
465,355,78888,38,0,B|499:286|499:286|362:242|409:356|269:310,1,310.499990524292,12|0,0:0|0:0,0:0:0:0:
126,277,79190,2,0,B|75:229|-21:254|-15:356|149:387|262:225,1,310.499990524292,2|0,0:0|0:0,0:0:0:0:
336,114,79491,2,0,B|342:69|323:29|323:29|378:136|340:208|315:268,1,310.499990524292,8|0,0:0|0:0,0:0:0:0:
86,178,79793,2,0,L|210:171,1,103.499996841431,2|0,0:0|0:0,0:0:0:0:
447,165,79944,1,0,0:0:0:0:
471,163,80019,1,0,0:0:0:0:
495,161,80094,6,0,B|530:156|530:156|444:105|444:105|380:168|380:168|292:176,1,310.499990524292,8|0,0:0|0:0,0:0:0:0:
123,94,80396,2,0,B|112:38|112:38|242:63|242:63|161:229,1,310.499990524292,2|0,0:0|0:0,0:0:0:0:
83,294,80698,2,0,B|56:260|19:258|19:258|103:191|205:257|132:359,1,310.499990524292,8|0,0:0|0:0,0:0:0:0:
267,360,80999,2,0,L|287:221,1,103.499996841431,2|0,0:0|0:0,0:0:0:0:
304,95,81150,1,0,0:0:0:0:
306,78,81225,1,0,0:0:0:0:
308,61,81301,38,0,B|414:64|388:195|287:222|145:83,1,310.499990524292,12|0,0:0|0:0,0:0:0:0:
39,20,81602,2,0,B|112:0|112:0|144:36|111:96|111:96|44:136|76:239,1,310.499990524292,2|0,0:0|0:0,0:0:0:0:
83,294,81904,2,0,L|433:268,1,310.499990524292,8|0,0:0|0:0,0:0:0:0:
454,314,82205,2,0,P|468:252|376:206,1,103.499996841431,2|0,0:0|0:0,0:0:0:0:
286,124,82356,1,0,0:0:0:0:
291,160,82431,1,0,0:0:0:0:
296,196,82507,6,0,B|338:133|286:93|286:93|278:78|278:78|265:93|265:93|179:154|251:278,1,310.499990524292,8|0,0:0|0:0,0:0:0:0:
307,349,82808,2,0,B|344:374|383:346|383:346|270:266|292:408|120:313,1,310.499990524292,2|0,0:0|0:0,0:0:0:0:
68,211,83110,2,0,L|75:320,1,103.499996841431,8|0,0:0|0:0,0:0:0:0:
61,107,83260,2,0,L|68:216,1,103.499996841431,8|0,0:0|0:0,0:0:0:0:
229,232,83411,38,0,P|195:213|143:226,1,86.25,2|0,0:0|0:0,0:0:0:0:
150,221,83713,6,0,B|214:168|289:169|340:237|357:256|300:303|215:261|261:150,1,310.499990524292,8|0,0:0|0:0,0:0:0:0:
423,56,84014,2,0,P|390:96|378:146,1,103.499996841431,2|0,0:0|0:0,0:0:0:0:
448,350,84165,2,0,P|397:288|396:214,1,103.499996841431
265,48,84316,2,0,B|270:85|310:112|310:112|213:101|213:101|196:92|196:92|178:98|178:98|62:87,1,310.499990524292,8|0,0:0|0:0,0:0:0:0:
150,221,84617,2,0,B|154:146|58:139|13:272|178:338,1,206.999993682861,2|0,0:0|0:0,0:0:0:0:
312,331,84843,1,0,0:0:0:0:
323,314,84919,38,0,B|357:263|357:263|282:182|282:182|224:237|246:330,1,310.499990524292,8|0,0:0|0:0,0:0:0:0:
448,350,85220,2,0,L|466:176,1,103.499996841431,2|0,0:0|0:0,0:0:0:0:
478,63,85371,2,0,L|467:165,1,103.499996841431
281,94,85522,2,0,P|289:39|299:121,1,310.499990524292,8|0,0:0|0:0,0:0:0:0:
184,100,85823,2,0,B|215:55|194:5|194:5|129:2|105:72,1,206.999993682861,2|0,0:0|0:0,0:0:0:0:
36,197,86049,1,0,0:0:0:0:
29,205,86125,6,0,B|76:187|97:139|97:139|83:227|83:227|89:241|89:241|79:252|79:252|65:352,1,310.499990524292,8|0,0:0|0:0,0:0:0:0:
285,384,86426,2,0,L|265:251,1,103.499996841431,2|0,0:0|0:0,0:0:0:0:
171,227,86577,2,0,L|155:329,1,103.499996841431
355,239,86728,1,8,0:0:0:0:
351,218,86803,1,0,0:0:0:0:
348,198,86878,1,0,0:0:0:0:
345,177,86954,1,0,0:0:0:0:
355,101,87029,38,0,L|359:78,6,14.375
273,126,87331,6,0,B|155:72|148:210|43:135|43:135|85:90|164:122,1,345,12|0,0:0|0:0,0:0:0:0:
228,199,87632,2,0,L|238:298,1,86.25,8|0,0:0|0:0,0:0:0:0:
340,219,87934,2,0,L|344:176,1,43.125,2|0,0:0|0:0,0:0:0:0:
442,268,88235,2,0,L|444:289,12,14.375,8|0|0|0|0|0|0|0|0|0|0|0|0,0:0|0:0|0:0|0:0|0:0|0:0|0:0|0:0|0:0|0:0|0:0|0:0|0:0,0:0:0:0:
395,353,88537,38,0,P|356:333|294:344,1,86.25,12|0,0:0|0:0,0:0:0:0:
297,361,88838,6,0,B|62:341|62:341|214:289,1,345,2|0,0:0|0:0,0:0:0:0:
253,171,89140,2,0,L|234:296,1,115,8|0,0:0|0:0,0:0:0:0:
60,130,89290,2,0,L|79:251,1,115
269,53,89441,2,0,B|210:14|159:41|147:94|147:94|206:181|337:107,1,345,2|0,0:0|0:0,0:0:0:0:
471,77,89743,38,0,P|393:15|429:106,1,230,8|0,0:0|0:0,0:0:0:0:
445,279,89969,2,8,P|338:277|418:211,1,230,10|0,0:0|0:0,0:0:0:0:
346,202,90195,2,0,P|331:299|449:210,1,345,8|0,0:0|0:0,0:0:0:0:
269,53,90496,2,0,P|252:144|267:184,1,115
452,214,90647,2,0,P|379:189|322:223,1,115,2|0,0:0|0:0,0:0:0:0:
154,252,90798,2,0,P|245:269|285:254,1,115
117,152,90949,6,0,B|34:115|34:115|-26:242|141:236|47:383,1,345,8|0,0:0|0:0,0:0:0:0:
150,372,91250,2,0,L|514:354,1,345,2|0,0:0|0:0,0:0:0:0:
346,200,91552,2,0,L|359:332,1,115,8|0,0:0|0:0,0:0:0:0:
463,99,91703,2,0,L|450:231,1,115
283,153,91853,2,0,B|285:116|351:105|390:134|390:134|359:89|240:92|224:213,1,345,2|0,0:0|0:0,0:0:0:0:
246,358,92155,37,8,0:0:0:0:
248,366,92306,1,8,0:0:0:0:
443,321,92456,6,0,L|339:313,1,86.25,2|0,0:0|0:0,0:0:0:0:
173,286,92758,37,8,0:0:0:0:
190,287,92833,1,0,0:0:0:0:
207,288,92909,1,0,0:0:0:0:
224,289,92984,1,0,0:0:0:0:
103,340,93059,6,0,L|93:186,1,103.499996841431,2|0,0:0|0:0,0:0:0:0:
86,54,93210,2,0,L|92:157,1,103.499996841431
288,197,93361,38,0,B|313:153|313:153|204:112|204:112|228:329,1,345,8|0,0:0|0:0,0:0:0:0:
440,340,93662,2,0,B|516:366|506:288|438:228|381:386|288:329|288:329|337:337|371:308,1,345,2|0,0:0|0:0,0:0:0:0:
500,110,93964,2,0,P|465:106|408:174,1,115,8|0,0:0|0:0,0:0:0:0:
398,0,94115,2,0,P|367:18|364:107,1,115
499,236,94265,2,0,L|139:197,1,345,2|0,0:0|0:0,0:0:0:0:
22,70,94567,6,0,B|103:58|103:58|50:226,1,230,8|0,0:0|0:0,0:0:0:0:
16,336,94793,2,0,B|196:312|196:312|102:241,1,230,2|0,0:0|0:0,0:0:0:0:
242,116,95019,2,0,B|229:230|229:230|327:296|327:296|344:149,1,345,8|0,0:0|0:0,0:0:0:0:
398,0,95321,2,0,L|381:147,1,115,8|0,0:0|0:0,0:0:0:0:
195,35,95471,2,0,L|342:52,1,115,2|0,0:0|0:0,0:0:0:0:
459,124,95622,2,0,L|472:9,1,115,8|0,0:0|0:0,0:0:0:0:
195,35,95773,38,0,B|99:24|99:24|153:170,1,206.999993682861,8|0,0:0|0:0,0:0:0:0:
157,282,95999,2,0,B|253:293|253:293|199:147,1,206.999993682861,8|0,0:0|0:0,0:0:0:0:
0,191,96225,2,0,L|180:214,1,115,2|0,0:0|0:0,0:0:0:0:
351,233,96376,6,0,B|482:250|482:250|387:341,1,206.999993682861,8|0,0:0|0:0,0:0:0:0:
233,350,96602,2,0,B|102:333|102:333|197:242,1,206.999993682861,8|0,0:0|0:0,0:0:0:0:
287,161,96828,2,0,L|262:307,1,115,2|0,0:0|0:0,0:0:0:0:
355,133,96979,38,0,B|312:44|312:44|203:133,1,206.999993682861,8|0,0:0|0:0,0:0:0:0:
89,183,97205,2,0,L|191:200,1,103.499996841431,2|2,0:0|0:0,0:0:0:0:
478,250,97356,1,0,0:0:0:0:
483,204,97431,1,0,0:0:0:0:
488,158,97507,1,0,0:0:0:0:
498,57,97582,6,0,L|499:46,12,7.1875
425,98,97883,2,0,L|425:105,12,7.1875
344,45,98185,6,0,B|239:18|285:87|177:55,1,172.5,8|0,0:0|0:0,0:0:0:0:
164,43,98486,1,0,0:0:0:0:
308,125,98637,1,0,0:0:0:0:
89,183,98788,2,0,B|130:173|130:173|161:186|161:186|249:171,1,115
118,263,99089,1,0,0:0:0:0:
342,251,99240,5,0,0:0:0:0:
345,240,99290,1,0,0:0:0:0:
348,229,99341,1,0,0:0:0:0:
351,219,99391,38,0,B|272:197|272:197|244:326,1,172.5,8|0,0:0|0:0,0:0:0:0:
248,308,99692,1,0,0:0:0:0:
428,263,99843,1,0,0:0:0:0:
403,376,99994,2,0,L|439:220,1,115
456,147,100295,1,0,0:0:0:0:
343,210,100446,1,0,0:0:0:0:
338,199,100496,1,0,0:0:0:0:
333,188,100547,1,0,0:0:0:0:
327,177,100597,6,0,B|292:94|292:94|338:74|390:114,1,172.5,8|0,0:0|0:0,0:0:0:0:
384,119,100899,1,0,0:0:0:0:
212,234,101049,1,0,0:0:0:0:
125,133,101200,2,0,P|176:114|224:158,1,115
207,320,101502,1,0,0:0:0:0:
226,71,101602,38,0,L|218:167,1,76.6666666666667
218,155,101803,6,0,B|160:162|160:162|116:138|116:138|52:146,1,172.5,8|0,0:0|0:0,0:0:0:0:
39,152,102105,1,0,0:0:0:0:
212,234,102255,1,0,0:0:0:0:
27,282,102406,2,0,L|169:268,1,115
258,172,102707,2,0,P|288:217|259:292,1,115
378,327,103009,38,0,B|355:274|382:221|382:221|442:265,1,172.5,8|0,0:0|0:0,0:0:0:0:
445,269,103311,1,0,0:0:0:0:
342,135,103461,1,0,0:0:0:0:
248,277,103612,2,0,P|272:226|228:145,1,115
111,88,103914,1,0,0:0:0:0:
108,101,104065,1,0,0:0:0:0:
71,264,104215,6,0,B|85:195|85:195|80:183|80:183|90:174|90:174|107:100,1,172.5,8|0,0:0|0:0,0:0:0:0:
131,9,104517,1,0,0:0:0:0:
257,171,104667,1,0,0:0:0:0:
223,2,104818,2,0,L|196:133,1,115
168,230,105120,1,0,0:0:0:0:
171,217,105271,1,0,0:0:0:0:
371,178,105421,38,0,L|256:170,1,115,8|0,0:0|0:0,0:0:0:0:
434,259,105723,2,0,L|319:266,1,115
110,281,106024,6,0,L|224:273,1,115
47,362,106325,2,0,L|162:369,1,115
274,384,106627,38,0,L|277:314,1,57.5,8|0,0:0|0:0,0:0:0:0:
287,114,106929,2,0,L|283:193,1,57.5
293,105,107079,2,0,L|289:184,1,57.5
274,384,107230,6,0,L|277:314,1,57.5
121,223,107532,2,0,P|209:199|224:289,1,172.5
230,271,107833,5,8,0:0:0:0:
355,140,107984,1,0,0:0:0:0:
306,343,108135,1,0,0:0:0:0:
255,170,108285,1,0,0:0:0:0:
430,211,108436,5,0,0:0:0:0:
230,271,108587,1,0,0:0:0:0:
406,313,108738,1,0,0:0:0:0:
355,140,108888,1,0,0:0:0:0:
121,303,109039,37,8,0:0:0:0:
200,120,109190,1,0,0:0:0:0:
226,348,109341,1,0,0:0:0:0:
108,189,109491,1,0,0:0:0:0:
305,166,109642,5,0,0:0:0:0:
121,303,109793,1,0,0:0:0:0:
318,280,109944,1,0,0:0:0:0:
200,120,110094,1,0,0:0:0:0:
206,278,110245,37,8,0:0:0:0:
356,120,110396,1,0,0:0:0:0:
297,364,110547,1,0,0:0:0:0:
236,156,110697,1,0,0:0:0:0:
446,205,110848,5,0,0:0:0:0:
206,278,110999,1,0,0:0:0:0:
417,328,111150,1,0,0:0:0:0:
356,120,111300,1,0,0:0:0:0:
154,365,111451,37,8,0:0:0:0:
331,197,111602,1,0,0:0:0:0:
59,263,111753,1,0,0:0:0:0:
291,331,111903,1,0,0:0:0:0:
236,97,112054,5,0,0:0:0:0:
154,365,112205,1,0,0:0:0:0:
99,129,112356,1,0,0:0:0:0:
331,197,112506,1,0,0:0:0:0:
59,263,112657,37,8,0:0:0:0:
52,222,112733,1,0,0:0:0:0:
63,183,112808,1,0,0:0:0:0:
101,154,112883,1,0,0:0:0:0:
157,161,112959,1,8,0:0:0:0:
197,200,113034,1,0,0:0:0:0:
225,258,113110,1,0,0:0:0:0:
277,295,113185,1,0,0:0:0:0:
340,300,113260,5,8,0:0:0:0:
392,262,113336,1,0,0:0:0:0:
415,202,113411,1,0,0:0:0:0:
409,138,113486,1,0,0:0:0:0:
337,88,113562,1,8,0:0:0:0:
329,89,113637,1,0,0:0:0:0:
322,94,113713,1,0,0:0:0:0:
317,100,113788,1,0,0:0:0:0:
292,57,113863,37,8,0:0:0:0:
250,32,113939,1,0,0:0:0:0:
186,37,114014,1,0,0:0:0:0:
141,82,114089,1,0,0:0:0:0:
132,146,114165,1,8,0:0:0:0:
174,204,114240,1,0,0:0:0:0:
244,224,114316,1,0,0:0:0:0:
282,285,114391,1,0,0:0:0:0:
261,353,114466,5,8,0:0:0:0:
191,376,114542,1,0,0:0:0:0:
126,344,114617,1,0,0:0:0:0:
116,272,114692,1,0,0:0:0:0:
174,204,114768,1,8,0:0:0:0:
219,133,114843,1,0,0:0:0:0:
212,45,114919,1,0,0:0:0:0:
124,0,114994,1,0,0:0:0:0:
28,30,115069,38,0,L|92:204,1,115,2|0,0:0|0:0,0:0:0:0:
116,272,115220,1,0,0:0:0:0:
349,111,115371,6,0,L|285:285,1,115,2|0,0:0|0:0,0:0:0:0:
261,353,115522,1,0,0:0:0:0:
28,30,115672,38,0,L|92:204,1,115,2|0,0:0|0:0,0:0:0:0:
116,272,115823,1,0,0:0:0:0:
349,111,115974,6,0,L|285:285,1,115,2|0,0:0|0:0,0:0:0:0:
261,353,116125,1,0,0:0:0:0:
118,199,116275,6,0,P|166:181|218:199,1,100.625,12|0,0:0|0:0,0:0:0:0:
280,241,116878,6,0,L|286:219,3,14.375,8|0|0|0,0:0|0:0|0:0|0:0,0:0:0:0:
368,351,117180,2,0,L|370:371,1,14.375,8|0,0:0|0:0,0:0:0:0:
291,322,117331,38,0,B|237:309|237:309|313:344,1,115,8|0,0:0|0:0,0:0:0:0:
118,199,117481,38,0,B|304:287|244:116|439:181|439:181|444:76|327:36|186:104|244:269|343:360|490:188,1,805,12|0,0:0|0:0,0:0:0:0:
428,242,118084,38,0,L|296:228,1,115,2|0,0:0|0:0,0:0:0:0:
31,82,118235,2,0,L|163:68,1,115
317,57,118386,6,0,L|314:15,1,43.125,8|0,0:0|0:0,0:0:0:0:
320,75,118687,38,0,L|326:160,1,86.2500032901765,8|0,0:0|0:0,0:0:0:0:
336,298,118838,6,0,L|332:255,1,43.125,8|0,0:0|0:0,0:0:0:0:
381,355,119140,38,0,P|341:373|279:338,1,86.2500032901765,8|0,0:0|0:0,0:0:0:0:
175,277,119290,6,0,B|173:329|116:341|116:341|43:260|135:148|231:208,1,345,2|0,0:0|0:0,0:0:0:0:
332,255,119592,38,0,L|336:298,1,43.125,8|0,0:0|0:0,0:0:0:0:
481,265,119893,6,0,L|498:263,12,14.375,12|0|0|0|0|0|0|0|0|0|0|0|0,0:0|0:0|0:0|0:0|0:0|0:0|0:0|0:0|0:0|0:0|0:0|0:0|0:0,0:0:0:0:
375,183,120195,38,0,B|376:151|376:151|388:128|388:128|388:154|388:154|358:217,1,115,8|0,0:0|0:0,0:0:0:0:
335,297,120346,2,0,B|334:329|334:329|322:352|322:352|322:326|322:326|352:263,1,115
222,203,120496,5,2,0:0:0:0:
223,204,120572,1,0,0:0:0:0:
224,205,120647,1,0,0:0:0:0:
225,206,120723,1,0,0:0:0:0:
226,207,120798,1,0,0:0:0:0:
227,208,120873,1,0,0:0:0:0:
228,209,120949,1,0,0:0:0:0:
229,210,121024,1,0,0:0:0:0:
169,254,121100,38,0,P|161:177|265:156,1,115,8|0,0:0|0:0,0:0:0:0:
389,176,121250,1,0,0:0:0:0:
389,176,121326,2,0,P|312:184|291:80,1,115,0|8,0:0|0:0,0:0:0:0:
339,2,121476,1,0,0:0:0:0:
339,2,121552,2,0,L|347:138,1,115
358,301,121703,5,2,0:0:0:0:
357,300,121779,1,0,0:0:0:0:
356,299,121854,1,0,0:0:0:0:
355,298,121930,1,0,0:0:0:0:
295,354,122004,38,0,L|293:373,12,14.375,8|0|0|0|0|0|0|0|0|0|0|0|0,0:0|0:0|0:0|0:0|0:0|0:0|0:0|0:0|0:0|0:0|0:0|0:0|0:0,0:0:0:0:
219,354,122306,6,0,B|142:325|96:366|96:366|192:281|324:372,1,345,4|0,0:0|0:0,0:0:0:0:
406,296,122607,2,0,B|511:330|569:225|385:111|412:370|247:232,1,345
135,119,122909,2,0,P|169:186|129:260,1,115,2|0,0:0|0:0,0:0:0:0:
69,276,123059,2,0,P|140:253|166:173,1,115
32,82,123210,38,0,L|36:136,1,43.125,8|0,0:0|0:0,0:0:0:0:
0,199,123512,2,0,B|45:206|45:206|81:188,1,86.2500032901765
255,37,123662,6,0,L|251:91,1,43.125,8|0,0:0|0:0,0:0:0:0:
287,154,123964,2,0,B|242:161|242:161|205:143,1,86.2500032901765,8|0,0:0|0:0,0:0:0:0:
32,82,124115,38,0,B|119:38|119:38|169:153|0:141|131:346,1,345,2|0,0:0|0:0,0:0:0:0:
236,350,124416,6,0,L|280:348,1,43.125,8|0,0:0|0:0,0:0:0:0:
150,346,124718,38,0,L|127:348,12,14.375,12|0|0|0|0|0|0|0|0|0|0|0|0,0:0|0:0|0:0|0:0|0:0|0:0|0:0|0:0|0:0|0:0|0:0|0:0|0:0,0:0:0:0:
236,343,125019,6,0,B|319:341|319:341|329:332|329:332|338:340|338:340|439:337|439:337|434:267|382:237|382:237|310:300,1,345,8|0,0:0|0:0,0:0:0:0:
251,163,125321,38,0,P|243:194|273:294,1,103.499996841431
233,164,125471,2,0,P|232:215|253:262,1,103.499996841431
135,347,125622,2,0,P|135:295|114:248,1,103.499996841431
118,349,125773,2,0,P|126:318|96:218,1,103.499996841431
11,309,125924,6,0,L|7:286,12,14.375,8|0|0|0|0|0|0|0|0|0|0|0|0,0:0|0:0|0:0|0:0|0:0|0:0|0:0|0:0|0:0|0:0|0:0|0:0|0:0,0:0:0:0:
15,313,126225,38,0,L|18:173,1,115,8|0,0:0|0:0,0:0:0:0:
20,318,126376,2,0,L|23:178,1,115,8|0,0:0|0:0,0:0:0:0:
34,68,126527,6,0,L|35:19,6,28.75,8|0|0|0|0|0|0,0:0|0:0|0:0|0:0|0:0|0:0|0:0,0:0:0:0:
110,79,126828,38,0,L|116:64,12,14.375,8|0|0|0|0|0|0|0|0|0|0|0|0,0:0|0:0|0:0|0:0|0:0|0:0|0:0|0:0|0:0|0:0|0:0|0:0|0:0,0:0:0:0:
199,67,127130,6,0,B|197:123|115:169|115:169|344:39|248:342|499:366|616:113|469:0|376:7|285:95,1,805,12|0,0:0|0:0,0:0:0:0:
314,81,127733,38,0,P|363:109|427:109,1,115,2|0,0:0|0:0,0:0:0:0:
494,189,127883,2,0,P|445:217|381:217,1,115
171,98,128034,6,0,L|162:145,1,43.125,8|0,0:0|0:0,0:0:0:0:
160,151,128336,38,0,L|261:147,1,86.2500032901765,8|0,0:0|0:0,0:0:0:0:
387,143,128486,6,0,L|343:144,1,43.125,8|0,0:0|0:0,0:0:0:0:
337,144,128788,38,0,L|357:251,1,86.2500032901765,8|0,0:0|0:0,0:0:0:0:
459,262,128939,6,0,B|497:303|485:363|485:363|398:347|398:347|331:268|224:316,1,345,2|0,0:0|0:0,0:0:0:0:
174,377,129240,38,0,P|186:363|198:333,1,43.125,8|0,0:0|0:0,0:0:0:0:
192,265,129542,6,0,L|170:213,6,28.75,8|0|0|0|0|0|0,0:0|0:0|0:0|0:0|0:0|0:0|0:0,0:0:0:0:
266,302,129843,38,0,P|320:320|379:300,1,115,8|0,0:0|0:1,0:1:0:0:
481,305,129994,2,0,P|427:287|368:307,1,115
180,238,130145,5,2,0:0:0:0:
181,237,130221,1,0,0:0:0:0:
182,236,130296,1,0,0:0:0:0:
183,235,130372,1,0,0:0:0:0:
184,234,130447,1,0,0:0:0:0:
185,233,130522,1,0,0:0:0:0:
186,232,130598,1,0,0:0:0:0:
187,231,130673,1,0,0:0:0:0:
231,291,130748,38,0,P|154:299|133:195,1,115,8|0,0:0|0:0,0:0:0:0:
64,128,130899,1,0,0:0:0:0:
64,128,130974,2,0,P|72:205|-32:226,1,115,0|8,0:0|0:0,0:0:0:0:
36,330,131125,1,0,0:0:0:0:
36,330,131200,2,0,P|28:253|132:232,1,115
187,231,131351,5,2,0:0:0:0:
186,232,131426,1,0,0:0:0:0:
185,233,131502,1,0,0:0:0:0:
184,234,131577,1,0,0:0:0:0:
231,291,131652,38,0,L|252:290,12,14.375,8|0|0|0|0|0|0|0|0|0|0|0|0,0:0|0:0|0:0|0:0|0:0|0:0|0:0|0:0|0:0|0:0|0:0|0:0|0:0,0:0:0:0:
301,339,131954,6,0,P|319:300|297:236,1,86.2500032901765,8|0,0:0|0:0,0:0:0:0:
479,319,132105,2,0,L|355:309,1,86.2500032901765
280,171,132255,2,0,L|404:181,1,86.2500032901765,2|0,0:0|0:0,0:0:0:0:
458,151,132406,2,0,P|440:190|462:254,1,86.2500032901765
276,45,132557,37,8,0:0:0:0:
458,151,132708,1,0,0:0:0:0:
194,164,132858,1,2,0:0:0:0:
463,150,133009,1,0,0:0:0:0:
189,165,133160,6,0,L|102:169,1,86.2500032901765,8|0,0:0|0:0,0:0:0:0:
171,305,133311,2,0,L|258:301,1,86.2500032901765
43,132,133461,2,0,P|36:193|66:227,1,86.2500032901765,2|0,0:0|0:0,0:0:0:0:
317,338,133612,2,0,P|324:277|294:243,1,86.2500032901765
188,82,133763,37,8,0:0:0:0:
188,81,133838,1,0,0:0:0:0:
189,80,133914,1,0,0:0:0:0:
189,79,133989,1,0,0:0:0:0:
190,78,134064,2,0,L|188:182,1,86.2500032901765,2|0,0:0|0:0,0:0:0:0:
199,67,134215,2,0,L|197:171,1,86.2500032901765
56,246,134366,6,0,P|188:205|183:275,1,258.75000987053,8|0,0:0|0:0,0:0:0:0:
189,263,134667,2,0,P|119:202|51:278,1,184,2|8,0:0|0:0,0:0:0:0:
113,372,134969,2,0,L|121:249,1,97.7500018644333,2|0,0:0|0:0,0:0:0:0:
137,36,135120,1,8,0:0:0:0:
285,241,135270,37,2,0:0:0:0:
285,244,135346,1,2,0:0:0:0:
285,247,135421,1,8,0:0:0:0:
367,240,135496,1,8,0:0:0:0:
449,233,135572,6,0,L|447:184,1,37.9499998841858,12|0,0:0|0:0,0:0:0:0:
452,308,135798,2,0,L|448:222,1,75.8999997683716,8|0,0:0|0:0,0:0:0:0:
441,84,136175,1,8,0:0:0:0:
367,240,136326,38,0,L|374:154,1,86.2500032901765,8|0,0:0|0:0,0:0:0:0:
291,12,136476,2,0,L|301:109,1,97.7500018644333,8|0,0:0|0:0,0:0:0:0:
210,233,136627,2,0,L|221:124,1,109.24999708271,8|0,0:0|0:0,0:0:0:0:
123,31,136778,6,0,B|164:50|164:105|164:105|162:238|-60:226|36:-13|177:57|192:228|319:140|319:140|260:92|191:142,1,655.499982496262,12|0,0:0|0:0,0:0:0:0:
23,235,137306,1,8,0:0:0:0:
24,238,137381,2,0,B|41:256|41:256|147:249,1,109.24999708271,2|0,0:0|0:0,0:0:0:0:
243,241,137532,2,0,L|370:234,1,109.24999708271
448,92,137682,38,0,B|411:26|411:26|331:68|354:155|354:155|429:158|442:269,1,327.749991248131,8|0,0:0|0:0,0:0:0:0:
411,294,137984,2,0,B|476:346|476:346|374:342|374:342|357:333|357:333|339:341|339:341|235:334,1,327.749991248131,8|0,0:0|0:0,0:0:0:0:
128,223,138285,2,0,L|125:251,12,27.3124992706776,8|0|0|0|0|0|0|0|0|0|0|0|0,0:0|0:0|0:0|0:0|0:0|0:0|0:0|0:0|0:0|0:0|0:0|0:0|0:0,0:0:0:0:
187,169,138587,6,0,B|141:147|141:147|73:156,1,109.24999708271,2|0,0:0|0:0,0:0:0:0:
45,216,138738,2,0,P|12:174|19:122,1,109.24999708271,8|0,0:0|0:0,0:0:0:0:
225,106,138888,2,0,P|258:148|252:201,1,109.24999708271,8|0,0:0|0:0,0:0:0:0:
314,240,139039,2,0,P|271:272|219:266,1,109.24999708271,8|0,0:0|0:0,0:0:0:0:
139,353,139190,38,0,P|101:343|53:338,1,86.25,8|0,0:0|0:0,0:0:0:0:
39,329,139491,6,0,P|124:332|210:315,1,109.24999708271,8|0,0:0|0:0,0:0:0:0:
410,316,139642,37,0,0:0:0:0:
421,316,139718,1,0,0:0:0:0:
432,317,139793,2,0,B|451:290|451:290|444:157,1,109.24999708271,2|0,0:0|0:0,0:0:0:0:
346,50,139944,2,0,B|327:77|327:77|334:210,1,109.24999708271,8|0,0:0|0:0,0:0:0:0:
337,317,140094,5,8,0:0:0:0:
430,102,140245,1,8,0:0:0:0:
327,317,140396,1,8,0:0:0:0:
441,102,140547,1,8,0:0:0:0:
337,317,140698,1,8,0:0:0:0:
430,102,140849,1,8,0:0:0:0:
201,182,140999,38,0,B|188:158|163:146|163:146|215:78|344:125|235:319,1,327.749991248131,2|0,0:0|0:0,0:0:0:0:
52,349,141301,2,0,B|-10:394|-41:300|99:202|70:461|246:302,1,258.75000987053,8|0,0:0|0:0,0:0:0:0:
403,268,141602,6,0,B|419:310|483:304|483:304|537:267|443:120|313:235,1,327.749991248131,8|0,0:0|0:0,0:0:0:0:
182,344,141904,2,0,B|185:250|185:250|179:237|179:237|186:226|186:226|194:72,1,218.499994165421,8|0,0:0|0:0,0:0:0:0:
12,170,142130,1,8,0:0:0:0:
10,175,142205,2,0,P|59:201|133:167,1,109.24999708271,2|0,0:0|0:0,0:0:0:0:
205,29,142356,2,0,P|179:78|213:152,1,109.24999708271
402,267,142507,38,0,B|425:195|425:195|296:158|337:297|196:237,1,327.749991248131,8|0,0:0|0:0,0:0:0:0:
6,84,142808,2,0,B|74:53|74:53|118:85|107:145|107:145|50:177|39:250|104:311,1,327.749991248131,8|0,0:0|0:0,0:0:0:0:
182,344,143110,6,0,L|212:340,12,27.3124992706776,8|0|0|0|0|0|0|0|0|0|0|0|0,0:0|0:0|0:0|0:0|0:0|0:0|0:0|0:0|0:0|0:0|0:0|0:0|0:0,0:0:0:0:
281,369,143411,38,0,P|284:321|235:270,1,109.24999708271,2|0,0:0|0:0,0:0:0:0:
396,81,143562,2,0,P|353:103|334:171,1,109.24999708271
421,258,143713,2,0,P|381:232|313:249,1,109.24999708271,8|0,0:0|0:0,0:0:0:0:
231,14,143864,2,0,P|227:63|277:114,1,109.24999708271
496,166,144014,6,0,L|386:157,1,86.25,12|0,0:0|0:0,0:0:0:0:
396,81,144316,38,0,B|331:99|333:158|333:158|339:348,1,218.499994165421,8|0,0:0|0:0,0:0:0:0:
433,370,144542,1,0,0:0:0:0:
427,360,144617,6,0,B|395:340|352:342|352:342|344:337|344:337|337:343|337:343|295:346|231:389,1,172.500006580353,2|0,0:0|0:0,0:0:0:0:
71,248,144843,2,0,B|134:220|134:220|185:304|75:361|77:362,1,172.500006580353,8|0,0:0|0:0,0:0:0:0:
8,189,145069,2,0,L|15:103,1,86.2500032901765,8|0,0:0|0:0,0:0:0:0:
139,63,145220,38,0,B|132:114|98:141|98:141|132:114|204:136,1,172.500006580353,8|0,0:0|0:0,0:0:0:0:
307,158,145446,2,0,B|335:183|316:235|189:172|326:55,1,172.500006580353,8|0,0:0|0:0,0:0:0:0:
394,34,145672,2,0,B|401:143,1,86.2500032901765,8|0,0:0|0:0,0:0:0:0:
427,360,145823,6,0,P|383:347|435:344,1,132.82499959465,2|0,0:0|0:0,0:0:0:0:
427,360,146426,38,0,B|456:281|456:281|329:242|363:368|200:296,1,327.749991248131,12|0,0:0|0:0,0:0:0:0:
111,213,146728,2,0,B|51:206|5:242|5:242|50:169|149:160|271:262,1,327.749991248131,2|0,0:0|0:0,0:0:0:0:
365,171,147029,2,0,P|303:179|249:130,1,109.24999708271,8|0,0:0|0:0,0:0:0:0:
195,211,147180,2,0,P|168:164|176:111,1,109.24999708271
331,56,147331,6,0,B|307:127|366:172|366:172|430:172|456:83|456:83|433:136|343:190,1,327.749991248131,2|0,0:0|0:0,0:0:0:0:
379,261,147632,2,0,B|396:308|449:313|449:313|323:353|359:221|176:332,1,327.749991248131,8|0,0:0|0:0,0:0:0:0:
135,358,147934,38,0,L|127:384,12,27.3124992706776,2|0|0|0|0|0|0|0|0|0|0|0|0,0:0|0:0|0:0|0:0|0:0|0:0|0:0|0:0|0:0|0:0|0:0|0:0|0:0,0:0:0:0:
34,349,148235,6,0,P|86:335|154:389,1,109.24999708271,8|0,0:0|0:0,0:0:0:0:
148,239,148386,2,0,P|198:258|221:341,1,109.24999708271
398,384,148537,2,0,P|347:364|324:281,1,109.24999708271,2|0,0:0|0:0,0:0:0:0:
512,274,148687,2,0,P|460:288|392:234,1,109.24999708271
323,159,148838,38,0,P|318:214|322:225,1,56.9249998262787,8|0,0:0|0:0,0:0:0:0:
381,110,149140,6,0,P|334:85|249:147,1,109.24999708271,2|0,0:0|0:0,0:0:0:0:
138,150,149290,2,0,P|185:175|270:113,1,109.24999708271
189,4,149441,2,0,B|214:33|214:33|177:164,1,109.24999708271,8|0,0:0|0:0,0:0:0:0:
69,202,149592,2,0,B|44:173|44:173|81:42,1,109.24999708271
96,11,149743,37,2,0:0:0:0:
189,226,149894,1,0,0:0:0:0:
85,11,150045,1,8,0:0:0:0:
199,226,150196,1,0,0:0:0:0:
96,11,150347,1,2,0:0:0:0:
189,226,150496,1,0,0:0:0:0:
286,66,150647,6,0,B|326:7|326:7|385:45|353:117|353:117|353:125|353:125|344:127|344:127|287:152|291:246,1,327.749991248131,8|0,0:0|0:0,0:0:0:0:
413,342,150949,2,0,B|498:365|533:229|327:189|399:376|208:287,1,327.749991248131,8|0,0:0|0:0,0:0:0:0:
71,124,151250,38,0,L|75:218,1,86.2500032901765,6|0,0:0|0:0,0:0:0:0:
78,296,151401,2,0,L|74:209,1,86.2500032901765
196,54,151552,6,0,L|192:148,1,86.2500032901765,8|0,0:0|0:0,0:0:0:0:
189,226,151703,2,0,L|192:139,1,86.2500032901765
67,37,151853,37,2,0:0:0:0:
79,306,152004,1,0,0:0:0:0:
66,26,152155,1,8,0:0:0:0:
78,296,152306,1,0,0:0:0:0:
189,226,152456,6,0,L|192:139,1,86.2500032901765,2|0,0:0|0:0,0:0:0:0:
196,54,152607,2,0,L|192:140,1,86.2500032901765
314,296,152758,38,0,L|310:209,1,86.2500032901765,8|0,0:0|0:0,0:0:0:0:
307,124,152909,2,0,L|310:210,1,86.2500032901765
185,312,153059,5,2,0:0:0:0:
184,316,153135,1,0,0:0:0:0:
183,320,153210,1,0,0:0:0:0:
396,284,153361,38,0,B|471:268|471:268|406:323|406:323|305:293,1,258.75000987053,8|0,0:0|0:0,0:0:0:0:
154,134,153662,6,0,B|78:101|78:101|61:165|112:196|112:196|135:240|87:294,1,276,8|0,0:0|0:0,0:0:0:0:
2,352,153964,2,0,L|340:379,1,293.2500055933,8|0,0:0|0:0,0:0:0:0:
410,187,154265,2,0,P|387:252|418:313,1,103.499996841431,8|0,0:0|0:0,0:0:0:0:
395,283,154416,2,0,P|418:218|387:157,1,103.499996841431,8|0,0:0|0:0,0:0:0:0:
435,25,154567,37,8,0:0:0:0:
435,26,154642,1,8,0:0:0:0:
435,27,154718,1,8,0:0:0:0:
435,28,154793,1,8,0:0:0:0:
374,81,154868,6,0,L|345:77,30,27.3124992706776,12|0|0|0|0|0|0|0|0|0|0|0|0|0|0|0|0|0|0|0|0|0|0|0|0|0|0|0|0|0|0,0:0|0:0|0:0|0:0|0:0|0:0|0:0|0:0|0:0|0:0|0:0|0:0|0:0|0:0|0:0|0:0|0:0|0:0|0:0|0:0|0:0|0:0|0:0|0:0|0:0|0:0|0:0|0:0|0:0|0:0|0:0,0:0:0:0:
282,31,155471,38,0,L|220:39,14,54.6249985413552
42,67,156074,5,4,0:0:0:0:
256,192,164290,12,0,165723,0:0:0:0:
77,200,166024,5,0,0:0:0:0:
34,139,166175,2,0,P|82:124|138:157,1,115
77,200,166627,1,0,0:0:0:0:
341,71,167682,1,0,0:0:0:0:
353,160,167909,1,0,0:0:0:0:
373,317,168135,5,0,0:0:0:0:
373,317,168436,1,0,0:0:0:0:
416,256,168587,2,0,P|368:241|312:274,1,115
373,317,169039,1,0,0:0:0:0:
152,313,170094,37,0,0:0:0:0:
140,224,170321,1,0,0:0:0:0:
120,67,170547,5,0,0:0:0:0:
120,67,170848,1,0,0:0:0:0:
77,128,170999,2,0,P|125:143|181:110,1,115
120,67,171451,1,0,0:0:0:0:
360,313,172507,37,0,0:0:0:0:
372,224,172734,1,0,0:0:0:0:
392,67,172960,5,0,0:0:0:0:
392,67,173261,1,0,0:0:0:0:
435,128,173412,2,0,P|387:143|331:110,1,115
392,67,173864,1,0,0:0:0:0:
256,192,173939,12,0,175295,0:0:0:0:
423,19,175371,38,0,B|396:124|465:78|433:186,1,172.5,8|0,0:0|0:0,0:0:0:0:
261,222,175672,2,0,P|301:250|366:244,1,115
202,152,175974,2,0,P|173:191|179:256,1,115
254,341,176275,1,0,0:0:0:0:
93,299,176426,1,0,0:0:0:0:
82,296,176476,1,0,0:0:0:0:
71,293,176527,1,0,0:0:0:0:
61,290,176578,6,0,B|23:363|23:363|191:346,1,230,8|0,0:0|0:0,0:0:0:0:
364,244,177029,2,0,B|345:367,1,115
455,164,177331,2,0,B|474:287,1,115
333,145,177632,1,0,0:0:0:0:
328,134,177682,1,0,0:0:0:0:
323,123,177733,1,0,0:0:0:0:
317,112,177783,38,0,B|276:45|159:108|230:234,1,230,8|0,0:0|0:0,0:0:0:0:
250,342,178235,2,0,P|301:323|349:367,1,115
170,290,178537,2,0,P|119:309|71:265,1,115
94,67,178788,6,0,L|102:163,1,76.6666666666667
91,160,178989,38,0,B|296:145,1,172.5,8|0,0:0|0:0,0:0:0:0:
280,146,179290,1,0,0:0:0:0:
436,35,179441,2,0,B|417:293,1,230
345,356,179893,2,0,P|301:323|250:342,1,115
40,356,180195,6,0,L|156:337,1,115,8|0,0:0|0:0,0:0:0:0:
33,351,180496,2,0,L|149:332,1,115
186,163,180798,38,0,L|205:279,1,115
191,156,181099,2,0,L|210:272,1,115
40,356,181401,6,0,L|156:337,1,115,8|0,0:0|0:0,0:0:0:0:
33,351,181702,2,0,L|149:332,1,115
186,163,182004,38,0,L|205:279,1,115
191,156,182305,2,0,L|210:272,1,115
345,356,182607,6,0,L|363:242,1,115,8|0,0:0|0:0,0:0:0:0:
396,48,182909,2,0,L|377:161,1,115
353,354,183210,2,0,L|371:240,1,115
404,46,183512,2,0,L|385:159,1,115
359,353,183813,37,8,0:0:0:0:
277,257,185019,21,8,0:0:0:0:
277,126,185170,1,0,0:0:0:0:
200,232,185321,1,0,0:0:0:0:
324,192,185471,1,0,0:0:0:0:
200,151,185622,1,0,0:0:0:0:
277,257,185773,1,0,0:0:0:0:
277,126,185924,1,0,0:0:0:0:
200,232,186075,1,0,0:0:0:0:
350,192,186225,5,8,0:0:0:0:
164,131,186376,1,0,0:0:0:0:
279,289,186527,1,0,0:0:0:0:
279,94,186677,1,0,0:0:0:0:
164,252,186828,1,0,0:0:0:0:
350,192,186979,1,0,0:0:0:0:
164,131,187130,1,0,0:0:0:0:
279,289,187281,1,0,0:0:0:0:
284,57,187431,37,8,0:0:0:0:
124,303,187582,1,0,0:0:0:0:
397,198,187733,1,0,0:0:0:0:
115,122,187883,1,0,0:0:0:0:
299,350,188034,1,0,0:0:0:0:
284,57,188185,1,0,0:0:0:0:
124,303,188336,1,0,0:0:0:0:
397,198,188487,1,0,0:0:0:0:
87,107,188637,5,8,0:0:0:0:
308,380,188788,1,0,0:0:0:0:
290,29,188939,1,0,0:0:0:0:
98,324,189089,1,0,0:0:0:0:
426,198,189240,1,0,0:0:0:0:
87,107,189391,1,0,0:0:0:0:
308,380,189542,1,0,0:0:0:0:
290,29,189693,1,0,0:0:0:0:
98,324,189843,37,8,0:0:0:0:
125,286,189919,1,0,0:0:0:0:
140,242,189994,1,0,0:0:0:0:
134,196,190069,1,0,0:0:0:0:
110,155,190145,1,8,0:0:0:0:
73,103,190220,1,0,0:0:0:0:
85,42,190295,1,0,0:0:0:0:
138,9,190371,1,0,0:0:0:0:
199,24,190446,5,8,0:0:0:0:
230,79,190521,1,0,0:0:0:0:
255,136,190597,1,0,0:0:0:0:
315,153,190672,1,0,0:0:0:0:
367,118,190748,1,8,0:0:0:0:
379,71,190823,1,0,0:0:0:0:
369,31,190898,1,0,0:0:0:0:
351,13,190973,1,0,0:0:0:0:
230,79,191049,37,8,0:0:0:0:
204,125,191125,1,0,0:0:0:0:
196,178,191201,1,0,0:0:0:0:
219,228,191276,1,0,0:0:0:0:
265,258,191351,1,8,0:0:0:0:
228,217,191426,1,0,0:0:0:0:
178,191,191502,1,0,0:0:0:0:
123,190,191577,1,0,0:0:0:0:
78,253,191652,6,0,P|51:222|48:185,1,46,8|0,0:0|0:0,0:0:0:0:
104,284,191728,2,0,P|41:262|26:250,1,46
145,299,191803,2,0,P|93:294|67:272,1,46
194,302,191878,2,0,P|140:311|116:307,1,46
307,271,191954,38,0,P|255:260|240:268,1,46
334,274,192029,2,0,P|280:245|271:244,1,46
350,286,192105,2,0,P|313:243|302:238,1,46
356,297,192180,2,0,P|336:241|328:232,1,46
436,354,192255,38,0,L|454:296,30,46,4|0|0|0|0|0|0|0|0|0|0|0|0|0|0|0|0|0|0|0|0|0|0|0|0|0|0|0|0|0|0,0:0|0:0|0:0|0:0|0:0|0:0|0:0|0:0|0:0|0:0|0:0|0:0|0:0|0:0|0:0|0:0|0:0|0:0|0:0|0:0|0:0|0:0|0:0|0:0|0:0|0:0|0:0|0:0|0:0|0:0|0:0,0:0:0:0:
499,227,193461,38,0,P|470:231|423:216,3,57.5
356,205,193763,6,0,P|352:234|382:283,3,71.875
407,143,194064,2,0,P|361:124|288:160,1,86.2500032901765
190,208,194215,2,0,P|236:227|309:191,1,86.2500032901765
251,61,194365,38,0,L|236:189,1,86.2500032901765
213,384,194516,2,0,L|222:298,1,86.2500032901765
83,91,194667,22,0,L|103:320,1,230,8|0,0:0|0:0,0:0:0:0:
319,348,194893,1,0,0:0:0:0:
327,368,194969,1,2,0:0:0:0:
399,361,195044,1,0,0:0:0:0:
471,354,195120,2,0,L|461:215,1,115
457,41,195270,5,8,0:0:0:0:
447,25,195346,2,0,L|434:160,1,115
296,104,195496,1,0,0:0:0:0:
306,88,195572,2,0,L|319:223,1,115,2|0,0:0|0:0,0:0:0:0:
118,169,195723,2,0,L|251:161,1,115
93,87,195873,38,0,B|25:90|25:90|51:279,1,230,8|0,0:0|0:0,0:0:0:0:
188,355,196100,1,0,0:0:0:0:
203,363,196175,2,0,L|185:225,1,115,2|0,0:0|0:0,0:0:0:0:
163,23,196326,1,0,0:0:0:0:
197,92,196401,1,0,0:0:0:0:
232,162,196476,5,8,0:0:0:0:
241,176,196552,2,0,L|126:182,1,115
259,301,196703,2,0,L|373:294,1,115,0|2,0:0|0:0,0:0:0:0:
437,89,196853,1,0,0:0:0:0:
370,65,196929,1,0,0:0:0:0:
346,132,197004,1,0,0:0:0:0:
413,156,197079,38,0,L|535:188,1,115,8|0,0:0|0:0,0:0:0:0:
280,288,197230,1,0,0:0:0:0:
269,294,197306,1,0,0:0:0:0:
259,301,197381,2,0,L|144:307,1,115,2|0,0:0|0:0,0:0:0:0:
11,189,197532,2,0,L|125:182,1,115
240,72,197682,1,8,0:0:0:0:
249,61,197758,2,0,L|240:181,1,115
430,224,197909,2,0,P|376:207|328:236,1,115,0|2,0:0|0:0,0:0:0:0:
121,113,198059,5,0,0:0:0:0:
125,182,198135,1,0,0:0:0:0:
129,251,198210,1,0,0:0:0:0:
132,320,198285,38,0,B|166:329|202:304|202:304|127:365|8:280,1,230,8|0,0:0|0:0,0:0:0:0:
271,363,198512,2,0,B|402:294|361:415|519:330,1,230,8|0,0:0|0:0,0:0:0:0:
426,283,198738,2,0,L|444:108,1,115,8|0,0:0|0:0,0:0:0:0:
452,43,198888,5,8,0:0:0:0:
452,43,198964,1,0,0:0:0:0:
453,37,199039,1,0,0:0:0:0:
454,31,199115,1,0,0:0:0:0:
386,86,199190,37,2,0:0:0:0:
326,118,199265,1,0,0:0:0:0:
257,116,199340,1,0,0:0:0:0:
199,80,199416,1,0,0:0:0:0:
111,50,199491,6,0,B|49:28|49:28|25:128|118:84|68:249,1,230,12|0,0:0|0:0,0:0:0:0:
28,257,199718,1,0,0:0:0:0:
20,272,199793,1,2,0:0:0:0:
101,285,199868,1,0,0:0:0:0:
182,298,199944,2,0,L|321:322,1,115
423,234,200094,37,8,0:0:0:0:
415,215,200170,2,0,P|392:265|432:357,1,115
270,230,200321,5,0,0:0:0:0:
253,217,200397,2,0,P|258:271|338:331,1,115,2|0,0:0|0:0,0:0:0:0:
430,125,200547,2,0,P|375:130|315:210,1,115
191,111,200698,38,0,B|258:91|222:32|140:34|132:106|183:262,1,230,8|0,0:0|0:0,0:0:0:0:
78,359,200924,1,0,0:0:0:0:
84,374,200999,2,0,P|103:307|74:181,1,115,2|0,0:0|0:0,0:0:0:0:
20,97,201150,1,0,0:0:0:0:
27,114,201225,1,0,0:0:0:0:
34,127,201301,1,8,0:0:0:0:
20,177,201376,2,0,B|15:231|15:231|18:240|18:240|13:313,1,115
176,384,201527,2,0,B|181:330|181:330|178:321|178:321|183:248,1,115,0|2,0:0|0:0,0:0:0:0:
191,111,201677,5,0,0:0:0:0:
132,65,201753,1,0,0:0:0:0:
117,137,201828,1,0,0:0:0:0:
215,192,201904,38,0,B|319:227|443:136|266:66|270:285,1,230,12|0,0:0|0:0,0:0:0:0:
351,354,202130,1,0,0:0:0:0:
358,363,202205,2,0,P|384:299|337:221,1,115,2|0,0:0|0:0,0:0:0:0:
488,251,202356,2,0,P|461:187|372:165,1,115
401,44,202507,1,8,0:0:0:0:
384,50,202582,1,0,0:0:0:0:
368,59,202657,2,0,P|326:114|351:201,1,115
429,321,202808,6,0,L|473:331,7,43.1250016450883,2|0|0|0|0|0|0|0,0:0|0:0|0:0|0:0|0:0|0:0|0:0|0:0,0:0:0:0:
407,308,203110,38,0,B|341:272|292:343|292:343|190:353|169:273|169:273|270:252,1,345,12|0,0:0|0:0,0:0:0:0:
379,221,203411,2,0,B|491:278|513:203|494:153|394:120|401:336|205:152,1,345,2|0,0:0|0:0,0:0:0:0:
56,81,203713,2,0,B|48:30|48:30|160:38|160:38|82:300|82:300|72:218,1,517.500019741059,8|0,0:0|0:0,0:0:0:0:
251,85,204014,2,0,B|322:129|322:129|254:238,1,172.500006580353,2|0,0:0|0:0,0:0:0:0:
275,204,204165,2,0,B|203:159|203:159|271:50,1,172.500006580353
376,38,204316,6,0,B|453:6|453:6|506:115|340:148|434:280,1,345,12|0,0:0|0:0,0:0:0:0:
495,365,204617,38,0,L|341:348,1,115,2|0,0:0|0:0,0:0:0:0:
258,338,204768,2,0,L|104:321,1,115
109,221,204919,6,0,B|43:202|3:248|3:248|82:291|111:179|221:259,1,345,8|0,0:0|0:0,0:0:0:0:
495,365,205220,38,0,L|341:348,1,115,2|0,0:0|0:0,0:0:0:0:
258,338,205371,2,0,L|104:321,1,115
497,362,205522,2,0,L|343:345,1,115,8|0,0:0|0:0,0:0:0:0:
260,335,205673,2,0,L|106:318,1,115
109,221,205823,6,0,B|43:202|3:248|3:248|77:277|161:263|191:104,1,345,2|0,0:0|0:0,0:0:0:0:
146,47,206125,2,0,B|105:13|38:48|110:156|321:16,1,230,8|0,0:0|0:0,0:0:0:0:
403,169,206351,2,0,B|444:203|511:168|439:60|228:200,1,230,8|0,0:0|0:0,0:0:0:0:
109,221,206577,2,0,P|163:208|214:233,1,115,8|0,0:0|0:0,0:0:0:0:
364,371,206728,38,0,B|404:301|404:301|266:249|289:375|146:306,1,345,8|0,0:0|0:0,0:0:0:0:
33,199,207029,6,0,L|43:345,1,115,2|0,0:0|0:0,0:0:0:0:
17,0,207180,2,0,L|27:146,1,115
214,233,207331,38,0,B|243:209|279:209|279:209|268:160|164:113|103:204|123:277|192:303,1,345,8|0,0:0|0:0,0:0:0:0:
33,199,207632,6,0,L|43:345,1,115,2|0,0:0|0:0,0:0:0:0:
17,0,207783,2,0,L|27:146,1,115
29,200,207934,2,0,L|39:346,1,115,8|0,0:0|0:0,0:0:0:0:
13,1,208085,2,0,L|23:147,1,115
214,233,208235,38,0,B|243:209|279:209|279:209|268:160|164:113|103:204|123:277|192:303,1,345,2|0,0:0|0:0,0:0:0:0:
447,246,208537,6,0,L|457:140,1,86.25,12|0,0:0|0:0,0:0:0:0:
354,35,208838,1,0,0:0:0:0:
356,46,208914,1,0,0:0:0:0:
358,57,208989,1,0,0:0:0:0:
360,68,209065,1,0,0:0:0:0:
362,79,209140,37,8,0:0:0:0:
285,261,209290,1,0,0:0:0:0:
207,54,209441,1,2,0:0:0:0:
290,275,209592,1,0,0:0:0:0:
111,201,209743,6,0,P|44:194|-13:246,1,115,8|0,0:0|0:0,0:0:0:0:
192,366,209893,2,0,P|198:299|146:241,1,115
274,170,210044,38,0,P|267:236|319:294,1,115,2|0,0:0|0:0,0:0:0:0:
439,89,210195,2,0,P|372:82|314:134,1,115
414,232,210346,5,12,0:0:0:0:
475,16,210496,1,0,0:0:0:0:
411,239,210647,1,2,0:0:0:0:
408,246,210723,1,0,0:0:0:0:
405,253,210798,1,0,0:0:0:0:
472,178,210949,37,8,0:0:0:0:
434,259,211025,1,8,0:0:0:0:
396,347,211100,1,8,0:0:0:0:
281,181,211250,2,8,P|217:151|143:214,1,115,2|8,0:0|0:0,0:0:0:0:
203,336,211401,2,0,P|233:272|170:198,1,115
51,255,211552,6,0,P|115:285|189:222,1,115,8|0,0:0|0:0,0:0:0:0:
177,163,211703,2,0,P|113:133|39:196,1,115
47,262,211853,2,0,P|126:283|198:196,1,115,8|0,0:0|0:0,0:0:0:0:
180,156,212004,2,0,P|100:134|28:221,1,115
45,275,212155,2,0,P|132:283|191:178,1,115,8|0,0:0|0:0,0:0:0:0:
181,141,212306,2,0,P|93:133|34:237,1,115
298,348,212456,37,2,0:0:0:0:
359,350,212531,1,2,0:0:0:0:
418,298,212606,1,2,0:0:0:0:
450,193,212682,1,2,0:0:0:0:
418,64,212757,5,14,0:0:0:0:
347,182,213512,6,0,P|287:174|211:251,1,115,8|0,0:0|0:0,0:0:0:0:
131,338,213662,2,0,P|167:290|139:185,1,115,2|0,0:0|0:0,0:0:0:0:
103,73,213813,2,0,P|126:128|230:156,1,115,8|0,0:0|0:0,0:0:0:0:
495,112,213964,37,12,0:0:0:0:
495,112,214265,2,0,P|466:209|493:250,1,115,2|0,0:0|0:0,0:0:0:0:
488,327,214416,2,0,P|391:298|350:325,1,115
193,324,214566,37,8,0:0:0:0:
177,334,214642,2,0,P|235:360|302:331,1,115
283,141,214792,1,0,0:0:0:0:
293,125,214868,2,0,L|306:260,1,115,2|0,0:0|0:0,0:0:0:0:
93,216,215019,2,0,L|226:208,1,115
363,61,215170,6,0,B|340:30|288:17|249:57|249:57|243:64|243:64|253:71|253:71|290:96|281:178,1,230,8|0,0:0|0:0,0:0:0:0:
383,300,215396,1,0,0:0:0:0:
398,308,215471,2,0,L|380:170,1,115,2|0,0:0|0:0,0:0:0:0:
208,135,215622,1,0,0:0:0:0:
139,169,215697,1,0,0:0:0:0:
69,204,215772,37,8,0:0:0:0:
55,213,215848,2,0,L|49:98,1,115
207,209,215999,2,0,L|214:323,1,115,0|2,0:0|0:0,0:0:0:0:
422,144,216149,1,0,0:0:0:0:
434,73,216225,1,0,0:0:0:0:
363,61,216300,1,0,0:0:0:0:
351,131,216375,6,0,L|340:256,1,115,8|0,0:0|0:0,0:0:0:0:
298,355,216526,1,0,0:0:0:0:
287,361,216602,1,0,0:0:0:0:
274,367,216677,2,0,L|159:373,1,115,2|0,0:0|0:0,0:0:0:0:
12,292,216828,2,0,L|126:285,1,115
206,105,216978,1,8,0:0:0:0:
215,94,217054,2,0,L|206:214,1,115
22,108,217205,2,0,P|70:79|123:96,1,115,0|2,0:0|0:0,0:0:0:0:
354,285,217355,1,0,0:0:0:0:
358,216,217431,1,0,0:0:0:0:
362,147,217506,1,0,0:0:0:0:
365,78,217582,38,0,B|368:16|368:16|272:41|293:155,1,230,8|0,0:0|0:0,0:0:0:0:
364,296,217813,2,0,B|272:291|272:291|257:282|257:282|242:290|242:290|90:284,1,230,8|0,0:0|0:0,0:0:0:0:
79,332,218034,2,0,P|61:278|144:219,1,115,8|0,0:0|0:0,0:0:0:0:
291,144,218184,5,8,0:0:0:0:
291,144,218260,1,0,0:0:0:0:
290,150,218335,1,0,0:0:0:0:
289,156,218411,1,0,0:0:0:0:
228,123,218486,1,2,0:0:0:0:
159,114,218562,1,0,0:0:0:0:
95,140,218637,1,0,0:0:0:0:
48,192,218713,1,0,0:0:0:0:
25,255,218787,38,0,B|3:317|3:317|103:341|59:248|224:298,1,230,8|0,0:0|0:0,0:0:0:0:
361,339,219014,1,0,0:0:0:0:
341,347,219089,1,2,0:0:0:0:
354,266,219164,1,0,0:0:0:0:
367,185,219240,2,0,L|391:46,1,115
267,67,219390,5,8,0:0:0:0:
275,48,219466,2,0,P|298:98|258:190,1,115
132,197,219617,1,0,0:0:0:0:
115,184,219693,2,0,P|120:238|214:280,1,115,2|0,0:0|0:0,0:0:0:0:
354,266,219843,2,0,P|299:271|264:373,1,115
111,356,219994,38,0,L|399:344,1,230,8|0,0:0|0:0,0:0:0:0:
466,178,220220,1,0,0:0:0:0:
460,163,220295,2,0,P|441:230|470:356,1,115,2|0,0:0|0:0,0:0:0:0:
261,313,220446,1,0,0:0:0:0:
254,296,220521,1,0,0:0:0:0:
245,275,220597,1,8,0:0:0:0:
253,249,220672,2,0,B|260:113,1,115
27,91,220823,2,0,B|32:205,1,115,0|2,0:0|0:0,0:0:0:0:
110,331,220973,5,0,0:0:0:0:
169,377,221049,1,0,0:0:0:0:
184,305,221124,1,0,0:0:0:0:
86,261,221200,38,0,P|44:293|66:389,1,115,8|0,0:0|0:0,0:0:0:0:
348,366,221351,1,0,0:0:0:0:
357,366,221426,1,0,0:0:0:0:
366,366,221502,2,0,P|373:313|289:261,1,115,2|0,0:0|0:0,0:0:0:0:
223,95,221652,2,0,P|215:147|299:199,1,115
424,168,221803,1,8,0:0:0:0:
413,153,221878,1,0,0:0:0:0:
399,141,221953,2,0,P|333:118|258:168,1,115
86,261,222105,6,0,L|106:345,1,86.25,2|0,0:0|0:0,0:0:0:0:
111,355,222406,37,8,0:0:0:0:
36,64,222557,6,0,L|76:232,1,115
239,305,222708,2,0,B|293:296|318:253|318:253|181:169|35:299,1,345,2|0,0:0|0:0,0:0:0:0:
196,378,223009,2,0,L|373:385,1,115,8|0,0:0|0:0,0:0:0:0:
474,254,223160,37,0,0:0:0:0:
466,257,223235,1,0,0:0:0:0:
458,260,223311,1,0,0:0:0:0:
450,263,223386,1,0,0:0:0:0:
442,266,223462,1,0,0:0:0:0:
434,269,223537,1,0,0:0:0:0:
403,290,223612,6,0,B|380:204|380:204|400:164|400:164|372:44,1,230,12|0,0:0|0:0,0:0:0:0:
123,98,223838,1,0,0:0:0:0:
116,119,223914,1,2,0:0:0:0:
200,106,223989,1,0,0:0:0:0:
284,93,224064,2,0,L|260:250,1,115
53,249,224215,37,8,0:0:0:0:
37,259,224291,2,0,P|95:285|162:256,1,115
123,98,224441,1,0,0:0:0:0:
113,82,224517,2,0,L|100:217,1,115,2|0,0:0|0:0,0:0:0:0:
203,326,224668,2,0,L|336:318,1,115
467,137,224818,6,0,B|369:101|369:101|396:317,1,230,8|0,0:0|0:0,0:0:0:0:
461,340,225045,1,0,0:0:0:0:
476,348,225120,2,0,L|462:207,1,115,2|0,0:0|0:0,0:0:0:0:
258,57,225271,1,0,0:0:0:0:
224,126,225346,1,0,0:0:0:0:
189,196,225421,37,8,0:0:0:0:
180,210,225497,2,0,B|242:201|294:251|258:361|126:364,1,230
40,206,225723,2,0,B|132:115|34:46|-31:160|-6:288|114:368,1,345,2|0,0:0|0:0,0:0:0:0:
180,354,226024,6,0,L|438:339,1,241.499992630005,4|0,0:0|0:0,0:0:0:0:
472,189,226251,1,0,0:0:0:0:
479,177,226326,2,0,P|406:148|240:237,1,241.499992630005,2|0,0:0|0:0,0:0:0:0:
17,80,226552,1,0,0:0:0:0:
10,68,226627,2,0,P|83:39|249:128,1,241.499992630005,8|0,0:0|0:0,0:0:0:0:
416,324,226853,1,0,0:0:0:0:
421,339,226929,2,0,B|328:356|328:356|307:247|441:165,1,241.499992630005,2|0,0:0|0:0,0:0:0:0:
494,101,227155,1,0,0:0:0:0:
503,90,227230,38,0,B|536:6|382:-18|364:110|472:231|472:231|470:105,1,379.500011581421,8|0,0:0|0:0,0:0:0:0:
227,95,227532,2,0,B|155:70|108:88|108:88|241:38|344:153,1,379.500011581421,2|0,0:0|0:0,0:0:0:0:
426,297,227833,5,8,0:0:0:0:
423,309,227909,1,0,0:0:0:0:
420,321,227984,1,0,0:0:0:0:
417,333,228059,1,0,0:0:0:0:
414,346,228135,37,2,0:0:0:0:
338,343,228210,1,0,0:0:0:0:
272,305,228285,1,0,0:0:0:0:
237,236,228361,1,0,0:0:0:0:
253,158,228436,5,8,0:0:0:0:
448,75,228587,1,0,0:0:0:0:
417,333,228738,1,2,0:0:0:0:
271,74,228888,1,0,0:0:0:0:
204,322,229039,1,8,0:0:0:0:
453,245,229190,1,0,0:0:0:0:
185,175,229341,1,2,0:0:0:0:
448,75,229491,1,0,0:0:0:0:
417,333,229642,37,8,0:0:0:0:
136,257,229793,1,8,0:0:0:0:
408,166,229944,1,2,0:0:0:0:
194,56,230094,1,0,0:0:0:0:
310,329,230245,1,8,0:0:0:0:
358,44,230396,1,0,0:0:0:0:
79,144,230547,1,2,0:0:0:0:
357,252,230698,1,0,0:0:0:0:
194,56,230848,5,8,0:0:0:0:
156,34,230924,1,0,0:0:0:0:
113,36,230999,1,0,0:0:0:0:
80,64,231074,1,0,0:0:0:0:
63,104,231150,1,2,0:0:0:0:
66,161,231225,1,0,0:0:0:0:
98,208,231301,1,0,0:0:0:0:
165,232,231376,1,0,0:0:0:0:
234,213,231451,37,8,0:0:0:0:
285,161,231527,1,0,0:0:0:0:
356,127,231602,1,0,0:0:0:0:
438,150,231677,1,0,0:0:0:0:
496,232,231753,1,2,0:0:0:0:
470,329,231828,1,0,0:0:0:0:
380,384,231904,1,0,0:0:0:0:
280,369,231979,1,0,0:0:0:0:
218,289,232054,5,12,0:0:0:0:
52,307,232959,38,0,L|242:289,1,143.75,8|0,0:0|0:0,0:0:0:0:
482,262,233110,2,0,L|338:275,1,143.75,8|0,0:0|0:0,0:0:0:0:
63,222,233260,6,0,B|34:133|34:133|168:112|110:209|260:169,1,310.499990524292,8|0,0:0|0:0,0:0:0:0:
448,58,233562,1,2,0:0:0:0:
451,46,233637,1,0,0:0:0:0:
454,34,233713,2,0,P|475:66|479:137,1,103.499996841431
296,285,233863,2,0,P|347:284|392:259,1,103.499996841431,8|0,0:0|0:0,0:0:0:0:
365,51,234014,38,0,P|334:38|356:62,1,86.25
365,51,234316,6,0,P|302:36|245:66,1,103.499996841431
153,241,234466,38,0,B|157:186|157:186|145:119,1,103.499996841431,8|0,0:0|0:0,0:0:0:0:
143,35,234617,2,0,B|139:90|139:90|151:157,1,103.499996841431
296,285,234768,2,0,B|320:254|363:255|363:255|298:155|185:235|200:308|263:357,1,310.499990524292,2|0,0:0|0:0,0:0:0:0:
359,333,235069,6,0,B|403:329|403:329|407:324|407:324|411:328|411:328|480:323,2,103.499996841431,8|0|0,0:0|0:0|0:0,0:0:0:0:
58,353,235295,1,0,0:0:0:0:
52,356,235371,2,0,B|99:352|99:352|103:356|103:356|107:351|107:351|151:347,1,103.499996841431,2|0,0:0|0:0,0:0:0:0:
332,195,235522,2,0,P|299:234|296:285,1,103.499996841431
153,241,235672,38,0,B|177:213|224:219|224:219|115:128|125:304|-19:204,1,310.499990524292,8|0,0:0|0:0,0:0:0:0:
132,113,235974,1,2,0:0:0:0:
137,121,236049,1,0,0:0:0:0:
142,129,236125,1,0,0:0:0:0:
147,137,236200,1,0,0:0:0:0:
216,181,236275,2,0,P|229:131|196:69,1,103.499996841431,8|0,0:0|0:0,0:0:0:0:
26,26,236426,6,0,P|14:69|43:124,1,86.25
27,107,236728,38,0,L|217:112,1,103.499996841431
312,176,236878,6,0,P|262:163|200:196,1,103.499996841431,8|0,0:0|0:0,0:0:0:0:
375,348,237029,2,0,P|397:302|389:252,1,103.499996841431
237,300,237180,2,0,B|277:302|310:259|310:259|261:348|148:331|116:236,1,310.499990524292,2|0,0:0|0:0,0:0:0:0:
130,109,237481,38,0,B|172:72|251:99,2,103.499996841431,8|0|0,0:0|0:0|0:0,0:0:0:0:
20,302,237707,1,0,0:0:0:0:
24,308,237783,2,0,B|20:261|20:261|22:252|22:252|17:176,1,103.499996841431,2|0,0:0|0:0,0:0:0:0:
86,37,237934,2,0,P|53:76|50:127,1,103.499996841431
212,226,238084,6,0,B|125:191|125:191|114:256|144:289|144:289|140:300|140:300|151:297|151:297|188:340|279:320,1,310.499990524292,8|0,0:0|0:0,0:0:0:0:
381,220,238386,1,2,0:0:0:0:
376,212,238461,1,0,0:0:0:0:
371,204,238537,1,0,0:0:0:0:
366,196,238612,1,0,0:0:0:0:
297,152,238687,2,0,P|284:202|317:264,1,103.499996841431,8|0,0:0|0:0,0:0:0:0:
148,336,238838,38,0,P|192:324|247:329,1,86.25
232,325,239140,6,0,P|191:311|82:348,1,103.499996841431
14,238,239290,38,0,P|64:225|126:258,1,103.499996841431,8|0,0:0|0:0,0:0:0:0:
135,146,239441,2,0,P|179:172|198:240,1,103.499996841431
301,356,239592,2,0,B|368:324|368:324|107:315,1,310.499990524292,2|0,0:0|0:0,0:0:0:0:
315,236,239893,6,0,B|436:210,2,103.499996841431,8|0|0,0:0|0:0|0:0,0:0:0:0:
135,146,240120,1,0,0:0:0:0:
130,137,240195,2,0,B|231:158,1,103.499996841431,2|0,0:0|0:0,0:0:0:0:
353,60,240346,2,0,P|320:99|317:150,1,103.499996841431
466,334,240496,38,0,L|363:321,1,103.499996841431,8|0,0:0|0:0,0:0:0:0:
181,294,240647,1,0,0:0:0:0:
466,308,240798,2,0,L|363:320,1,103.499996841431,2|0,0:0|0:0,0:0:0:0:
120,355,240949,1,0,0:0:0:0:
363,320,241100,1,8,0:0:0:0:
90,243,241250,2,0,L|100:140,1,103.499996841431
112,123,241401,2,0,L|98:277,1,103.499996841431,2|0,0:0|0:0,0:0:0:0:
273,355,241552,2,0,L|263:251,1,103.499996841431
252,61,241703,6,0,L|249:24,12,25.8749992103577,8|0|0|0|0|0|0|0|0|0|0|0|0,0:0|0:0|0:0|0:0|0:0|0:0|0:0|0:0|0:0|0:0|0:0|0:0|0:0,0:0:0:0:
311,100,242004,2,0,P|260:132|185:67,1,103.499996841431,2|0,0:0|0:0,0:0:0:0:
88,32,242155,2,0,P|120:83|55:158,1,103.499996841431
179,215,242306,38,0,L|175:271,6,51.7499984207154,8|0|0|0|0|0|0,0:0|0:1|0:1|0:1|0:1|0:1|0:1,0:1:0:0:
90,238,242607,2,0,L|91:263,12,25.8749992103577,2|0|0|0|0|0|0|0|0|0|0|0|0,0:1|0:1|0:1|0:1|0:1|0:1|0:1|0:1|0:1|0:1|0:1|0:1|0:1,0:1:0:0:
18,300,242909,6,0,B|168:387|169:235|325:308,1,310.499990524292,8|0,0:0|0:0,0:0:0:0:
450,284,243211,1,2,0:0:0:0:
462,281,243286,1,0,0:0:0:0:
474,278,243362,2,0,P|442:257|371:253,1,103.499996841431
255,194,243512,2,0,P|306:193|351:168,1,103.499996841431,8|0,0:0|0:0,0:0:0:0:
452,80,243662,38,0,L|440:169,1,86.25
446,76,243964,2,0,L|434:165,1,86.25
252,294,244115,6,0,B|279:235|244:172,1,103.499996841431,8|0,0:0|0:0,0:0:0:0:
353,67,244265,2,0,B|326:126|361:189,1,103.499996841431
192,149,244417,2,0,B|216:118|259:119|259:119|194:19|81:99|96:172|159:221,1,310.499990524292,2|0,0:0|0:0,0:0:0:0:
252,294,244718,38,0,B|288:307|288:307|372:289,2,103.499996841431,8|0|0,0:0|0:0|0:0,0:0:0:0:
70,268,244944,1,0,0:0:0:0:
64,271,245020,2,0,B|190:258,1,103.499996841431,2|0,0:0|0:0,0:0:0:0:
310,383,245170,2,0,B|207:372,1,103.499996841431
64,271,245321,6,0,B|17:232|22:177|22:177|-3:313|115:343,1,310.499990524292,8|0,0:0|0:0,0:0:0:0:
284,222,245622,1,2,0:0:0:0:
281,210,245697,1,0,0:0:0:0:
278,198,245773,2,0,P|257:230|253:301,1,103.499996841431
350,293,245923,2,0,P|395:268|447:267,1,103.499996841431,8|0,0:0|0:0,0:0:0:0:
364,99,246074,38,0,P|352:142|381:197,1,86.25
375,61,246377,2,0,P|341:144|347:189,1,103.499996841431
202,226,246527,6,0,L|209:116,1,103.499996841431,8|0,0:0|0:0,0:0:0:0:
215,19,246677,2,0,L|208:122,1,103.499996841431
237,300,246829,2,0,B|277:302|310:259|310:259|261:348|148:331|116:236,1,310.499990524292,2|0,0:0|0:0,0:0:0:0:
106,116,247130,38,0,B|118:7,2,103.499996841431,8|0|0,0:0|0:0|0:0,0:0:0:0:
43,300,247356,1,0,0:0:0:0:
38,310,247431,2,0,B|26:207,1,103.499996841431,2|0,0:0|0:0,0:0:0:0:
124,9,247582,2,0,B|113:112,1,103.499996841431
225,242,247733,5,8,0:0:0:0:
269,285,247808,1,0,0:0:0:0:
330,286,247883,1,0,0:0:0:0:
379,248,247959,1,0,0:0:0:0:
393,188,248034,38,0,L|375:49,1,103.499996841431,2|0,0:0|0:0,0:0:0:0:
242,43,248185,2,0,L|255:145,1,103.499996841431
398,188,248336,2,0,L|380:49,1,103.499996841431,8|0,0:0|0:0,0:0:0:0:
237,43,248487,2,0,L|250:145,1,103.499996841431
403,188,248637,2,0,L|385:49,1,103.499996841431,2|0,0:0|0:0,0:0:0:0:
232,43,248788,2,0,L|245:145,1,103.499996841431
464,50,248939,5,8,0:0:0:0:
420,7,249014,1,0,0:0:0:0:
359,6,249089,1,0,0:0:0:0:
310,44,249165,1,0,0:0:0:0:
289,102,249240,1,2,0:0:0:0:
245,145,249315,1,0,0:0:0:0:
184,146,249390,1,0,0:0:0:0:
135,108,249466,1,0,0:0:0:0:
112,49,249542,38,0,L|119:193,1,103.499996841431,8|0,0:0|0:0,0:0:0:0:
175,327,249692,2,0,L|169:223,1,103.499996841431
110,44,249843,2,0,L|117:188,1,103.499996841431,2|0,0:0|0:0,0:0:0:0:
177,332,249993,2,0,L|171:228,1,103.499996841431
30,169,250145,6,0,L|62:209,7,51.7499984207154,8|0|0|0|0|0|0|0,0:0|0:0|0:0|0:0|0:0|0:0|0:0|0:0,0:0:0:0:
8,259,250446,2,0,L|78:295,7,51.7499984207154,2|0|0|0|0|0|0|0,0:0|0:0|0:0|0:0|0:0|0:0|0:0|0:0,0:0:0:0:
34,356,250748,2,0,L|96:351,6,51.7499984207154,8|0|0|0|0|0|0,0:0|0:0|0:0|0:0|0:0|0:0|0:0,0:0:0:0:
222,317,251049,37,2,0:0:0:0:
248,248,251125,1,0,0:0:0:0:
235,177,251200,1,0,0:0:0:0:
183,126,251275,1,0,0:0:0:0:
98,137,251351,6,8,P|80:159|110:146,1,86.25,12|8,0:0|0:0,0:0:0:0:
273,21,252557,5,10,0:0:0:0:
