osu file format v14

[General]
AudioFilename: audio.mp3
AudioLeadIn: 0
PreviewTime: 194667
Countdown: 0
SampleSet: None
StackLeniency: 0.2
Mode: 0
LetterboxInBreaks: 0
WidescreenStoryboard: 1

[Editor]
Bookmarks: 20999,40295,59592,78888,98185,117331,136627,156074,175371,194667,214265,233260,252557
DistanceSpacing: 0.6
BeatDivisor: 4
GridSize: 32
TimelineZoom: 4.799997

[Metadata]
Title:NUCLEAR-STAR
TitleUnicode:NUCLEAR-STAR
Artist:Camellia
ArtistUnicode:かめりあ
Creator:PoNo
Version:RU vs RE : COLLAB
Source:
Tags:crystallized cametek dubstep melodic drumstep kamel artcore
BeatmapID:1440397
BeatmapSetID:642212

[Difficulty]
HPDrainRate:5
CircleSize:4
OverallDifficulty:8.5
ApproachRate:9.5
SliderMultiplier:1.59999990463257
SliderTickRate:1

[Events]
//Background and Video events
0,0,"BG.jpg",0,0
//Break Periods
2,156274,165198
//Storyboard Layer 0 (Background)
//Storyboard Layer 1 (Fail)
//Storyboard Layer 2 (Pass)
//Storyboard Layer 3 (Foreground)
//Storyboard Sound Samples

[TimingPoints]
497,301.507537688442,4,1,1,100,1,0
20999,301.507537688442,4,3,1,80,1,0
20999,-303.030303030303,4,3,1,80,0,0
25823,-181.818181818182,4,3,1,80,0,0
28687,-303.030303030303,4,3,1,80,0,0
29140,-181.818181818182,4,3,1,100,0,0
29441,-181.818181818182,4,3,1,80,0,0
30647,-120.481927710843,4,3,1,80,0,0
34868,-106.382978723404,4,3,1,80,0,0
35471,-120.481927710843,4,3,1,70,0,0
35773,-90.9090909090909,4,3,1,70,0,0
36074,-120.481927710843,4,3,1,70,0,0
36376,-90.9090909090909,4,3,1,70,0,0
37883,-75.7575757575758,4,3,1,70,0,0
38336,-69.9300699300699,4,3,1,70,0,0
38788,-82.6446280991736,4,3,1,70,0,0
39692,-454.545454545455,4,3,1,70,0,0
39994,-50,4,3,1,70,0,0
40295,-100,4,3,1,70,0,0
40748,-125,4,3,1,70,0,0
41502,-100,4,3,1,70,0,0
43160,-200,4,3,1,70,0,0
44818,-100,4,3,1,70,0,0
45120,-100,4,3,1,70,0,0
49944,-100,4,3,1,70,0,0
51150,-100,4,3,1,70,0,0
52356,-100,4,3,1,70,0,0
53562,-100,4,3,1,70,0,0
57180,-100,4,3,1,15,0,0
58687,-100,4,3,1,15,0,0
58989,-90.9090909090909,4,3,1,70,0,0
59592,-69.9300699300699,4,3,1,70,0,0
62306,-53.475935828877,4,3,1,70,0,0
62607,-69.9300699300699,4,3,1,70,0,0
63210,-90.9090909090909,4,3,1,70,0,0
63813,-75.7575757575758,4,3,1,70,0,0
64115,-53.475935828877,4,3,1,70,0,0
64416,-75.7575757575758,4,3,1,70,0,0
67733,-53.475935828877,4,3,1,70,0,0
68034,-75.7575757575758,4,3,1,70,0,0
68939,-71.9424460431655,4,3,1,70,0,0
69240,-69.9300699300699,4,3,1,70,0,0
74064,-75.7575757575758,4,3,1,70,0,0
76476,-62.111801242236,4,3,1,70,0,0
77682,-90.9090909090909,4,3,1,70,0,0
78888,-90.9090909090909,4,3,1,70,0,0
82959,-62.5,4,3,1,70,0,0
83713,-90.9090909090909,4,3,1,70,0,0
87029,-100,4,3,1,70,0,0
87331,-133.333333333333,4,3,1,70,0,0
87632,-100,4,3,1,70,0,0
87934,-100,4,3,1,70,0,0
88235,-100,4,3,1,70,0,0
88537,-100,4,3,1,70,0,0
88838,-60.6060606060606,4,3,1,70,0,0
90195,-50,4,3,1,70,0,0
90647,-90.9090909090909,4,3,1,70,0,0
90949,-60.6060606060606,4,3,1,70,0,0
92456,-90.9090909090909,4,3,1,70,0,0
92758,-100,4,3,1,70,0,0
93059,-50,4,3,1,70,0,0
93361,-133.333333333333,4,3,1,70,0,0
94265,-60.6060606060606,4,3,1,70,0,0
94567,-133.333333333333,4,3,1,70,0,0
95170,-90.9090909090909,4,3,1,70,0,0
95471,-60.6060606060606,4,3,1,70,0,0
95773,-50,4,3,1,70,0,0
97582,-100,4,3,1,20,0,0
98184,-90.9090909090909,4,3,1,20,0,0
98185,-90.9090909090909,4,3,1,70,0,0
101200,-75.7575757575758,4,3,1,70,0,98184
101803,-90.9090909090909,4,3,1,70,0,98184
115069,-71.9424460431655,4,3,1,70,0,0
116275,-131.578947368421,4,3,1,70,0,0
117330,-82.6446280991736,4,3,1,70,0,0
117331,-40,4,3,1,70,0,0
118235,-1000,4,3,1,70,0,0
119140,-40,4,3,1,70,0,0
119893,-33.3333333333333,4,3,1,70,0,0
119912,-33.3333333333333,4,3,1,30,0,0
120195,-33.3333333333333,4,3,1,70,0,0
122023,-33.3333333333333,4,3,1,20,0,0
122306,-40,4,3,1,70,0,0
123059,-1000,4,3,1,70,0,0
123964,-40,4,3,1,70,0,0
124718,-25,4,3,1,70,0,0
124736,-25,4,3,1,20,0,0
125019,-25,4,3,1,70,0,0
125321,-33.3333333333333,4,3,1,70,0,0
125471,-1000,4,3,1,70,0,0
125924,-25,4,3,1,70,0,0
125942,-25,4,3,1,40,0,0
126225,-25,4,3,1,70,0,0
126527,-50,4,3,1,70,0,0
126828,-50,4,3,1,20,0,0
127130,-40,4,3,1,70,0,0
127883,-1000,4,3,1,70,0,0
128788,-40,4,3,1,70,0,0
129542,-33.3333333333333,4,3,1,70,0,0
131671,-33.3333333333333,4,3,1,20,0,0
131954,-50,4,3,1,70,0,0
132557,-33.3333333333333,4,3,1,70,0,0
134667,-100,4,3,1,70,0,0
134969,-100,4,3,1,70,0,0
135270,-100,4,3,1,70,0,0
135572,-100,4,3,1,70,0,0
136325,-76.9230769230769,4,3,1,70,0,0
136777,-83.3333333333333,4,3,1,70,0,0
137230,-76.9230769230769,4,3,1,70,0,0
137380,-66.6666666666667,4,3,1,70,0,0
137682,-76.9230769230769,4,3,1,70,0,0
138586,-68.9655172413793,4,3,1,70,0,0
139189,-59.1715976331361,4,3,1,70,0,0
139491,-76.9230769230769,4,3,1,70,0,0
139792,-68.4931506849315,4,3,1,70,0,0
140094,-76.9230769230769,4,3,1,70,0,0
141903,-58.8235294117647,4,3,1,70,0,0
142205,-68.9655172413793,4,3,1,70,0,0
142808,-66.6666666666667,4,3,1,70,0,0
143128,-66.6666666666667,4,3,1,20,0,0
143411,-71.4285714285714,4,3,1,70,0,0
144315,-55.5555555555556,4,3,1,70,0,0
144918,-71.4285714285714,4,3,1,70,0,0
145823,-100,4,3,1,70,0,0
146426,-68.0272108843537,4,3,1,70,0,0
147632,-66.6666666666667,4,3,1,70,0,0
147953,-66.6666666666667,4,3,1,20,0,0
148084,-59.5238095238095,4,3,1,20,0,0
148235,-59.5238095238095,4,3,1,70,0,0
154868,-76.9230769230769,4,3,1,70,0,0
154887,-76.9230769230769,4,3,1,20,0,0
155471,-76.9230769230769,4,3,1,60,0,0
156074,-76.9230769230769,4,3,1,70,0,0
165723,-200,4,3,1,70,0,0
173411,-100,4,3,1,70,0,0
175370,-88.4955752212389,4,3,1,70,0,0
191652,-63.4920634920635,4,3,1,70,0,0
194667,-40,4,3,1,70,0,1
204316,-40,4,3,1,70,0,1
208537,-40,4,3,1,70,0,1
208838,-40,4,3,1,70,0,1
209140,-40,4,3,1,70,0,1
211401,-33.3333333333333,4,3,1,70,0,1
212757,-125,4,3,1,70,0,1
213963,-62.5,4,3,1,70,0,0
214265,-40,4,3,1,70,0,1
232054,-100,4,3,1,70,0,0
232958,-40,4,3,1,70,0,1
233260,-60.6060606060606,4,3,1,70,0,0
234466,-50,4,3,1,70,0,0
235069,-60.6060606060606,4,3,1,70,0,0
236275,-50,4,3,1,70,0,0
237783,-60.6060606060606,4,3,1,70,0,0
239290,-50,4,3,1,70,0,0
240195,-60.6060606060606,4,3,1,70,0,0
240496,-50,4,3,1,70,0,0
241401,-33.3333333333333,4,3,1,70,0,0
241703,-33.3333333333333,4,3,1,10,0,0
242004,-33.3333333333333,4,3,1,70,0,0
242306,-60.6060606060606,4,3,1,40,0,0
242607,-60.6060606060606,4,3,1,10,0,0
242909,-60.6060606060606,4,3,1,70,0,0
244115,-50,4,3,1,70,0,0
244718,-60.6060606060606,4,3,1,70,0,0
245924,-50,4,3,1,70,0,0
247733,-100,4,3,1,70,0,0
248939,-60.6060606060606,4,3,1,70,0,0
250144,-71.4285714285714,4,3,1,70,0,0

[Colours]
Combo1 : 192,192,192
Combo2 : 255,43,255
Combo3 : 43,255,255
Combo4 : 255,255,255

[HitObjects]
33,212,20999,6,0,L|40:272,1,52.7999955276491,0|0,0:0|0:0,0:0:0:0:
35,344,21451,2,0,L|41:291,1,52.7999955276491,0|0,0:0|0:0,0:0:0:0:
126,275,21904,1,0,0:0:0:0:
126,275,22054,1,0,0:0:0:0:
231,223,22205,6,0,P|228:249|220:274,1,52.7999955276491,0|0,0:0|0:0,0:0:0:0:
231,325,22657,2,0,P|228:298|220:273,1,52.7999955276491,0|0,0:0|0:0,0:0:0:0:
342,268,23110,1,0,0:0:0:0:
342,268,23260,1,0,0:0:0:0:
431,192,23411,6,0,L|439:252,1,52.7999955276491,0|0,0:0|0:0,0:0:0:0:
440,286,23863,2,0,L|432:346,1,52.7999955276491,0|0,0:0|0:0,0:0:0:0:
181,187,24316,1,0,0:0:0:0:
200,272,24466,1,0,0:0:0:0:
147,343,24617,6,0,L|86:348,1,52.7999955276491,0|0,0:0|0:0,0:0:0:0:
255,335,25069,2,0,L|194:340,1,52.7999955276491,0|0,0:0|0:0,0:0:0:0:
338,325,25522,1,0,0:0:0:0:
338,325,25823,6,0,P|379:337|425:331,1,87.9999952316285,0|0,0:0|0:0,0:0:0:0:
386,246,26275,2,0,P|425:222|452:188,1,87.9999952316285,0|0,0:0|0:0,0:0:0:0:
293,108,26728,2,0,P|297:140|301:166,1,43.9999976158143,0|0,0:0|0:0,0:0:0:0:
237,41,27029,6,0,P|281:22|325:26,1,87.9999952316285,0|0,0:0|0:0,0:0:0:0:
217,117,27481,2,0,L|114:111,1,87.9999952316285,0|0,0:0|0:0,0:0:0:0:
160,230,27934,2,0,L|213:224,1,43.9999976158143,0|0,0:0|0:0,0:0:0:0:
116,87,28235,6,0,P|81:111|55:156,1,87.9999952316285,0|0,0:0|0:0,0:0:0:0:
160,230,28687,6,0,P|156:194|151:166,1,52.7999955276491,0|0,0:0|0:0,0:0:0:0:
37,331,29140,2,0,L|109:322,1,65.9999964237214,0|0,0:0|0:0,0:0:0:0:
144,330,29441,2,0,P|150:321|153:306,3,21.9999988079071,0|0|0|0,0:0|0:0|0:0|0:0,0:0:0:0:
226,258,29743,1,0,0:0:0:0:
232,260,29818,1,0,0:0:0:0:
237,263,29893,1,0,0:0:0:0:
242,267,29969,1,0,0:0:0:0:
247,270,30044,2,0,L|242:324,1,43.9999976158143,0|0,0:0|0:0,0:0:0:0:
352,308,30346,2,0,L|347:362,1,43.9999976158143,0|0,0:0|0:0,0:0:0:0:
461,120,30647,6,0,P|401:104|337:140,1,132.799994009552,0|0,0:0|0:0,0:0:0:0:
336,154,31100,2,0,P|276:170|205:125,1,132.799994009552,0|0,0:0|0:0,0:0:0:0:
199,117,31552,1,0,0:0:0:0:
206,230,31703,1,0,0:0:0:0:
206,230,31778,1,0,0:0:0:0:
206,230,31853,6,0,L|198:313,1,66.399997004776,0|0,0:0|0:0,0:0:0:0:
191,369,32155,1,0,0:0:0:0:
37,280,32306,1,0,0:0:0:0:
37,280,32456,2,0,L|47:361,1,66.399997004776,0|0,0:0|0:0,0:0:0:0:
151,122,32758,2,0,P|107:123|78:139,1,66.399997004776,0|0,0:0|0:0,0:0:0:0:
109,227,33059,5,0,0:0:0:0:
32,191,33210,1,0,0:0:0:0:
216,202,33361,5,0,0:0:0:0:
123,245,33512,1,0,0:0:0:0:
343,233,33662,5,0,0:0:0:0:
231,181,33813,1,0,0:0:0:0:
318,109,33964,1,0,0:0:0:0:
432,285,34115,1,0,0:0:0:0:
432,285,34190,1,0,0:0:0:0:
432,285,34265,6,0,P|435:328|441:358,1,66.399997004776,0|0,0:0|0:0,0:0:0:0:
445,199,34567,2,0,P|442:242|436:273,1,66.399997004776,0|0,0:0|0:0,0:0:0:0:
302,279,34868,6,0,P|305:322|312:366,1,75.1999943702699,0|0,0:0|0:0,0:0:0:0:
328,137,35170,2,0,P|327:183|321:226,1,75.1999943702699,0|0,0:0|0:0,0:0:0:0:
174,314,35471,6,0,P|141:335|100:341,1,66.399997004776,0|0,0:0|0:0,0:0:0:0:
193,235,35773,2,0,P|195:297|164:350,1,87.9999952316285,0|0,0:0|0:0,0:0:0:0:
274,97,36074,6,0,L|348:107,1,66.399997004776,0|0,0:0|0:0,0:0:0:0:
179,89,36376,2,0,L|283:79,1,87.9999952316285,0|0,0:0|0:0,0:0:0:0:
457,54,36677,5,0,0:0:0:0:
463,41,36979,1,0,0:0:0:0:
402,249,37280,5,0,0:0:0:0:
414,223,37582,2,0,P|426:277|419:312,1,87.9999952316285,0|0,0:0|0:0,0:0:0:0:
265,292,37883,6,0,B|216:221|260:151|260:151|304:173|307:222,1,211.199982110596,0|0,0:0|0:0,0:0:0:0:
271,305,38336,6,0,B|214:338|159:296|159:296|101:255|52:289,1,228.799977128602,0|0,0:0|0:0,0:0:0:0:
53,298,38788,6,0,B|74:240|35:175|35:175|5:203|3:249,1,193.599995417786,0|0,0:0|0:0,0:0:0:0:
112,158,39240,6,0,P|163:187|274:124,1,193.599995417786,0|0,0:0|0:0,0:0:0:0:
270,121,39692,6,0,L|266:88,1,30.7999991041183,0|0,0:0|0:0,0:0:0:0:
265,84,39994,6,0,L|260:42,5,39.9999976158142,0|0|0|0|0|0,0:0|0:0|0:0|0:0|0:0|0:0,0:0:0:0:
40,107,40295,5,8,0:0:0:0:
121,120,40446,1,0,0:0:0:0:
70,184,40597,1,0,0:0:0:0:
270,121,40748,5,0,0:0:0:0:
265,90,40899,1,0,0:0:0:0:
260,58,41049,1,0,0:0:0:0:
255,25,41200,1,0,0:0:0:0:
245,255,41351,5,0,0:0:0:0:
245,255,41426,1,0,0:0:0:0:
245,255,41502,1,8,0:0:0:0:
180,189,41652,1,0,0:0:0:0:
157,273,41803,1,0,0:0:0:0:
470,165,41954,5,0,0:0:0:0:
451,96,42105,1,0,0:0:0:0:
392,58,42255,1,0,0:0:0:0:
321,55,42406,1,0,0:0:0:0:
345,269,42557,5,0,0:0:0:0:
345,269,42632,1,0,0:0:0:0:
345,269,42708,1,8,0:0:0:0:
316,347,42858,1,0,0:0:0:0:
396,335,43009,1,0,0:0:0:0:
157,273,43160,5,0,0:0:0:0:
154,304,43311,1,0,0:0:0:0:
151,336,43461,1,0,0:0:0:0:
148,369,43612,1,0,0:0:0:0:
34,154,43763,5,0,0:0:0:0:
34,154,43838,1,0,0:0:0:0:
34,154,43914,1,8,0:0:0:0:
118,162,44064,1,0,0:0:0:0:
205,174,44215,1,0,0:0:0:0:
322,34,44366,5,0,0:0:0:0:
239,41,44517,1,0,0:0:0:0:
287,115,44667,5,0,0:0:0:0:
395,127,44818,1,0,0:0:0:0:
508,138,44969,1,0,0:0:0:0:
458,350,45120,6,0,P|485:275|420:206,1,159.999990463257,8|0,0:0|0:0,0:0:0:0:
309,329,45572,2,0,P|230:340|139:359,1,159.999990463257,0|0,0:0|0:0,0:0:0:0:
230,239,46024,5,0,0:0:0:0:
396,280,46175,1,0,0:0:0:0:
65,295,46326,6,0,P|33:223|69:146,1,159.999990463257,8|0,0:0|0:0,0:0:0:0:
162,0,46778,2,0,P|168:84|180:167,1,159.999990463257,0|0,0:0|0:0,0:0:0:0:
42,69,47230,5,0,0:0:0:0:
123,230,47381,1,0,0:0:0:0:
391,159,47532,6,0,P|338:94|251:93,1,159.999990463257,8|0,0:0|0:0,0:0:0:0:
469,245,47984,2,0,P|478:166|494:79,1,159.999990463257,0|0,0:0|0:0,0:0:0:0:
419,0,48436,6,0,L|415:64,1,39.9999976158142,0|0,0:0|0:0,0:0:0:0:
316,199,48587,6,0,B|195:186|254:251|89:225,1,199.999988079071,0|0,0:0|0:0,0:0:0:0:
72,170,49039,6,0,L|64:117,3,39.9999976158142,0|0|0|0,0:0|0:0|0:0|0:0,0:0:0:0:
170,320,49341,6,0,L|175:376,3,39.9999976158142,0|0|0|0,0:0|0:0|0:0|0:0,0:0:0:0:
205,73,49642,6,0,L|203:20,3,39.9999976158142,0|0|0|0,0:0|0:0|0:0|0:0,0:0:0:0:
377,332,49944,5,8,0:0:0:0:
467,315,50094,1,0,0:0:0:0:
406,242,50245,1,0,0:0:0:0:
377,332,50396,1,0,0:0:0:0:
188,285,50547,5,0,0:0:0:0:
35,313,50698,1,0,0:0:0:0:
182,372,50848,5,0,0:0:0:0:
154,208,50999,1,0,0:0:0:0:
154,208,51074,1,0,0:0:0:0:
154,208,51150,1,8,0:0:0:0:
182,372,51301,5,0,0:0:0:0:
35,313,51451,1,0,0:0:0:0:
154,208,51602,1,0,0:0:0:0:
373,222,51753,5,0,0:0:0:0:
392,20,51904,1,0,0:0:0:0:
211,103,52054,5,0,0:0:0:0:
430,127,52205,1,0,0:0:0:0:
211,103,52356,5,8,0:0:0:0:
373,222,52507,1,0,0:0:0:0:
392,20,52657,1,0,0:0:0:0:
384,233,52808,1,0,0:0:0:0:
384,233,52883,1,0,0:0:0:0:
384,233,52959,5,0,0:0:0:0:
190,25,53110,1,0,0:0:0:0:
322,300,53260,5,0,0:0:0:0:
90,106,53411,1,0,0:0:0:0:
140,344,53562,5,8,0:0:0:0:
202,151,53713,1,0,0:0:0:0:
3,190,53863,1,0,0:0:0:0:
140,344,54014,1,0,0:0:0:0:
140,344,54089,1,0,0:0:0:0:
140,344,54165,5,0,0:0:0:0:
202,151,54316,1,0,0:0:0:0:
242,378,54466,5,0,0:0:0:0:
290,218,54617,1,0,0:0:0:0:
434,379,54768,5,8,0:0:0:0:
475,363,54843,1,0,0:0:0:0:
501,331,54919,1,0,0:0:0:0:
504,291,54994,1,0,0:0:0:0:
489,254,55069,1,8,0:0:0:0:
455,231,55145,1,0,0:0:0:0:
413,224,55220,1,0,0:0:0:0:
371,239,55295,1,0,0:0:0:0:
349,274,55371,6,0,L|346:340,1,39.9999976158142,8|0,0:0|0:0,0:0:0:0:
294,107,55522,2,0,L|291:41,1,39.9999976158142,0|0,0:0|0:0,0:0:0:0:
268,294,55672,6,0,L|265:360,1,39.9999976158142,8|0,0:0|0:0,0:0:0:0:
211,127,55823,2,0,L|208:61,1,39.9999976158142,0|0,0:0|0:0,0:0:0:0:
65,226,55974,5,8,0:0:0:0:
33,244,56049,1,0,0:0:0:0:
16,274,56125,1,0,0:0:0:0:
20,307,56200,1,0,0:0:0:0:
37,336,56275,1,8,0:0:0:0:
68,350,56351,1,0,0:0:0:0:
104,350,56426,1,0,0:0:0:0:
136,331,56502,1,0,0:0:0:0:
149,295,56577,6,0,L|123:292,16,19.9999988079071,8|0|0|0|0|0|0|0|0|0|0|0|0|0|0|0|4,0:0|0:0|0:0|0:0|0:0|0:0|0:0|0:0|0:0|0:0|0:0|0:0|0:0|0:0|0:0|0:0|0:0,0:0:0:0:
256,192,57255,12,0,58838,0:0:0:0:
141,242,58989,5,0,0:0:0:0:
286,216,59140,1,0,0:0:0:0:
141,242,59290,6,0,L|145:291,1,43.9999976158143,0|0,0:0|0:0,0:0:0:0:
286,216,59441,2,0,L|282:167,1,43.9999976158143,0|0,0:0|0:0,0:0:0:0:
185,45,59592,6,0,B|147:81|66:50|66:50|103:97,1,171.599982846452,12|0,0:0|0:0,0:0:0:0:
286,216,59893,2,0,B|324:180|405:211|405:211|368:164,1,171.599982846452,2|0,0:0|0:0,0:0:0:0:
393,62,60195,2,0,P|312:56|288:132,1,171.599982846452,8|0,0:0|0:0,0:0:0:0:
348,299,60496,2,0,P|354:330|351:368,1,57.1999942821506,2|0,0:0|0:0,0:0:0:0:
486,271,60647,2,0,P|486:242|492:214,1,57.1999942821506,0|0,0:0|0:0,0:0:0:0:
286,216,60798,6,0,B|164:188|218:262|96:218,1,171.599982846452,8|0,0:0|0:0,0:0:0:0:
315,132,61100,2,0,B|380:151|379:233|379:233|394:195|412:160,1,171.599982846452,2|0,0:0|0:0,0:0:0:0:
469,59,61401,2,0,B|437:68|415:91|415:91|378:47|317:44,1,171.599982846452,8|0,0:0|0:0,0:0:0:0:
286,216,61703,2,0,P|339:217|308:133,1,171.599982846452,2|0,0:0|0:0,0:0:0:0:
247,85,62004,6,0,L|180:92,1,57.1999942821506,12|0,0:0|0:0,0:0:0:0:
6,220,62155,2,0,L|73:213,1,57.1999942821506,0|0,0:0|0:0,0:0:0:0:
116,46,62306,2,0,B|99:104|130:154|130:154|157:211|133:272,1,224.399992120743,2|0,0:0|0:0,0:0:0:0:
130,283,62607,2,0,L|115:347,1,57.1999942821506,8|0,0:0|0:0,0:0:0:0:
289,299,62758,2,0,L|274:363,1,57.1999942821506,0|0,0:0|0:0,0:0:0:0:
205,130,62909,2,0,B|230:188|216:255|216:255|231:224|268:201,1,171.599982846452,2|0,0:0|0:0,0:0:0:0:
299,64,63210,6,0,B|332:57|359:36|359:36|387:63|431:78,1,131.999996160507,8|0,0:0|0:0,0:0:0:0:
476,203,63512,1,2,0:0:0:0:
480,186,63587,1,0,0:0:0:0:
484,169,63662,1,0,0:0:0:0:
452,312,63813,1,8,0:0:0:0:
290,273,63964,1,0,0:0:0:0:
452,312,64115,6,0,B|435:257|435:257|366:199|289:241|271:317,1,224.399992120743,2|0,0:0|0:0,0:0:0:0:
168,193,64416,6,0,B|109:178|109:178|119:279,1,158.399986582947,12|0,0:0|0:0,0:0:0:0:
241,356,64718,2,0,B|298:372|298:372|290:273,1,158.399986582947,2|0,0:0|0:0,0:0:0:0:
165,277,65019,2,0,B|113:286|73:256|73:256|41:262|13:291,1,158.399986582947,8|0,0:0|0:0,0:0:0:0:
142,203,65321,2,0,P|168:197|205:209,1,52.7999955276491,2|0,0:0|0:0,0:0:0:0:
190,351,65471,2,0,P|164:357|121:343,1,52.7999955276491,0|0,0:0|0:0,0:0:0:0:
300,285,65622,6,0,B|370:268|370:268|358:314|376:355,1,158.399986582947,8|0,0:0|0:0,0:0:0:0:
287,195,65924,2,0,P|230:239|230:323,1,158.399986582947,2|0,0:0|0:0,0:0:0:0:
447,373,66225,2,0,B|409:371|376:349|376:349|346:382|291:386,1,158.399986582947,8|0,0:0|0:0,0:0:0:0:
158,297,66527,2,0,B|196:299|229:322|229:322|259:288|314:284,1,158.399986582947,2|0,0:0|0:0,0:0:0:0:
427,266,66828,5,12,0:0:0:0:
303,384,66979,2,0,P|296:350|297:322,1,52.7999955276491,0|0,0:0|0:0,0:0:0:0:
427,266,67130,1,2,0:0:0:0:
282,163,67280,2,0,P|299:136|326:118,1,52.7999955276491,0|0,0:0|0:0,0:0:0:0:
446,102,67431,2,0,P|473:106|503:124,1,52.7999955276491,8|0,0:0|0:0,0:0:0:0:
323,257,67582,2,0,P|340:230|367:212,1,52.7999955276491,0|0,0:0|0:0,0:0:0:0:
480,314,67733,6,0,P|384:303|457:273,1,224.399992120743,2|0,0:0|0:0,0:0:0:0:
504,240,68034,5,8,0:0:0:0:
387,194,68185,2,0,L|439:183,1,52.7999955276491,0|0,0:0|0:0,0:0:0:0:
305,141,68336,1,2,0:0:0:0:
439,183,68486,1,8,0:0:0:0:
441,80,68637,2,0,P|466:78|499:93,1,52.7999955276491,8|0,0:0|0:0,0:0:0:0:
315,264,68788,2,0,P|290:266|251:251,1,52.7999955276491,0|0,0:0|0:0,0:0:0:0:
368,88,68939,6,0,B|414:105|492:88|492:88|469:115|463:155,1,166.799995148277,10|0,0:0|0:0,0:0:0:0:
305,141,69240,6,0,P|283:68|347:8,1,171.599982846452,12|0,0:0|0:0,0:0:0:0:
439,183,69542,2,0,B|420:317|420:317|384:244,1,171.599982846452,2|0,0:0|0:0,0:0:0:0:
305,141,69843,2,0,B|381:111|381:111|452:171,1,171.599982846452,8|0,0:0|0:0,0:0:0:0:
322,301,70145,2,0,L|268:285,1,57.1999942821506,2|0,0:0|0:0,0:0:0:0:
412,294,70295,2,0,L|463:266,1,57.1999942821506,0|0,0:0|0:0,0:0:0:0:
322,301,70446,6,0,B|218:269|218:269|247:354,1,171.599982846452,8|0,0:0|0:0,0:0:0:0:
412,294,70748,2,0,B|510:247|510:247|488:306,1,171.599982846452,2|0,0:0|0:0,0:0:0:0:
286,217,71049,2,0,B|335:187|335:187|319:326,1,171.599982846452,8|0,0:0|0:0,0:0:0:0:
255,323,71351,2,0,B|186:329|186:329|158:350|158:350|91:354,1,171.599982846452,2|0,0:0|0:0,0:0:0:0:
11,181,71652,6,0,B|38:110|38:110|140:97,1,171.599982846452,12|0,0:0|0:0,0:0:0:0:
176,232,71954,2,0,B|105:259|105:259|90:361,1,171.599982846452,2|0,0:0|0:0,0:0:0:0:
357,345,72255,1,8,0:0:0:0:
188,332,72406,1,0,0:0:0:0:
438,262,72557,2,0,L|434:199,1,57.1999942821506,2|0,0:0|0:0,0:0:0:0:
244,194,72708,2,0,L|240:134,1,57.1999942821506,0|0,0:0|0:0,0:0:0:0:
353,25,72858,5,8,0:0:0:0:
358,60,72934,1,0,0:0:0:0:
351,96,73009,2,0,P|345:122|316:168,1,57.1999942821506,0|0,0:0|0:0,0:0:0:0:
365,237,73160,5,2,0:0:0:0:
337,258,73235,1,0,0:0:0:0:
302,270,73311,2,0,P|276:277|226:265,1,57.1999942821506,0|0,0:0|0:0,0:0:0:0:
151,323,73461,6,0,P|126:296|115:261,1,57.1999942821506,8|0,0:0|0:0,0:0:0:0:
35,188,73612,6,0,P|70:182|99:189,1,57.1999942821506,0|0,0:0|0:0,0:0:0:0:
288,196,73763,2,0,B|173:202|173:202|215:156,1,171.599982846452,2|0,0:0|0:0,0:0:0:0:
213,6,74064,6,0,B|220:64|220:64|202:103|202:103|213:173,1,158.399986582947,12|0,0:0|0:0,0:0:0:0:
149,280,74366,2,0,P|211:306|270:233,1,158.399986582947,2|0,0:0|0:0,0:0:0:0:
88,202,74667,2,0,B|2:191|2:191|35:260,1,158.399986582947,8|0,0:0|0:0,0:0:0:0:
269,248,74969,2,0,B|355:259|355:259|317:182,1,158.399986582947,2|0,0:0|0:0,0:0:0:0:
182,161,75270,2,0,B|197:204|186:253|186:253|171:288|182:347,1,158.399986582947,8|0,0:0|0:0,0:0:0:0:
71,368,75572,2,0,P|91:312|186:328,1,158.399986582947,2|0,0:0|0:0,0:0:0:0:
266,326,75873,6,0,P|260:362|238:387,1,52.7999955276491,8|0,0:0|0:0,0:0:0:0:
89,283,76024,2,0,P|95:247|115:225,1,52.7999955276491,8|0,0:0|0:0,0:0:0:0:
279,322,76175,6,0,P|272:362|250:387,1,52.7999955276491,2|0,0:0|0:0,0:0:0:0:
74,288,76326,2,0,P|77:251|102:221,1,52.7999955276491,8|0,0:0|0:0,0:0:0:0:
328,163,76476,6,0,B|189:151|189:151|245:207,1,193.199988779183,8|0,0:0|0:0,0:0:0:0:
292,238,76778,5,2,0:0:0:0:
324,241,76853,1,0,0:0:0:0:
356,244,76929,1,0,0:0:0:0:
388,247,77004,1,0,0:0:0:0:
445,295,77079,5,8,0:0:0:0:
442,307,77155,1,0,0:0:0:0:
439,319,77230,1,8,0:0:0:0:
436,331,77306,1,0,0:0:0:0:
365,375,77381,6,0,P|354:335|360:309,1,65.250001991272,2|0,0:0|0:0,0:0:0:0:
501,235,77532,2,0,P|512:195|506:169,1,65.250001991272,8|0,0:0|0:0,0:0:0:0:
325,67,77682,5,12,0:0:0:0:
449,47,77883,1,0,0:0:0:0:
325,67,78084,1,0,0:0:0:0:
449,47,78285,6,0,L|531:52,1,58.6666649602254,0|0,0:0|0:0,0:0:0:0:
325,67,78486,6,0,L|254:63,1,58.6666649602254,0|8,0:0|0:0,0:0:0:0:
449,47,78687,2,0,L|526:51,1,58.6666649602254,0|0,0:0|0:0,0:0:0:0:
17,42,78888,6,0,P|237:95|315:366,1,527.999984642029,12|2,0:0|0:0,0:0:0:0:
494,41,79944,1,0,0:0:0:0:
494,41,80019,1,0,0:0:0:0:
494,41,80094,2,0,P|253:114|195:360,1,527.999984642029,8|2,0:0|0:0,0:0:0:0:
0,309,81150,5,0,0:0:0:0:
0,309,81225,1,0,0:0:0:0:
0,309,81301,2,0,B|206:265|112:411|367:368,1,351.999989761353,12|8,0:0|0:0,0:0:0:0:
325,296,81979,2,0,L|322:243,2,43.9999987201691,0|0|0,0:0|0:0|0:0,0:0:0:0:
405,331,82205,1,2,0:0:0:0:
405,331,82280,2,0,L|462:326,2,43.9999987201691,0|0|0,0:0|0:0|0:0,0:0:0:0:
251,194,82507,5,8,0:0:0:0:
397,192,82657,1,0,0:0:0:0:
397,192,82733,1,0,0:0:0:0:
397,192,82808,1,2,0:0:0:0:
246,346,82959,6,0,L|237:244,1,63.9999961853028,0|0,0:0|0:0,0:0:0:0:
305,63,83110,6,0,P|310:128|316:165,1,63.9999961853028,8|0,0:0|0:0,0:0:0:0:
174,78,83260,2,0,P|180:128|180:185,1,63.9999961853028,8|0,0:0|0:0,0:0:0:0:
0,238,83411,6,0,P|83:199|112:299,1,191.999988555908,2|0,0:0|0:0,0:0:0:0:
0,330,83713,6,0,B|119:324|53:375|179:363,1,175.999994880676,8|2,0:0|0:0,0:0:0:0:
295,214,84165,2,0,P|245:198|202:220,1,87.9999974403381,0|8,0:0|0:0,0:0:0:0:
344,123,84466,5,0,0:0:0:0:
168,123,84617,1,2,0:0:0:0:
344,123,84768,1,0,0:0:0:0:
331,311,84919,6,0,P|386:367|486:339,1,175.999994880676,8|2,0:0|0:0,0:0:0:0:
295,214,85371,2,0,P|245:198|202:220,1,87.9999974403381,0|8,0:0|0:0,0:0:0:0:
344,123,85672,5,0,0:0:0:0:
168,123,85823,1,2,0:0:0:0:
344,123,85974,1,0,0:0:0:0:
137,378,86125,6,0,P|127:287|115:187,1,175.999994880676,8|2,0:0|0:0,0:0:0:0:
241,383,86577,2,0,P|246:326|249:280,1,87.9999974403381,0|8,0:0|0:0,0:0:0:0:
30,257,86878,5,0,0:0:0:0:
30,257,86954,1,0,0:0:0:0:
30,257,87029,2,0,L|1:261,5,19.9999988079071,0|0|0|0|0|0,0:0|0:0|0:0|0:0|0:0|0:0,0:0:0:0:
100,71,87331,6,0,B|103:24|124:-18|124:-18|61:-20|5:12|-8:83|15:124|47:152|80:165|132:167|174:115,1,449.999990344048,12|0,0:0|0:0,0:0:0:0:
171,102,88537,1,12,0:0:0:0:
171,102,88838,6,0,B|162:213|219:170|198:320,1,197.999990086556,2|0,0:0|0:0,0:0:0:0:
51,238,89140,2,0,P|95:242|136:253,1,65.9999966955185,8|0,0:0|0:0,0:0:0:0:
326,128,89290,2,0,P|282:132|241:143,1,65.9999966955185,0|0,0:0|0:0,0:0:0:0:
320,354,89441,2,0,P|300:292|329:208,1,131.999993391037,2|0,0:0|0:0,0:0:0:0:
314,228,89667,1,0,0:0:0:0:
313,227,89743,6,0,B|295:102|352:145|343:34,1,197.999990086556,8|10,0:0|0:0,0:0:0:0:
343,35,90044,2,0,P|299:39|258:50,1,65.9999966955185,0|0,0:0|0:0,0:0:0:0:
394,293,90195,2,0,P|470:276|460:171,1,159.999990463257,8|0,0:0|0:0,0:0:0:0:
201,294,90496,5,0,0:0:0:0:
136,354,90647,1,2,0:0:0:0:
221,381,90798,1,0,0:0:0:0:
0,107,90949,6,0,P|75:133|132:26,1,197.999990086556,8|0,0:0|0:0,0:0:0:0:
251,210,91250,2,0,P|176:184|119:291,1,197.999990086556,2|0,0:0|0:0,0:0:0:0:
113,268,91552,6,0,P|132:234|125:199,1,65.9999966955185,8|0,0:0|0:0,0:0:0:0:
137,48,91703,2,0,P|118:82|125:117,1,65.9999966955185,0|0,0:0|0:0,0:0:0:0:
221,381,91853,5,2,0:0:0:0:
223,365,91929,1,0,0:0:0:0:
225,351,92004,1,0,0:0:0:0:
227,337,92079,1,0,0:0:0:0:
229,323,92155,6,0,L|438:352,1,197.999990086556,8|0,0:0|0:0,0:0:0:0:
495,332,92456,6,0,L|360:314,1,131.999996160507,2|0,0:0|0:0,0:0:0:0:
228,329,92758,5,8,0:0:0:0:
184,311,92833,1,0,0:0:0:0:
145,343,92909,5,0,0:0:0:0:
101,327,92984,1,0,0:0:0:0:
61,354,93059,6,0,P|27:360|0:313,1,79.9999952316285,2|0,0:0|0:0,0:0:0:0:
149,227,93210,2,0,P|183:233|210:186,1,79.9999952316285,0|0,0:0|0:0,0:0:0:0:
14,44,93361,6,0,B|0:75|0:75|-5:103|36:133,1,89.9999980688095,8|0,0:0|0:0,0:0:0:0:
87,75,93662,2,0,B|67:47|67:47|45:29|-1:49,1,89.9999980688095,2|0,0:0|0:0,0:0:0:0:
23,123,93964,2,0,B|56:119|56:119|83:109|89:59,1,89.9999980688095,8|0,0:0|0:0,0:0:0:0:
8,208,94265,6,0,L|92:197,1,65.9999966955185,2|0,0:0|0:0,0:0:0:0:
188,22,94416,2,0,L|200:125,1,65.9999966955185,0|0,0:0|0:0,0:0:0:0:
449,335,94567,6,0,B|463:304|463:304|468:276|427:246,1,89.9999980688095,8|2,0:0|0:0,0:0:0:0:
376,304,94868,2,0,B|395:331|395:331|417:349|465:331,1,89.9999980688095,0|0,0:0|0:0,0:0:0:0:
439,255,95170,6,0,L|447:169,1,43.9999987201691,0|0,0:0|0:0,0:0:0:0:
295,363,95321,2,0,L|287:277,1,43.9999987201691,8|0,0:0|0:0,0:0:0:0:
449,107,95471,6,0,L|453:42,1,65.9999966955185,2|0,0:0|0:0,0:0:0:0:
270,231,95622,2,0,L|261:166,1,65.9999966955185,8|0,0:0|0:0,0:0:0:0:
0,16,95773,6,0,B|98:45|98:45|126:104,1,159.999990463257,8|0,0:0|0:0,0:0:0:0:
261,166,95999,2,0,B|163:195|163:195|135:254,1,159.999990463257,8|0,0:0|0:0,0:0:0:0:
60,359,96225,2,0,L|49:245,1,79.9999952316285,2|0,0:0|0:0,0:0:0:0:
122,97,96376,6,0,L|328:50,1,159.999990463257,8|0,0:0|0:0,0:0:0:0:
60,359,96602,2,0,L|266:312,1,159.999990463257,8|0,0:0|0:0,0:0:0:0:
12,121,96828,2,0,B|45:152|45:152|35:208,1,79.9999952316285,2|0,0:0|0:0,0:0:0:0:
306,369,96979,6,0,B|362:311|362:311|334:211,1,159.999990463257,8|0,0:0|0:0,0:0:0:0:
444,18,97205,2,0,B|388:76|388:76|416:176,1,159.999990463257,2|0,0:0|0:0,0:0:0:0:
482,298,97431,5,0,0:0:0:0:
482,298,97507,1,0,0:0:0:0:
482,298,97582,1,0,0:0:0:0:
243,118,97733,6,0,P|307:147|256:99,1,199.999988079071,0|0,0:0|0:0,0:0:0:0:
256,100,98185,6,0,L|248:204,1,87.9999952316285,8|0,0:0|0:0,0:0:0:0:
248,343,98486,1,0,0:0:0:0:
336,231,98637,2,0,L|332:286,1,43.9999976158143,0|0,0:0|0:0,0:0:0:0:
265,366,98788,2,0,P|223:380|172:364,1,87.9999952316285,0|0,0:0|0:0,0:0:0:0:
46,333,99089,1,0,0:0:0:0:
152,227,99240,1,0,0:0:0:0:
159,249,99315,1,0,0:0:0:0:
154,272,99391,5,8,0:0:0:0:
53,247,99542,1,0,0:0:0:0:
237,283,99692,1,0,0:0:0:0:
124,366,99843,2,0,L|115:319,1,43.9999976158143,0|0,0:0|0:0,0:0:0:0:
237,283,99994,2,0,L|243:196,1,87.9999952316285,0|0,0:0|0:0,0:0:0:0:
379,211,100295,2,0,L|372:305,1,87.9999952316285,0|0,0:0|0:0,0:0:0:0:
275,105,100522,1,0,0:0:0:0:
275,105,100597,6,0,P|232:86|185:94,1,87.9999952316285,8|0,0:0|0:0,0:0:0:0:
448,79,100899,1,0,0:0:0:0:
289,243,101049,2,0,P|263:251|236:247,1,43.9999987201691,0|0,0:0|0:0,0:0:0:0:
365,49,101200,2,0,B|348:125|405:138|379:222,1,158.399986582947,0|0,0:0|0:0,0:0:0:0:
379,225,101502,1,0,0:0:0:0:
196,113,101652,2,0,P|164:101|127:103,1,52.7999955276491,0|0,0:0|0:0,0:0:0:0:
291,72,101803,6,0,P|329:41|382:43,1,87.9999952316285,8|0,0:0|0:0,0:0:0:0:
427,170,102105,1,0,0:0:0:0:
236,137,102255,1,0,0:0:0:0:
493,125,102406,2,0,B|516:175|488:220|488:220|506:273,1,131.999992847443,0|0,0:0|0:0,0:0:0:0:
424,380,102707,2,0,B|401:330|429:285|429:285|418:249,1,131.999996160507,0|0,0:0|0:0,0:0:0:0:
494,335,103009,5,8,0:0:0:0:
343,282,103159,1,0,0:0:0:0:
195,290,103311,2,0,P|152:301|119:333,1,87.9999952316285,0|0,0:0|0:0,0:0:0:0:
390,354,103612,1,0,0:0:0:0:
485,181,103763,1,0,0:0:0:0:
346,234,103914,2,0,P|307:211|261:211,1,87.9999952316285,0|0,0:0|0:0,0:0:0:0:
50,289,104215,6,0,B|51:349|51:349|80:382,1,87.9999952316285,8|0,0:0|0:0,0:0:0:0:
35,194,104517,1,0,0:0:0:0:
233,261,104667,1,0,0:0:0:0:
143,248,104818,2,0,B|144:311|144:311|171:340,1,87.9999952316285,0|0,0:0|0:0,0:0:0:0:
305,227,105119,2,0,P|261:230|231:264,1,87.9999952316285,0|0,0:0|0:0,0:0:0:0:
409,306,105421,6,0,P|453:303|480:269,1,87.9999952316285,8|0,0:0|0:0,0:0:0:0:
335,161,105722,1,0,0:0:0:0:
506,192,105873,1,0,0:0:0:0:
308,246,106024,2,0,L|318:350,1,87.9999952316285,0|0,0:0|0:0,0:0:0:0:
421,188,106325,2,0,L|409:86,1,87.9999952316285,0|0,0:0|0:0,0:0:0:0:
195,67,106627,6,0,B|135:89|135:89|109:81,1,87.9999952316285,8|0,0:0|0:0,0:0:0:0:
142,347,106929,2,0,B|168:289|168:289|192:276,1,87.9999952316285,0|0,0:0|0:0,0:0:0:0:
346,132,107230,6,0,B|368:120|368:120|395:63,1,87.9999952316285,0|0,0:0|0:0,0:0:0:0:
425,328,107532,2,0,B|402:321|402:321|342:343,1,87.9999952316285,0|0,0:0|0:0,0:0:0:0:
251,282,107833,5,8,0:0:0:0:
384,316,107984,1,0,0:0:0:0:
251,294,108135,5,0,0:0:0:0:
405,228,108285,1,0,0:0:0:0:
251,307,108436,5,0,0:0:0:0:
378,142,108586,1,0,0:0:0:0:
251,321,108737,5,0,0:0:0:0:
303,91,108888,1,0,0:0:0:0:
251,334,109039,5,8,0:0:0:0:
209,91,109189,1,0,0:0:0:0:
251,346,109341,5,0,0:0:0:0:
134,142,109491,1,0,0:0:0:0:
251,359,109642,5,0,0:0:0:0:
107,228,109792,1,0,0:0:0:0:
251,373,109943,5,0,0:0:0:0:
128,316,110093,1,0,0:0:0:0:
419,180,110245,5,8,0:0:0:0:
358,281,110396,1,0,0:0:0:0:
230,253,110547,5,0,0:0:0:0:
363,298,110698,1,0,0:0:0:0:
421,69,110848,5,0,0:0:0:0:
369,310,110999,1,0,0:0:0:0:
173,167,111150,5,0,0:0:0:0:
373,323,111301,1,0,0:0:0:0:
76,278,111451,5,8,0:0:0:0:
208,298,111602,1,0,0:0:0:0:
272,187,111753,5,0,0:0:0:0:
213,315,111904,1,0,0:0:0:0:
42,184,112054,5,0,0:0:0:0:
219,327,112205,1,0,0:0:0:0:
284,82,112356,5,0,0:0:0:0:
223,340,112506,1,0,0:0:0:0:
205,160,112657,5,8,0:0:0:0:
223,146,112732,1,0,0:0:0:0:
244,137,112808,1,0,0:0:0:0:
267,132,112883,1,0,0:0:0:0:
289,132,112958,1,8,0:0:0:0:
312,137,113034,1,0,0:0:0:0:
333,144,113109,1,0,0:0:0:0:
350,160,113184,1,0,0:0:0:0:
366,176,113260,1,8,0:0:0:0:
376,197,113335,1,0,0:0:0:0:
383,219,113411,1,0,0:0:0:0:
385,242,113486,1,0,0:0:0:0:
383,265,113561,2,0,L|385:322,3,43.9999976158143,8|0|0|0,0:0|0:0|0:0|0:0,0:0:0:0:
474,275,113863,5,8,0:0:0:0:
473,251,113939,1,0,0:0:0:0:
472,227,114014,2,0,L|469:173,1,43.9999976158143,0|0,0:0|0:0,0:0:0:0:
405,117,114164,5,8,0:0:0:0:
406,93,114239,1,0,0:0:0:0:
407,69,114316,2,0,L|408:24,1,43.9999976158143,0|0,0:0|0:0,0:0:0:0:
316,81,114466,5,8,0:0:0:0:
315,105,114542,1,0,0:0:0:0:
314,129,114617,2,0,L|312:174,1,43.9999976158143,0|0,0:0|0:0,0:0:0:0:
247,239,114767,5,8,0:0:0:0:
248,263,114843,1,0,0:0:0:0:
249,287,114918,2,0,L|251:331,1,43.9999976158143,0|0,0:0|0:0,0:0:0:0:
352,313,115069,5,2,0:0:0:0:
157,336,115220,1,0,0:0:0:0:
351,333,115370,5,2,0:0:0:0:
156,310,115521,1,0,0:0:0:0:
338,202,115672,6,0,P|343:161|353:113,1,55.5999983827591,2|0,0:0|0:0,0:0:0:0:
168,202,115823,2,0,P|163:161|154:129,1,55.5999983827591,0|0,0:0|0:0,0:0:0:0:
399,266,115974,6,0,P|426:258|481:257,1,55.5999983827591,2|0,0:0|0:0,0:0:0:0:
113,266,116125,2,0,P|86:258|22:257,1,55.5999983827591,0|0,0:0|0:0,0:0:0:0:
246,254,116275,6,0,B|257:194|237:132|237:132|291:193,1,182.399986901551,12|0,0:0|0:0,0:0:0:0:
246,254,116878,6,0,B|236:290|263:361|263:361|217:315,1,151.799992006188,8|0,0:0|0:0,0:0:0:0:
230,147,117331,6,0,P|247:129|245:180,1,99.9999940395356,8|0,0:0|0:0,0:0:0:0:
396,368,117481,6,0,B|480:360|530:277|475:196|381:163|316:220|302:313|302:313|292:390|200:403|145:369|119:313|149:248|209:216,1,699.999958276749,12|0,0:0|0:0,0:0:0:0:
228,297,118084,5,2,0:0:0:0:
70,343,118235,6,0,L|51:347,1,19.9999988079071,0|0,0:0|0:0,0:0:0:0:
54,266,118687,6,0,L|35:270,1,19.9999988079071,8|0,0:0|0:0,0:0:0:0:
21,80,119140,6,0,P|26:36|66:52,1,99.9999940395356,8|0,0:0|0:0,0:0:0:0:
263,120,119290,6,0,B|163:85|163:85|110:209|-12:167,1,299.999982118607,2|0,0:0|0:0,0:0:0:0:
11,173,119592,2,0,P|141:214|192:368,1,299.999982118607,8|0,0:0|0:0,0:0:0:0:
308,306,119893,6,0,B|380:384|547:361|566:296|486:253|379:279,1,359.999992275238,12|0,0:0|0:0,0:0:0:0:
289,196,120195,2,0,P|346:209|363:131,1,119.999997425079,8|0,0:0|0:0,0:0:0:0:
493,105,120346,2,0,P|453:147|512:201,1,119.999997425079,0|0,0:0|0:0,0:0:0:0:
349,17,120496,5,2,0:0:0:0:
327,20,120572,1,0,0:0:0:0:
307,24,120647,1,0,0:0:0:0:
287,28,120723,1,0,0:0:0:0:
266,32,120798,1,0,0:0:0:0:
244,35,120873,1,0,0:0:0:0:
224,39,120949,1,0,0:0:0:0:
203,43,121024,1,0,0:0:0:0:
70,56,121100,6,0,P|193:82|338:149,1,239.999994850159,8|0,0:0|0:0,0:0:0:0:
445,238,121326,2,0,P|501:229|444:213,1,119.999997425079,0|8,0:0|0:0,0:0:0:0:
8,147,121476,6,0,P|129:154|243:196,1,239.999994850159,0|0,0:0|0:0,0:0:0:0:
239,194,121703,6,0,P|183:199|93:212,1,119.999997425079,2|0,0:0|0:0,0:0:0:0:
215,280,121853,2,0,P|274:291|351:317,1,119.999997425079,0|0,0:0|0:0,0:0:0:0:
410,119,122004,2,0,B|445:-1|395:-63|290:5|290:104|376:213,1,359.999992275238,8|0,0:0|0:0,0:0:0:0:
376,376,122306,6,0,B|442:340|530:354|530:354|426:310|335:349|335:349|238:391|42:315,1,599.999964237214,4|0,0:0|0:0,0:0:0:0:
0,267,122909,5,2,0:0:0:0:
141,264,123059,6,0,L|119:261,1,19.9999988079071,0|0,0:0|0:0,0:0:0:0:
155,187,123512,6,0,L|133:184,1,19.9999988079071,0|0,0:0|0:0,0:0:0:0:
22,120,123964,6,0,P|-2:159|46:165,1,99.9999940395356,8|0,0:0|0:0,0:0:0:0:
151,90,124115,6,0,B|315:70|255:184|449:151,1,299.999982118607,2|0,0:0|0:0,0:0:0:0:
404,63,124416,2,0,B|422:18|387:-62|295:-24|298:107|374:211,1,299.999982118607,8|0,0:0|0:0,0:0:0:0:
474,302,124718,6,0,P|225:320|-25:372,1,479.999971389771,12|0,0:0|0:0,0:0:0:0:
1,287,125019,2,0,P|207:247|488:226,1,479.999971389771,8|0,0:0|0:0,0:0:0:0:
476,226,125321,6,0,P|409:227|322:210,1,119.999997425079,0|0,0:0|0:0,0:0:0:0:
198,30,125471,6,0,L|197:35,1,3.99999976158142,0|0,0:0|0:0,0:0:0:0:
132,99,125622,2,0,L|133:104,1,3.99999976158142,0|0,0:0|0:0,0:0:0:0:
44,62,125773,2,0,L|43:67,1,3.99999976158142,0|0,0:0|0:0,0:0:0:0:
476,226,125924,6,0,B|518:197|537:131|516:107|424:104|369:148|363:212|363:212|369:221|369:221|356:220|356:220|362:227|362:227|323:314|229:293,1,479.999971389771,8|0,0:0|0:0,0:0:0:0:
29,279,126225,2,0,P|-9:244|31:154,1,159.999990463257,8|0,0:0|0:0,0:0:0:0:
122,310,126376,2,0,P|110:360|12:370,1,159.999990463257,8|0,0:0|0:0,0:0:0:0:
126,3,126527,6,0,B|280:15|328:177|215:281|125:249|84:167|146:95|203:95,1,479.999971389771,8|0,0:0|0:0,0:0:0:0:
370,374,127130,6,0,B|477:377|534:284|512:187|512:187|435:215|396:268|381:335|381:335|356:289|302:250|229:261|170:324,1,699.999958276749,12|0,0:0|0:0,0:0:0:0:
279,359,127733,5,2,0:0:0:0:
335,202,127883,6,0,L|340:183,1,19.9999988079071,0|0,0:0|0:0,0:0:0:0:
321,107,128336,6,0,L|326:88,1,19.9999988079071,8|0,0:0|0:0,0:0:0:0:
209,6,128788,6,0,P|189:25|220:77,1,99.9999940395356,8|0,0:0|0:0,0:0:0:0:
492,249,128939,6,0,P|362:231|157:323,1,299.999982118607,2|0,0:0|0:0,0:0:0:0:
204,284,129240,2,0,B|182:178|74:154|17:272|126:355,1,299.999982118607,8|0,0:0|0:0,0:0:0:0:
209,6,129542,6,0,B|360:67|379:273|284:272|258:155|302:106,1,359.999992275238,8|0,0:0|0:0,0:0:0:0:
431,23,129843,2,0,P|493:21|496:97,1,119.999997425079,8|0,0:0|0:1,0:0:0:0:
455,228,129994,2,0,P|422:174|486:133,1,119.999997425079,0|0,0:0|0:0,0:0:0:0:
510,327,130145,5,2,0:0:0:0:
488,330,130220,1,0,0:0:0:0:
468,334,130295,1,0,0:0:0:0:
448,338,130371,1,0,0:0:0:0:
427,342,130446,1,0,0:0:0:0:
405,345,130522,1,0,0:0:0:0:
385,349,130597,1,0,0:0:0:0:
364,353,130672,1,0,0:0:0:0:
241,300,130748,6,0,P|105:281|-8:278,1,239.999994850159,8|0,0:0|0:0,0:0:0:0:
227,38,130974,2,0,P|271:25|235:73,1,119.999997425079,0|8,0:0|0:0,0:0:0:0:
83,279,131125,6,0,P|219:260|332:257,1,239.999994850159,0|0,0:0|0:0,0:0:0:0:
321,256,131351,6,0,P|262:253|169:234,1,119.999997425079,2|0,0:0|0:0,0:0:0:0:
137,177,131502,2,0,P|77:166|18:163,1,119.999997425079,0|0,0:0|0:0,0:0:0:0:
380,40,131652,2,0,B|525:-1|525:-1|461:276,1,359.999992275238,8|0,0:0|0:0,0:0:0:0:
452,362,131954,6,0,P|425:382|430:352,1,79.9999952316285,8|0,0:0|0:0,0:0:0:0:
347,360,132105,2,0,P|320:340|325:370,1,79.9999952316285,0|0,0:0|0:0,0:0:0:0:
243,341,132255,2,0,P|216:361|221:331,1,79.9999952316285,2|0,0:0|0:0,0:0:0:0:
9,246,132406,5,0,0:0:0:0:
9,246,132481,1,0,0:0:0:0:
9,246,132557,2,0,P|54:252|95:181,1,119.999997425079,8|0,0:0|0:0,0:0:0:0:
415,267,132708,2,0,P|313:242|151:235,2,239.999994850159,0|2|0,0:0|0:0|0:0,0:0:0:0:
18,101,133160,6,0,P|221:101|383:38,1,359.999992275238,8|0,0:0|0:0,0:0:0:0:
457,173,133461,2,0,P|490:130|429:146,1,119.999997425079,2|0,0:0|0:0,0:0:0:0:
18,101,133612,6,0,P|123:120|272:130,1,239.999994850159,0|8,0:0|0:0,0:0:0:0:
367,47,133838,1,0,0:0:0:0:
369,31,133914,2,0,P|339:17|342:77,1,119.999997425079,0|0,0:0|0:0,0:0:0:0:
494,283,134064,6,0,P|291:283|129:346,1,359.999992275238,2|0,0:0|0:0,0:0:0:0:
59,363,134366,5,8,0:0:0:0:
18,101,134517,1,0,0:0:0:0:
218,288,134667,5,2,0:0:0:0:
111,69,134818,1,8,0:0:0:0:
396,126,134969,5,2,0:0:0:0:
185,3,135120,1,8,0:0:0:0:
420,360,135270,5,2,0:0:0:0:
441,325,135346,1,2,0:0:0:0:
418,293,135421,1,8,0:0:0:0:
384,308,135496,1,8,0:0:0:0:
384,348,135572,1,12,0:0:0:0:
110,309,136325,6,0,P|81:310|48:288,1,51.9999945201877,8|0,0:0|0:0,0:0:0:0:
196,248,136476,2,0,P|224:249|261:262,1,51.9999945201877,8|0,0:0|0:0,0:0:0:0:
110,309,136627,2,0,P|81:310|47:286,1,51.9999945201877,8|0,0:0|0:0,0:0:0:0:
196,248,136777,6,0,B|273:244|306:316|306:316|365:299|363:241,1,239.999978370667,12|0,0:0|0:0,0:0:0:0:
347,86,137230,2,0,L|357:178,1,51.9999945201877,0|8,0:0|0:0,0:0:0:0:
461,250,137380,6,0,P|430:162|330:144,1,179.999996137619,2|0,0:0|0:0,0:0:0:0:
326,321,137682,6,0,P|342:349|373:358,1,51.9999945201877,8|0,0:0|0:0,0:0:0:0:
239,175,137833,2,0,P|211:169|180:177,1,51.9999945201877,0|0,0:0|0:0,0:0:0:0:
363,242,137983,6,0,B|261:213|303:286|190:246,1,155.999983560563,8|0,0:0|0:0,0:0:0:0:
406,164,138285,2,0,P|429:181|444:218,1,51.9999945201877,8|0,0:0|0:0,0:0:0:0:
235,362,138436,2,0,P|212:345|199:305,1,51.9999945201877,0|0,0:0|0:0,0:0:0:0:
363,242,138586,5,2,0:0:0:0:
369,366,138737,1,8,0:0:0:0:
109,199,138888,2,0,P|88:219|82:252,1,57.9999983129501,8|0,0:0|0:0,0:0:0:0:
232,262,139038,2,0,P|203:262|175:277,1,57.9999983129501,8|0,0:0|0:0,0:0:0:0:
14,345,139189,6,0,B|59:321|110:332|110:332|159:371|210:349,1,202.799991702919,8|0,0:0|0:0,0:0:0:0:
299,363,139491,2,0,P|318:349|308:314,1,51.9999945201877,8|0,0:0|0:0,0:0:0:0:
184,237,139642,2,0,P|165:251|179:280,1,51.9999945201877,0|0,0:0|0:0,0:0:0:0:
299,363,139792,6,0,B|325:231|325:231|276:260,1,175.199994369278,2|0,0:0|0:0,0:0:0:0:
415,290,140094,2,0,L|419:351,1,51.9999945201877,8|0,0:0|0:0,0:0:0:0:
200,273,140245,2,0,L|186:332,1,51.9999945201877,8|0,0:0|0:0,0:0:0:0:
413,276,140395,6,0,L|408:210,1,51.9999945201877,8|0,0:0|0:0,0:0:0:0:
205,257,140546,2,0,L|219:196,1,51.9999945201877,8|0,0:0|0:0,0:0:0:0:
399,145,140697,1,8,0:0:0:0:
243,127,140848,2,0,L|259:65,1,51.9999945201877,8|0,0:0|0:0,0:0:0:0:
372,48,140998,6,0,B|492:41|492:41|514:126|514:126|456:187|456:187|394:141,1,363.999961641314,2|0,0:0|0:0,0:0:0:0:
510,67,141602,6,0,B|526:131|526:131|499:162|499:162|521:246,1,155.999983560563,8|0,0:0|0:0,0:0:0:0:
427,176,141903,2,0,B|403:89|403:89|461:115,1,135.999994487762,8|0,0:0|0:0,0:0:0:0:
347,256,142129,1,8,0:0:0:0:
347,256,142205,2,0,P|304:295|234:282,1,115.9999966259,2|0,0:0|0:0,0:0:0:0:
512,228,142506,2,0,P|505:259|511:293,1,57.9999983129501,8|0,0:0|0:0,0:0:0:0:
315,380,142657,2,0,P|319:350|315:317,1,57.9999983129501,0|0,0:0|0:0,0:0:0:0:
284,156,142808,6,0,B|336:165|365:200|344:255|344:255|292:237|292:237|261:258|261:258|222:242|222:242|190:261|190:261|159:242|159:242|115:245|92:284,1,419.999990987778,8|0,0:0|0:0,0:0:0:0:
445,170,143411,6,0,P|460:193|468:239,1,55.9999949531557,2|0,0:0|0:0,0:0:0:0:
347,61,143561,2,0,P|373:66|398:87,1,55.9999949531557,0|0,0:0|0:0,0:0:0:0:
200,53,143712,2,0,P|223:37|252:29,1,55.9999949531557,8|0,0:0|0:0,0:0:0:0:
90,151,143863,2,0,P|95:124|111:97,1,55.9999949531557,0|0,0:0|0:0,0:0:0:0:
192,206,144014,6,0,B|173:257|203:314|203:314|180:300|138:301,1,167.999984859467,12|0,0:0|0:0,0:0:0:0:
158,286,144315,2,0,P|233:260|212:355,1,215.999980533601,8|0,0:0|0:0,0:0:0:0:
0,333,144617,6,0,B|55:322|55:322|98:337|98:337|151:327|151:327|173:297|208:306,1,215.999980533601,2|8,0:0|0:0,0:0:0:0:
305,302,144918,2,0,P|301:349|288:371,1,55.9999949531557,0|0,0:0|0:0,0:0:0:0:
109,258,145069,2,0,P|111:219|117:198,1,55.9999949531557,8|0,0:0|0:0,0:0:0:0:
226,232,145220,6,0,B|281:256|342:227|342:227|320:259|318:287,1,167.999984859467,8|8,0:0|0:0,0:0:0:0:
205,305,145521,2,0,P|175:291|156:258,1,55.9999949531557,0|0,0:0|0:0,0:0:0:0:
131,131,145672,2,0,P|160:140|183:173,1,55.9999949531557,8|0,0:0|0:0,0:0:0:0:
60,330,145823,6,0,B|63:203|63:203|12:240,1,159.999990463257,2|0,0:0|0:0,0:0:0:0:
36,222,146426,6,0,B|96:217|96:217|150:240|150:240|226:231,1,176.399981276208,12|0,0:0|0:0,0:0:0:0:
336,203,146727,2,0,P|366:204|392:219,1,58.799993758736,2|0,0:0|0:0,0:0:0:0:
432,316,146878,1,0,0:0:0:0:
256,333,147029,5,8,0:0:0:0:
481,249,147179,1,0,0:0:0:0:
269,337,147330,2,0,L|188:331,1,58.799993758736,2|0,0:0|0:0,0:0:0:0:
469,242,147481,2,0,L|390:236,1,58.799993758736,0|0,0:0|0:0,0:0:0:0:
283,339,147632,6,0,P|234:295|336:312,1,239.999994850159,8|2,0:0|0:0,0:0:0:0:
170,214,148084,2,0,L|176:143,1,67.5000025749208,0|0,0:0|0:0,0:0:0:0:
288,284,148235,6,0,L|282:355,1,67.5000025749208,8|0,0:0|0:0,0:0:0:0:
144,306,148385,2,0,L|73:300,1,67.5000025749208,0|0,0:0|0:0,0:0:0:0:
278,295,148536,6,0,L|272:366,1,67.5000025749208,2|0,0:0|0:0,0:0:0:0:
134,317,148686,2,0,L|63:311,1,67.5000025749208,0|0,0:0|0:0,0:0:0:0:
303,275,148838,6,0,B|360:307|442:286|442:286|406:309|398:335,1,202.500007724762,8|0,0:0|0:0,0:0:0:0:
308,281,149139,2,0,B|301:196|301:196|320:212|360:214,1,135.000005149842,2|0,0:0|0:0,0:0:0:0:
401,329,149441,5,8,0:0:0:0:
198,278,149591,1,0,0:0:0:0:
503,239,149742,6,0,P|513:269|509:309,1,67.5000025749208,2|0,0:0|0:0,0:0:0:0:
454,31,149893,1,0,0:0:0:0:
454,31,149968,1,0,0:0:0:0:
454,31,150044,6,0,P|464:61|460:101,1,67.5000025749208,8|0,0:0|0:0,0:0:0:0:
273,169,150194,2,0,P|263:139|267:99,1,67.5000025749208,0|0,0:0|0:0,0:0:0:0:
440,35,150345,6,0,P|450:65|446:105,1,67.5000025749208,0|0,0:0|0:0,0:0:0:0:
259,173,150495,2,0,P|249:143|253:103,1,67.5000025749208,0|0,0:0|0:0,0:0:0:0:
426,39,150647,6,0,P|436:69|432:109,1,67.5000025749208,8|0,0:0|0:0,0:0:0:0:
355,174,150797,2,0,P|345:204|349:244,1,67.5000025749208,0|0,0:0|0:0,0:0:0:0:
412,332,150948,2,0,P|489:351|442:278,1,202.500007724762,8|0,0:0|0:0,0:0:0:0:
312,322,151250,5,6,0:0:0:0:
453,323,151401,1,0,0:0:0:0:
298,327,151551,5,8,0:0:0:0:
439,328,151702,1,0,0:0:0:0:
284,332,151853,6,0,B|260:270|260:270|284:206,1,135.000005149842,2|0,0:0|0:0,0:0:0:0:
425,333,152154,2,0,B|449:271|449:271|425:207,1,135.000005149842,8|0,0:0|0:0,0:0:0:0:
356,263,152456,5,2,0:0:0:0:
357,122,152607,1,0,0:0:0:0:
361,277,152757,5,8,0:0:0:0:
362,136,152908,1,0,0:0:0:0:
366,291,153059,5,2,0:0:0:0:
361,305,153134,1,0,0:0:0:0:
356,319,153210,1,0,0:0:0:0:
351,333,153285,1,0,0:0:0:0:
346,347,153361,1,8,0:0:0:0:
294,206,153511,1,0,0:0:0:0:
329,97,153662,6,0,P|394:90|440:149,1,135.000005149842,8|0,0:0|0:0,0:0:0:0:
402,246,153963,2,0,P|337:253|291:194,1,135.000005149842,8|0,0:0|0:0,0:0:0:0:
183,97,154265,6,0,P|118:90|72:149,1,135.000005149842,8|8,0:0|0:0,0:0:0:0:
110,246,154566,2,0,P|175:253|221:194,1,135.000005149842,8|8,0:0|0:0,0:0:0:0:
256,52,154868,6,0,L|255:23,30,25.9999972600938,12|0|0|0|0|0|0|0|0|0|0|0|0|0|0|0|0|0|0|0|0|0|0|0|0|0|0|0|0|0|0,0:0|0:0|0:0|0:0|0:0|0:0|0:0|0:0|0:0|0:0|0:0|0:0|0:0|0:0|0:0|0:0|0:0|0:0|0:0|0:0|0:0|0:0|0:0|0:0|0:0|0:0|0:0|0:0|0:0|0:0|0:0,0:0:0:0:
256,140,156074,5,4,0:0:0:0:
258,362,165723,5,0,0:0:0:0:
276,284,166024,2,0,L|284:241,1,39.9999976158142,0|0,0:0|0:0,0:0:0:0:
298,168,166476,2,0,L|306:125,1,39.9999976158142,0|0,0:0|0:0,0:0:0:0:
378,39,167682,6,0,P|360:17|315:17,1,59.9999964237214,0|0,0:0|0:0,0:0:0:0:
238,49,168135,5,0,0:0:0:0:
256,127,168436,2,0,L|264:170,1,39.9999976158142,0|0,0:0|0:0,0:0:0:0:
278,243,168888,2,0,L|286:286,1,39.9999976158142,0|0,0:0|0:0,0:0:0:0:
181,372,170094,6,0,P|152:367|134:345,1,59.9999964237214,0|0,0:0|0:0,0:0:0:0:
15,271,170547,5,0,0:0:0:0:
91,247,170848,2,0,L|145:231,1,39.9999976158142,0|0,0:0|0:0,0:0:0:0:
204,212,171301,2,0,L|258:195,1,39.9999976158142,0|0,0:0|0:0,0:0:0:0:
400,108,172507,5,0,0:0:0:0:
400,108,172733,1,0,0:0:0:0:
324,151,172959,5,0,0:0:0:0:
453,171,173260,5,0,0:0:0:0:
409,37,173411,2,0,L|376:250,1,199.999988079071,0|0,0:0|0:0,0:0:0:0:
441,336,173863,6,0,P|468:341|488:355,3,39.9999976158142,0|0|0|0,0:0|0:0|0:0|0:0,0:0:0:0:
362,312,174165,2,0,P|337:318|318:315,3,39.9999976158142,0|0|0|0,0:0|0:0|0:0|0:0,0:0:0:0:
465,217,174466,2,0,P|467:245|458:267,3,39.9999976158142,0|0|0|0,0:0|0:0|0:0|0:0,0:0:0:0:
293,227,174768,5,0,0:0:0:0:
206,237,174919,1,0,0:0:0:0:
232,58,175069,5,0,0:0:0:0:
240,145,175220,1,0,0:0:0:0:
17,132,175370,6,0,L|200:109,1,180.799989775238,8|0,0:0|0:0,0:0:0:0:
307,91,175823,1,0,0:0:0:0:
188,290,175973,2,0,L|196:107,1,180.799989775238,0|0,0:0|0:0,0:0:0:0:
220,33,176426,1,0,0:0:0:0:
222,52,176501,1,0,0:0:0:0:
222,72,176576,6,0,B|227:106|227:106|201:128|192:163|194:203|238:234,1,180.799989775238,0|0,0:0|0:0,0:0:0:0:
385,266,177029,1,0,0:0:0:0:
275,165,177179,2,0,B|316:192|318:232|309:267|283:289|283:289|290:329,1,180.799989775238,0|0,0:0|0:0,0:0:0:0:
385,266,177632,1,0,0:0:0:0:
406,244,177707,1,0,0:0:0:0:
413,220,177782,6,0,B|304:199|357:260|219:225,1,180.799989775238,8|0,0:0|0:0,0:0:0:0:
148,95,178235,1,0,0:0:0:0:
287,160,178385,6,0,B|166:129|219:190|110:168,1,180.799989775238,0|0,0:0|0:0,0:0:0:0:
337,91,178838,2,0,P|354:107|365:132,1,45,0|0,0:0|0:0,0:0:0:0:
305,240,178988,6,0,P|239:227|220:123,1,180.799989775238,8|0,0:0|0:0,0:0:0:0:
291,23,179441,1,0,0:0:0:0:
287,160,179591,2,0,B|280:209|280:209|295:245|295:245|290:299,1,135.599992331429,0|0,0:0|0:0,0:0:0:0:
204,304,179893,2,0,B|211:258|211:258|196:222|196:222|203:173,1,135,0|0,0:0|0:0,0:0:0:0:
228,89,180194,6,0,B|258:43|258:43|332:38|362:100,1,180.799989775238,8|0,0:0|0:0,0:0:0:0:
298,203,180647,1,0,0:0:0:0:
416,159,180797,2,0,P|461:174|505:156,1,90.3999948876191,0|0,0:0|0:0,0:0:0:0:
449,266,181099,1,0,0:0:0:0:
460,95,181250,1,0,0:0:0:0:
357,242,181401,6,0,B|311:263|311:263|231:244|231:244|185:266,1,180,8|0,0:0|0:0,0:0:0:0:
247,323,181853,1,0,0:0:0:0:
295,185,182004,2,0,B|233:172|233:172|207:180,1,90,0|0,0:0|0:0,0:0:0:0:
331,339,182305,1,0,0:0:0:0:
163,307,182456,1,0,0:0:0:0:
313,260,182607,6,0,P|384:270|407:370,1,180,8|0,0:0|0:0,0:0:0:0:
276,382,183059,1,0,0:0:0:0:
370,252,183210,6,0,P|407:266|425:312,1,90,0|0,0:0|0:0,0:0:0:0:
213,307,183511,1,0,0:0:0:0:
335,323,183662,2,0,L|428:309,1,90.3999948876191,0|8,0:0|0:0,0:0:0:0:
132,347,183963,1,0,0:0:0:0:
132,347,184265,6,0,P|144:288|86:289,1,135,0|0,0:0|0:0,0:0:0:0:
56,356,184566,5,0,0:0:0:0:
67,340,184642,1,0,0:0:0:0:
108,346,184717,5,0,0:0:0:0:
119,330,184793,1,0,0:0:0:0:
160,336,184868,6,0,L|239:325,1,45,0|0,0:0|0:0,0:0:0:0:
292,344,185019,5,8,0:0:0:0:
229,215,185169,1,0,0:0:0:0:
329,318,185320,5,0,0:0:0:0:
312,174,185470,1,0,0:0:0:0:
373,318,185622,5,0,0:0:0:0:
404,176,185772,1,0,0:0:0:0:
402,347,185923,5,0,0:0:0:0:
476,223,186073,1,0,0:0:0:0:
306,270,186225,5,8,0:0:0:0:
166,355,186375,1,0,0:0:0:0:
293,235,186526,5,0,0:0:0:0:
116,271,186676,1,0,0:0:0:0:
303,202,186828,5,0,0:0:0:0:
122,170,186978,1,0,0:0:0:0:
332,173,187129,5,0,0:0:0:0:
174,72,187279,1,0,0:0:0:0:
387,236,187431,5,8,0:0:0:0:
259,114,187581,1,0,0:0:0:0:
387,236,187732,5,0,0:0:0:0:
495,96,187883,1,0,0:0:0:0:
387,236,188034,5,0,0:0:0:0:
506,328,188184,1,0,0:0:0:0:
387,236,188335,5,0,0:0:0:0:
291,356,188486,1,0,0:0:0:0:
329,58,188637,5,8,0:0:0:0:
387,236,188787,1,0,0:0:0:0:
212,183,188938,5,0,0:0:0:0:
217,361,189088,1,0,0:0:0:0:
128,64,189240,5,0,0:0:0:0:
84,267,189390,1,0,0:0:0:0:
298,174,189541,5,0,0:0:0:0:
104,139,189691,1,0,0:0:0:0:
2,267,189843,5,8,0:0:0:0:
3,293,189918,1,0,0:0:0:0:
16,318,189993,1,0,0:0:0:0:
37,335,190069,1,0,0:0:0:0:
65,341,190144,1,8,0:0:0:0:
95,342,190220,1,0,0:0:0:0:
121,336,190295,1,0,0:0:0:0:
148,323,190370,1,0,0:0:0:0:
164,299,190446,5,8,0:0:0:0:
183,300,190521,1,0,0:0:0:0:
200,301,190596,1,0,0:0:0:0:
219,302,190672,1,0,0:0:0:0:
271,330,190747,5,8,0:0:0:0:
289,329,190822,1,0,0:0:0:0:
307,328,190897,1,0,0:0:0:0:
326,328,190973,1,0,0:0:0:0:
381,299,191049,5,8,0:0:0:0:
395,282,191124,1,0,0:0:0:0:
417,273,191200,1,0,0:0:0:0:
438,270,191275,1,0,0:0:0:0:
460,272,191350,1,8,0:0:0:0:
481,280,191426,1,0,0:0:0:0:
499,292,191501,1,0,0:0:0:0:
510,312,191576,1,0,0:0:0:0:
512,333,191652,6,0,P|493:347|470:350,1,31.4999990386963,8|0,0:0|0:0,0:0:0:0:
468,329,191727,2,0,P|445:335|422:330,1,31.4999990386963,0|0,0:0|0:0,0:0:0:0:
428,310,191803,2,0,P|404:308|384:296,1,31.4999990386963,0|0,0:0|0:0,0:0:0:0:
396,278,191878,2,0,P|374:268|360:250,1,31.4999990386963,0|0,0:0|0:0,0:0:0:0:
378,238,191953,2,0,P|360:221|353:199,1,31.4999990386963,0|0,0:0|0:0,0:0:0:0:
374,192,192029,2,0,P|363:170|364:147,1,31.4999990386963,0|0,0:0|0:0,0:0:0:0:
385,150,192104,2,0,P|382:126|391:105,1,31.4999990386963,0|0,0:0|0:0,0:0:0:0:
411,112,192179,2,0,P|416:89|432:71,1,31.4999990386963,0|0,0:0|0:0,0:0:0:0:
446,87,192255,5,4,0:0:0:0:
256,192,192330,12,0,194215,0:0:0:0:
185,293,194365,6,0,P|146:323|106:323,1,62.9999981074333,0|0,0:0|0:0,0:0:0:0:
256,156,194516,2,0,P|285:166|307:188,1,62.9999981074333,0|0,0:0|0:0,0:0:0:0:
71,217,194667,6,0,P|38:140|127:58,1,199.999988079071,8|0,0:0|0:0,0:0:0:0:
186,11,194893,2,0,P|202:51|177:117,1,99.9999940395356,0|2,0:0|0:0,0:0:0:0:
0,256,195044,6,0,B|109:236|71:307|198:289,1,199.999988079071,0|0,0:0|0:0,0:0:0:0:
250,175,195270,1,8,0:0:0:0:
250,175,195346,2,0,P|228:291|225:412,1,199.999988079071,0|0,0:0|0:0,0:0:0:0:
369,51,195572,6,0,P|377:101|383:151,1,99.9999940395356,2|0,0:0|0:0,0:0:0:0:
333,374,195723,2,0,P|326:325|320:271,1,99.9999940395356,0|0,0:0|0:0,0:0:0:0:
446,302,195873,1,8,0:0:0:0:
150,189,196024,5,0,0:0:0:0:
150,189,196100,1,0,0:0:0:0:
151,190,196175,2,0,P|200:184|249:174,1,99.9999940395356,2|0,0:0|0:0,0:0:0:0:
467,66,196326,2,0,P|417:60|368:50,1,99.9999940395356,0|0,0:0|0:0,0:0:0:0:
23,4,196476,5,8,0:0:0:0:
23,4,196552,2,0,P|112:43|233:119,1,199.999988079071,0|0,0:0|0:0,0:0:0:0:
394,246,196778,2,0,P|378:202|388:136,1,99.9999940395356,2|0,0:0|0:0,0:0:0:0:
189,0,196929,2,0,P|205:44|195:110,1,99.9999940395356,0|0,0:0|0:0,0:0:0:0:
54,358,197079,6,0,P|48:257|26:105,1,199.999988079071,8|0,0:0|0:0,0:0:0:0:
257,367,197306,2,0,P|214:336|149:316,2,99.9999940395356,0|2|0,0:0|0:0|0:0,0:0:0:0:
487,235,197532,6,0,B|357:220|409:291|265:261,1,199.999988079071,0|8,0:0|0:0,0:0:0:0:
191,0,197758,2,0,P|260:54|237:181,1,199.999988079071,0|0,0:0|0:0,0:0:0:0:
40,258,197984,1,2,0:0:0:0:
40,258,198059,1,0,0:0:0:0:
40,258,198135,2,0,L|34:138,1,99.9999940395356,0|0,0:0|0:0,0:0:0:0:
26,77,198285,1,8,0:0:0:0:
294,266,198436,6,0,P|345:234|413:227,2,99.9999940395356,0|8|0,0:0|0:0|0:0,0:0:0:0:
255,158,198662,1,0,0:0:0:0:
255,158,198738,2,0,L|119:142,1,99.9999940395356,8|0,0:0|0:0,0:0:0:0:
366,21,198888,5,8,0:0:0:0:
366,21,198964,1,0,0:0:0:0:
366,21,199039,2,0,L|352:163,1,99.9999940395356,0|0,0:0|0:0,0:0:0:0:
490,304,199190,5,2,0:0:0:0:
490,304,199265,1,0,0:0:0:0:
490,304,199341,2,0,L|476:162,1,99.9999940395356,0|0,0:0|0:0,0:0:0:0:
226,364,199491,6,0,P|137:296|3:323,1,199.999988079071,12|0,0:0|0:0,0:0:0:0:
65,184,199718,2,0,P|18:193|-28:232,1,99.9999940395356,0|2,0:0|0:0,0:0:0:0:
199,230,199868,6,0,B|195:103|246:170|228:12,1,199.999988079071,0|0,0:0|0:0,0:0:0:0:
141,5,200094,1,8,0:0:0:0:
141,5,200170,2,0,P|212:32|376:42,1,199.999988079071,0|0,0:0|0:0,0:0:0:0:
482,270,200396,6,0,P|483:211|495:124,1,99.9999940395356,2|0,0:0|0:0,0:0:0:0:
317,129,200547,2,0,P|316:188|304:275,1,99.9999940395356,0|0,0:0|0:0,0:0:0:0:
401,190,200698,1,8,0:0:0:0:
251,362,200848,5,0,0:0:0:0:
251,362,200924,1,0,0:0:0:0:
251,362,200999,2,0,P|199:371|145:332,1,99.9999940395356,2|0,0:0|0:0,0:0:0:0:
0,97,201150,2,0,P|52:88|106:127,1,99.9999940395356,0|0,0:0|0:0,0:0:0:0:
399,243,201301,5,8,0:0:0:0:
399,243,201376,2,0,P|289:234|177:305,1,199.999988079071,0|0,0:0|0:0,0:0:0:0:
28,364,201602,2,0,P|25:305|14:218,1,99.9999940395356,2|0,0:0|0:0,0:0:0:0:
213,43,201753,2,0,P|210:102|199:189,1,99.9999940395356,0|0,0:0|0:0,0:0:0:0:
512,361,201904,6,0,B|390:384|450:296|268:330,1,199.999988079071,12|0,0:0|0:0,0:0:0:0:
383,146,202130,2,0,P|383:203|426:276,2,99.9999940395356,0|2|0,0:0|0:0|0:0,0:0:0:0:
377,38,202356,2,0,P|435:61|487:106,1,99.9999940395356,0|0,0:0|0:0,0:0:0:0:
497,274,202507,5,8,0:0:0:0:
497,274,202582,1,0,0:0:0:0:
497,274,202657,2,0,P|499:219|508:139,1,99.9999940395356,0|0,0:0|0:0,0:0:0:0:
254,18,202808,2,0,L|254:166,1,99.9999940395356,2|0,0:0|0:0,0:0:0:0:
15,274,202959,2,0,P|13:219|4:139,1,99.9999940395356,0|0,0:0|0:0,0:0:0:0:
108,36,203110,6,0,P|153:182|162:381,1,299.999982118607,12|0,0:0|0:0,0:0:0:0:
108,36,203411,6,0,P|134:216|89:366,1,299.999982118607,2|0,0:0|0:0,0:0:0:0:
102,360,203713,6,0,P|79:376|98:332,1,99.9999940395356,8|0,0:0|0:0,0:0:0:0:
307,223,204014,6,0,P|284:207|303:251,1,99.9999940395356,2|0,0:0|0:0,0:0:0:0:
393,342,204165,2,0,P|370:358|389:314,1,99.9999940395356,0|0,0:0|0:0,0:0:0:0:
286,41,204316,6,0,P|406:55|486:234,1,299.999982118607,12|0,0:0|0:0,0:0:0:0:
148,172,204617,2,0,P|125:188|144:144,1,99.9999940395356,2|0,0:0|0:0,0:0:0:0:
286,41,204768,2,0,P|309:25|290:69,1,99.9999940395356,0|0,0:0|0:0,0:0:0:0:
393,342,204919,6,0,P|360:201|191:145,1,299.999982118607,8|0,0:0|0:0,0:0:0:0:
43,237,205220,2,0,P|20:253|39:209,1,99.9999940395356,2|0,0:0|0:0,0:0:0:0:
139,33,205371,2,0,P|162:17|143:61,1,99.9999940395356,0|0,0:0|0:0,0:0:0:0:
230,368,205522,6,0,P|184:351|230:331,1,99.9999940395356,8|0,0:0|0:0,0:0:0:0:
148,172,205672,2,0,P|125:188|144:144,1,99.9999940395356,0|0,0:0|0:0,0:0:0:0:
446,47,205823,6,0,P|416:171|391:369,1,299.999982118607,2|0,0:0|0:0,0:0:0:0:
108,296,206125,5,8,0:0:0:0:
108,296,206200,2,0,B|232:279|160:372|360:327,1,199.999988079071,0|8,0:0|0:0,0:0:0:0:
311,12,206426,2,0,P|292:80|283:163,1,99.9999940395356,0|0,0:0|0:0,0:0:0:0:
189,11,206577,2,0,P|179:77|183:135,1,99.9999940395356,8|0,0:0|0:0,0:0:0:0:
4,142,206728,6,0,P|119:140|260:250,1,299.999982118607,8|0,0:0|0:0,0:0:0:0:
466,83,207029,2,0,P|471:39|419:78,1,99.9999940395356,2|0,0:0|0:0,0:0:0:0:
259,249,207180,2,0,P|254:293|306:254,1,99.9999940395356,0|0,0:0|0:0,0:0:0:0:
461,327,207331,6,0,P|409:187|286:108,1,299.999982118607,8|0,0:0|0:0,0:0:0:0:
145,310,207632,2,0,P|140:354|192:315,1,99.9999940395356,2|0,0:0|0:0,0:0:0:0:
286,108,207783,2,0,P|268:67|242:127,1,99.9999940395356,0|0,0:0|0:0,0:0:0:0:
0,231,207934,6,0,P|18:272|44:212,1,99.9999940395356,8|0,0:0|0:0,0:0:0:0:
286,108,208084,2,0,P|268:67|242:127,1,99.9999940395356,0|0,0:0|0:0,0:0:0:0:
185,360,208235,6,0,P|289:323|516:332,1,299.999982118607,2|0,0:0|0:0,0:0:0:0:
476,321,208537,2,0,B|458:406|378:388|354:345|341:233|479:157,1,299.999982118607,12|0,0:0|0:0,0:0:0:0:
430,22,208838,5,0,0:0:0:0:
430,22,208914,1,0,0:0:0:0:
430,22,208989,2,0,P|475:52|452:119,1,99.9999940395356,0|0,0:0|0:0,0:0:0:0:
265,191,209140,6,0,B|193:266|70:269,1,199.999988079071,8|0,0:0|0:0,0:0:0:0:
9,119,209366,2,0,P|2:86|7:1,2,99.9999940395356,0|2|0,0:0|0:0|0:0,0:0:0:0:
86,269,209592,2,0,P|93:302|88:387,1,99.9999940395356,0|0,0:0|0:0,0:0:0:0:
322,42,209743,5,8,0:0:0:0:
330,322,209893,1,0,0:0:0:0:
441,69,210044,5,2,0:0:0:0:
436,348,210195,1,0,0:0:0:0:
9,119,210346,6,0,P|128:120|283:214,1,299.999982118607,12|0,0:0|0:0,0:0:0:0:
489,214,210647,2,0,P|460:201|435:257,3,99.9999940395356,2|0|0|0,0:0|0:0|0:0|0:0,0:0:0:0:
304,38,210949,5,8,0:0:0:0:
304,38,211024,1,8,0:0:0:0:
304,38,211100,2,0,P|307:94|325:154,1,99.9999940395356,8|0,0:0|0:0,0:0:0:0:
175,359,211250,2,0,P|178:302|196:243,1,99.9999940395356,2|8,0:0|0:0,0:0:0:0:
83,22,211401,5,0,0:0:0:0:
83,22,211476,1,0,0:0:0:0:
83,22,211552,2,0,L|94:163,1,119.999997425079,8|0,0:0|0:0,0:0:0:0:
65,76,211703,2,0,L|53:220,1,119.999997425079,0|0,0:0|0:0,0:0:0:0:
33,118,211853,2,0,L|42:258,1,119.999997425079,8|0,0:0|0:0,0:0:0:0:
258,360,212004,6,0,P|192:264|235:121,1,239.999994850159,0|8,0:0|0:0,0:0:0:0:
443,2,212230,2,0,P|509:98|466:241,1,239.999994850159,0|0,0:0|0:0,0:0:0:0:
209,35,212456,2,0,P|250:13|266:79,1,119.999997425079,2|2,0:0|0:0,0:0:0:0:
512,320,212607,2,0,P|495:371|445:352,1,119.999997425079,2|2,0:0|0:0,0:0:0:0:
345,211,212758,5,14,0:0:0:0:
256,192,212833,12,8,213813,0:0:0:0:
366,191,213963,6,0,P|385:246|306:210,1,191.999988555908,12|0,0:0|0:0,0:0:0:0:
269,55,214265,6,0,B|344:83|476:48|476:48|414:73|395:134,1,299.999982118607,2|0,0:0|0:0,0:0:0:0:
334,243,214566,2,0,B|259:215|127:250|127:250|189:225|208:164,1,299.999982118607,8|0,0:0|0:0,0:0:0:0:
408,104,214868,5,2,0:0:0:0:
452,157,214943,1,0,0:0:0:0:
468,225,215019,1,0,0:0:0:0:
453,293,215094,1,0,0:0:0:0:
405,344,215169,2,0,P|338:337|281:342,1,99.9999940395356,8|0,0:0|0:0,0:0:0:0:
192,343,215320,2,0,P|209:289|234:251,1,99.9999940395356,0|0,0:0|0:0,0:0:0:0:
420,339,215471,2,0,P|357:314|300:304,1,99.9999940395356,2|0,0:0|0:0,0:0:0:0:
173,356,215622,2,0,P|175:299|189:256,1,99.9999940395356,0|0,0:0|0:0,0:0:0:0:
326,46,215772,5,8,0:0:0:0:
387,90,215848,2,0,B|401:58|444:41|444:41|391:13|307:53,1,199.999988079071,0|0,0:0|0:0,0:0:0:0:
268,128,216074,2,0,L|256:251,1,99.9999940395356,2|0,0:0|0:0,0:0:0:0:
16,39,216225,1,0,0:0:0:0:
16,39,216300,1,0,0:0:0:0:
16,39,216375,6,0,P|30:90|26:155,1,99.9999940395356,8|0,0:0|0:0,0:0:0:0:
132,228,216526,2,0,P|118:279|82:333,1,99.9999940395356,0|0,0:0|0:0,0:0:0:0:
321,384,216677,1,2,0:0:0:0:
321,384,216752,1,0,0:0:0:0:
321,384,216828,2,0,P|309:318|319:259,1,99.9999940395356,0|0,0:0|0:0,0:0:0:0:
422,105,216978,2,0,B|405:175|344:193|344:193|397:211|408:285|408:285|428:194,1,299.999982118607,8|0,0:0|0:0,0:0:0:0:
338,99,217280,1,2,0:0:0:0:
299,53,217355,1,0,0:0:0:0:
239,41,217431,1,0,0:0:0:0:
184,65,217506,1,0,0:0:0:0:
158,119,217581,6,0,L|173:247,1,99.9999940395356,8|0,0:0|0:0,0:0:0:0:
39,354,217732,2,0,L|48:238,1,99.9999940395356,0|0,0:0|0:0,0:0:0:0:
276,230,217883,1,0,0:0:0:0:
276,230,217958,1,0,0:0:0:0:
276,230,218034,2,0,L|265:359,1,99.9999940395356,8|0,0:0|0:0,0:0:0:0:
435,197,218184,6,0,P|487:186|400:120,1,199.999988079071,8|0,0:0|0:0,0:0:0:0:
360,257,218411,1,0,0:0:0:0:
360,257,218486,2,0,P|355:316|356:373,1,99.9999940395356,2|0,0:0|0:0,0:0:0:0:
158,119,218637,2,0,P|171:76|212:30,1,99.9999940395356,0|0,0:0|0:0,0:0:0:0:
14,214,218787,6,0,B|89:204|89:204|134:233|134:233|213:225,1,199.999988079071,8|0,0:0|0:0,0:0:0:0:
377,43,219014,1,0,0:0:0:0:
396,37,219089,2,0,L|262:27,1,99.9999940395356,2|0,0:0|0:0,0:0:0:0:
306,262,219240,2,0,L|172:272,1,99.9999940395356,0|0,0:0|0:0,0:0:0:0:
416,165,219390,2,0,B|474:139|474:139|466:311|466:311|383:258,1,299.999982118607,8|0,0:0|0:0,0:0:0:0:
307,182,219692,1,2,0:0:0:0:
307,182,219767,1,0,0:0:0:0:
307,182,219843,2,0,L|186:190,1,99.9999940395356,0|0,0:0|0:0,0:0:0:0:
58,353,219993,6,0,P|81:297|59:110,1,199.999988079071,8|0,0:0|0:0,0:0:0:0:
17,62,220220,1,0,0:0:0:0:
44,60,220295,2,0,L|164:54,1,99.9999940395356,2|0,0:0|0:0,0:0:0:0:
331,286,220446,1,0,0:0:0:0:
354,98,220596,5,8,0:0:0:0:
325,103,220672,2,0,B|239:111|239:111|200:139|200:139|101:150,1,199.999988079071,0|0,0:0|0:0,0:0:0:0:
175,364,220898,2,0,P|177:315|150:240,1,99.9999940395356,2|0,0:0|0:0,0:0:0:0:
331,286,221049,2,0,P|329:237|356:162,1,99.9999940395356,0|0,0:0|0:0,0:0:0:0:
452,15,221200,5,8,0:0:0:0:
465,40,221275,2,0,P|394:87|266:13,1,199.999988079071,0|0,0:0|0:0,0:0:0:0:
192,33,221501,1,2,0:0:0:0:
192,33,221576,1,0,0:0:0:0:
192,33,221652,2,0,P|190:84|205:156,1,99.9999940395356,0|0,0:0|0:0,0:0:0:0:
44,272,221803,2,0,P|58:216|62:154,1,99.9999940395356,8|0,0:0|0:0,0:0:0:0:
239,321,221953,2,0,P|253:265|257:203,1,99.9999940395356,0|0,0:0|0:0,0:0:0:0:
427,364,222104,2,0,P|441:308|445:246,1,99.9999940395356,2|0,0:0|0:0,0:0:0:0:
426,123,222255,2,0,P|454:90|458:139,1,99.9999940395356,0|0,0:0|0:0,0:0:0:0:
256,223,222406,6,0,B|308:209|337:244|337:244|277:132|121:224,1,299.999982118607,8|0,0:0|0:0,0:0:0:0:
51,246,222707,6,0,P|-22:163|127:136,1,299.999982118607,2|0,0:0|0:0,0:0:0:0:
154,206,223009,2,0,P|152:260|136:323,1,99.9999940395356,8|0,0:0|0:0,0:0:0:0:
220,363,223159,1,0,0:0:0:0:
299,378,223235,1,0,0:0:0:0:
370,342,223310,2,0,P|380:289|386:211,1,99.9999940395356,0|0,0:0|0:0,0:0:0:0:
204,3,223461,2,0,P|194:56|188:134,1,99.9999940395356,0|0,0:0|0:0,0:0:0:0:
454,150,223612,6,0,B|361:101|274:144|274:144|226:210|160:198,1,299.999982118607,12|0,0:0|0:0,0:0:0:0:
156,206,223913,2,0,L|24:190,1,99.9999940395356,2|0,0:0|0:0,0:0:0:0:
223,329,224064,1,0,0:0:0:0:
223,329,224215,1,8,0:0:0:0:
245,320,224290,2,0,P|300:307|354:317,1,99.9999940395356,0|0,0:0|0:0,0:0:0:0:
476,174,224441,1,0,0:0:0:0:
457,183,224516,2,0,P|407:188|359:175,1,99.9999940395356,2|0,0:0|0:0,0:0:0:0:
256,43,224667,1,0,0:0:0:0:
256,43,224818,6,0,L|242:173,1,99.9999940395356,8|0,0:0|0:0,0:0:0:0:
42,207,224968,1,0,0:0:0:0:
42,207,225044,1,0,0:0:0:0:
42,207,225119,2,0,L|59:336,1,99.9999940395356,2|0,0:0|0:0,0:0:0:0:
422,254,225270,2,0,B|352:261|323:325|323:325|302:354|234:370,1,199.999988079071,0|8,0:0|0:0,0:0:0:0:
262,361,225496,6,0,L|138:356,1,99.9999940395356,0|0,0:0|0:0,0:0:0:0:
144,126,225647,1,0,0:0:0:0:
172,129,225722,2,0,L|304:137,1,99.9999940395356,2|0,0:0|0:0,0:0:0:0:
422,254,225873,2,0,P|397:297|387:346,1,99.9999940395356,0|0,0:0|0:0,0:0:0:0:
21,277,226024,6,0,B|117:302|117:302|177:213|177:213|141:119,1,299.999982118607,4|0,0:0|0:0,0:0:0:0:
143,126,226325,2,0,P|150:74|161:22,1,99.9999940395356,2|0,0:0|0:0,0:0:0:0:
421,253,226476,1,0,0:0:0:0:
421,253,226551,1,0,0:0:0:0:
421,253,226627,6,0,P|439:154|466:56,1,199.999988079071,8|0,0:0|0:0,0:0:0:0:
287,17,226853,1,0,0:0:0:0:
295,43,226928,2,0,P|293:98|260:159,1,99.9999940395356,2|0,0:0|0:0,0:0:0:0:
116,261,227079,2,0,P|73:276|0:264,1,99.9999940395356,0|0,0:0|0:0,0:0:0:0:
298,350,227230,6,0,P|345:320|219:304,1,299.999982118607,8|0,0:0|0:0,0:0:0:0:
218,255,227531,2,0,L|226:149,1,99.9999940395356,2|0,0:0|0:0,0:0:0:0:
393,55,227682,2,0,L|400:154,1,99.9999940395356,0|0,0:0|0:0,0:0:0:0:
145,96,227833,2,0,P|192:63|243:52,1,99.9999940395356,8|0,0:0|0:0,0:0:0:0:
385,306,227983,2,0,P|338:339|287:350,1,99.9999940395356,0|0,0:0|0:0,0:0:0:0:
118,263,228134,2,0,L|243:252,1,99.9999940395356,2|0,0:0|0:0,0:0:0:0:
369,169,228285,2,0,L|494:158,1,99.9999940395356,0|0,0:0|0:0,0:0:0:0:
139,99,228436,5,8,0:0:0:0:
118,263,228586,1,0,0:0:0:0:
320,61,228737,5,2,0:0:0:0:
385,306,228888,2,0,P|392:230|405:182,1,99.9999940395356,0|0,0:0|0:0,0:0:0:0:
225,83,229039,5,8,0:0:0:0:
209,325,229189,1,0,0:0:0:0:
409,17,229340,5,2,0:0:0:0:
385,306,229491,1,0,0:0:0:0:
110,69,229642,5,8,0:0:0:0:
336,100,229792,1,8,0:0:0:0:
90,257,229943,5,2,0:0:0:0:
357,221,230094,1,0,0:0:0:0:
209,325,230245,1,8,0:0:0:0:
247,77,230395,6,0,P|250:131|241:192,1,99.9999940395356,0|0,0:0|0:0,0:0:0:0:
209,325,230546,1,2,0:0:0:0:
390,194,230697,1,0,0:0:0:0:
127,59,230848,5,8,0:0:0:0:
100,98,230923,1,0,0:0:0:0:
96,145,230998,1,0,0:0:0:0:
108,191,231074,1,0,0:0:0:0:
138,227,231149,1,2,0:0:0:0:
180,248,231225,1,0,0:0:0:0:
227,250,231300,1,0,0:0:0:0:
271,237,231375,1,0,0:0:0:0:
317,197,231451,5,8,0:0:0:0:
335,153,231526,1,0,0:0:0:0:
330,104,231602,1,0,0:0:0:0:
299,67,231677,1,0,0:0:0:0:
248,56,231752,1,2,0:0:0:0:
205,79,231828,1,0,0:0:0:0:
188,131,231903,1,0,0:0:0:0:
217,169,231978,1,0,0:0:0:0:
251,142,232054,6,0,L|258:230,1,79.9999952316285,12|0,0:0|0:0,0:0:0:0:
257,221,232280,2,0,L|248:307,1,79.9999952316285,0|0,0:0|0:0,0:0:0:0:
248,300,232506,2,0,L|258:383,1,79.9999952316285,0|0,0:0|0:0,0:0:0:0:
345,355,232732,2,0,L|338:274,1,79.9999952316285,0|0,0:0|0:0,0:0:0:0:
258,222,232958,6,0,P|207:234|162:265,1,99.9999940395356,8|0,0:0|0:0,0:0:0:0:
345,355,233109,2,0,P|393:349|431:313,1,99.9999940395356,8|0,0:0|0:0,0:0:0:0:
168,260,233260,6,0,B|32:225|32:225|95:282,1,197.999990086556,8|0,0:0|0:0,0:0:0:0:
28,346,233562,1,2,0:0:0:0:
28,346,233637,1,0,0:0:0:0:
28,346,233713,2,0,P|65:354|115:332,1,65.9999966955185,0|0,0:0|0:0,0:0:0:0:
159,162,233863,5,8,0:0:0:0:
270,375,234014,2,0,L|262:288,1,65.9999966955185,0|0,0:0|0:0,0:0:0:0:
279,65,234165,2,0,P|267:150|247:236,1,131.999993391037,0|0,0:0|0:0,0:0:0:0:
257,195,234391,1,0,0:0:0:0:
257,195,234466,6,0,P|302:196|358:239,1,79.9999952316285,8|0,0:0|0:0,0:0:0:0:
424,368,234617,2,0,P|402:328|411:258,1,79.9999952316285,0|0,0:0|0:0,0:0:0:0:
482,140,234768,2,0,P|458:178|393:205,1,79.9999952316285,2|0,0:0|0:0,0:0:0:0:
271,317,234919,5,0,0:0:0:0:
271,317,234994,1,0,0:0:0:0:
271,317,235069,2,0,B|163:301|208:360|69:334,1,197.999990086556,8|0,0:0|0:0,0:0:0:0:
18,234,235371,2,0,P|54:225|57:268,1,65.9999966955185,2|0,0:0|0:0,0:0:0:0:
134,52,235522,5,0,0:0:0:0:
124,48,235597,1,0,0:0:0:0:
113,45,235672,2,0,P|96:128|187:201,1,197.999990086556,8|0,0:0|0:0,0:0:0:0:
263,164,235974,6,0,B|275:115|275:115|256:131,1,65.9999966955185,2|0,0:0|0:0,0:0:0:0:
359,147,236125,2,0,B|371:98|371:98|352:114,1,65.9999966955185,0|0,0:0|0:0,0:0:0:0:
271,317,236275,6,0,B|338:358|338:358|437:331,1,159.999990463257,8|0,0:0|0:0,0:0:0:0:
503,278,236577,2,0,B|436:237|436:237|337:264,1,159.999990463257,0|0,0:0|0:0,0:0:0:0:
184,361,236803,5,0,0:0:0:0:
184,361,236878,2,0,P|140:357|100:328,1,79.9999952316285,8|0,0:0|0:0,0:0:0:0:
154,124,237029,2,0,P|172:164|167:213,1,79.9999952316285,0|0,0:0|0:0,0:0:0:0:
0,278,237180,6,0,B|76:186|150:255|85:275|67:257,1,159.999990463257,2|0,0:0|0:0,0:0:0:0:
72,260,237481,2,0,B|-20:184|49:110|69:175|51:193,1,159.999990463257,8|0,0:0|0:0,0:0:0:0:
178,277,237708,5,0,0:0:0:0:
178,277,237783,2,0,P|218:268|240:229,1,65.9999966955185,2|0,0:0|0:0,0:0:0:0:
264,161,237934,2,0,P|271:126|256:89,1,65.9999966955185,0|0,0:0|0:0,0:0:0:0:
390,22,238084,6,0,B|378:151|378:151|425:92,1,197.999990086556,8|0,0:0|0:0,0:0:0:0:
493,29,238386,1,2,0:0:0:0:
493,29,238461,1,0,0:0:0:0:
493,29,238537,2,0,P|509:53|509:101,1,65.9999966955185,0|0,0:0|0:0,0:0:0:0:
506,229,238687,6,0,B|423:221|470:261|342:241,1,131.999993391037,8|0,0:0|0:0,0:0:0:0:
216,324,238989,2,0,B|299:316|252:356|380:336,1,131.999993391037,0|0,0:0|0:0,0:0:0:0:
117,89,239290,6,0,P|88:125|87:170,1,79.9999952316285,8|0,0:0|0:0,0:0:0:0:
220,232,239441,2,0,P|202:189|164:165,1,79.9999952316285,0|0,0:0|0:0,0:0:0:0:
13,290,239592,2,0,P|83:309|118:234,1,159.999990463257,2|0,0:0|0:0,0:0:0:0:
219,30,239893,6,0,P|289:11|324:86,1,159.999990463257,8|0,0:0|0:0,0:0:0:0:
314,175,240120,1,0,0:0:0:0:
314,175,240195,2,0,P|317:221|320:262,1,65.9999966955185,2|0,0:0|0:0,0:0:0:0:
403,212,240346,2,0,P|400:166|397:125,1,65.9999966955185,0|0,0:0|0:0,0:0:0:0:
479,362,240496,6,0,B|499:367|538:332|490:306|447:317|374:365,1,159.999990463257,8|0,0:0|0:0,0:0:0:0:
263,328,240798,2,0,B|283:323|322:358|274:384|231:373|158:325,1,159.999990463257,2|0,0:0|0:0,0:0:0:0:
179,338,241024,1,0,0:0:0:0:
179,338,241100,1,8,0:0:0:0:
8,359,241250,2,0,P|26:339|81:333,1,79.9999952316285,0|0,0:0|0:0,0:0:0:0:
0,36,241401,6,0,P|119:53|134:269,1,359.999992275238,2|0,0:0|0:0,0:0:0:0:
206,211,241703,6,0,B|326:190|390:47|263:-4|207:92|246:175,1,359.999992275238,8|0,0:0|0:0,0:0:0:0:
229,295,242004,2,0,P|296:358|347:358,1,119.999997425079,2|0,0:0|0:0,0:0:0:0:
504,165,242155,2,0,P|437:102|386:102,1,119.999997425079,0|0,0:0|0:0,0:0:0:0:
354,261,242306,5,8,0:0:0:0:
431,247,242456,1,0,0:1:0:0:
381,188,242607,1,2,0:1:0:0:
354,261,242758,1,0,0:1:0:0:
85,278,242909,6,0,B|65:148|65:148|109:208,1,197.999990086556,8|0,0:0|0:0,0:0:0:0:
71,372,243210,1,2,0:0:0:0:
71,372,243285,1,0,0:0:0:0:
71,372,243361,2,0,P|38:351|10:309,1,65.9999966955185,0|0,0:0|0:0,0:0:0:0:
152,115,243512,5,8,0:0:0:0:
241,361,243662,2,0,P|192:348|146:338,1,65.9999966955185,0|0,0:0|0:0,0:0:0:0:
299,80,243813,5,0,0:0:0:0:
374,339,243964,2,0,P|325:326|279:316,1,65.9999966955185,0|0,0:0|0:0,0:0:0:0:
219,236,244115,6,0,P|260:214|280:157,1,79.9999952316285,8|0,0:0|0:0,0:0:0:0:
284,5,244265,2,0,P|282:51|321:97,1,79.9999952316285,0|0,0:0|0:0,0:0:0:0:
447,186,244416,2,0,P|407:161|348:172,1,79.9999952316285,2|0,0:0|0:0,0:0:0:0:
152,115,244567,5,0,0:0:0:0:
152,115,244642,1,0,0:0:0:0:
152,115,244718,2,0,B|48:71|48:71|90:178,1,197.999990086556,8|0,0:0|0:0,0:0:0:0:
6,244,245019,2,0,P|39:233|51:293,1,65.9999966955185,2|0,0:0|0:0,0:0:0:0:
314,313,245170,5,0,0:0:0:0:
314,313,245245,1,0,0:0:0:0:
314,313,245321,2,0,B|196:298|262:373|112:345,1,197.999990086556,8|0,0:0|0:0,0:0:0:0:
159,188,245622,6,0,B|183:213|183:213|173:266,1,65.9999966955185,2|0,0:0|0:0,0:0:0:0:
252,157,245773,2,0,B|276:182|276:182|266:235,1,65.9999966955185,0|0,0:0|0:0,0:0:0:0:
454,361,245924,6,0,B|405:313|405:313|436:157,1,159.999990463257,8|0,0:0|0:0,0:0:0:0:
358,149,246225,2,0,B|407:101|407:101|376:-55,1,159.999990463257,0|0,0:0|0:0,0:0:0:0:
216,6,246451,5,0,0:0:0:0:
216,6,246527,2,0,P|199:43|206:97,1,79.9999952316285,8|0,0:0|0:0,0:0:0:0:
358,149,246677,2,0,P|334:115|284:94,1,79.9999952316285,0|0,0:0|0:0,0:0:0:0:
193,287,246828,6,0,B|212:169|311:192|265:241|240:235,1,159.999990463257,2|0,0:0|0:0,0:0:0:0:
246,235,247130,2,0,B|128:215|151:116|200:162|194:187,1,159.999990463257,8|0,0:0|0:0,0:0:0:0:
367,317,247356,5,0,0:0:0:0:
367,317,247431,2,0,P|317:309|284:349,1,79.9999952316285,2|0,0:0|0:0,0:0:0:0:
209,376,247582,2,0,P|159:384|126:344,1,79.9999952316285,0|0,0:0|0:0,0:0:0:0:
46,275,247733,5,8,0:0:0:0:
46,263,247808,1,0,0:0:0:0:
47,251,247883,1,0,0:0:0:0:
47,240,247959,1,0,0:0:0:0:
48,228,248034,1,2,0:0:0:0:
49,217,248110,1,0,0:0:0:0:
49,205,248185,1,0,0:0:0:0:
50,193,248260,1,0,0:0:0:0:
51,182,248336,1,8,0:0:0:0:
51,170,248411,1,0,0:0:0:0:
52,159,248486,1,0,0:0:0:0:
53,147,248562,1,0,0:0:0:0:
53,136,248637,1,2,0:0:0:0:
54,124,248713,1,0,0:0:0:0:
54,112,248788,1,0,0:0:0:0:
55,101,248863,1,0,0:0:0:0:
117,46,248939,5,8,0:0:0:0:
117,46,249014,1,0,0:0:0:0:
117,46,249089,2,0,P|133:88|128:125,1,65.9999966955185,0|0,0:0|0:0,0:0:0:0:
4,226,249240,2,0,P|32:191|66:176,1,65.9999966955185,2|0,0:0|0:0,0:0:0:0:
214,239,249391,2,0,P|169:231|140:209,1,65.9999966955185,0|0,0:0|0:0,0:0:0:0:
292,65,249542,6,0,L|220:55,2,65.9999966955185,8|0|0,0:0|0:0|0:0,0:0:0:0:
271,152,249768,1,0,0:0:0:0:
271,152,249843,2,0,L|337:162,1,65.9999966955185,2|0,0:0|0:0,0:0:0:0:
372,260,249994,2,0,L|289:248,1,65.9999966955185,0|0,0:0|0:0,0:0:0:0:
484,336,250145,6,0,L|489:295,22,27.9999974765779,8|0|0|0|0|0|0|0|2|0|0|0|0|0|0|0|8|0|0|0|0|0|0,0:0|0:0|0:0|0:0|0:0|0:0|0:0|0:0|0:0|0:0|0:0|0:0|0:0|0:0|0:0|0:0|0:0|0:0|0:0|0:0|0:0|0:0|0:0,0:0:0:0:
394,322,251049,1,2,0:0:0:0:
394,322,251124,1,0,0:0:0:0:
394,322,251200,1,0,0:0:0:0:
394,322,251275,1,0,0:0:0:0:
394,322,251350,1,12,0:0:0:0:
256,192,251426,12,10,252557,0:0:0:0:
