osu file format v14

[General]
AudioFilename: audio.mp3
AudioLeadIn: 0
PreviewTime: 194667
Countdown: 0
SampleSet: Normal
StackLeniency: 0.3
Mode: 0
LetterboxInBreaks: 0
WidescreenStoryboard: 1

[Editor]
Bookmarks: 20999,40295,59592,78888,98185,117481,136778,156074,175371,194667,213964,233260,252557,271853,291150
DistanceSpacing: 0.3
BeatDivisor: 4
GridSize: 16
TimelineZoom: 3.999998

[Metadata]
Title:NUCLEAR-STAR
TitleUnicode:NUCLEAR-STAR
Artist:Camellia
ArtistUnicode:かめりあ
Creator:PoNo
Version:Electrical charge
Source:
Tags:crystallized cametek dubstep melodic drumstep kamel artcore
BeatmapID:1420794
BeatmapSetID:642212

[Difficulty]
HPDrainRate:4
CircleSize:4.2
OverallDifficulty:9
ApproachRate:9.7
SliderMultiplier:2.3
SliderTickRate:1

[Events]
//Background and Video events
0,0,"BG.jpg",0,0
//Break Periods
//Storyboard Layer 0 (Background)
//Storyboard Layer 1 (Fail)
//Storyboard Layer 2 (Pass)
//Storyboard Layer 3 (Foreground)
//Storyboard Sound Samples

[TimingPoints]
497,301.507537688442,4,1,1,100,1,0
20999,-200,4,3,1,80,0,0
28687,-250,4,3,1,80,0,0
29140,-333.333333333333,4,3,1,100,0,0
29441,-333.333333333333,4,3,1,80,0,0
30647,-200,4,3,1,80,0,0
35471,-200,4,3,1,70,0,0
39994,-133.333333333333,4,3,1,70,0,0
40295,-100,4,3,1,70,0,0
47833,-95.2380952380952,4,3,1,70,0,0
48135,-90.9090909090909,4,3,1,70,0,0
48436,-86.9565217391304,4,3,1,70,0,0
48738,-83.3333333333333,4,3,1,70,0,0
49039,-80,4,3,1,70,0,0
49341,-76.9230769230769,4,3,1,70,0,0
49642,-74.0740740740741,4,3,1,70,0,0
49944,-99.9999999999999,4,3,1,70,0,0
57180,-100,4,3,1,15,0,0
58989,-66.6666666666667,4,3,1,70,0,0
59592,-55.5555555555556,4,3,1,70,0,0
64115,-100,4,3,1,70,0,0
64416,-55.5555555555556,4,3,1,70,0,0
68637,-66.6666666666667,4,3,1,70,0,0
69240,-55.5555555555556,4,3,1,70,0,0
73763,-100,4,3,1,70,0,0
74064,-55.5555555555556,4,3,1,70,0,0
77079,-100,4,3,1,70,0,0
77682,-100,4,3,1,70,0,0
78587,-50,4,3,1,70,0,0
78888,-55.5555555555556,4,3,1,70,0,0
79190,-50,4,3,1,70,0,0
79491,-62.5,4,3,1,70,0,0
79944,-83.3333333333333,4,3,1,70,0,0
80094,-50,4,3,1,70,0,0
82356,-83.3333333333333,4,3,1,70,0,0
82507,-50,4,3,1,70,0,0
82808,-62.5,4,3,1,70,0,0
83110,-83.3333333333333,4,3,1,70,0,0
83411,-117.647058823529,4,3,1,70,0,0
83713,-50,4,3,1,70,0,0
84014,-62.5,4,3,1,70,0,0
84316,-50,4,3,1,70,0,0
87029,-66.6666666666667,4,3,1,70,0,0
87331,-50,4,3,1,70,0,0
87632,-200,4,3,1,70,0,0
87934,-100,4,3,1,70,0,0
88235,-133.333333333333,4,3,1,70,0,0
88838,-41.6666666666667,4,3,1,70,0,0
89140,-55.5555555555556,4,3,1,70,0,0
89743,-50,4,3,1,70,0,0
90044,-55.5555555555556,4,3,1,70,0,0
90346,-50,4,3,1,70,0,0
90647,-55.5555555555556,4,3,1,70,0,0
90798,-83.3333333333333,4,3,1,70,0,0
90949,-50,4,3,1,70,0,0
91552,-55.5555555555556,4,3,1,70,0,0
91853,-50,4,3,1,70,0,0
92155,-55.5555555555556,4,3,1,70,0,0
92456,-100,4,3,1,70,0,0
93059,-66.6666666666667,4,3,1,70,0,0
93361,-50,4,3,1,70,0,0
93964,-55.5555555555556,4,3,1,70,0,0
94265,-50,4,3,1,70,0,0
94868,-55.5555555555556,4,3,1,70,0,0
95019,-50,4,3,1,70,0,0
95773,-55.5555555555556,4,3,1,70,0,0
96225,-50,4,3,1,70,0,0
96376,-55.5555555555556,4,3,1,70,0,0
96828,-50,4,3,1,70,0,0
96979,-55.5555555555556,4,3,1,70,0,0
97205,-50,4,3,1,70,0,0
97431,-66.6666666666667,4,3,1,70,0,0
97582,-100,4,3,1,20,0,0
98185,-133.333333333333,4,3,1,70,0,0
117331,-66.6666666666667,4,3,1,70,0,0
117481,-76.9230769230769,4,3,1,70,0,0
118235,-100,4,3,1,70,0,0
119290,-200,4,3,1,70,0,0
119592,-100,4,3,1,70,0,0
119893,-69.9300699300699,4,3,1,70,0,0
119912,-69.9300699300699,4,3,1,30,0,0
120195,-303.030303030303,4,3,1,70,0,0
120798,-100,4,3,1,70,0,0
121853,-50,4,3,1,70,0,0
122004,-65.359477124183,4,3,1,70,0,0
122023,-65.359477124183,4,3,1,20,0,0
122306,-71.4285714285714,4,3,1,70,0,0
123059,-100,4,3,1,70,0,0
123512,-66.6666666666667,4,3,1,70,0,0
123964,-90.9090909090909,4,3,1,70,0,0
124115,-200,4,3,1,70,0,0
124416,-100,4,3,1,70,0,0
124718,-66.6666666666667,4,3,1,70,0,0
124736,-66.6666666666667,4,3,1,20,0,0
125019,-100,4,3,1,70,0,0
125471,-200,4,3,1,70,0,0
125942,-200,4,3,1,40,0,0
126225,-100,4,3,1,70,0,0
126527,-200,4,3,1,70,0,0
126828,-100,4,3,1,20,0,0
127130,-76.9230769230769,4,3,1,70,0,0
127883,-142.857142857143,4,3,1,70,0,0
128939,-200,4,3,1,70,0,0
129240,-125,4,3,1,70,0,0
129542,-66.6666666666667,4,3,1,70,0,0
129843,-200,4,3,1,70,0,0
130446,-100,4,3,1,70,0,0
131652,-303.030303030303,4,3,1,70,0,0
131671,-303.030303030303,4,3,1,20,0,0
131954,-303.030303030303,4,3,1,70,0,0
132105,-232.558139534884,4,3,1,70,0,0
132255,-303.030303030303,4,3,1,70,0,0
132406,-232.558139534884,4,3,1,70,0,0
132557,-136.986301369863,4,3,1,70,0,0
132708,-303.030303030303,4,3,1,70,0,0
132858,-136.986301369863,4,3,1,70,0,0
133160,-303.030303030303,4,3,1,70,0,0
133311,-232.558139534884,4,3,1,70,0,0
133461,-303.030303030303,4,3,1,70,0,0
133612,-232.558139534884,4,3,1,70,0,0
133914,-136.986301369863,4,3,1,70,0,0
135572,-147.058823529412,4,3,1,70,0,0
136778,-55.5555555555556,4,3,1,70,0,0
137381,-62.5,4,3,1,70,0,0
137682,-71.4285714285714,4,3,1,70,0,0
137984,-55.5555555555556,4,3,1,70,0,0
138285,-62.5,4,3,1,70,0,0
138587,-83.3333333333333,4,3,1,70,0,0
139190,-55.5555555555556,4,3,1,70,0,0
139491,-62.5,4,3,1,70,0,0
140999,-55.5555555555556,4,3,1,70,0,0
141602,-50,4,3,1,70,0,0
142205,-62.5,4,3,1,70,0,0
142507,-71.4285714285714,4,3,1,70,0,0
142808,-55.5555555555556,4,3,1,70,0,0
143110,-62.5,4,3,1,70,0,0
143128,-62.5,4,3,1,20,0,0
143411,-83.3333333333333,4,3,1,70,0,0
144014,-55.5555555555556,4,3,1,70,0,0
144316,-50,4,3,1,70,0,0
144617,-66.6666666666667,4,3,1,70,0,0
144843,-76.9230769230769,4,3,1,70,0,0
145220,-90.9090909090909,4,3,1,70,0,0
145823,-66.6666666666667,4,3,1,70,0,0
146426,-50,4,3,1,70,0,0
147029,-62.5,4,3,1,70,0,0
147331,-50,4,3,1,70,0,0
147632,-55.5555555555556,4,3,1,70,0,0
147934,-62.5,4,3,1,70,0,0
147953,-62.5,4,3,1,20,0,0
148235,-71.4285714285714,4,3,1,70,0,0
148838,-50,4,3,1,70,0,0
149140,-62.5,4,3,1,70,0,0
150647,-50,4,3,1,70,0,0
151250,-66.6666666666667,4,3,1,70,0,0
153662,-62.5,4,3,1,70,0,0
153964,-58.8235294117647,4,3,1,70,0,0
154265,-55.5555555555556,4,3,1,70,0,0
154567,-52.6315789473684,4,3,1,70,0,0
154868,-200,4,3,1,70,0,0
154887,-200,4,3,1,20,0,0
155471,-200,4,3,1,60,0,0
155773,-83.3333333333333,4,3,1,60,0,0
156074,-200,4,3,1,70,0,0
175371,-100,4,3,1,70,0,0
179893,-133.333333333333,4,3,1,70,0,0
180195,-100,4,3,1,70,0,0
185019,-133.333333333333,4,3,1,70,0,0
187431,-71.4285714285714,4,3,1,70,0,0
188637,-62.5,4,3,1,70,0,0
191954,-50,4,3,1,70,0,0
192255,-100,4,3,1,70,0,0
193311,-83.3333333333333,4,3,1,70,0,0
194366,-55.5555555555556,4,3,1,70,0,0
194667,-66.6666666666667,4,3,1,70,0,1
212758,-100,4,3,1,70,0,0
213964,-200,4,3,1,70,0,0
214265,-66.6666666666667,4,3,1,70,0,1
216376,-55.5555555555556,4,3,1,70,0,1
216677,-66.6666666666667,4,3,1,70,0,1
221803,-100,4,3,1,70,0,1
222105,-200,4,3,1,70,0,1
222406,-66.6666666666667,4,3,1,70,0,1
222858,-100,4,3,1,70,0,1
223311,-125,4,3,1,70,0,1
223612,-66.6666666666667,4,3,1,70,0,1
224290,-100,4,3,1,70,0,1
224517,-66.6666666666667,4,3,1,70,0,1
226929,-142.857142857143,4,3,1,70,0,1
227079,-100,4,3,1,70,0,1
227230,-66.6666666666667,4,3,1,70,0,1
227682,-100,4,3,1,70,0,1
232054,-76.9230769230769,4,3,1,70,0,1
232657,-200,4,3,1,70,0,0
232959,-66.6666666666667,4,3,1,70,0,0
233260,-55.5555555555556,4,3,1,70,0,0
234014,-200,4,3,1,70,0,0
234316,-55.5555555555556,4,3,1,70,0,0
236426,-200,4,3,1,70,0,0
236728,-55.5555555555556,4,3,1,70,0,0
238838,-200,4,3,1,70,0,0
239140,-55.5555555555556,4,3,1,70,0,0
241703,-55.5555555555556,4,3,1,10,0,0
242004,-55.5555555555556,4,3,1,70,0,0
242306,-55.5555555555556,4,3,1,40,0,0
242607,-55.5555555555556,4,3,1,10,0,0
242909,-55.5555555555556,4,3,1,70,0,0
243662,-200,4,3,1,70,0,0
243964,-55.5555555555556,4,3,1,70,0,0
246073,-200,4,3,1,70,0,0
246376,-55.5555555555556,4,3,1,70,0,0
251351,-1000,4,3,1,70,0,0
252557,-200,4,3,1,70,0,0

[Colours]
Combo1 : 192,192,192
Combo2 : 255,43,255
Combo3 : 43,255,255
Combo4 : 255,255,255

[HitObjects]
232,174,20999,6,0,B|293:162|293:162|339:179|339:179|412:164,2,172.5,0|0|0,0:0|0:0|0:0,0:0:0:0:
159,40,22054,5,0,0:0:0:0:
159,40,22105,1,0,0:0:0:0:
159,40,22155,1,0,0:0:0:0:
159,40,22205,2,0,B|195:138|122:112|153:221,2,172.5,0|0|0,0:0|0:0|0:0,0:0:0:0:
60,159,23260,5,0,0:0:0:0:
60,159,23311,1,0,0:0:0:0:
60,159,23361,1,0,0:0:0:0:
60,159,23411,2,0,P|58:195|67:224,2,57.5,0|0|0,0:0|0:0|0:0,0:0:0:0:
225,287,23863,6,0,B|146:256|146:256|65:312,1,172.5,0|0,0:0|0:0,0:0:0:0:
161,380,24416,2,0,L|155:327,2,38.3333333333333,0|0|0,0:0|0:0|0:0,0:0:0:0:
300,266,24768,6,0,P|302:294|296:322,1,57.5,0|0,0:0|0:0,0:0:0:0:
389,225,25069,2,0,L|380:349,1,115,0|0,0:0|0:0,0:0:0:0:
469,277,25522,2,0,P|464:305|468:333,1,57.5,0|0,0:0|0:0,0:0:0:0:
451,157,25823,6,0,P|379:132|303:191,2,172.5,0|0|0,0:0|0:0|0:0,0:0:0:0:
389,225,26878,1,0,0:0:0:0:
229,130,27029,6,0,P|154:148|43:159,2,172.5,0|0|0,0:0|0:0|0:0,0:0:0:0:
299,80,28084,1,0,0:0:0:0:
221,211,28235,6,0,P|221:275|213:346,1,115,0|0,0:0|0:0,0:0:0:0:
305,184,28687,6,0,P|337:239|351:277,1,92,0|0,0:0|0:0,0:0:0:0:
370,120,29140,6,0,P|412:144|436:164,2,68.9999978942872,0|0|0,0:0|0:0|0:0,0:0:0:0:
59,158,30647,6,0,B|112:136|112:136|179:158,1,115,0|0,0:0|0:0,0:0:0:0:
115,244,31100,2,0,L|113:211,2,28.75,0|0|0,0:0|0:0|0:0,0:0:0:0:
240,126,31401,1,0,0:0:0:0:
240,126,31552,2,0,P|242:173|233:201,1,57.5,0|0,0:0|0:0,0:0:0:0:
187,290,31753,5,0,0:0:0:0:
195,284,31803,1,0,0:0:0:0:
202,280,31853,2,0,P|258:279|327:271,1,115,0|0,0:0|0:0,0:0:0:0:
469,215,32306,1,0,0:0:0:0:
465,234,32381,1,0,0:0:0:0:
462,253,32456,2,0,L|461:299,2,28.75,0|0|0,0:0|0:0|0:0,0:0:0:0:
378,211,32758,2,0,L|373:152,1,57.5,0|0,0:0|0:0,0:0:0:0:
474,58,32959,5,0,0:0:0:0:
470,68,33009,1,0,0:0:0:0:
465,76,33059,2,0,B|335:76,1,115,0|0,0:0|0:0,0:0:0:0:
221,47,33512,1,0,0:0:0:0:
197,56,33587,1,0,0:0:0:0:
178,72,33662,1,0,0:0:0:0:
166,95,33738,1,0,0:0:0:0:
163,120,33813,1,0,0:0:0:0:
239,182,33964,2,0,P|243:154|240:126,1,57.5,0|0,0:0|0:0,0:0:0:0:
87,52,34165,5,0,0:0:0:0:
79,60,34215,1,0,0:0:0:0:
73,66,34265,2,0,L|81:197,1,115,0|0,0:0|0:0,0:0:0:0:
159,270,34718,1,0,0:0:0:0:
159,270,34793,1,0,0:0:0:0:
159,270,34868,2,0,L|167:198,1,57.5,0|0,0:0|0:0,0:0:0:0:
22,316,35170,2,0,L|8:242,1,57.5,0|0,0:0|0:0,0:0:0:0:
111,341,35471,6,0,P|164:317|238:343,1,115,0|0,0:0|0:0,0:0:0:0:
300,264,35924,2,0,L|299:227,2,28.75,0|0|0,0:0|0:0|0:0,0:0:0:0:
388,320,36225,1,0,0:0:0:0:
388,320,36376,2,0,P|404:278|401:251,1,57.5,0|0,0:0|0:0,0:0:0:0:
298,150,36677,6,0,L|300:276,1,115,0|0,0:0|0:0,0:0:0:0:
399,177,37130,1,0,0:0:0:0:
399,177,37205,1,0,0:0:0:0:
399,177,37280,2,0,L|388:110,1,57.5,0|0,0:0|0:0,0:0:0:0:
196,237,37582,2,0,L|207:170,1,57.5,0|0,0:0|0:0,0:0:0:0:
282,62,37883,6,0,P|249:72|212:77,1,57.5,0|0,0:0|0:0,0:0:0:0:
126,78,38185,1,0,0:0:0:0:
126,78,38336,2,0,P|133:44|148:9,1,57.5,0|0,0:0|0:0,0:0:0:0:
15,168,38637,1,0,0:0:0:0:
15,168,38788,2,0,P|7:134|-7:99,1,57.5,0|0,0:0|0:0,0:0:0:0:
124,194,39089,1,0,0:0:0:0:
124,194,39994,6,0,L|130:221,7,21.5625008225441,0|0|0|0|0|0|0|0,0:0|0:0|0:0|0:0|0:0|0:0|0:0|0:0,0:0:0:0:
76,276,40295,6,0,B|129:292|129:292|273:251,1,172.5,8|0,0:0|0:0,0:0:0:0:
241,259,40597,1,0,0:0:0:0:
124,194,40748,1,0,0:0:0:0:
317,115,40899,2,0,L|307:267,1,115,0|0,0:0|0:0,0:0:0:0:
234,179,41200,1,0,0:0:0:0:
401,200,41351,1,0,0:0:0:0:
401,200,41426,1,0,0:0:0:0:
401,200,41502,6,0,B|456:208|456:208|399:345,1,172.5,8|0,0:0|0:0,0:0:0:0:
411,315,41803,1,0,0:0:0:0:
485,138,41954,1,0,0:0:0:0:
301,344,42105,2,0,L|308:229,1,115,0|0,0:0|0:0,0:0:0:0:
317,115,42406,1,0,0:0:0:0:
142,226,42557,1,0,0:0:0:0:
142,226,42632,1,0,0:0:0:0:
142,226,42708,6,0,B|185:208|229:234|229:234|265:222|265:222|347:235,1,172.5,8|0,0:0|0:0,0:0:0:0:
308,228,43009,1,0,0:0:0:0:
199,130,43160,1,0,0:0:0:0:
128,338,43311,2,0,P|144:269|128:182,1,115,0|0,0:0|0:0,0:0:0:0:
77,99,43612,1,0,0:0:0:0:
31,291,43763,1,0,0:0:0:0:
31,291,43838,1,0,0:0:0:0:
31,291,43914,6,0,B|74:275|74:275|223:295,1,172.5,8|0,0:0|0:0,0:0:0:0:
199,291,44215,1,0,0:0:0:0:
0,384,44366,1,0,0:0:0:0:
46,209,44517,2,0,L|77:99,1,115,0|0,0:0|0:0,0:0:0:0:
184,64,44818,2,0,B|216:99|216:99|349:94,1,172.5,0|0,0:0|0:0,0:0:0:0:
421,39,45120,6,0,L|398:229,1,172.5,8|0,0:0|0:0,0:0:0:0:
400,210,45421,1,0,0:0:0:0:
498,115,45572,1,0,0:0:0:0:
331,277,45723,2,0,B|261:271|261:271|229:281|229:281|123:268,1,172.5,0|0,0:0|0:0,0:0:0:0:
46,209,46024,1,0,0:0:0:0:
51,219,46175,1,0,0:0:0:0:
129,341,46326,6,0,B|159:316|159:316|166:177,1,172.5,8|0,0:0|0:0,0:0:0:0:
169,79,46627,1,0,0:0:0:0:
51,219,46778,1,0,0:0:0:0:
241,164,46929,2,0,B|281:151|281:151|250:281,1,172.5,0|0,0:0|0:0,0:0:0:0:
342,365,47230,1,0,0:0:0:0:
337,355,47381,1,0,0:0:0:0:
471,259,47532,6,0,L|358:243,1,115,8|0,0:0|0:0,0:0:0:0:
471,259,47833,2,0,B|434:250|416:235|416:235|394:243|358:243,1,120.749996315003,0|0,0:0|0:0,0:0:0:0:
471,259,48135,2,0,B|434:250|417:228|417:228|394:243|358:243,1,126.500003860474,0|0,0:0|0:0,0:0:0:0:
471,259,48436,2,0,B|434:250|417:222|417:222|394:243|358:243,1,132.250002522469,0|0,0:0|0:0,0:0:0:0:
240,163,48738,6,0,L|252:323,1,137.999995788574,8|0,0:0|0:0,0:0:0:0:
240,163,49039,2,0,B|252:215|252:215|238:250|238:250|254:323,1,143.75,0|0,0:0|0:0,0:0:0:0:
240,163,49341,2,0,B|256:214|256:214|234:249|234:249|255:321,1,149.499993156433,0|0,0:0|0:0,0:0:0:0:
240,163,49642,2,0,B|259:214|259:214|231:249|231:249|255:321,1,155.250000592232,0|0,0:0|0:0,0:0:0:0:
420,357,49944,5,8,0:0:0:0:
339,246,50094,1,0,0:0:0:0:
469,288,50245,1,0,0:0:0:0:
339,330,50396,1,0,0:0:0:0:
420,220,50547,1,0,0:0:0:0:
420,357,50698,1,0,0:0:0:0:
339,246,50848,1,0,0:0:0:0:
469,288,50999,1,0,0:0:0:0:
265,333,51150,5,8,0:0:0:0:
449,222,51300,1,0,0:0:0:0:
238,203,51451,1,0,0:0:0:0:
399,341,51602,1,0,0:0:0:0:
350,135,51753,1,0,0:0:0:0:
265,333,51904,1,0,0:0:0:0:
449,222,52054,1,0,0:0:0:0:
238,203,52205,1,0,0:0:0:0:
329,284,52356,5,8,0:0:0:0:
117,193,52506,1,0,0:0:0:0:
339,142,52657,1,0,0:0:0:0:
188,314,52808,1,0,0:0:0:0:
210,87,52959,1,0,0:0:0:0:
329,284,53110,1,0,0:0:0:0:
117,193,53260,1,0,0:0:0:0:
339,142,53411,1,0,0:0:0:0:
114,321,53562,5,8,0:0:0:0:
390,202,53712,1,0,0:0:0:0:
100,135,53863,1,0,0:0:0:0:
297,360,54014,1,0,0:0:0:0:
269,64,54165,1,0,0:0:0:0:
114,321,54316,1,0,0:0:0:0:
390,202,54466,1,0,0:0:0:0:
100,135,54617,1,0,0:0:0:0:
278,154,54768,5,8,0:0:0:0:
287,121,54843,1,0,0:0:0:0:
282,87,54918,1,0,0:0:0:0:
264,58,54994,1,0,0:0:0:0:
236,38,55069,1,8,0:0:0:0:
202,33,55144,1,0,0:0:0:0:
169,41,55220,1,0,0:0:0:0:
142,62,55295,1,0,0:0:0:0:
126,92,55371,6,0,L|117:167,3,57.5,8|0|0|0,0:0|0:0|0:0|0:0,0:0:0:0:
182,197,55672,2,0,L|191:271,3,57.5,8|0|0|0,0:0|0:0|0:0|0:0,0:0:0:0:
232,337,55974,5,8,0:0:0:0:
174,332,56049,1,0,0:0:0:0:
117,327,56124,1,0,0:0:0:0:
60,322,56200,1,0,0:0:0:0:
3,317,56275,1,8,0:0:0:0:
71,313,56350,1,0,0:0:0:0:
140,309,56425,1,0,0:0:0:0:
209,306,56501,1,0,0:0:0:0:
278,302,56577,6,0,L|332:301,7,28.75,8|0|0|0|0|0|0|0,0:0|0:0|0:0|0:0|0:0|0:0|0:0|0:0,0:0:0:0:
374,266,56878,2,0,L|428:265,7,28.75,0|0|0|0|0|0|0|0,0:0|0:0|0:0|0:0|0:0|0:0|0:0|0:0,0:0:0:0:
444,337,57180,6,0,L|498:336,31,28.75,4|0|0|0|0|0|0|0|0|0|0|0|0|0|0|0|0|0|0|0|0|0|0|0|0|0|0|0|0|0|0|0,0:0|0:0|0:0|0:0|0:0|0:0|0:0|0:0|0:0|0:0|0:0|0:0|0:0|0:0|0:0|0:0|0:0|0:0|0:0|0:0|0:0|0:0|0:0|0:0|0:0|0:0|0:0|0:0|0:0|0:0|0:0|0:0,0:0:0:0:
428,355,58386,6,0,L|345:346,3,57.5,0|0|0|0,0:0|0:0|0:0|0:0,0:0:0:0:
306,301,58687,2,0,L|248:307,3,57.5,0|0|0|0,0:0|0:0|0:0|0:0,0:0:0:0:
191,366,58989,2,0,L|104:356,1,86.2500032901765,0|0,0:0|0:0,0:0:0:0:
0,270,59140,2,0,L|86:260,1,86.2500032901765,0|0,0:0|0:0,0:0:0:0:
270,206,59290,6,0,P|226:201|190:182,1,86.2500032901765,0|0,0:0|0:0,0:0:0:0:
108,157,59441,2,0,P|152:162|188:181,1,86.2500032901765,0|0,0:0|0:0,0:0:0:0:
342,239,59592,6,0,P|313:197|325:148,1,103.499996841431,12|0,0:0|0:0,0:0:0:0:
465,124,59743,2,0,P|493:165|481:214,1,103.499996841431,0|0,0:0|0:0,0:0:0:0:
279,346,59893,2,0,B|330:343|363:383|363:383|427:293|326:291|406:180,1,310.499990524292,2|0,0:0|0:0,0:0:0:0:
389,97,60195,6,0,B|399:28|301:5|261:87|304:128,1,206.999993682861,8|0,0:0|0:0,0:0:0:0:
85,260,60496,2,0,B|42:300|82:382|180:359|170:290,1,206.999993682861,2|0,0:0|0:0,0:0:0:0:
274,61,60798,6,0,P|298:140|363:21,1,310.499990524292,8|0,0:0|0:0,0:0:0:0:
276,145,61100,2,0,P|371:164|424:82,1,206.999993682861,2|0,0:0|0:0,0:0:0:0:
61,175,61401,6,0,B|7:155|8:108|8:108|126:63|197:169,1,310.499990524292,8|0,0:0|0:0,0:0:0:0:
239,321,61703,2,0,P|227:271|256:230,1,103.499996841431,2|0,0:0|0:0,0:0:0:0:
479,265,61853,1,0,0:0:0:0:
479,265,61929,1,0,0:0:0:0:
479,265,62004,6,0,P|490:314|461:355,1,103.499996841431,12|0,0:0|0:0,0:0:0:0:
373,352,62155,2,0,L|360:230,1,103.499996841431,0|0,0:0|0:0,0:0:0:0:
459,57,62306,2,0,B|430:192|430:192|407:162|370:156,1,206.999993682861,2|0,0:0|0:0,0:0:0:0:
196,168,62532,1,0,0:0:0:0:
188,179,62607,6,0,P|190:57|276:145,1,310.499990524292,8|0,0:0|0:0,0:0:0:0:
223,267,62909,2,0,B|121:313|129:193|32:236,1,206.999993682861,2|0,0:0|0:0,0:0:0:0:
337,206,63210,6,0,B|347:95|447:161|459:57,1,206.999993682861,8|0,0:0|0:0,0:0:0:0:
442,306,63512,2,0,P|454:257|428:213,1,103.499996841431,2|0,0:0|0:0,0:0:0:0:
172,117,63662,2,0,P|208:152|258:151,1,103.499996841431,0|0,0:0|0:0,0:0:0:0:
364,39,63813,5,8,0:0:0:0:
314,288,63964,1,0,0:0:0:0:
364,39,64115,6,0,B|313:9|313:9|327:121,1,172.5,2|0,0:0|0:0,0:0:0:0:
497,176,64416,6,0,P|446:176|410:141,1,103.499996841431,12|0,0:0|0:0,0:0:0:0:
170,201,64567,2,0,P|206:165|256:166,1,103.499996841431,0|0,0:0|0:0,0:0:0:0:
375,235,64718,2,0,B|428:274|401:350|401:350|292:377|334:288|214:314,1,310.499990524292,2|0,0:0|0:0,0:0:0:0:
84,235,65019,6,0,B|38:276|62:327|62:327|121:341|149:289,1,206.999993682861,8|0,0:0|0:0,0:0:0:0:
172,122,65245,1,0,0:0:0:0:
179,112,65321,2,0,B|165:51|109:46|109:46|67:91|99:142,1,206.999993682861,2|0,0:0|0:0,0:0:0:0:
168,212,65547,1,0,0:0:0:0:
170,201,65622,6,0,B|276:135|278:238|385:159|385:159|374:111|410:80,1,310.499990524292,8|0,0:0|0:0,0:0:0:0:
455,138,65924,2,0,P|466:43|374:17,1,206.999993682861,2|0,0:0|0:0,0:0:0:0:
91,169,66225,6,0,B|153:166|180:112|180:112|209:226|100:183|132:311,1,310.499990524292,8|0,0:0|0:0,0:0:0:0:
397,284,66527,2,0,B|327:267|278:317|278:317|260:275|210:271,1,206.999993682861,2|0,0:0|0:0,0:0:0:0:
371,181,66828,6,0,P|404:143|455:138,1,103.499996841431,12|0,0:0|0:0,0:0:0:0:
455,138,66979,2,0,P|410:9|294:80,1,310.499990524292,0|0,0:0|0:0,0:0:0:0:
294,78,67280,6,0,P|260:40|209:34,1,103.499996841431,0|0,0:0|0:0,0:0:0:0:
139,207,67431,2,0,P|172:244|223:250,1,103.499996841431,8|0,0:0|0:0,0:0:0:0:
217,140,67582,2,0,L|123:96,1,103.499996841431,0|0,0:0|0:0,0:0:0:0:
33,56,67733,1,2,0:0:0:0:
53,265,67883,6,0,P|147:362|223:249,1,310.499990524292,0|0,0:0|0:0,0:0:0:0:
293,214,68185,2,0,P|343:219|377:256,1,103.499996841431,0|0,0:0|0:0,0:0:0:0:
377,358,68336,1,2,0:0:0:0:
377,358,68486,1,8,0:0:0:0:
377,358,68637,6,0,P|376:322|397:262,1,86.2500032901765,8|0,0:0|0:0,0:0:0:0:
499,229,68788,2,0,P|500:193|479:133,1,86.2500032901765,0|0,0:0|0:0,0:0:0:0:
294,78,68939,6,0,B|275:42|241:27|241:27|421:66,1,258.75000987053,10|0,0:0|0:0,0:0:0:0:
203,116,69240,6,0,B|180:153|180:153|198:216,1,103.499996841431,12|0,0:0|0:0,0:0:0:0:
316,379,69391,2,0,B|293:342|293:342|311:279,1,103.499996841431,0|0,0:0|0:0,0:0:0:0:
439,41,69542,2,0,B|495:101|495:101|463:248|463:248|389:273,1,310.499990524292,2|0,0:0|0:0,0:0:0:0:
124,264,69843,6,0,B|200:240|200:240|219:193|219:193|291:170,1,206.999993682861,8|0,0:0|0:0,0:0:0:0:
477,377,70145,2,0,B|400:353|400:353|381:306|381:306|309:283,1,206.999993682861,2|0,0:0|0:0,0:0:0:0:
55,6,70446,6,0,B|128:65|128:65|84:140|84:140|124:264,1,310.499990524292,8|0,0:0|0:0,0:0:0:0:
201,238,70748,2,0,B|173:152|173:152|207:91|207:91|206:137,1,206.999993682861,2|0,0:0|0:0,0:0:0:0:
47,351,71049,6,0,B|26:294|26:294|216:318|216:318|180:364,1,310.499990524292,8|0,0:0|0:0,0:0:0:0:
417,235,71351,2,0,B|406:290|406:290|310:310|310:310|277:268,1,206.999993682861,2|0,0:0|0:0,0:0:0:0:
329,117,71652,5,12,0:0:0:0:
329,117,71728,1,0,0:0:0:0:
329,117,71803,2,0,B|338:158|338:158|332:176|332:176|340:217,1,103.499996841431,0|0,0:0|0:0,0:0:0:0:
363,374,71954,2,0,B|468:351|468:351|508:140|505:152,1,310.499990524292,2|0,0:0|0:0,0:0:0:0:
434,12,72255,6,0,B|412:44|412:44|426:106,1,103.499996841431,8|0,0:0|0:0,0:0:0:0:
218,212,72406,2,0,B|240:180|240:180|225:117,1,103.499996841431,0|0,0:0|0:0,0:0:0:0:
299,0,72557,2,0,L|374:316,1,310.499990524292,2|0,0:0|0:0,0:0:0:0:
167,344,72858,6,0,B|116:301|116:301|292:331|292:331|276:267,1,310.499990524292,8|0,0:0|0:0,0:0:0:0:
46,239,73160,2,0,B|22:282|22:282|32:335,1,103.499996841431,2|0,0:0|0:0,0:0:0:0:
363,374,73311,2,0,B|387:331|387:331|376:277,1,103.499996841431,0|0,0:0|0:0,0:0:0:0:
225,117,73461,5,8,0:0:0:0:
225,117,73612,1,0,0:0:0:0:
225,117,73763,6,0,B|192:164|192:164|305:148,1,172.5,2|0,0:0|0:0,0:0:0:0:
317,227,74064,6,0,L|214:241,1,103.499996841431,12|0,0:0|0:0,0:0:0:0:
193,40,74215,2,0,L|295:25,1,103.499996841431,0|0,0:0|0:0,0:0:0:0:
431,137,74366,6,0,B|424:207|424:207|382:35|382:35|437:67,1,310.499990524292,2|0,0:0|0:0,0:0:0:0:
408,276,74667,2,0,B|333:262|333:262|312:242|312:242|285:254|285:254|213:241,1,206.999993682861,8|0,0:0|0:0,0:0:0:0:
30,151,74969,2,0,B|102:138|102:138|129:150|129:150|150:130|150:130|225:117,1,206.999993682861,2|0,0:0|0:0,0:0:0:0:
431,137,75270,6,0,B|476:157|476:157|498:41|498:41|357:67,1,310.499990524292,8|0,0:0|0:0,0:0:0:0:
145,50,75572,2,0,B|217:73|217:73|236:120|236:120|312:144,1,206.999993682861,2|0,0:0|0:0,0:0:0:0:
131,166,75873,6,0,B|86:192|86:192|63:253,1,103.499996841431,8|0,0:0|0:0,0:0:0:0:
186,259,76024,2,0,B|160:304|160:304|170:368,1,103.499996841431,8|0,0:0|0:0,0:0:0:0:
381,166,76175,2,0,B|426:192|426:192|449:253,1,103.499996841431,2|0,0:0|0:0,0:0:0:0:
326,259,76326,2,0,B|351:304|351:304|341:368,1,103.499996841431,8|0,0:0|0:0,0:0:0:0:
256,320,76476,5,8,0:0:0:0:
256,308,76552,1,0,0:0:0:0:
256,296,76627,1,0,0:0:0:0:
256,284,76703,1,0,0:0:0:0:
256,272,76778,1,2,0:0:0:0:
256,260,76853,1,0,0:0:0:0:
256,248,76929,1,0,0:0:0:0:
256,236,77004,1,0,0:0:0:0:
256,224,77079,6,0,L|256:166,3,57.5,8|0|8|0,0:0|0:0|0:0|0:0,0:0:0:0:
129,25,77381,2,0,L|153:77,1,57.5,2|0,0:0|0:0,0:0:0:0:
383,25,77532,2,0,L|358:77,1,57.5,8|0,0:0|0:0,0:0:0:0:
169,272,77682,6,0,P|139:223|154:170,1,115,12|0,0:0|0:0,0:0:0:0:
142,156,77883,2,0,P|169:107|223:92,1,115,0|0,0:0|0:0,0:0:0:0:
229,76,78084,2,0,P|285:74|325:114,1,115,0|0,0:0|0:0,0:0:0:0:
342,111,78285,2,0,P|372:158|357:212,1,115,0|0,0:0|0:0,0:0:0:0:
369,226,78512,1,0,0:0:0:0:
369,226,78587,6,0,B|341:275|341:275|285:290,1,115,8|0,0:0|0:0,0:0:0:0:
282,306,78738,2,0,B|226:306|226:306|185:265,1,115,8|0,0:0|0:0,0:0:0:0:
137,72,78888,6,0,B|165:120|165:120|152:166,1,103.499996841431,12|0,0:0|0:0,0:0:0:0:
11,301,79039,2,0,B|39:252|39:252|84:240,1,103.499996841431,0|0,0:0|0:0,0:0:0:0:
256,166,79190,6,0,B|289:158|323:169|323:169|176:86|204:253|57:180,1,345,2|0,0:0|0:0,0:0:0:0:
11,44,79491,6,0,B|103:-15|103:-15|167:16|174:88|110:129,1,276,8|0,0:0|0:0,0:0:0:0:
0,224,79793,2,0,P|-11:175|14:130,1,92,2|0,0:0|0:0,0:0:0:0:
284,237,79944,6,0,L|280:330,1,68.9999978942872,0|0,0:0|0:0,0:0:0:0:
128,329,80094,6,0,B|108:335|91:349|91:349|122:272|195:287|195:287|191:346|237:402|312:382,1,345,8|0,0:0|0:0,0:0:0:0:
488,209,80396,2,0,B|477:155|402:113|306:179|343:324|425:378,1,345,2|0,0:0|0:0,0:0:0:0:
432,364,80698,2,0,P|370:268|270:335,1,230,8|0,0:0|0:0,0:0:0:0:
5,138,80999,6,0,P|67:234|167:167,1,230,2|0,0:0|0:0,0:0:0:0:
251,104,81225,1,0,0:0:0:0:
262,119,81301,2,0,B|158:63|158:63|80:162,1,230,12|0,0:0|0:0,0:0:0:0:
331,253,81602,6,0,B|258:309|258:309|182:277|158:172|254:101,1,345,2|0,0:0|0:0,0:0:0:0:
456,44,81904,6,0,B|434:78|434:78|349:88,1,115,8|0,0:0|0:0,0:0:0:0:
88,150,82054,1,0,0:0:0:0:
65,153,82130,1,0,0:0:0:0:
42,155,82205,2,0,B|64:121|64:121|149:111,1,115,2|0,0:0|0:0,0:0:0:0:
244,35,82356,6,0,L|254:138,1,68.9999978942872,0|0,0:0|0:0,0:0:0:0:
258,309,82507,6,0,B|229:331|216:354|216:354|161:280|231:227|231:227|292:179|243:89,1,345,8|0,0:0|0:0,0:0:0:0:
68,16,82808,6,0,B|42:155|42:155|197:161,1,276,2|0,0:0|0:0,0:0:0:0:
360,86,83110,6,0,L|352:-1,2,68.9999978942872,8|0|8,0:0|0:0|0:0,0:0:0:0:
250,103,83411,6,0,P|199:183|240:234,1,146.62500279665,2|0,0:0|0:0,0:0:0:0:
360,162,83713,6,0,B|412:160|436:104|436:104|498:159|514:271|395:323,1,345,8|0,0:0|0:0,0:0:0:0:
258,309,84014,6,0,P|348:268|400:336,1,184,2|0,0:0|0:0,0:0:0:0:
218,219,84240,5,0,0:0:0:0:
202,215,84316,2,0,B|116:186|116:186|20:241|32:331|99:352|148:340|162:284,1,345,8|0,0:0|0:0,0:0:0:0:
326,339,84617,2,0,B|356:189|356:189|260:171,1,230,2|0,0:0|0:0,0:0:0:0:
59,76,84919,6,0,B|24:73|-9:80|-9:80|148:3|94:148|269:96,1,345,8|0,0:0|0:0,0:0:0:0:
431,59,85220,6,0,B|435:-3|332:-9|298:74|385:160,1,230,2|0,0:0|0:0,0:0:0:0:
491,316,85446,5,0,0:0:0:0:
509,317,85522,2,0,B|480:150|480:150|345:269,1,345,8|0,0:0|0:0,0:0:0:0:
162,175,85823,2,0,B|227:269|227:269|313:190,1,230,2|0,0:0|0:0,0:0:0:0:
420,328,86125,6,0,B|221:425|296:240|87:318,1,345,8|0,0:0|0:0,0:0:0:0:
6,198,86426,6,0,B|70:218|70:218|45:393,1,230,2|0,0:0|0:0,0:0:0:0:
312,190,86652,5,0,0:0:0:0:
309,166,86728,2,0,P|277:143|186:263,1,230,8|0,0:0|0:0,0:0:0:0:
420,144,87029,6,0,L|431:52,3,86.2500032901765,0|0|0|0,0:0|0:0|0:0|0:0,0:0:0:0:
339,356,87331,6,0,B|338:206|338:206|341:201|341:201|338:197|338:197|335:-12,1,345,12|0,0:0|0:0,0:0:0:0:
145,211,87632,6,0,L|115:254,3,28.75,8|0|0|0,0:0|0:0|0:0|0:0,0:0:0:0:
154,85,87934,6,0,L|115:4,3,57.5,2|0|0|0,0:0|0:0|0:0|0:0,0:0:0:0:
263,163,88235,6,0,L|331:168,3,43.1250016450883,8|0|0|0,0:0|0:0|0:0|0:0,0:0:0:0:
189,152,88537,5,12,0:0:0:0:
189,152,88838,6,0,B|144:141|109:153|109:153|142:88|197:72|260:88|260:88|285:186|400:167,1,413.999987365723,2|0,0:0|0:0,0:0:0:0:
385,8,89140,6,0,P|350:28|359:98,1,103.499996841431,8|0,0:0|0:0,0:0:0:0:
474,221,89290,2,0,L|482:93,1,103.499996841431,0|0,0:0|0:0,0:0:0:0:
309,242,89441,6,0,B|357:282|357:282|433:230|383:141,1,206.999993682861,2|0,0:0|0:0,0:0:0:0:
512,340,89667,5,0,0:0:0:0:
500,319,89743,2,0,B|417:258|345:323|345:323|258:403|184:344,1,345,8|10,0:0|0:0,0:0:0:0:
236,195,90044,6,0,B|263:230|263:230|249:297,1,103.499996841431,0|0,0:0|0:0,0:0:0:0:
80,364,90195,2,0,B|53:329|53:329|65:270,1,103.499996841431,8|0,0:0|0:0,0:0:0:0:
104,120,90346,6,0,B|149:132|185:101|185:101|218:181|143:240,1,230,0|0,0:0|0:0,0:0:0:0:
39,171,90572,5,0,0:0:0:0:
24,156,90647,2,0,P|14:107|66:47,1,103.499996841431,2|0,0:0|0:0,0:0:0:0:
339,99,90798,6,0,L|331:188,1,68.9999978942872,0|0,0:0|0:0,0:0:0:0:
250,288,90949,6,0,B|215:236|154:230|154:230|289:178|238:293|372:263,1,345,8|0,0:0|0:0,0:0:0:0:
501,163,91250,2,0,B|484:98|380:89|347:156|335:266|448:324,1,345,2|0,0:0|0:0,0:0:0:0:
281,367,91552,6,0,P|237:375|188:347,1,103.499996841431,8|0,0:0|0:0,0:0:0:0:
80,364,91703,2,0,P|51:329|50:273,1,103.499996841431,0|0,0:0|0:0,0:0:0:0:
125,79,91853,6,0,B|208:-2|208:-2|283:35|293:152|226:202,1,345,2|0,0:0|0:0,0:0:0:0:
80,265,92155,6,0,P|162:176|219:225,1,206.999993682861,8|8,0:0|0:0,0:0:0:0:
437,318,92456,6,0,B|362:364|362:364|281:302,1,172.5,2|0,0:0|0:0,0:0:0:0:
381,129,92758,5,8,0:0:0:0:
377,162,92833,1,0,0:0:0:0:
374,196,92909,1,0,0:0:0:0:
370,230,92984,1,0,0:0:0:0:
366,264,93059,6,0,L|348:177,1,86.2500032901765,2|0,0:0|0:0,0:0:0:0:
133,333,93210,2,0,L|151:246,1,86.2500032901765,0|0,0:0|0:0,0:0:0:0:
289,24,93361,6,0,B|209:50|209:50|239:218,1,230,8|0,0:0|0:0,0:0:0:0:
437,318,93662,2,0,B|517:292|517:292|487:124,1,230,2|0,0:0|0:0,0:0:0:0:
125,79,93964,6,0,B|106:127|106:127|133:186,1,103.499996841431,8|0,0:0|0:0,0:0:0:0:
366,264,94115,2,0,B|387:216|387:216|368:168,1,103.499996841431,0|0,0:0|0:0,0:0:0:0:
61,207,94265,6,0,L|313:214,1,230,2|0,0:0|0:0,0:0:0:0:
471,70,94567,2,0,L|219:77,1,230,8|0,0:0|0:0,0:0:0:0:
118,282,94868,6,0,L|137:402,1,103.499996841431,0|0,0:0|0:0,0:0:0:0:
409,366,95019,6,0,P|321:286|206:329,1,230,8|0,0:0|0:0,0:0:0:0:
231,332,95245,1,0,0:0:0:0:
249,343,95321,2,0,P|268:258|234:225,1,115,8|0,0:0|0:0,0:0:0:0:
53,104,95471,2,0,P|34:156|60:206,1,115,2|0,0:0|0:0,0:0:0:0:
307,123,95622,2,0,P|325:70|299:20,1,115,8|0,0:0|0:0,0:0:0:0:
165,153,95773,6,0,B|223:140|223:140|390:172,1,206.999993682861,8|0,0:0|0:0,0:0:0:0:
458,255,95999,2,0,B|400:268|400:268|233:236,1,206.999993682861,8|0,0:0|0:0,0:0:0:0:
241,228,96225,6,0,L|249:357,1,115,2|0,0:0|0:0,0:0:0:0:
248,342,96376,1,8,0:0:0:0:
53,104,96602,6,0,L|42:333,1,206.999993682861,8|0,0:0|0:0,0:0:0:0:
31,330,96828,6,0,P|73:315|136:347,1,115,2|0,0:0|0:0,0:0:0:0:
133,343,96979,1,8,0:0:0:0:
345,277,97205,6,0,B|301:197|301:197|389:159|389:159|384:210,1,230,2|0,0:0|0:0,0:0:0:0:
436,93,97431,6,0,P|465:138|456:192,1,86.2500032901765,0|0,0:0|0:0,0:0:0:0:
501,325,97582,6,0,B|351:296|351:296|274:369|274:369|126:342,1,402.5,0|0,0:0|0:0,0:0:0:0:
165,213,98185,6,0,B|136:266|136:266|246:287,1,172.500006580353,8|0,0:0|0:0,0:0:0:0:
302,197,98637,1,0,0:0:0:0:
163,25,98788,2,0,P|120:33|80:49,1,86.2500032901765,0|0,0:0|0:0,0:0:0:0:
270,90,99089,2,0,P|312:81|352:65,1,86.2500032901765,0|0,0:0|0:0,0:0:0:0:
405,15,99290,1,0,0:0:0:0:
405,15,99341,1,0,0:0:0:0:
405,14,99391,6,0,P|379:97|450:148,1,172.500006580353,8|0,0:0|0:0,0:0:0:0:
450,73,99843,1,0,0:0:0:0:
394,244,99994,2,0,B|352:253|352:253|315:230,1,86.2500032901765,0|0,0:0|0:0,0:0:0:0:
101,110,100295,2,0,B|143:101|143:101|179:123,1,86.2500032901765,0|0,0:0|0:0,0:0:0:0:
226,206,100496,1,0,0:0:0:0:
226,206,100547,1,0,0:0:0:0:
226,206,100597,6,0,B|231:270|231:270|263:304|263:304|267:365,1,172.500006580353,8|0,0:0|0:0,0:0:0:0:
175,348,101049,1,0,0:0:0:0:
315,230,101200,2,0,L|336:110,1,86.2500032901765,0|0,0:0|0:0,0:0:0:0:
86,25,101502,1,0,0:0:0:0:
168,58,101602,2,0,P|196:58|223:48,1,57.500002193451,0|0,0:0|0:0,0:0:0:0:
363,56,101803,6,0,B|283:69|252:2|252:2|288:12,1,172.500006580353,8|0,0:0|0:0,0:0:0:0:
434,17,102255,1,0,0:0:0:0:
499,170,102406,2,0,P|503:214|481:251,1,86.2500032901765,0|0,0:0|0:0,0:0:0:0:
282,207,102708,2,0,P|277:162|299:125,1,86.2500032901765,0|0,0:0|0:0,0:0:0:0:
410,360,103009,6,0,L|388:188,1,172.500006580353,8|0,0:0|0:0,0:0:0:0:
376,91,103461,1,0,0:0:0:0:
282,207,103612,2,0,P|245:232|202:232,1,86.2500032901765,0|0,0:0|0:0,0:0:0:0:
37,83,103914,1,0,0:0:0:0:
116,29,104064,1,0,0:0:0:0:
107,245,104215,6,0,P|189:233|226:158,1,172.500006580353,8|0,0:0|0:0,0:0:0:0:
200,73,104667,1,0,0:0:0:0:
353,180,104818,2,0,L|446:164,1,86.2500032901765,0|0,0:0|0:0,0:0:0:0:
361,3,105120,1,0,0:0:0:0:
311,84,105270,1,0,0:0:0:0:
333,331,105421,6,0,B|377:288|377:288|353:180,1,172.500006580353,8|0,0:0|0:0,0:0:0:0:
452,36,105873,1,0,0:0:0:0:
284,85,106024,2,0,P|241:84|200:73,1,86.2500032901765,0|0,0:0|0:0,0:0:0:0:
10,37,106326,2,0,P|51:25|94:24,1,86.2500032901765,0|0,0:0|0:0,0:0:0:0:
142,279,106627,6,0,B|91:214|91:214|114:127,1,172.500006580353,8|0,0:0|0:0,0:0:0:0:
256,192,107079,1,0,0:0:0:0:
370,105,107230,2,0,B|421:170|421:170|397:256,1,172.500006580353,0|0,0:0|0:0,0:0:0:0:
213,331,107833,5,8,0:0:0:0:
239,214,107984,1,0,0:0:0:0:
229,316,108135,2,0,L|219:230,1,86.2500032901765,0|0,0:0|0:0,0:0:0:0:
436,52,108436,5,0,0:0:0:0:
462,169,108587,1,0,0:0:0:0:
452,67,108738,2,0,L|442:152,1,86.2500032901765,0|0,0:0|0:0,0:0:0:0:
200,65,109039,5,8,0:0:0:0:
317,91,109190,1,0,0:0:0:0:
215,81,109341,2,0,L|300:71,1,86.2500032901765,0|0,0:0|0:0,0:0:0:0:
479,288,109642,5,0,0:0:0:0:
362,314,109793,1,0,0:0:0:0:
464,304,109944,2,0,L|378:294,1,86.2500032901765,0|0,0:0|0:0,0:0:0:0:
170,254,110245,5,8,0:0:0:0:
343,188,110396,1,0,0:0:0:0:
168,170,110547,5,0,0:0:0:0:
350,199,110698,1,0,0:0:0:0:
208,96,110848,5,0,0:0:0:0:
351,212,110999,1,0,0:0:0:0:
279,51,111150,5,0,0:0:0:0:
345,223,111301,1,0,0:0:0:0:
82,168,111451,5,8,0:0:0:0:
255,234,111602,1,0,0:0:0:0:
80,252,111753,5,0,0:0:0:0:
262,223,111904,1,0,0:0:0:0:
120,326,112054,5,0,0:0:0:0:
263,210,112205,1,0,0:0:0:0:
191,371,112356,5,0,0:0:0:0:
257,199,112507,1,0,0:0:0:0:
133,26,112657,5,8,0:0:0:0:
97,49,112732,1,0,0:0:0:0:
74,85,112807,1,0,0:0:0:0:
69,128,112883,1,0,0:0:0:0:
82,168,112958,1,8,0:0:0:0:
95,208,113034,1,0,0:0:0:0:
90,251,113110,1,0,0:0:0:0:
67,287,113185,1,0,0:0:0:0:
29,310,113260,5,8,0:0:0:0:
27,267,113335,1,0,0:0:0:0:
40,226,113410,1,0,0:0:0:0:
65,191,113486,1,0,0:0:0:0:
100,167,113561,1,8,0:0:0:0:
141,154,113636,1,0,0:0:0:0:
184,156,113712,1,0,0:0:0:0:
224,172,113787,1,0,0:0:0:0:
257,199,113863,5,8,0:0:0:0:
277,191,113939,1,0,0:0:0:0:
297,184,114014,2,0,P|306:168|312:141,1,43.1250016450883,0|0,0:0|0:0,0:0:0:0:
451,302,114165,5,8,0:0:0:0:
431,294,114241,1,0,0:0:0:0:
411,287,114316,2,0,P|402:271|396:244,1,43.1250016450883,0|0,0:0|0:0,0:0:0:0:
270,12,114466,5,8,0:0:0:0:
253,19,114542,1,0,0:0:0:0:
230,27,114617,2,0,P|221:43|215:70,1,43.1250016450883,0|0,0:0|0:0,0:0:0:0:
437,137,114768,5,8,0:0:0:0:
457,145,114844,1,0,0:0:0:0:
477,152,114919,2,0,P|486:168|492:195,1,43.1250016450883,0|0,0:0|0:0,0:0:0:0:
304,362,115069,6,0,L|297:319,1,43.1250016450883,2|0,0:0|0:0,0:0:0:0:
277,191,115220,1,0,0:0:0:0:
230,358,115371,6,0,L|223:315,1,43.1250016450883,2|0,0:0|0:0,0:0:0:0:
203,187,115522,1,0,0:0:0:0:
379,43,115672,6,0,L|372:85,1,43.1250016450883,2|0,0:0|0:0,0:0:0:0:
352,214,115823,1,0,0:0:0:0:
453,39,115974,6,0,L|446:81,1,43.1250016450883,2|0,0:0|0:0,0:0:0:0:
426,210,116125,1,0,0:0:0:0:
128,164,116275,5,12,0:0:0:0:
128,164,117331,6,0,B|104:128|104:128|112:85,1,86.2500032901765,8|0,0:0|0:0,0:0:0:0:
164,19,117481,6,0,B|201:52|197:97|197:97|299:86|299:86|335:53|335:53|444:40|444:40|286:20,1,448.4999794693,12|0,0:0|0:0,0:0:0:0:
369,125,118084,5,2,0:0:0:0:
469,198,118235,2,0,B|490:163|490:163|522:151|522:151|333:120,1,230,0|0,0:0|0:0,0:0:0:0:
257,309,118687,2,0,B|278:344|278:344|310:356|310:356|121:387,1,230,8|0,0:0|0:0,0:0:0:0:
25,204,119140,5,8,0:0:0:0:
14,158,119215,1,0,0:0:0:0:
41,120,119290,2,0,L|23:219,1,86.25,2|0,0:0|0:0,0:0:0:0:
111,322,119592,6,0,B|139:277|139:277|114:161,1,172.5,8|0,0:0|0:0,0:0:0:0:
115,78,119893,6,0,B|156:58|164:25|164:25|269:2|269:2|186:71,1,246.675003387566,12|0,0:0|0:0,0:0:0:0:
206,118,120195,6,0,L|200:146,1,18.9749999420929,8|0,0:0|0:0,0:0:0:0:
467,188,120346,6,0,L|474:218,1,18.9749999420929,0|0,0:0|0:0,0:0:0:0:
281,372,120496,5,2,0:0:0:0:
287,331,120572,1,0,0:0:0:0:
293,287,120647,1,0,0:0:0:0:
323,255,120723,5,0,0:0:0:0:
321,213,120798,2,0,L|315:150,1,57.5,0|0,0:0|0:0,0:0:0:0:
300,19,120949,5,0,0:0:0:0:
301,30,121024,1,0,0:0:0:0:
301,42,121100,2,0,B|290:54|290:54|226:60,1,57.5,8|0,0:0|0:0,0:0:0:0:
34,148,121250,5,0,0:0:0:0:
34,160,121326,2,0,B|45:172|45:172|109:178,1,57.5,0|8,0:0|0:0,0:0:0:0:
293,287,121476,5,0,0:0:0:0:
294,300,121552,2,0,B|283:312|283:312|219:318,1,57.5,0|0,0:0|0:0,0:0:0:0:
56,371,121703,6,0,L|67:301,1,57.5,2|0,0:0|0:0,0:0:0:0:
188,116,121853,1,0,0:0:0:0:
318,206,122004,6,0,B|271:209|238:171|238:171|205:198|161:186|161:186|153:234|103:249,1,263.925011880169,8|0,0:0|0:0,0:0:0:0:
126,59,122306,6,0,B|191:67|191:67|194:73|194:73|197:68|197:68|244:74|244:74|286:86|301:132|301:132|281:106|242:101,1,241.499992630005,4|0,0:0|0:0,0:0:0:0:
446,110,122607,2,0,B|447:60|415:17|415:17|381:45|334:48|334:48|359:76|370:113,1,241.499992630005,0|0,0:0|0:0,0:0:0:0:
382,342,122909,5,2,0:0:0:0:
467,331,123059,2,0,B|439:269|439:269|341:259|341:259|298:311,1,230,0|0,0:0|0:0,0:0:0:0:
467,331,123512,2,0,B|501:276|501:276|281:252|281:252|312:341,1,345.000013160706,0|0,0:0|0:0,0:0:0:0:
141,345,123964,5,8,0:0:0:0:
98,361,124039,1,0,0:0:0:0:
51,351,124115,2,0,P|61:305|67:259,1,86.25,2|0,0:0|0:0,0:0:0:0:
12,162,124416,6,0,P|36:216|155:201,1,172.5,8|0,0:0|0:0,0:0:0:0:
221,284,124718,6,0,B|218:250|218:250|229:235|229:235|214:224|214:224|205:113|205:113|190:101|190:101|201:87|201:87|197:30,1,258.75000987053,12|0,0:0|0:0,0:0:0:0:
282,105,125019,6,0,B|301:89|305:63|305:63|286:185,1,172.5,8|0,0:0|0:0,0:0:0:0:
259,374,125321,5,0,0:0:0:0:
481,312,125471,6,0,L|429:319,1,28.75,0|0,0:0|0:0,0:0:0:0:
368,173,125622,2,0,L|397:170,1,28.75,0|0,0:0|0:0,0:0:0:0:
442,17,125773,2,0,L|390:24,1,28.75,0|0,0:0|0:0,0:0:0:0:
425,242,125924,6,0,L|436:241,12,7.1875,8|0|0|0|0|0|0|0|0|0|0|0|0,0:0|0:0|0:0|0:0|0:0|0:0|0:0|0:0|0:0|0:0|0:0|0:0|0:0,0:0:0:0:
346,347,126225,6,0,P|315:350|288:335,1,57.5,8|0,0:0|0:0,0:0:0:0:
210,365,126376,2,0,P|185:345|177:315,1,57.5,8|0,0:0|0:0,0:0:0:0:
155,245,126527,6,0,L|167:153,1,86.25,8|0,0:0|0:0,0:0:0:0:
85,174,126828,6,0,L|92:117,1,57.5,8|0,0:0|0:0,0:0:0:0:
18,76,126979,2,0,L|10:132,1,57.5,0|0,0:0|0:0,0:0:0:0:
42,309,127130,6,0,B|96:394|197:393|264:348|280:285|277:245|277:245|236:308|160:323,1,448.4999794693,12|0,0:0|0:0,0:0:0:0:
289,170,127733,1,2,0:0:0:0:
466,211,127883,6,0,B|439:197|420:171|420:171|305:187,1,160.99999508667,0|0,0:0|0:0,0:0:0:0:
193,46,128336,2,0,B|166:60|147:86|147:86|32:70,1,160.99999508667,8|0,0:0|0:0,0:0:0:0:
130,248,128788,5,8,0:0:0:0:
150,283,128863,1,0,0:0:0:0:
141,326,128939,2,0,L|31:338,1,86.25,2|0,0:0|0:0,0:0:0:0:
214,347,129240,6,0,L|364:330,1,138,8|0,0:0|0:0,0:0:0:0:
416,376,129542,6,0,B|443:314|427:259|366:281|335:205|388:121,1,258.75000987053,8|0,0:0|0:0,0:0:0:0:
441,195,129843,6,0,B|459:205|468:201|468:201|446:201,1,28.75,8|0,0:0|0:1,0:0:0:0:
402,42,129994,2,0,B|384:52|383:62|383:62|394:43,1,28.75,0|0,0:0|0:0,0:0:0:0:
302,263,130145,5,2,0:0:0:0:
270,258,130220,1,0,0:0:0:0:
237,257,130295,1,0,0:0:0:0:
206,265,130371,1,0,0:0:0:0:
178,282,130446,5,0,0:0:0:0:
150,297,130521,1,0,0:0:0:0:
118,303,130597,1,0,0:0:0:0:
86,301,130672,5,0,0:0:0:0:
54,295,130748,2,0,P|65:264|52:229,1,57.5,8|0,0:0|0:0,0:0:0:0:
46,60,130899,5,0,0:0:0:0:
45,54,130974,2,0,P|72:60|92:80,1,57.5,0|8,0:0|0:0,0:0:0:0:
127,333,131125,5,0,0:0:0:0:
123,338,131200,2,0,P|152:323|168:289,1,57.5,0|0,0:0|0:0,0:0:0:0:
272,173,131351,6,0,L|344:166,1,57.5,2|0,0:0|0:0,0:0:0:0:
429,161,131502,1,0,0:0:0:0:
426,173,131577,1,0,0:0:0:0:
423,182,131652,6,0,L|492:175,1,56.9249998262787,8|0,0:0|0:0,0:0:0:0:
494,257,131954,6,0,P|480:253|460:255,1,18.9749999420929,8|0,0:0|0:0,0:0:0:0:
454,254,132105,2,0,P|437:261|425:277,1,24.7250003772736,0|0,0:0|0:0,0:0:0:0:
268,291,132255,6,0,P|258:302|252:321,1,18.9749999420929,2|0,0:0|0:0,0:0:0:0:
245,341,132406,2,0,P|245:359|255:376,1,24.7250003772736,0|0,0:0|0:0,0:0:0:0:
361,351,132557,6,0,L|354:287,1,41.9750011528778,8|0,0:0|0:0,0:0:0:0:
249,68,132708,6,0,L|253:92,1,18.9749999420929,0|0,0:0|0:0,0:0:0:0:
160,297,132858,6,0,L|167:233,1,41.9750011528778,2|0,0:0|0:0,0:0:0:0:
259,45,133009,6,0,L|251:86,1,41.9750011528778,0|0,0:0|0:0,0:0:0:0:
18,257,133160,6,0,P|32:253|52:255,1,18.9749999420929,8|0,0:0|0:0,0:0:0:0:
58,254,133311,2,0,P|74:261|86:277,1,24.7250003772736,0|0,0:0|0:0,0:0:0:0:
244,291,133461,6,0,P|253:302|259:321,1,18.9749999420929,2|0,0:0|0:0,0:0:0:0:
267,341,133612,2,0,P|266:359|256:376,1,24.7250003772736,0|0,0:0|0:0,0:0:0:0:
155,335,133763,5,8,0:0:0:0:
164,255,133838,1,0,0:0:0:0:
174,168,133914,6,0,L|179:125,1,41.9750011528778,0|0,0:0|0:0,0:0:0:0:
330,92,134064,6,0,L|321:-2,1,83.9500023057557,2|0,0:0|0:0,0:0:0:0:
87,222,134366,6,0,L|98:113,1,83.9500023057557,8|0,0:0|0:0,0:0:0:0:
452,170,134667,6,0,L|392:177,1,41.9750011528778,2|0,0:0|0:0,0:0:0:0:
254,279,134818,1,8,0:0:0:0:
62,121,134969,6,0,L|122:128,1,41.9750011528778,2|0,0:0|0:0,0:0:0:0:
254,290,135120,1,8,0:0:0:0:
452,170,135270,5,2,0:0:0:0:
441,134,135346,1,2,0:0:0:0:
450,90,135421,1,8,0:0:0:0:
477,57,135496,1,8,0:0:0:0:
393,31,135572,6,0,B|332:64|256:28|256:28|203:69|207:173|207:173|202:176|202:176|208:178|208:178|214:181|214:181|210:185|210:185|218:242|312:275|312:275|276:216|310:154,1,586.500003579712,12|0,0:0|0:0,0:0:0:0:
440,235,136778,6,0,B|501:254|501:254|500:177|500:177|420:154|420:154|380:193|380:193|374:192|374:192|376:197|376:197|334:238|334:238|259:232|259:232|257:160|257:160|324:121|324:121|299:180,1,620.999981048584,12|0,0:0|0:0,0:0:0:0:
396,297,137306,5,8,0:0:0:0:
387,293,137381,2,0,B|363:316|363:316|283:310,1,92,2|0,0:0|0:0,0:0:0:0:
187,343,137532,2,0,L|184:228,1,92,0|0,0:0|0:0,0:0:0:0:
178,79,137682,6,0,B|27:37|27:37|73:124,1,241.499992630005,8|0,0:0|0:0,0:0:0:0:
0,196,137984,2,0,B|159:182|159:182|167:177|167:177|322:163,1,310.499990524292,8|0,0:0|0:0,0:0:0:0:
440,235,138285,2,0,B|473:168|421:97|353:102|353:102|394:135|383:184,1,276,8|0,0:0|0:0,0:0:0:0:
311,39,138587,6,0,P|285:63|280:108,1,68.9999978942872,2|0,0:0|0:0,0:0:0:0:
276,108,138738,2,0,P|283:142|308:164,1,68.9999978942872,8|0,0:0|0:0,0:0:0:0:
480,90,138888,6,0,P|444:88|408:116,1,68.9999978942872,8|0,0:0|0:0,0:0:0:0:
403,114,139039,2,0,P|383:142|391:187,1,68.9999978942872,8|0,0:0|0:0,0:0:0:0:
508,285,139190,6,0,B|431:234|371:308|371:308|366:309|366:309|367:314|367:314|320:388|238:349,1,310.499990524292,8|0,0:0|0:0,0:0:0:0:
83,353,139491,6,0,B|68:310|68:310|89:265,1,92,8|0,0:0|0:0,0:0:0:0:
10,205,139642,2,0,B|39:170|39:170|89:166,1,92,0|0,0:0|0:0,0:0:0:0:
289,285,139793,1,2,0:0:0:0:
289,285,139944,6,0,L|284:229,2,46,8|0|0,0:0|0:0|0:0,0:0:0:0:
159,317,140094,5,8,0:0:0:0:
384,175,140245,1,8,0:0:0:0:
425,303,140396,5,8,0:0:0:0:
182,189,140547,1,8,0:0:0:0:
386,89,140698,6,0,P|398:140|367:190,1,92,8|0,0:0|0:0,0:0:0:0:
121,239,140848,2,0,P|103:190|122:138,1,92,8|0,0:0|0:0,0:0:0:0:
383,174,140999,6,0,B|418:210|418:210|354:222|354:222|318:190|275:163|275:163|167:192,1,310.499990524292,2|0,0:0|0:0,0:0:0:0:
63,70,141301,6,0,B|160:35|160:35|116:262,1,310.499990524292,8|0,0:0|0:0,0:0:0:0:
250,354,141602,6,0,B|303:283|303:283|240:238|194:279|194:279|144:349|69:306,2,345,8|0|0,0:0|0:0|0:0,0:0:0:0:
371,232,142130,5,8,0:0:0:0:
380,235,142205,2,0,P|397:290|382:326,1,92,2|0,0:0|0:0,0:0:0:0:
294,173,142356,2,0,L|299:82,1,92,0|0,0:0|0:0,0:0:0:0:
492,48,142507,6,0,B|538:103|519:176|458:192|458:192|437:153|393:146,1,241.499992630005,8|0,0:0|0:0,0:0:0:0:
319,4,142808,2,0,B|312:130|312:130|323:118|323:118|311:146|311:146|301:314,1,310.499990524292,8|0,0:0|0:0,0:0:0:0:
181,311,143110,2,0,B|127:276|134:186|199:145|199:145|183:194|213:231,1,276,8|0,0:0|0:0,0:0:0:0:
226,66,143411,6,0,P|259:76|283:115,1,68.9999978942872,2|0,0:0|0:0,0:0:0:0:
286,113,143562,2,0,P|294:146|280:177,1,68.9999978942872,0|0,0:0|0:0,0:0:0:0:
83,184,143712,6,0,P|114:166|159:177,1,68.9999978942872,8|0,0:0|0:0,0:0:0:0:
163,173,143863,2,0,P|192:189|204:234,1,68.9999978942872,0|0,0:0|0:0,0:0:0:0:
48,298,144014,6,0,B|13:279|-31:284|-31:284|98:222|53:343|190:308,1,310.499990524292,12|0,0:0|0:0,0:0:0:0:
459,243,144316,54,0,B|525:194|466:110|396:120|313:212|382:331,1,345,8|0,0:0|0:0,0:0:0:0:
400,342,144617,6,0,P|337:284|264:338,1,172.500006580353,2|0,0:0|0:0,0:0:0:0:
280,176,144843,6,0,P|288:143|322:114,2,74.7499965782167,8|0|0,0:0|0:0|0:0,0:0:0:0:
167,157,145069,2,0,P|189:186|204:220,1,74.7499965782167,8|0,0:0|0:0,0:0:0:0:
48,298,145220,6,0,B|-1:216|-1:216|55:109,1,189.750005790711,8|8,0:0|0:0,0:0:0:0:
42,132,145522,1,0,0:0:0:0:
204,220,145672,6,0,B|243:190|243:190|234:219,1,63.2500019302369,8|0,0:0|0:0,0:0:0:0:
174,336,145823,6,0,B|170:160|170:160|167:156|167:156|170:151|170:151|168:52,1,258.75000987053,2|0,0:0|0:0,0:0:0:0:
353,9,146125,5,0,0:0:0:0:
313,41,146200,1,0,0:0:0:0:
299,91,146275,1,0,0:0:0:0:
321,139,146351,1,0,0:0:0:0:
388,181,146426,6,0,B|414:190|433:212|433:212|420:124|334:118|334:118|319:203|224:204,1,345,12|0,0:0|0:0,0:0:0:0:
58,74,146728,2,0,B|22:63|-18:72|-18:72|135:-18|85:153|248:96,1,345,2|0,0:0|0:0,0:0:0:0:
241,282,147029,6,0,P|216:321|173:335,1,92,8|0,0:0|0:0,0:0:0:0:
137,181,147180,2,0,P|146:225|126:265,1,92,0|0,0:0|0:0,0:0:0:0:
0,297,147331,6,0,B|85:240|151:322|151:322|156:323|156:323|155:329|155:329|207:410|298:367,1,345,2|0,0:0|0:0,0:0:0:0:
398,282,147632,6,0,B|441:214|441:214|317:171|237:286,1,310.499990524292,8|0,0:0|0:0,0:0:0:0:
125,265,147934,2,0,B|56:239|57:133|132:109|132:109|120:150|141:190,1,276,2|0,0:0|0:0,0:0:0:0:
348,83,148235,6,0,P|310:67|260:83,1,80.499997543335,8|0,0:0|0:0,0:0:0:0:
258,79,148386,2,0,P|224:102|214:139,1,80.499997543335,0|0,0:0|0:0,0:0:0:0:
3,124,148537,6,0,P|40:108|90:124,1,80.499997543335,2|0,0:0|0:0,0:0:0:0:
93,120,148688,2,0,P|126:143|136:180,1,80.499997543335,0|0,0:0|0:0,0:0:0:0:
56,318,148838,6,0,B|129:336|167:265|167:265|162:265|162:265|167:265|167:265|209:194|296:229|296:229|254:264,1,345,8|0,0:0|0:0,0:0:0:0:
388,376,149140,6,0,B|408:338|408:338|396:288,1,92,2|0,0:0|0:0,0:0:0:0:
487,269,149290,2,0,B|474:227|474:227|430:201,1,92,0|0,0:0|0:0,0:0:0:0:
299,149,149441,1,8,0:0:0:0:
299,149,149592,6,0,L|293:99,2,46,0|0|0,0:0|0:0|0:0,0:0:0:0:
458,116,149743,5,2,0:0:0:0:
135,180,149893,1,0,0:0:0:0:
193,28,150044,5,8,0:0:0:0:
396,290,150195,1,0,0:0:0:0:
69,220,150346,6,0,P|55:176|71:134,1,92,2|0,0:0|0:0,0:0:0:0:
369,108,150496,2,0,P|382:151|366:193,1,92,0|0,0:0|0:0,0:0:0:0:
192,136,150647,6,0,B|240:142|240:142|239:137|239:137|252:144|252:144|309:150,1,115,8|0,0:0|0:0,0:0:0:0:
75,303,150798,2,0,B|123:297|123:297|122:302|122:302|135:295|135:295|192:289,1,115,0|0,0:0|0:0,0:0:0:0:
395,291,150949,6,0,B|458:205|458:205|365:194|365:194|328:236|328:236|218:224,1,345,8|0,0:0|0:0,0:0:0:0:
89,38,151250,6,0,B|32:26|32:26|73:142,1,172.500006580353,6|0,0:0|0:0,0:0:0:0:
181,290,151552,2,0,B|217:240|185:182|185:182|179:181|179:181|182:176|182:176|142:108|196:47,1,258.75000987053,8|0,0:0|0:0,0:0:0:0:
280,48,151853,2,0,P|279:89|230:131,1,86.2500032901765,2|0,0:0|0:0,0:0:0:0:
119,236,152004,6,0,B|37:203|37:203|0:288,2,172.500006580353,0|8|0,0:0|0:0|0:0,0:0:0:0:
109,346,152381,5,0,0:0:0:0:
88,332,152456,2,0,L|292:307,1,172.500006580353,2|0,0:0|0:0,0:0:0:0:
259,311,152758,2,0,L|245:208,1,86.2500032901765,8|0,0:0|0:0,0:0:0:0:
320,186,152909,6,0,B|358:210|358:210|340:344,1,172.500006580353,0|2,0:0|0:0,0:0:0:0:
348,352,153135,1,0,0:0:0:0:
355,367,153210,2,0,L|367:269,1,86.2500032901765,0|0,0:0|0:0,0:0:0:0:
407,30,153361,6,0,B|410:70|439:96|439:96|349:158|361:50|236:127,1,258.75000987053,8|0,0:0|0:0,0:0:0:0:
258,241,153662,1,8,0:0:0:0:
356,263,153813,6,0,P|349:215|307:180,1,92,0|0,0:0|0:0,0:0:0:0:
99,122,153964,1,8,0:0:0:0:
242,343,154115,6,0,P|271:304|267:249,1,97.7500018644333,0|0,0:0|0:0,0:0:0:0:
166,44,154265,1,8,0:0:0:0:
104,325,154416,6,0,P|152:318|187:276,1,103.499996841431,8|0,0:0|0:0,0:0:0:0:
289,20,154567,1,8,0:0:0:0:
12,211,154718,6,0,P|55:241|115:237,1,109.24999708271,8|8,0:0|0:0,0:0:0:0:
421,65,154868,6,0,L|438:85,23,14.375,12|0|0|0|0|0|0|0|0|0|0|0|0|0|0|0|0|0|0|0|0|0|0|0,0:0|0:0|0:0|0:0|0:0|0:0|0:0|0:0|0:0|0:0|0:0|0:0|0:0|0:0|0:0|0:0|0:0|0:0|0:0|0:0|0:0|0:0|0:0|0:0,0:0:0:0:
362,114,155773,2,0,L|373:170,7,34.4999989471436,0|0|0|0|0|0|0|0,0:0|0:0|0:0|0:0|0:0|0:0|0:0|0:0,0:0:0:0:
288,132,156074,6,0,P|231:118|177:132,1,115,4|0,0:0|0:0,0:0:0:0:
93,202,156527,2,0,P|107:145|93:91,1,115,0|0,0:0|0:0,0:0:0:0:
93,91,156979,1,0,0:0:0:0:
93,91,158084,5,0,0:0:0:0:
93,91,158285,1,0,0:0:0:0:
93,91,158486,2,0,B|118:79|118:79|98:186,1,115,0|0,0:0|0:0,0:0:0:0:
22,28,158939,2,0,B|-2:15|-2:15|17:122,1,115,0|0,0:0|0:0,0:0:0:0:
13,101,159391,1,0,0:0:0:0:
167,291,160496,5,0,0:0:0:0:
167,291,160698,1,0,0:0:0:0:
167,291,160899,2,0,B|226:278|226:278|306:296,1,115,0|0,0:0|0:0,0:0:0:0:
362,349,161351,2,0,B|415:360|415:360|474:347,1,115,0|0,0:0|0:0,0:0:0:0:
474,347,161803,1,0,0:0:0:0:
362,106,162909,5,0,0:0:0:0:
362,106,163110,1,0,0:0:0:0:
362,106,163311,2,0,P|419:122|472:91,1,115,0|0,0:0|0:0,0:0:0:0:
293,59,163763,2,0,P|277:116|308:169,1,115,0|0,0:0|0:0,0:0:0:0:
301,163,164215,1,0,0:0:0:0:
256,192,164290,12,0,165647,0:0:0:0:
102,307,165723,6,0,L|87:172,1,115,0|0,0:0|0:0,0:0:0:0:
124,105,166175,2,0,P|180:128|248:97,1,115,0|0,0:0|0:0,0:0:0:0:
230,113,166627,1,0,0:0:0:0:
398,76,167733,5,0,0:0:0:0:
398,76,167934,1,0,0:0:0:0:
398,76,168135,2,0,B|403:163|403:163|378:210,1,115,0|0,0:0|0:0,0:0:0:0:
263,130,168587,2,0,B|258:217|258:217|283:264,1,115,0|0,0:0|0:0,0:0:0:0:
271,241,169039,1,0,0:0:0:0:
78,330,170145,5,0,0:0:0:0:
78,330,170346,1,0,0:0:0:0:
78,330,170547,2,0,P|98:254|73:195,1,115,0|0,0:0|0:0,0:0:0:0:
9,154,170999,2,0,P|0:97|20:44,1,115,0|0,0:0|0:0,0:0:0:0:
20,44,171451,1,0,0:0:0:0:
339,216,172557,5,0,0:0:0:0:
339,216,172758,1,0,0:0:0:0:
339,216,172959,2,0,P|274:200|213:224,1,115,0|0,0:0|0:0,0:0:0:0:
139,292,173411,2,0,P|155:227|131:166,1,115,0|0,0:0|0:0,0:0:0:0:
141,182,173863,1,0,0:0:0:0:
256,192,173939,12,0,175295,0:0:0:0:
158,20,175371,6,0,B|139:78|139:78|161:122|161:122|137:189,1,172.5,8|0,0:0|0:0,0:0:0:0:
209,253,175672,2,0,P|237:213|231:148,1,115,0|0,0:0|0:0,0:0:0:0:
71,111,175974,2,0,P|42:150|48:215,1,115,0|0,0:0|0:0,0:0:0:0:
218,73,176275,1,0,0:0:0:0:
360,162,176426,5,0,0:0:0:0:
363,173,176476,1,0,0:0:0:0:
366,184,176527,1,0,0:0:0:0:
369,194,176577,2,0,L|113:178,1,230,8|0,0:0|0:0,0:0:0:0:
325,74,177029,2,0,B|245:91|245:91|218:73,2,115,0|0|0,0:0|0:0|0:0,0:0:0:0:
468,209,177481,1,0,0:0:0:0:
275,358,177632,5,0,0:0:0:0:
286,353,177682,1,0,0:0:0:0:
297,348,177733,1,0,0:0:0:0:
308,342,177783,2,0,B|344:343|369:359|369:359|396:276|319:282|344:202,1,230,8|0,0:0|0:0,0:0:0:0:
264,259,178235,2,0,P|213:278|165:234,1,115,0|0,0:0|0:0,0:0:0:0:
417,136,178537,2,0,P|468:117|516:161,1,115,0|0,0:0|0:0,0:0:0:0:
326,34,178788,6,0,L|334:130,1,76.6666666666667,0|0,0:0|0:0,0:0:0:0:
226,194,178989,2,0,L|233:21,1,172.5,8|0,0:0|0:0,0:0:0:0:
147,58,179290,2,0,B|117:110|117:110|145:168,2,115,0|0|0,0:0|0:0|0:0,0:0:0:0:
343,202,179743,1,0,0:0:0:0:
168,244,179893,6,0,P|96:238|59:309,1,129.375004935265,0|0,0:0|0:0,0:0:0:0:
126,350,180195,6,0,B|255:388|217:273|357:318,1,230,8|0,0:0|0:0,0:0:0:0:
468,209,180647,2,0,L|459:327,1,115,0|0,0:0|0:0,0:0:0:0:
334,87,180949,1,0,0:0:0:0:
334,87,181100,2,0,L|343:205,1,115,0|0,0:0|0:0,0:0:0:0:
477,31,181401,6,0,B|430:61|430:61|223:46,1,230,8|0,0:0|0:0,0:0:0:0:
32,156,181853,2,0,P|3:107|42:42,1,115,0|0,0:0|0:0,0:0:0:0:
214,123,182155,1,0,0:0:0:0:
214,123,182306,2,0,P|243:172|204:237,1,115,0|0,0:0|0:0,0:0:0:0:
118,324,182607,6,0,L|123:84,1,230,8|0,0:0|0:0,0:0:0:0:
334,87,183059,6,0,B|393:33|393:33|460:112|385:189,1,230,0|0,0:0|0:0,0:0:0:0:
468,264,183512,6,0,B|353:227|394:318|275:272,1,172.5,0|0,0:0|0:0,0:0:0:0:
224,223,183813,1,8,0:0:0:0:
64,32,185019,5,8,0:0:0:0:
90,149,185170,1,0,0:0:0:0:
80,47,185321,2,0,L|70:133,1,86.2500032901765,0|0,0:0|0:0,0:0:0:0:
160,352,185622,5,0,0:0:0:0:
186,235,185773,1,0,0:0:0:0:
176,337,185924,2,0,L|166:251,1,86.2500032901765,0|0,0:0|0:0,0:0:0:0:
256,32,186225,5,8,0:0:0:0:
282,149,186376,1,0,0:0:0:0:
272,47,186527,2,0,L|262:133,1,86.2500032901765,0|0,0:0|0:0,0:0:0:0:
352,352,186828,5,0,0:0:0:0:
378,235,186979,1,0,0:0:0:0:
368,337,187130,2,0,L|358:251,1,86.2500032901765,0|0,0:0|0:0,0:0:0:0:
448,32,187431,5,8,0:0:0:0:
474,149,187582,1,0,0:0:0:0:
345,74,187733,5,0,0:0:0:0:
405,190,187884,1,0,0:0:0:0:
263,146,188034,5,0,0:0:0:0:
358,251,188185,1,0,0:0:0:0:
203,243,188336,5,0,0:0:0:0:
332,326,188487,1,0,0:0:0:0:
159,347,188637,5,8,0:0:0:0:
332,326,188788,1,0,0:0:0:0:
116,281,188939,5,0,0:0:0:0:
358,251,189090,1,0,0:0:0:0:
60,225,189240,5,0,0:0:0:0:
398,183,189391,1,0,0:0:0:0:
6,166,189542,5,0,0:0:0:0:
434,112,189693,1,0,0:0:0:0:
198,34,189843,5,8,0:0:0:0:
161,62,189919,1,0,0:0:0:0:
152,107,189994,1,0,0:0:0:0:
173,147,190069,1,0,0:0:0:0:
217,159,190145,5,8,0:0:0:0:
265,134,190220,1,0,0:0:0:0:
317,150,190295,1,0,0:0:0:0:
346,196,190371,1,0,0:0:0:0:
338,250,190446,5,8,0:0:0:0:
289,293,190522,1,0,0:0:0:0:
225,288,190597,1,0,0:0:0:0:
194,231,190672,1,0,0:0:0:0:
140,194,190748,1,8,0:0:0:0:
76,202,190823,1,0,0:0:0:0:
35,252,190899,1,0,0:0:0:0:
42,315,190974,1,0,0:0:0:0:
90,356,191049,5,8,0:0:0:0:
163,349,191125,1,0,0:0:0:0:
203,287,191200,1,0,0:0:0:0:
184,216,191275,1,0,0:0:0:0:
119,180,191351,1,8,0:0:0:0:
84,115,191426,1,0,0:0:0:0:
100,42,191502,1,0,0:0:0:0:
169,18,191577,1,0,0:0:0:0:
240,33,191652,6,0,L|298:1,7,46,8|0|0|0|0|0|0|0,0:0|0:0|0:0|0:0|0:0|0:0|0:0|0:0,0:0:0:0:
270,107,191954,6,0,L|350:106,6,57.5,0|0|0|0|0|0|0,0:0|0:0|0:0|0:0|0:0|0:0|0:0,0:0:0:0:
169,120,192255,6,0,L|173:80,14,28.75,4|0|0|0|0|0|0|0|0|0|0|0|0|0|0,0:0|0:0|0:0|0:0|0:0|0:0|0:0|0:0|0:0|0:0|0:0|0:0|0:0|0:0|0:0,0:0:0:0:
348,252,192858,6,0,L|343:190,5,57.5,0|0|0|0|0|0,0:0|0:0|0:0|0:0|0:0|0:0,0:0:0:0:
129,245,193311,6,0,B|198:225|198:225|260:258,1,137.999995788574,0|0,0:0|0:0,0:0:0:0:
185,376,193537,2,0,L|191:305,2,68.9999978942872,0|0|0,0:0|0:0|0:0,0:0:0:0:
339,327,193763,5,0,0:0:0:0:
411,304,193838,1,0,0:0:0:0:
442,234,193914,1,0,0:0:0:0:
421,161,193989,1,0,0:0:0:0:
358,118,194064,2,0,P|317:121|277:152,1,68.9999978942872,0|0,0:0|0:0,0:0:0:0:
199,203,194215,1,0,0:0:0:0:
214,16,194366,6,0,L|206:124,1,103.499996841431,0|0,0:0|0:0,0:0:0:0:
116,237,194517,2,0,B|100:188|100:188|128:136,1,103.499996841431,0|0,0:0|0:0,0:0:0:0:
343,100,194667,6,0,B|286:126|286:126|275:174|275:174|219:200,1,172.500006580353,8|0,0:0|0:0,0:0:0:0:
371,194,194893,1,0,0:0:0:0:
363,184,194969,2,0,P|345:223|341:265,1,86.2500032901765,2|0,0:0|0:0,0:0:0:0:
206,119,195120,2,0,P|223:79|227:37,1,86.2500032901765,0|0,0:0|0:0,0:0:0:0:
116,237,195270,5,8,0:0:0:0:
22,240,195346,2,0,P|101:257|117:337,1,172.500006580353,0|0,0:0|0:0,0:0:0:0:
295,132,195572,5,2,0:0:0:0:
244,204,195648,2,0,P|268:280|207:334,1,172.500006580353,0|0,0:0|0:0,0:0:0:0:
10,221,195873,6,0,L|-5:131,1,86.2500032901765,8|0,0:0|0:0,0:0:0:0:
220,21,196024,1,0,0:0:0:0:
226,36,196100,2,0,B|178:40|157:81|157:81|120:53|75:70,1,172.500006580353,0|0,0:0|0:0,0:0:0:0:
106,142,196326,5,0,0:0:0:0:
116,165,196401,1,0,0:0:0:0:
159,195,196476,1,8,0:0:0:0:
244,204,196552,6,0,P|312:160|299:79,1,172.500006580353,0|0,0:0|0:0,0:0:0:0:
290,92,196778,5,2,0:0:0:0:
363,111,196853,1,0,0:0:0:0:
436,130,196929,2,0,B|456:92|456:92|446:37,1,86.2500032901765,0|0,0:0|0:0,0:0:0:0:
148,210,197079,6,0,B|99:258|99:258|121:363,1,172.500006580353,8|0,0:0|0:0,0:0:0:0:
221,280,197306,1,0,0:0:0:0:
218,295,197381,2,0,L|200:385,1,86.2500032901765,2|0,0:0|0:0,0:0:0:0:
43,201,197532,2,0,L|106:142,1,86.2500032901765,0|0,0:0|0:0,0:0:0:0:
413,176,197682,5,8,0:0:0:0:
423,273,197758,2,0,L|363:111,1,172.500006580353,0|0,0:0|0:0,0:0:0:0:
484,46,197984,2,0,L|400:28,1,86.2500032901765,2|0,0:0|0:0,0:0:0:0:
206,136,198135,1,0,0:0:0:0:
217,146,198210,1,0,0:0:0:0:
229,144,198285,6,0,P|269:128|290:92,1,86.2500032901765,8|0,0:0|0:0,0:0:0:0:
141,17,198436,1,0,0:0:0:0:
83,78,198512,2,0,B|57:178|146:144|109:248,1,172.500006580353,8|0,0:0|0:0,0:0:0:0:
12,293,198738,2,0,P|51:308|72:345,1,86.2500032901765,8|0,0:0|0:0,0:0:0:0:
377,322,198888,5,8,0:0:0:0:
367,345,198963,5,0,0:0:0:0:
324,375,199038,5,0,0:0:0:0:
239,384,199115,5,0,0:0:0:0:
159,323,199190,5,2,0:0:0:0:
165,337,199265,1,0,0:0:0:0:
170,351,199341,2,0,L|184:253,1,86.2500032901765,0|0,0:0|0:0,0:0:0:0:
290,91,199491,6,0,B|321:49|321:49|259:27|208:70,1,172.500006580353,12|0,0:0|0:0,0:0:0:0:
54,38,199718,1,0,0:0:0:0:
50,27,199793,2,0,P|91:32|120:63,1,86.2500032901765,2|0,0:0|0:0,0:0:0:0:
443,96,199944,2,0,P|417:129|375:138,1,86.2500032901765,0|0,0:0|0:0,0:0:0:0:
208,69,200094,5,8,0:0:0:0:
162,139,200170,2,0,P|212:205|292:187,1,172.500006580353,0|0,0:0|0:0,0:0:0:0:
18,154,200396,5,2,0:0:0:0:
56,228,200472,2,0,P|137:217|162:139,1,172.500006580353,0|0,0:0|0:0,0:0:0:0:
8,291,200698,6,0,P|16:332|50:358,1,86.2500032901765,8|0,0:0|0:0,0:0:0:0:
291,301,200848,1,0,0:0:0:0:
301,286,200924,2,0,B|241:299|241:299|217:291|217:291|195:310|195:310|139:323,1,172.500006580353,0|0,0:0|0:0,0:0:0:0:
56,228,201150,5,0,0:0:0:0:
66,205,201225,1,0,0:0:0:0:
109,175,201300,1,8,0:0:0:0:
194,166,201376,6,0,B|216:141|247:134|247:134|261:81|230:24,1,172.500006580353,0|0,0:0|0:0,0:0:0:0:
219,40,201602,5,2,0:0:0:0:
292,59,201677,1,0,0:0:0:0:
364,78,201753,2,0,L|276:97,1,86.2500032901765,0|0,0:0|0:0,0:0:0:0:
52,91,201904,6,0,B|39:64|16:56|16:56|81:46|63:99|128:83,1,172.500006580353,12|0,0:0|0:0,0:0:0:0:
285,78,202130,1,0,0:0:0:0:
279,96,202205,2,0,L|298:184,1,86.2500032901765,2|0,0:0|0:0,0:0:0:0:
463,313,202356,2,0,L|481:228,1,86.2500032901765,0|0,0:0|0:0,0:0:0:0:
251,265,202507,5,8,0:0:0:0:
242,279,202582,1,0,0:0:0:0:
254,293,202658,1,0,0:0:0:0:
269,286,202733,1,0,0:0:0:0:
267,268,202808,5,2,0:0:0:0:
210,239,202883,1,0,0:0:0:0:
147,252,202958,1,0,0:0:0:0:
106,299,203034,1,0,0:0:0:0:
102,363,203110,6,0,B|126:318|126:318|95:200,1,172.500006580353,12|0,0:0|0:0,0:0:0:0:
275,90,203411,2,0,B|251:135|251:135|281:252,1,172.500006580353,2|0,0:0|0:0,0:0:0:0:
33,79,203713,2,0,B|59:102|59:102|159:76|159:76|170:45,1,172.500006580353,8|0,0:0|0:0,0:0:0:0:
85,7,204014,1,2,0:0:0:0:
88,172,204165,2,0,L|171:150,1,86.2500032901765,0|0,0:0|0:0,0:0:0:0:
402,137,204316,6,0,P|285:134|280:251,1,258.75000987053,12|0,0:0|0:0,0:0:0:0:
297,242,204617,2,0,P|337:266|384:257,1,86.2500032901765,2|0,0:0|0:0,0:0:0:0:
474,261,204768,2,0,P|434:237|387:246,1,86.2500032901765,0|0,0:0|0:0,0:0:0:0:
125,309,204919,6,0,B|177:306|200:343|200:343|259:259|177:277|243:173,1,258.75000987053,8|0,0:0|0:0,0:0:0:0:
171,150,205220,2,0,P|147:110|156:63,1,86.2500032901765,2|0,0:0|0:0,0:0:0:0:
17,83,205371,2,0,P|39:42|84:26,1,86.2500032901765,0|0,0:0|0:0,0:0:0:0:
429,23,205522,6,0,P|405:63|414:110,1,86.2500032901765,8|0,0:0|0:0,0:0:0:0:
275,90,205673,2,0,P|297:130|342:146,1,86.2500032901765,0|0,0:0|0:0,0:0:0:0:
256,256,205823,2,0,P|302:256|358:158,1,172.500006580353,2|0,0:0|0:0,0:0:0:0:
70,18,206125,6,0,L|92:189,1,172.500006580353,8|0,0:0|0:0,0:0:0:0:
125,309,206351,1,8,0:0:0:0:
133,318,206426,2,0,B|154:281|154:281|147:238,1,86.2500032901765,0|0,0:0|0:0,0:0:0:0:
25,222,206577,2,0,B|4:259|4:259|11:302,1,86.2500032901765,8|0,0:0|0:0,0:0:0:0:
183,375,206728,6,0,B|236:377|262:339|262:339|303:363|347:359|347:359|348:311|390:287,1,258.75000987053,8|0,0:0|0:0,0:0:0:0:
428,356,207029,2,0,P|415:315|381:292,1,86.2500032901765,2|0,0:0|0:0,0:0:0:0:
498,198,207180,2,0,P|455:188|419:206,1,86.2500032901765,0|0,0:0|0:0,0:0:0:0:
395,58,207331,6,0,B|332:118|381:215|381:215|356:170|311:166,1,258.75000987053,8|0,0:0|0:0,0:0:0:0:
144,279,207632,2,0,P|185:266|208:232,1,86.2500032901765,2|0,0:0|0:0,0:0:0:0:
302,349,207783,2,0,P|311:306|293:270,1,86.2500032901765,0|0,0:0|0:0,0:0:0:0:
126,108,207934,6,0,P|157:137|198:139,1,86.2500032901765,8|0,0:0|0:0,0:0:0:0:
309,13,208084,2,0,P|268:26|244:60,1,86.2500032901765,0|0,0:0|0:0,0:0:0:0:
445,255,208235,2,0,B|410:133|290:138|290:138|276:191,1,258.75000987053,2|0,0:0|0:0,0:0:0:0:
315,278,208537,2,0,B|238:286|238:286|233:291|233:291|227:287|227:287|147:293|147:293|140:288|140:288|134:294|134:294|63:300,1,258.75000987053,12|0,0:0|0:0,0:0:0:0:
88,100,208838,6,0,P|106:111|117:129,1,43.1250016450883,0|0,0:0|0:0,0:0:0:0:
126,108,208914,2,0,P|132:128|129:149,1,43.1250016450883,0|0,0:0|0:0,0:0:0:0:
146,141,208989,1,0,0:0:0:0:
119,223,209064,1,0,0:0:0:0:
33,233,209140,6,0,B|15:210|15:210|27:153,1,86.2500032901765,8|0,0:0|0:0,0:0:0:0:
248,51,209290,2,0,B|266:74|266:74|253:130,1,86.2500032901765,0|0,0:0|0:0,0:0:0:0:
178,310,209441,2,0,L|146:141,1,172.500006580353,2|0,0:0|0:0,0:0:0:0:
372,46,209743,6,0,P|411:63|453:71,1,86.2500032901765,8|0,0:0|0:0,0:0:0:0:
453,71,209893,2,0,P|417:95|377:110,1,86.2500032901765,0|0,0:0|0:0,0:0:0:0:
188,91,210044,6,0,P|203:131|227:166,1,86.2500032901765,2|0,0:0|0:0,0:0:0:0:
227,166,210194,2,0,P|184:158|145:140,1,86.2500032901765,0|0,0:0|0:0,0:0:0:0:
32,21,210346,6,0,B|14:44|14:44|27:100,1,86.2500032901765,12|0,0:0|0:0,0:0:0:0:
164,334,210496,2,0,B|146:311|146:311|159:255,1,86.2500032901765,0|0,0:0|0:0,0:0:0:0:
335,193,210647,5,2,0:0:0:0:
331,167,210723,1,0,0:0:0:0:
311,150,210798,2,0,L|227:166,1,86.2500032901765,0|0,0:0|0:0,0:0:0:0:
456,372,210949,5,8,0:0:0:0:
485,322,211024,1,8,0:0:0:0:
475,264,211100,2,0,L|390:248,1,86.2500032901765,8|0,0:0|0:0,0:0:0:0:
69,192,211250,2,0,L|153:207,1,86.2500032901765,2|8,0:0|0:0,0:0:0:0:
249,355,211401,2,0,L|264:270,1,86.2500032901765,0|0,0:0|0:0,0:0:0:0:
172,56,211552,6,0,B|175:100|175:100|208:126,1,86.2500032901765,8|0,0:0|0:0,0:0:0:0:
432,96,211703,2,0,B|413:136|413:136|373:149,1,86.2500032901765,0|0,0:0|0:0,0:0:0:0:
174,287,211853,6,0,L|89:302,1,86.2500032901765,8|0,0:0|0:0,0:0:0:0:
346,322,212004,2,0,L|424:358,1,86.2500032901765,0|0,0:0|0:0,0:0:0:0:
299,100,212155,6,0,P|317:62|306:21,1,86.2500032901765,8|0,0:0|0:0,0:0:0:0:
400,5,212306,2,0,P|437:27|451:67,1,86.2500032901765,0|0,0:0|0:0,0:0:0:0:
113,137,212456,6,0,P|72:147|49:183,1,86.2500032901765,2|2,0:0|0:0,0:0:0:0:
1,34,212607,2,0,P|42:25|78:47,1,86.2500032901765,2|2,0:0|0:0,0:0:0:0:
174,287,212758,5,14,0:0:0:0:
174,287,213512,6,0,L|118:302,1,57.5,8|0,0:0|0:0,0:0:0:0:
174,287,213662,2,0,L|214:327,1,57.5,2|0,0:0|0:0,0:0:0:0:
174,287,213813,2,0,L|188:231,1,57.5,8|0,0:0|0:0,0:0:0:0:
232,50,213964,5,12,0:0:0:0:
232,50,214265,6,0,B|339:34|339:34|251:96,1,172.500006580353,2|0,0:0|0:0,0:0:0:0:
107,156,214491,1,0,0:0:0:0:
92,163,214567,2,0,P|189:134|318:245,1,258.75000987053,8|0,0:0|0:0,0:0:0:0:
413,321,214868,2,0,P|383:297|319:304,1,86.2500032901765,2|0,0:0|0:0,0:0:0:0:
287,359,215019,2,0,P|301:318|336:295,1,86.2500032901765,0|0,0:0|0:0,0:0:0:0:
508,308,215170,6,0,L|330:295,1,172.500006580353,8|0,0:0|0:0,0:0:0:0:
213,365,215396,1,0,0:0:0:0:
185,368,215471,1,2,0:0:0:0:
162,365,215547,1,0,0:0:0:0:
143,354,215622,2,0,L|129:255,1,86.2500032901765,0|0,0:0|0:0,0:0:0:0:
61,310,215773,1,8,0:0:0:0:
39,382,215848,2,0,L|14:183,1,172.500006580353,0|0,0:0|0:0,0:0:0:0:
148,74,216074,2,0,P|176:107|171:165,1,86.2500032901765,2|0,0:0|0:0,0:0:0:0:
253,142,216225,2,0,P|239:194|176:225,1,86.2500032901765,0|0,0:0|0:0,0:0:0:0:
143,255,216376,6,0,B|213:262|213:262|212:270|212:270|213:262|213:262|353:275,1,206.999993682861,8|0,0:0|0:0,0:0:0:0:
484,298,216602,1,0,0:0:0:0:
487,309,216677,2,0,P|455:328|394:314,1,86.2500032901765,2|0,0:0|0:0,0:0:0:0:
143,255,216828,2,0,P|175:273|193:333,1,86.2500032901765,0|0,0:0|0:0,0:0:0:0:
290,384,216979,1,8,0:0:0:0:
301,379,217054,2,0,B|318:198,1,172.500006580353,0|0,0:0|0:0,0:0:0:0:
361,38,217280,2,0,P|384:78|366:126,1,86.2500032901765,2|0,0:0|0:0,0:0:0:0:
263,152,217431,1,0,0:0:0:0:
238,157,217507,1,0,0:0:0:0:
211,158,217582,6,0,B|94:141|94:141|160:238,1,172.500006580353,8|0,0:0|0:0,0:0:0:0:
90,248,217808,1,0,0:0:0:0:
98,252,217883,2,0,P|134:257|178:233,1,86.2500032901765,0|0,0:0|0:0,0:0:0:0:
181,228,218034,1,8,0:0:0:0:
179,6,218185,5,8,0:0:0:0:
182,24,218260,1,0,0:0:0:0:
184,37,218336,2,0,P|220:32|264:56,1,86.2500032901765,0|0,0:0|0:0,0:0:0:0:
470,158,218486,1,2,0:0:0:0:
482,148,218561,1,0,0:0:0:0:
494,138,218637,2,0,P|471:109|470:59,1,86.2500032901765,0|0,0:0|0:0,0:0:0:0:
363,26,218788,6,0,L|383:222,1,172.500006580353,8|0,0:0|0:0,0:0:0:0:
491,334,219014,1,0,0:0:0:0:
477,347,219089,2,0,B|460:361|460:361|377:351,1,86.2500032901765,2|0,0:0|0:0,0:0:0:0:
344,280,219240,2,0,B|327:266|327:266|244:276,1,86.2500032901765,0|0,0:0|0:0,0:0:0:0:
139,292,219391,1,8,0:0:0:0:
164,368,219466,2,0,B|184:239|184:239|155:202,1,172.500006580353,0|0,0:0|0:0,0:0:0:0:
4,128,219692,2,0,B|56:121|56:121|71:114|76:90,1,86.2500032901765,2|0,0:0|0:0,0:0:0:0:
283,48,219843,2,0,P|237:51|200:87,1,86.2500032901765,0|0,0:0|0:0,0:0:0:0:
437,138,219994,6,0,B|342:124|351:129|264:117,1,172.500006580353,8|0,0:0|0:0,0:0:0:0:
263,273,220220,1,0,0:0:0:0:
285,259,220295,1,2,0:0:0:0:
312,256,220371,1,0,0:0:0:0:
339,262,220446,2,0,L|327:370,1,86.2500032901765,0|0,0:0|0:0,0:0:0:0:
416,207,220597,1,8,0:0:0:0:
437,138,220672,2,0,L|456:319,1,172.500006580353,0|0,0:0|0:0,0:0:0:0:
328,346,220899,2,0,P|364:370|407:369,1,86.2500032901765,2|0,0:0|0:0,0:0:0:0:
437,138,221049,2,0,P|401:114|358:115,1,86.2500032901765,0|0,0:0|0:0,0:0:0:0:
199,276,221200,6,0,B|323:264|323:264|369:270|384:303|384:303|364:276|328:272|315:280,1,258.75000987053,8|0,0:0|0:0,0:0:0:0:
172,205,221502,1,2,0:0:0:0:
125,196,221577,1,0,0:0:0:0:
78,186,221652,2,0,P|55:150|67:101,1,86.2500032901765,0|0,0:0|0:0,0:0:0:0:
12,60,221803,6,0,P|35:43|67:40,1,57.5,8|0,0:0|0:0,0:0:0:0:
93,47,221954,2,0,P|116:63|129:93,1,57.5,0|0,0:0|0:0,0:0:0:0:
123,273,222105,6,0,L|110:341,1,57.5,2|0,0:0|0:0,0:0:0:0:
117,339,222406,6,0,L|152:146,1,172.500006580353,8|0,0:0|0:0,0:0:0:0:
204,107,222632,1,0,0:0:0:0:
213,99,222708,2,0,L|208:6,1,86.2500032901765,2|0,0:0|0:0,0:0:0:0:
281,154,222858,2,0,L|349:165,2,57.5,0|0|8,0:0|0:0|0:0,0:0:0:0:
469,320,223160,5,0,0:0:0:0:
471,333,223235,1,0,0:0:0:0:
473,345,223311,2,0,L|391:332,1,46,0|0,0:0|0:0,0:0:0:0:
286,229,223461,1,0,0:0:0:0:
302,235,223537,1,0,0:0:0:0:
322,237,223612,6,0,L|509:221,1,172.500006580353,12|0,0:0|0:0,0:0:0:0:
472,27,223838,1,0,0:0:0:0:
440,62,223914,1,2,0:0:0:0:
395,74,223989,1,0,0:0:0:0:
349,60,224064,2,0,L|332:176,1,86.2500032901765,0|0,0:0|0:0,0:0:0:0:
282,285,224215,1,8,0:0:0:0:
298,296,224290,2,0,L|307:395,1,57.5,0|0,0:0|0:0,0:0:0:0:
389,205,224441,1,0,0:0:0:0:
389,205,224517,2,0,B|363:224|363:224|309:216,1,86.2500032901765,2|0,0:0|0:0,0:0:0:0:
21,285,224667,2,0,B|46:265|46:265|101:274,1,86.2500032901765,0|0,0:0|0:0,0:0:0:0:
211,343,224818,6,0,L|197:158,1,172.500006580353,8|0,0:0|0:0,0:0:0:0:
84,77,225044,1,0,0:0:0:0:
109,71,225120,1,2,0:0:0:0:
132,56,225195,1,0,0:0:0:0:
144,34,225270,2,0,L|132:145,1,86.2500032901765,0|0,0:0|0:0,0:0:0:0:
257,89,225421,1,8,0:0:0:0:
316,51,225496,2,0,L|222:211,1,172.500006580353,0|0,0:0|0:0,0:0:0:0:
412,190,225723,1,2,0:0:0:0:
412,190,225798,1,0,0:0:0:0:
412,190,225873,2,0,L|326:256,1,86.2500032901765,0|0,0:0|0:0,0:0:0:0:
223,300,226024,6,0,B|283:294|283:294|324:321|324:321|386:314,1,172.500006580353,4|0,0:0|0:0,0:0:0:0:
163,356,226250,1,0,0:0:0:0:
144,365,226326,2,0,P|109:370|61:342,1,86.2500032901765,2|0,0:0|0:0,0:0:0:0:
13,212,226476,2,0,P|8:177|36:129,1,86.2500032901765,0|0,0:0|0:0,0:0:0:0:
129,79,226627,1,8,0:0:0:0:
97,13,226703,2,0,L|80:196,1,172.500006580353,0|0,0:0|0:0,0:0:0:0:
113,258,226929,2,0,L|122:327,1,40.2499987716675,2|0,0:0|0:0,0:0:0:0:
246,308,227079,2,0,L|233:398,1,57.5,0|0,0:0|0:0,0:0:0:0:
422,352,227230,6,0,B|521:341|521:341|404:325,1,172.500006580353,8|0,0:0|0:0,0:0:0:0:
346,309,227456,1,0,0:0:0:0:
331,320,227532,2,0,L|230:305,1,86.2500032901765,2|0,0:0|0:0,0:0:0:0:
173,200,227682,2,0,P|200:188|240:196,1,57.5,0|0,0:0|0:0,0:0:0:0:
481,209,227833,5,8,0:0:0:0:
444,241,227909,1,0,0:0:0:0:
394,251,227984,1,0,0:0:0:0:
343,233,228059,1,0,0:0:0:0:
301,169,228135,5,2,0:0:0:0:
304,114,228210,1,0,0:0:0:0:
334,72,228285,1,0,0:0:0:0:
378,52,228361,1,0,0:0:0:0:
397,150,228436,5,8,0:0:0:0:
342,336,228587,1,0,0:0:0:0:
204,188,228738,1,2,0:0:0:0:
204,188,228888,1,0,0:0:0:0:
396,250,229039,5,8,0:0:0:0:
115,200,229190,1,0,0:0:0:0:
321,114,229341,1,2,0:0:0:0:
255,359,229491,1,0,0:0:0:0:
121,63,229642,5,8,0:0:0:0:
63,338,229793,1,8,0:0:0:0:
321,114,229944,1,2,0:0:0:0:
321,114,230094,1,0,0:0:0:0:
46,194,230245,5,8,0:0:0:0:
269,362,230396,1,0,0:0:0:0:
232,61,230547,1,2,0:0:0:0:
153,379,230698,1,0,0:0:0:0:
500,228,230848,5,8,0:0:0:0:
453,213,230923,1,0,0:0:0:0:
406,216,230998,1,0,0:0:0:0:
364,238,231074,1,0,0:0:0:0:
333,273,231149,1,2,0:0:0:0:
292,290,231224,1,0,0:0:0:0:
249,289,231300,1,0,0:0:0:0:
203,274,231375,1,0,0:0:0:0:
121,314,231451,5,8,0:0:0:0:
132,303,231527,2,0,L|123:230,1,57.5,0|0,0:0|0:0,0:0:0:0:
192,40,231677,1,0,0:0:0:0:
203,51,231753,2,0,L|194:124,1,57.5,2|0,0:0|0:0,0:0:0:0:
299,211,231904,1,0,0:0:0:0:
310,200,231979,1,0,0:0:0:0:
321,189,232054,6,0,L|302:363,1,149.499993156433,12|0,0:0|0:0,0:0:0:0:
287,343,232280,2,0,P|360:321|426:381,1,149.499993156433,0|0,0:0|0:0,0:0:0:0:
422,377,232507,1,0,0:0:0:0:
407,182,232657,2,0,L|402:109,1,57.5,0|0,0:0|0:0,0:0:0:0:
365,51,232959,6,0,P|393:84|397:164,1,86.2500032901765,8|0,0:0|0:0,0:0:0:0:
309,130,233110,2,0,P|276:102|235:90,1,86.2500032901765,8|0,0:0|0:0,0:0:0:0:
63,222,233260,6,0,B|34:133|34:133|168:112|110:209|260:169,1,310.499990524292,8|0,0:0|0:0,0:0:0:0:
448,58,233562,1,2,0:0:0:0:
451,46,233637,1,0,0:0:0:0:
454,34,233713,2,0,P|475:66|479:137,1,103.499996841431,0|0,0:0|0:0,0:0:0:0:
296,285,233863,2,0,P|347:284|392:259,1,103.499996841431,8|0,0:0|0:0,0:0:0:0:
365,51,234014,6,0,P|334:38|356:62,1,86.25,0|0,0:0|0:0,0:0:0:0:
365,51,234316,2,0,P|302:36|245:66,1,103.499996841431,0|0,0:0|0:0,0:0:0:0:
153,241,234466,6,0,B|157:186|157:186|145:119,1,103.499996841431,8|0,0:0|0:0,0:0:0:0:
143,35,234617,2,0,B|139:90|139:90|151:157,1,103.499996841431,0|0,0:0|0:0,0:0:0:0:
296,285,234768,2,0,B|320:254|363:255|363:255|298:155|185:235|200:308|263:357,1,310.499990524292,2|0,0:0|0:0,0:0:0:0:
359,333,235069,6,0,B|403:329|403:329|407:324|407:324|411:328|411:328|480:323,2,103.499996841431,8|0|0,0:0|0:0|0:0,0:0:0:0:
58,353,235295,1,0,0:0:0:0:
52,356,235371,2,0,B|99:352|99:352|103:356|103:356|107:351|107:351|151:347,1,103.499996841431,2|0,0:0|0:0,0:0:0:0:
332,195,235522,2,0,P|299:234|296:285,1,103.499996841431,0|0,0:0|0:0,0:0:0:0:
153,241,235672,6,0,B|177:213|224:219|224:219|115:128|125:304|-19:204,1,310.499990524292,8|0,0:0|0:0,0:0:0:0:
132,113,235974,1,2,0:0:0:0:
137,121,236049,1,0,0:0:0:0:
142,129,236125,1,0,0:0:0:0:
147,137,236200,1,0,0:0:0:0:
216,181,236275,2,0,P|229:131|196:69,1,103.499996841431,8|0,0:0|0:0,0:0:0:0:
26,26,236426,6,0,P|14:69|43:124,1,86.25,0|0,0:0|0:0,0:0:0:0:
27,107,236728,2,0,L|217:112,1,103.499996841431,0|0,0:0|0:0,0:0:0:0:
312,176,236878,6,0,P|262:163|200:196,1,103.499996841431,8|0,0:0|0:0,0:0:0:0:
375,348,237029,2,0,P|397:302|389:252,1,103.499996841431,0|0,0:0|0:0,0:0:0:0:
237,300,237180,2,0,B|277:302|310:259|310:259|261:348|148:331|116:236,1,310.499990524292,2|0,0:0|0:0,0:0:0:0:
130,109,237481,6,0,B|172:72|251:99,2,103.499996841431,8|0|0,0:0|0:0|0:0,0:0:0:0:
20,302,237707,1,0,0:0:0:0:
24,308,237783,2,0,B|20:261|20:261|22:252|22:252|17:176,1,103.499996841431,2|0,0:0|0:0,0:0:0:0:
86,37,237934,2,0,P|53:76|50:127,1,103.499996841431,0|0,0:0|0:0,0:0:0:0:
212,226,238084,6,0,B|125:191|125:191|114:256|144:289|144:289|140:300|140:300|151:297|151:297|188:340|279:320,1,310.499990524292,8|0,0:0|0:0,0:0:0:0:
381,220,238386,1,2,0:0:0:0:
376,212,238461,1,0,0:0:0:0:
371,204,238537,1,0,0:0:0:0:
366,196,238612,1,0,0:0:0:0:
297,152,238687,2,0,P|284:202|317:264,1,103.499996841431,8|0,0:0|0:0,0:0:0:0:
148,336,238838,6,0,P|192:324|247:329,1,86.25,0|0,0:0|0:0,0:0:0:0:
232,325,239140,2,0,P|191:311|82:348,1,103.499996841431,0|0,0:0|0:0,0:0:0:0:
14,238,239290,6,0,P|64:225|126:258,1,103.499996841431,8|0,0:0|0:0,0:0:0:0:
135,146,239441,2,0,P|179:172|198:240,1,103.499996841431,0|0,0:0|0:0,0:0:0:0:
301,356,239592,2,0,B|368:324|368:324|107:315,1,310.499990524292,2|0,0:0|0:0,0:0:0:0:
315,236,239893,6,0,B|436:210,2,103.499996841431,8|0|0,0:0|0:0|0:0,0:0:0:0:
135,146,240120,1,0,0:0:0:0:
130,137,240195,2,0,B|231:158,1,103.499996841431,2|0,0:0|0:0,0:0:0:0:
353,60,240346,2,0,P|320:99|317:150,1,103.499996841431,0|0,0:0|0:0,0:0:0:0:
466,334,240496,6,0,L|363:321,1,103.499996841431,8|0,0:0|0:0,0:0:0:0:
181,294,240647,1,0,0:0:0:0:
466,308,240798,2,0,L|363:320,1,103.499996841431,2|0,0:0|0:0,0:0:0:0:
120,355,240949,1,0,0:0:0:0:
363,320,241100,1,8,0:0:0:0:
100,140,241250,2,0,L|86:294,1,103.499996841431,0|0,0:0|0:0,0:0:0:0:
112,123,241401,2,0,L|98:277,1,103.499996841431,2|0,0:0|0:0,0:0:0:0:
273,355,241552,2,0,L|263:251,1,103.499996841431,0|0,0:0|0:0,0:0:0:0:
252,61,241703,6,0,L|249:24,12,25.8749992103577,8|0|0|0|0|0|0|0|0|0|0|0|0,0:0|0:0|0:0|0:0|0:0|0:0|0:0|0:0|0:0|0:0|0:0|0:0|0:0,0:0:0:0:
311,100,242004,2,0,P|260:132|185:67,1,103.499996841431,2|0,0:0|0:0,0:0:0:0:
88,32,242155,2,0,P|120:83|55:158,1,103.499996841431,0|0,0:0|0:0,0:0:0:0:
179,215,242306,2,0,L|175:271,6,51.7499984207154,8|0|0|0|0|0|0,0:0|0:1|0:1|0:1|0:1|0:1|0:1,0:0:0:0:
90,238,242607,2,0,L|91:263,12,25.8749992103577,2|0|0|0|0|0|0|0|0|0|0|0|0,0:1|0:1|0:1|0:1|0:1|0:1|0:1|0:1|0:1|0:1|0:1|0:1|0:1,0:0:0:0:
18,300,242909,6,0,B|168:387|169:235|325:308,1,310.499990524292,8|0,0:0|0:0,0:0:0:0:
450,284,243211,1,2,0:0:0:0:
462,281,243286,1,0,0:0:0:0:
474,278,243362,2,0,P|442:257|371:253,1,103.499996841431,0|0,0:0|0:0,0:0:0:0:
255,194,243512,2,0,P|306:193|351:168,1,103.499996841431,8|0,0:0|0:0,0:0:0:0:
452,80,243662,6,0,L|440:169,1,86.25,0|0,0:0|0:0,0:0:0:0:
446,76,243964,2,0,L|434:165,1,86.25,0|0,0:0|0:0,0:0:0:0:
252,294,244115,6,0,B|279:235|244:172,1,103.499996841431,8|0,0:0|0:0,0:0:0:0:
353,67,244265,2,0,B|326:126|361:189,1,103.499996841431,0|0,0:0|0:0,0:0:0:0:
192,149,244417,2,0,B|216:118|259:119|259:119|194:19|81:99|96:172|159:221,1,310.499990524292,2|0,0:0|0:0,0:0:0:0:
252,294,244718,6,0,B|288:307|288:307|372:289,2,103.499996841431,8|0|0,0:0|0:0|0:0,0:0:0:0:
70,268,244944,1,0,0:0:0:0:
64,271,245020,2,0,B|190:258,1,103.499996841431,2|0,0:0|0:0,0:0:0:0:
310,383,245170,2,0,B|207:372,1,103.499996841431,0|0,0:0|0:0,0:0:0:0:
64,271,245321,6,0,B|17:232|22:177|22:177|-3:313|115:343,1,310.499990524292,8|0,0:0|0:0,0:0:0:0:
284,222,245622,1,2,0:0:0:0:
281,210,245697,1,0,0:0:0:0:
278,198,245773,2,0,P|257:230|253:301,1,103.499996841431,0|0,0:0|0:0,0:0:0:0:
350,293,245923,2,0,P|395:268|447:267,1,103.499996841431,8|0,0:0|0:0,0:0:0:0:
364,99,246074,6,0,P|352:142|381:197,1,86.25,0|0,0:0|0:0,0:0:0:0:
375,61,246377,2,0,P|341:144|347:189,1,103.499996841431,0|0,0:0|0:0,0:0:0:0:
202,226,246527,6,0,L|209:116,1,103.499996841431,8|0,0:0|0:0,0:0:0:0:
215,19,246677,2,0,L|208:122,1,103.499996841431,0|0,0:0|0:0,0:0:0:0:
237,300,246829,2,0,B|277:302|310:259|310:259|261:348|148:331|116:236,1,310.499990524292,2|0,0:0|0:0,0:0:0:0:
106,116,247130,6,0,B|118:7,2,103.499996841431,8|0|0,0:0|0:0|0:0,0:0:0:0:
43,300,247356,1,0,0:0:0:0:
38,310,247431,2,0,B|26:207,1,103.499996841431,2|0,0:0|0:0,0:0:0:0:
124,9,247582,2,0,B|113:112,1,103.499996841431,0|0,0:0|0:0,0:0:0:0:
225,242,247733,5,8,0:0:0:0:
269,285,247808,1,0,0:0:0:0:
330,286,247883,1,0,0:0:0:0:
379,248,247959,1,0,0:0:0:0:
393,188,248034,6,0,L|375:49,1,103.499996841431,2|0,0:0|0:0,0:0:0:0:
242,43,248185,2,0,L|255:145,1,103.499996841431,0|0,0:0|0:0,0:0:0:0:
398,188,248336,2,0,L|380:49,1,103.499996841431,8|0,0:0|0:0,0:0:0:0:
237,43,248487,2,0,L|250:145,1,103.499996841431,0|0,0:0|0:0,0:0:0:0:
403,188,248637,2,0,L|385:49,1,103.499996841431,2|0,0:0|0:0,0:0:0:0:
232,43,248788,2,0,L|245:145,1,103.499996841431,0|0,0:0|0:0,0:0:0:0:
464,50,248939,5,8,0:0:0:0:
420,7,249014,1,0,0:0:0:0:
359,6,249089,1,0,0:0:0:0:
310,44,249165,1,0,0:0:0:0:
289,102,249240,5,2,0:0:0:0:
245,145,249315,1,0,0:0:0:0:
184,146,249390,1,0,0:0:0:0:
135,108,249466,1,0,0:0:0:0:
112,49,249542,6,0,L|119:193,1,103.499996841431,8|0,0:0|0:0,0:0:0:0:
175,327,249692,2,0,L|169:223,1,103.499996841431,0|0,0:0|0:0,0:0:0:0:
110,44,249843,2,0,L|117:188,1,103.499996841431,2|0,0:0|0:0,0:0:0:0:
177,332,249993,2,0,L|171:228,1,103.499996841431,0|0,0:0|0:0,0:0:0:0:
30,169,250145,6,0,L|62:209,7,51.7499984207154,8|0|0|0|0|0|0|0,0:0|0:0|0:0|0:0|0:0|0:0|0:0|0:0,0:0:0:0:
8,259,250446,2,0,L|78:295,7,51.7499984207154,2|0|0|0|0|0|0|0,0:0|0:0|0:0|0:0|0:0|0:0|0:0|0:0,0:0:0:0:
34,356,250748,2,0,L|96:351,6,51.7499984207154,8|0|0|0|0|0|0,0:0|0:0|0:0|0:0|0:0|0:0|0:0,0:0:0:0:
222,317,251049,1,2,0:0:0:0:
248,248,251125,1,0,0:0:0:0:
235,177,251200,1,0,0:0:0:0:
183,126,251275,1,0,0:0:0:0:
98,137,251351,6,0,P|80:159|110:146,1,86.25,12|8,0:0|0:0,0:0:0:0:
48,51,252557,6,0,P|109:108|193:105,2,172.5,10|0|0,0:0|0:0|0:0,0:0:0:0:
193,105,253612,1,0,0:0:0:0:
191,118,253662,1,0,0:0:0:0:
188,131,253713,1,0,0:0:0:0:
186,144,253763,6,0,B|283:134|241:206|352:191,2,172.5,0|0|0,0:0|0:0|0:0,0:0:0:0:
344,191,254818,1,0,0:0:0:0:
341,203,254868,1,0,0:0:0:0:
338,216,254919,1,0,0:0:0:0:
335,228,254969,6,0,P|393:289|374:369,2,172.5,0|0|0,0:0|0:0|0:0,0:0:0:0:
335,228,255974,2,0,P|316:231|298:237,1,38.3333333333333,0|0,0:0|0:0,0:0:0:0:
247,306,256175,6,0,P|191:296|143:265,1,115,0|0,0:0|0:0,0:0:0:0:
162,67,256627,2,0,P|181:120|179:177,1,115,0|0,0:0|0:0,0:0:0:0:
0,261,257079,2,0,P|26:227|61:202,1,86.25,0|0,0:0|0:0,0:0:0:0:
61,202,257381,6,0,P|64:118|11:52,2,172.5,0|0|0,0:0|0:0|0:0,0:0:0:0:
11,52,258436,1,0,0:0:0:0:
223,250,258587,6,0,P|267:178|254:95,2,172.5,0|0|0,0:0|0:0|0:0,0:0:0:0:
254,95,259642,1,0,0:0:0:0:
339,371,259793,6,0,P|413:331|443:252,5,172.5,0|0|0|0|0|0,0:0|0:0|0:0|0:0|0:0|0:0,0:0:0:0:
268,82,262205,6,0,P|307:158|320:243,2,172.5,0|0|0,0:0|0:0|0:0,0:0:0:0:
195,242,263260,1,0,0:0:0:0:
191,228,263311,1,0,0:0:0:0:
187,215,263361,1,0,0:0:0:0:
183,202,263411,6,0,P|144:278|131:363,2,172.5,0|0|0,0:0|0:0|0:0,0:0:0:0:
36,53,264466,1,0,0:0:0:0:
24,48,264517,1,0,0:0:0:0:
12,43,264567,1,0,0:0:0:0:
0,38,264617,6,0,P|38:114|51:199,2,172.5,0|0|0,0:0|0:0|0:0,0:0:0:0:
0,38,265622,2,0,P|13:24|30:16,1,38.3333333333333,0|0,0:0|0:0,0:0:0:0:
123,53,265823,6,0,P|159:95|215:98,1,115,0|0,0:0|0:0,0:0:0:0:
290,178,266275,2,0,P|326:135|382:132,1,115,0|0,0:0|0:0,0:0:0:0:
470,88,266728,2,0,P|491:68|501:41,1,57.5,0|0,0:0|0:0,0:0:0:0:
382,132,267029,6,0,L|414:301,2,172.5,0|0|0,0:0|0:0|0:0,0:0:0:0:
414,301,268084,1,0,0:0:0:0:
225,194,268235,6,0,L|257:24,2,172.5,0|0|0,0:0|0:0|0:0,0:0:0:0:
257,24,269290,1,0,0:0:0:0:
68,132,269441,6,0,L|87:245,1,115,0|0,0:0|0:0,0:0:0:0:
169,277,269893,6,0,L|150:164,1,115,0|0,0:0|0:0,0:0:0:0:
265,67,270346,6,0,L|284:180,1,115,0|0,0:0|0:0,0:0:0:0:
483,364,270798,6,0,L|464:251,1,115,0|0,0:0|0:0,0:0:0:0:
248,318,271250,6,0,P|246:290|257:263,1,57.5,0|0,0:0|0:0,0:0:0:0:
461,129,271552,2,0,P|437:145|409:149,1,57.5,0|0,0:0|0:0,0:0:0:0:
190,40,271853,5,0,0:0:0:0:
